  0
SECTION
  2
HEADER
  9
$ACADVER
  1
AC1015
  9
$ACADMAINTVER
 70
     6
  9
$DWGCODEPAGE
  3
ANSI_949
  9
$INSBASE
 10
0.0
 20
0.0
 30
0.0
  9
$EXTMIN
 10
-94.99269435893348
 20
-49.97073246008785
 30
0.0
  9
$EXTMAX
 10
138.7765871375425
 20
35.16341044024269
 30
0.0
  9
$LIMMIN
 10
0.0
 20
0.0
  9
$LIMMAX
 10
420.0
 20
297.0
  9
$ORTHOMODE
 70
     0
  9
$REGENMODE
 70
     1
  9
$FILLMODE
 70
     1
  9
$QTEXTMODE
 70
     0
  9
$MIRRTEXT
 70
     1
  9
$LTSCALE
 40
1.0
  9
$ATTMODE
 70
     1
  9
$TEXTSIZE
 40
3.5
  9
$TRACEWID
 40
1.0
  9
$TEXTSTYLE
  7
Standard
  9
$CLAYER
  8
0
  9
$CELTYPE
  6
ByLayer
  9
$CECOLOR
 62
   256
  9
$CELTSCALE
 40
1.0
  9
$DISPSILH
 70
     0
  9
$DIMSCALE
 40
1.0
  9
$DIMASZ
 40
3.302
  9
$DIMEXO
 40
1.0
  9
$DIMDLI
 40
3.75
  9
$DIMRND
 40
0.0
  9
$DIMDLE
 40
0.0
  9
$DIMEXE
 40
1.0
  9
$DIMTP
 40
0.0
  9
$DIMTM
 40
0.0
  9
$DIMTXT
 40
3.5
  9
$DIMCEN
 40
2.5
  9
$DIMTSZ
 40
0.0
  9
$DIMTOL
 70
     0
  9
$DIMLIM
 70
     0
  9
$DIMTIH
 70
     1
  9
$DIMTOH
 70
     1
  9
$DIMSE1
 70
     0
  9
$DIMSE2
 70
     0
  9
$DIMTAD
 70
     1
  9
$DIMZIN
 70
     0
  9
$DIMBLK
  1

  9
$DIMASO
 70
     1
  9
$DIMSHO
 70
     1
  9
$DIMPOST
  1

  9
$DIMAPOST
  1

  9
$DIMALT
 70
     0
  9
$DIMALTD
 70
     3
  9
$DIMALTF
 40
0.0393700787401575
  9
$DIMLFAC
 40
1.0
  9
$DIMTOFL
 70
     1
  9
$DIMTVP
 40
0.0
  9
$DIMTIX
 70
     0
  9
$DIMSOXD
 70
     0
  9
$DIMSAH
 70
     0
  9
$DIMBLK1
  1

  9
$DIMBLK2
  1

  9
$DIMSTYLE
  2
ISO-25
  9
$DIMCLRD
 70
     0
  9
$DIMCLRE
 70
     0
  9
$DIMCLRT
 70
     0
  9
$DIMTFAC
 40
1.0
  9
$DIMGAP
 40
1.524
  9
$DIMJUST
 70
     0
  9
$DIMSD1
 70
     0
  9
$DIMSD2
 70
     0
  9
$DIMTOLJ
 70
     0
  9
$DIMTZIN
 70
     0
  9
$DIMALTZ
 70
     0
  9
$DIMALTTZ
 70
     0
  9
$DIMUPT
 70
     0
  9
$DIMDEC
 70
     2
  9
$DIMTDEC
 70
     2
  9
$DIMALTU
 70
     2
  9
$DIMALTTD
 70
     3
  9
$DIMTXSTY
  7
Standard
  9
$DIMAUNIT
 70
     0
  9
$DIMADEC
 70
     2
  9
$DIMALTRND
 40
0.0
  9
$DIMAZIN
 70
     0
  9
$DIMDSEP
 70
    44
  9
$DIMATFIT
 70
     3
  9
$DIMFRAC
 70
     0
  9
$DIMLDRBLK
  1

  9
$DIMLUNIT
 70
     2
  9
$DIMLWD
 70
    -2
  9
$DIMLWE
 70
    -2
  9
$DIMTMOVE
 70
     0
  9
$LUNITS
 70
     2
  9
$LUPREC
 70
     2
  9
$SKETCHINC
 40
1.0
  9
$FILLETRAD
 40
10.0
  9
$AUNITS
 70
     0
  9
$AUPREC
 70
     2
  9
$MENU
  1
.
  9
$ELEVATION
 40
0.0
  9
$PELEVATION
 40
0.0
  9
$THICKNESS
 40
0.0
  9
$LIMCHECK
 70
     0
  9
$CHAMFERA
 40
0.0
  9
$CHAMFERB
 40
0.0
  9
$CHAMFERC
 40
0.0
  9
$CHAMFERD
 40
0.0
  9
$SKPOLY
 70
     0
  9
$TDCREATE
 40
2458262.552618484
  9
$TDUCREATE
 40
2458262.177618484
  9
$TDUPDATE
 40
2458266.627202257
  9
$TDUUPDATE
 40
2458266.252202257
  9
$TDINDWG
 40
0.0018838657
  9
$TDUSRTIMER
 40
2458266.250318437
  9
$USRTIMER
 70
     1
  9
$ANGBASE
 50
0.0
  9
$ANGDIR
 70
     0
  9
$PDMODE
 70
     0
  9
$PDSIZE
 40
-1.0
  9
$PLINEWID
 40
0.0
  9
$SPLFRAME
 70
     0
  9
$SPLINETYPE
 70
     6
  9
$SPLINESEGS
 70
     8
  9
$HANDSEED
  5
14D
  9
$SURFTAB1
 70
     6
  9
$SURFTAB2
 70
     6
  9
$SURFTYPE
 70
     6
  9
$SURFU
 70
     6
  9
$SURFV
 70
     6
  9
$UCSBASE
  2

  9
$UCSNAME
  2

  9
$UCSORG
 10
0.0
 20
0.0
 30
0.0
  9
$UCSXDIR
 10
1.0
 20
0.0
 30
0.0
  9
$UCSYDIR
 10
0.0
 20
1.0
 30
0.0
  9
$UCSORTHOREF
  2

  9
$UCSORTHOVIEW
 70
     0
  9
$UCSORGTOP
 10
0.0
 20
0.0
 30
0.0
  9
$UCSORGBOTTOM
 10
0.0
 20
0.0
 30
0.0
  9
$UCSORGLEFT
 10
0.0
 20
0.0
 30
0.0
  9
$UCSORGRIGHT
 10
0.0
 20
0.0
 30
0.0
  9
$UCSORGFRONT
 10
0.0
 20
0.0
 30
0.0
  9
$UCSORGBACK
 10
0.0
 20
0.0
 30
0.0
  9
$PUCSBASE
  2

  9
$PUCSNAME
  2

  9
$PUCSORG
 10
0.0
 20
0.0
 30
0.0
  9
$PUCSXDIR
 10
1.0
 20
0.0
 30
0.0
  9
$PUCSYDIR
 10
0.0
 20
1.0
 30
0.0
  9
$PUCSORTHOREF
  2

  9
$PUCSORTHOVIEW
 70
     0
  9
$PUCSORGTOP
 10
0.0
 20
0.0
 30
0.0
  9
$PUCSORGBOTTOM
 10
0.0
 20
0.0
 30
0.0
  9
$PUCSORGLEFT
 10
0.0
 20
0.0
 30
0.0
  9
$PUCSORGRIGHT
 10
0.0
 20
0.0
 30
0.0
  9
$PUCSORGFRONT
 10
0.0
 20
0.0
 30
0.0
  9
$PUCSORGBACK
 10
0.0
 20
0.0
 30
0.0
  9
$USERI1
 70
     0
  9
$USERI2
 70
     0
  9
$USERI3
 70
     0
  9
$USERI4
 70
     0
  9
$USERI5
 70
     0
  9
$USERR1
 40
0.0
  9
$USERR2
 40
0.0
  9
$USERR3
 40
0.0
  9
$USERR4
 40
0.0
  9
$USERR5
 40
0.0
  9
$WORLDVIEW
 70
     1
  9
$SHADEDGE
 70
     3
  9
$SHADEDIF
 70
    70
  9
$TILEMODE
 70
     1
  9
$MAXACTVP
 70
    64
  9
$PINSBASE
 10
0.0
 20
0.0
 30
0.0
  9
$PLIMCHECK
 70
     0
  9
$PEXTMIN
 10
1.000000000000000E+20
 20
1.000000000000000E+20
 30
1.000000000000000E+20
  9
$PEXTMAX
 10
-1.000000000000000E+20
 20
-1.000000000000000E+20
 30
-1.000000000000000E+20
  9
$PLIMMIN
 10
0.0
 20
0.0
  9
$PLIMMAX
 10
0.0
 20
0.0
  9
$UNITMODE
 70
     0
  9
$VISRETAIN
 70
     1
  9
$PLINEGEN
 70
     0
  9
$PSLTSCALE
 70
     1
  9
$TREEDEPTH
 70
  3020
  9
$CMLSTYLE
  2
Standard
  9
$CMLJUST
 70
     0
  9
$CMLSCALE
 40
20.0
  9
$PROXYGRAPHICS
 70
     1
  9
$MEASUREMENT
 70
     1
  9
$CELWEIGHT
370
    -1
  9
$ENDCAPS
280
     0
  9
$JOINSTYLE
280
     0
  9
$LWDISPLAY
290
     1
  9
$INSUNITS
 70
     4
  9
$HYPERLINKBASE
  1

  9
$STYLESHEET
  1

  9
$XEDIT
290
     1
  9
$CEPSNTYPE
380
     0
  9
$PSTYLEMODE
290
     1
  9
$FINGERPRINTGUID
  2
{BC8E35A1-3A2A-463D-8CC5-76E6037518CD}
  9
$VERSIONGUID
  2
{FAEB1C32-E019-11D5-929B-00C0DF256EC4}
  9
$EXTNAMES
290
     1
  9
$PSVPSCALE
 40
0.0
  9
$OLESTARTUP
290
     0
  0
ENDSEC
  0
SECTION
  2
CLASSES
  0
CLASS
  1
ACDBDICTIONARYWDFLT
  2
AcDbDictionaryWithDefault
  3
ObjectDBX Classes
 90
        0
280
     0
281
     0
  0
CLASS
  1
VISUALSTYLE
  2
AcDbVisualStyle
  3
ObjectDBX Classes
 90
     4095
280
     0
281
     0
  0
CLASS
  1
MATERIAL
  2
AcDbMaterial
  3
ObjectDBX Classes
 90
     1153
280
     0
281
     0
  0
CLASS
  1
SCALE
  2
AcDbScale
  3
ObjectDBX Classes
 90
     1153
280
     0
281
     0
  0
CLASS
  1
SUN
  2
AcDbSun
  3
SCENEOE
 90
     1153
280
     0
281
     0
  0
CLASS
  1
ACDBPLACEHOLDER
  2
AcDbPlaceHolder
  3
ObjectDBX Classes
 90
        0
280
     0
281
     0
  0
CLASS
  1
LAYOUT
  2
AcDbLayout
  3
ObjectDBX Classes
 90
        0
280
     0
281
     0
  0
CLASS
  1
TABLESTYLE
  2
AcDbTableStyle
  3
ObjectDBX Classes
 90
     4095
280
     0
281
     0
  0
CLASS
  1
MLEADERSTYLE
  2
AcDbMLeaderStyle
  3
ACDB_MLEADERSTYLE_CLASS
 90
     4095
280
     0
281
     0
  0
CLASS
  1
RASTERVARIABLES
  2
AcDbRasterVariables
  3
ISM
 90
        0
280
     0
281
     0
  0
ENDSEC
  0
SECTION
  2
TABLES
  0
TABLE
  2
VPORT
  5
8
330
0
100
AcDbSymbolTable
 70
     1
  0
VPORT
  5
29
330
8
100
AcDbSymbolTableRecord
100
AcDbViewportTableRecord
  2
*Active
 70
     0
 10
0.0
 20
0.0
 11
1.0
 21
1.0
 12
21.89194638930452
 22
-7.40366100992258
 13
0.0
 23
0.0
 14
10.0
 24
10.0
 15
10.0
 25
10.0
 16
0.0
 26
0.0
 36
1.0
 17
0.0
 27
0.0
 37
0.0
 40
206.9015385155134
 41
1.152454780361757
 42
50.0
 43
0.0
 44
0.0
 50
0.0
 51
0.0
 71
    16
 72
  2000
 73
     1
 74
     3
 75
     0
 76
     0
 77
     0
 78
     0
281
     0
 65
     1
110
0.0
120
0.0
130
0.0
111
1.0
121
0.0
131
0.0
112
0.0
122
1.0
132
0.0
 79
     0
146
0.0
  0
ENDTAB
  0
TABLE
  2
LTYPE
  5
5
330
0
100
AcDbSymbolTable
 70
     6
  0
LTYPE
  5
14
330
5
100
AcDbSymbolTableRecord
100
AcDbLinetypeTableRecord
  2
ByBlock
 70
     0
  3

 72
    65
 73
     0
 40
0.0
  0
LTYPE
  5
15
330
5
100
AcDbSymbolTableRecord
100
AcDbLinetypeTableRecord
  2
ByLayer
 70
     0
  3

 72
    65
 73
     0
 40
0.0
  0
LTYPE
  5
16
330
5
100
AcDbSymbolTableRecord
100
AcDbLinetypeTableRecord
  2
Continuous
 70
     0
  3
Solid line
 72
    65
 73
     0
 40
0.0
  0
LTYPE
  5
6A
330
5
100
AcDbSymbolTableRecord
100
AcDbLinetypeTableRecord
  2
HIDDEN
 70
     0
  3
Hidden __ __ __ __ __ __ __ __ __ __ __ __ __ __
 72
    65
 73
     2
 40
1.905
 49
1.27
 74
     0
 49
-0.635
 74
     0
  0
LTYPE
  5
6B
330
5
100
AcDbSymbolTableRecord
100
AcDbLinetypeTableRecord
  2
PHANTOM
 70
     0
  3
Phantom ______  __  __  ______  __  __  ______
 72
    65
 73
     6
 40
12.7
 49
6.35
 74
     0
 49
-1.27
 74
     0
 49
1.27
 74
     0
 49
-1.27
 74
     0
 49
1.27
 74
     0
 49
-1.27
 74
     0
  0
LTYPE
  5
6C
330
5
100
AcDbSymbolTableRecord
100
AcDbLinetypeTableRecord
  2
CENTER
 70
     0
  3
Center ____ _ ____ _ ____ _ ____ _ ____ _ ____
 72
    65
 73
     4
 40
10.16
 49
6.35
 74
     0
 49
-1.27
 74
     0
 49
1.27
 74
     0
 49
-1.27
 74
     0
  0
LTYPE
  5
6D
330
5
100
AcDbSymbolTableRecord
100
AcDbLinetypeTableRecord
  2
CENTERX2
 70
     0
  3
Center (2x) ________  __  ________  __  _____
 72
    65
 73
     4
 40
20.32
 49
12.7
 74
     0
 49
-2.54
 74
     0
 49
2.54
 74
     0
 49
-2.54
 74
     0
  0
LTYPE
  5
6E
330
5
100
AcDbSymbolTableRecord
100
AcDbLinetypeTableRecord
  2
DOT2
 70
     0
  3
Dot (.5x) ........................................
 72
    65
 73
     2
 40
0.635
 49
0.0
 74
     0
 49
-0.635
 74
     0
  0
ENDTAB
  0
TABLE
  2
LAYER
  5
2
330
0
100
AcDbSymbolTable
 70
    17
  0
LAYER
  5
10
330
2
100
AcDbSymbolTableRecord
100
AcDbLayerTableRecord
  2
0
 70
     0
 62
     7
  6
Continuous
370
    -3
390
F
  0
LAYER
  5
6F
330
2
100
AcDbSymbolTableRecord
100
AcDbLayerTableRecord
  2
FORMAT
 70
     0
 62
     2
  6
Continuous
370
    -3
390
F
  0
LAYER
  5
70
330
2
100
AcDbSymbolTableRecord
100
AcDbLayerTableRecord
  2
외형선
 70
     0
 62
   100
  6
Continuous
370
    30
390
F
  0
LAYER
  5
71
330
2
100
AcDbSymbolTableRecord
100
AcDbLayerTableRecord
  2
숨은선
 70
     0
 62
     2
  6
HIDDEN
370
    15
390
F
  0
LAYER
  5
72
330
2
100
AcDbSymbolTableRecord
100
AcDbLayerTableRecord
  2
중심선
 70
     0
 62
     1
  6
CENTERX2
370
    -3
390
F
  0
LAYER
  5
73
330
2
100
AcDbSymbolTableRecord
100
AcDbLayerTableRecord
  2
파단선
 70
     0
 62
     4
  6
Continuous
370
    -3
390
F
  0
LAYER
  5
74
330
2
100
AcDbSymbolTableRecord
100
AcDbLayerTableRecord
  2
해칭선
 70
     0
 62
     4
  6
Continuous
370
    -3
390
F
  0
LAYER
  5
75
330
2
100
AcDbSymbolTableRecord
100
AcDbLayerTableRecord
  2
가는실선
 70
     0
 62
     4
  6
Continuous
370
    -3
390
F
  0
LAYER
  5
76
330
2
100
AcDbSymbolTableRecord
100
AcDbLayerTableRecord
  2
치수_보조선
 70
     0
 62
     4
  6
Continuous
370
    -3
390
F
  0
LAYER
  5
77
330
2
100
AcDbSymbolTableRecord
100
AcDbLayerTableRecord
  2
치수문자_일반주서
 70
     0
 62
     7
  6
Continuous
370
    15
390
F
  0
LAYER
  5
78
330
2
100
AcDbSymbolTableRecord
100
AcDbLayerTableRecord
  2
개별주서
 70
     0
 62
   100
  6
Continuous
370
    30
390
F
  0
LAYER
  5
79
330
2
100
AcDbSymbolTableRecord
100
AcDbLayerTableRecord
  2
중간선
 70
     0
 62
     2
  6
Continuous
370
    15
390
F
  0
LAYER
  5
7A
330
2
100
AcDbSymbolTableRecord
100
AcDbLayerTableRecord
  2
윤곽선
 70
     0
 62
     3
  6
Continuous
370
    40
390
F
  0
LAYER
  5
7B
330
2
100
AcDbSymbolTableRecord
100
AcDbLayerTableRecord
  2
중심마크
 70
     0
 62
   100
  6
Continuous
370
    30
390
F
  0
LAYER
  5
7C
330
2
100
AcDbSymbolTableRecord
100
AcDbLayerTableRecord
  2
가상선
 70
     0
 62
     4
  6
PHANTOM
370
    -3
390
F
  0
LAYER
  5
7D
330
2
100
AcDbSymbolTableRecord
100
AcDbLayerTableRecord
  2
특수지정선
 70
     0
 62
     5
  6
CENTERX2
370
    60
390
F
  0
LAYER
  5
13B
330
2
100
AcDbSymbolTableRecord
100
AcDbLayerTableRecord
  2
Defpoints
 70
     0
 62
     7
  6
Continuous
290
     0
370
    -3
390
F
  0
ENDTAB
  0
TABLE
  2
STYLE
  5
3
330
0
100
AcDbSymbolTable
 70
     2
  0
STYLE
  5
11
330
3
100
AcDbSymbolTableRecord
100
AcDbTextStyleTableRecord
  2
Standard
 70
     0
 40
0.0
 41
1.0
 50
0.0
 71
     0
 42
3.5
  3
txt
  4

  0
STYLE
  5
93
330
3
100
AcDbSymbolTableRecord
100
AcDbTextStyleTableRecord
  2
SLDTEXTSTYLE0
 70
     0
 40
0.0
 41
0.75
 50
0.0
 71
     0
 42
3.5
  3
TXT
  4

  0
ENDTAB
  0
TABLE
  2
VIEW
  5
6
330
0
100
AcDbSymbolTable
 70
     0
  0
ENDTAB
  0
TABLE
  2
UCS
  5
7
330
0
100
AcDbSymbolTable
 70
     0
  0
ENDTAB
  0
TABLE
  2
APPID
  5
9
330
0
100
AcDbSymbolTable
 70
     1
  0
APPID
  5
12
330
9
100
AcDbSymbolTableRecord
100
AcDbRegAppTableRecord
  2
ACAD
 70
     0
  0
ENDTAB
  0
TABLE
  2
DIMSTYLE
  5
A
330
0
100
AcDbSymbolTable
 70
     3
100
AcDbDimStyleTable
  0
DIMSTYLE
105
27
330
A
100
AcDbSymbolTableRecord
100
AcDbDimStyleTableRecord
  2
ISO-25
 70
     0
 41
2.5
 42
0.625
 43
3.75
 44
1.25
 73
     0
 74
     0
 77
     1
 78
     8
140
2.5
141
2.5
143
0.03937007874016
147
0.625
171
     3
172
     1
178
     0
271
     2
272
     2
274
     3
278
    44
283
     0
284
     8
340
11
  0
DIMSTYLE
105
E1
102
{ACAD_REACTORS
330
E0
330
103
102
}
330
A
100
AcDbSymbolTableRecord
100
AcDbDimStyleTableRecord
  2
SLDDIMSTYLE0
 70
     0
 41
3.302
 44
0.0
 45
0.000000001
 73
     0
 74
     0
 77
     1
 78
    12
 79
     3
140
3.5
147
0.875
172
     1
173
     1
178
     0
271
     2
272
     2
276
     2
284
    12
289
     0
340
93
  0
DIMSTYLE
105
EF
102
{ACAD_REACTORS
330
EE
330
F9
102
}
330
A
100
AcDbSymbolTableRecord
100
AcDbDimStyleTableRecord
  2
SLDDIMSTYLE1
 70
     0
 41
3.302
 44
0.0
 45
0.000000001
 73
     0
 74
     0
 77
     1
 78
    12
 79
     3
140
3.5
147
0.875
173
     1
178
     0
271
     2
272
     2
276
     2
284
    12
340
93
  0
ENDTAB
  0
TABLE
  2
BLOCK_RECORD
  5
1
330
0
100
AcDbSymbolTable
 70
     7
  0
BLOCK_RECORD
  5
1F
330
1
100
AcDbSymbolTableRecord
100
AcDbBlockTableRecord
  2
*Model_Space
340
22
  0
BLOCK_RECORD
  5
1B
330
1
100
AcDbSymbolTableRecord
100
AcDbBlockTableRecord
  2
*Paper_Space
340
1E
  0
BLOCK_RECORD
  5
23
330
1
100
AcDbSymbolTableRecord
100
AcDbBlockTableRecord
  2
*Paper_Space0
340
26
  0
BLOCK_RECORD
  5
7E
330
1
100
AcDbSymbolTableRecord
100
AcDbBlockTableRecord
  2
블럭10
340
0
102
{BLKREFS
331
D9
102
}
  0
BLOCK_RECORD
  5
E2
330
1
100
AcDbSymbolTableRecord
100
AcDbBlockTableRecord
  2
_D
340
0
  0
BLOCK_RECORD
  5
F0
330
1
100
AcDbSymbolTableRecord
100
AcDbBlockTableRecord
  2
_D_1
340
0
  0
BLOCK_RECORD
  5
FA
330
1
100
AcDbSymbolTableRecord
100
AcDbBlockTableRecord
  2
_D_2
340
0
  0
BLOCK_RECORD
  5
104
330
1
100
AcDbSymbolTableRecord
100
AcDbBlockTableRecord
  2
_D_3
340
0
  0
BLOCK_RECORD
  5
110
330
1
100
AcDbSymbolTableRecord
100
AcDbBlockTableRecord
  2
SW_DOWELSYMBOL_0
340
0
102
{BLKREFS
331
116
102
}
  0
ENDTAB
  0
ENDSEC
  0
SECTION
  2
BLOCKS
  0
BLOCK
  5
20
330
1F
100
AcDbEntity
  8
0
100
AcDbBlockBegin
  2
*Model_Space
 70
     0
 10
0.0
 20
0.0
 30
0.0
  3
*Model_Space
  1

  0
ENDBLK
  5
21
330
1F
100
AcDbEntity
  8
0
100
AcDbBlockEnd
  0
BLOCK
  5
1C
330
1B
100
AcDbEntity
 67
     1
  8
0
100
AcDbBlockBegin
  2
*Paper_Space
 70
     0
 10
0.0
 20
0.0
 30
0.0
  3
*Paper_Space
  1

  0
ENDBLK
  5
1D
330
1B
100
AcDbEntity
 67
     1
  8
0
100
AcDbBlockEnd
  0
BLOCK
  5
24
330
23
100
AcDbEntity
  8
0
100
AcDbBlockBegin
  2
*Paper_Space0
 70
     0
 10
0.0
 20
0.0
 30
0.0
  3
*Paper_Space0
  1

  0
ENDBLK
  5
25
330
23
100
AcDbEntity
  8
0
100
AcDbBlockEnd
  0
BLOCK
  5
7F
330
7E
100
AcDbEntity
  8
0
100
AcDbBlockBegin
  2
블럭10
 70
     2
 10
0.0
 20
0.0
 30
0.0
  3
블럭10
  1

  0
ELLIPSE
  5
81
330
7E
100
AcDbEntity
  8
중심선
100
AcDbEllipse
 10
20.54032771741204
 20
12.0471743016438
 30
0.0
 11
6.600054785286829
 21
-1.261213355974178E-13
 31
0.0
210
0.0
220
0.0
230
1.0
 40
0.636358354079598
 41
0.9219305317359503
 42
6.513795318482858
  0
ELLIPSE
  5
82
330
7E
100
AcDbEntity
  8
중심선
100
AcDbEllipse
 10
20.54032771746488
 20
12.04717430159265
 30
0.0
 11
3.960054785062283
 21
1.540847449632565E-10
 31
0.0
210
0.0
220
0.0
230
1.0
 40
0.3939339440162632
 41
1.131841032648279
 42
5.62031148352944
  0
LINE
  5
83
330
7E
100
AcDbEntity
  8
중심선
100
AcDbLine
 10
2.268634060543552
 20
16.24717430164393
 30
0.0
 11
5.714909304380834
 21
16.24717430164393
 31
0.0
  0
LINE
  5
84
330
7E
100
AcDbEntity
  8
중심선
100
AcDbLine
 10
5.245725140726316
 20
7.84717430164391
 30
0.0
 11
8.692000384563599
 21
7.84717430164391
 31
0.0
  0
LINE
  5
85
330
7E
100
AcDbEntity
  8
중심선
100
AcDbLine
 10
15.74043728645272
 20
16.24717430164393
 30
0.0
 11
8.692000384563599
 21
7.84717430164391
 31
0.0
  0
LINE
  5
86
330
7E
100
AcDbEntity
  8
중심선
100
AcDbLine
 10
0.1404042013395286
 20
13.71084872107135
 30
0.0
 11
3.58671253028996
 21
13.71088815037384
 31
0.0
  0
LINE
  5
87
330
7E
100
AcDbEntity
  8
중심선
100
AcDbLine
 10
2.750260043222114
 20
10.84717430164391
 30
0.0
 11
6.196535287059397
 21
10.84717430164391
 31
0.0
  0
LINE
  5
88
330
7E
100
AcDbEntity
  8
중심선
100
AcDbLine
 10
12.29416204261559
 20
16.24717430164393
 30
0.0
 11
5.245725140726316
 21
7.84717430164391
 31
0.0
  0
LINE
  5
89
330
7E
100
AcDbEntity
  8
중심선
100
AcDbLine
 10
10.72767329541681
 20
16.24717430164393
 30
0.0
 11
6.196535287059397
 21
10.84717430164391
 31
0.0
  0
LINE
  5
8A
330
7E
100
AcDbEntity
  8
중심선
100
AcDbLine
 10
7.28139805157953
 20
16.24717430164393
 30
0.0
 11
2.750260043222114
 21
10.84717430164391
 31
0.0
  0
LINE
  5
8B
330
7E
100
AcDbEntity
  8
중심선
100
AcDbLine
 10
5.714909304380834
 20
16.24717430164393
 30
0.0
 11
3.58671253028996
 21
13.71088815037384
 31
0.0
  0
LINE
  5
8C
330
7E
100
AcDbEntity
  8
중심선
100
AcDbLine
 10
2.268634060543552
 20
16.24717430164393
 30
0.0
 11
0.1404042013395286
 21
13.71084872107135
 31
0.0
  0
LINE
  5
8D
330
7E
100
AcDbEntity
  8
중심선
100
AcDbLine
 10
7.28139805157953
 20
16.24717430164393
 30
0.0
 11
10.72767329541681
 21
16.24717430164393
 31
0.0
  0
LINE
  5
8E
330
7E
100
AcDbEntity
  8
중심선
100
AcDbLine
 10
12.29416204261559
 20
16.24717430164393
 30
0.0
 11
15.74043728645272
 21
16.24717430164393
 31
0.0
  0
LINE
  5
8F
330
7E
100
AcDbEntity
  8
중심선
100
AcDbLine
 10
19.22036997980202
 20
11.08717430171403
 30
0.0
 11
23.66174974927406
 21
11.08717430171406
 31
0.0
  0
LINE
  5
90
330
7E
100
AcDbEntity
  8
중심선
100
AcDbLine
 10
19.22039502424796
 20
13.00717430171391
 30
0.0
 11
19.22036997980202
 21
11.08717430171403
 31
0.0
  0
LINE
  5
91
330
7E
100
AcDbEntity
  8
중심선
100
AcDbLine
 10
19.22039502424796
 20
13.00717430171391
 30
0.0
 11
26.96566020931264
 21
13.00717430171391
 31
0.0
  0
LINE
  5
92
330
7E
100
AcDbEntity
  8
중심선
100
AcDbLine
 10
22.22332737316547
 20
13.45928029700563
 30
0.0
 11
24.52862924686651
 21
15.39360700705356
 31
0.0
  0
ATTDEF
  5
94
330
7E
100
AcDbEntity
  8
FORMAT
 62
     2
100
AcDbText
 10
-17.69892196172445
 20
2.075366912832191
 30
0.0
 40
4.233333333333333
  1
SEME70200110E [ 2 FLUTE ]
 41
0.75
  7
SLDTEXTSTYLE0
 11
-17.69892196172445
 21
-0.0412997538344756
 31
0.0
100
AcDbAttributeDefinition
  3

  2
AUTOATTR0
 70
     0
 74
     1
  0
ENDBLK
  5
80
330
7E
100
AcDbEntity
  8
0
100
AcDbBlockEnd
  0
BLOCK
  5
E3
330
E2
100
AcDbEntity
  8
0
100
AcDbBlockBegin
  2
_D
 70
     0
 10
0.0
 20
0.0
 30
0.0
  3
_D
  1

  0
LINE
  5
E5
330
E2
100
AcDbEntity
  8
치수문자_일반주서
 62
     0
370
    -2
100
AcDbLine
 10
122.0625000000001
 20
-9.99999999999998
 30
0.0
 11
138.2262538042092
 21
-9.999999999999918
 31
0.0
  0
LINE
  5
E6
330
E2
100
AcDbEntity
  8
치수문자_일반주서
 62
     0
370
    -2
100
AcDbLine
 10
122.0624999999994
 20
10.00000000000002
 30
0.0
 11
138.2262538042091
 21
10.00000000000008
 31
0.0
  0
LINE
  5
E7
330
E2
100
AcDbEntity
  8
치수문자_일반주서
 62
     0
370
    -2
100
AcDbLine
 10
138.2262538042092
 20
-9.999999999999918
 30
0.0
 11
138.2262538042091
 21
25.63570535954019
 31
0.0
  0
LINE
  5
E8
330
E2
100
AcDbEntity
  8
치수문자_일반주서
 62
     0
370
    -2
100
AcDbLine
 10
138.2262538042092
 20
-9.999999999999918
 30
0.0
 11
138.2262538042091
 21
10.00000000000008
 31
0.0
  0
LINE
  5
E9
330
E2
100
AcDbEntity
  8
치수문자_일반주서
 62
     0
370
    -2
100
AcDbLine
 10
138.2262538042092
 20
-13.30199999999992
 30
0.0
 11
138.2262538042092
 21
-16.60399999999992
 31
0.0
  0
LINE
  5
EA
330
E2
100
AcDbEntity
  8
치수문자_일반주서
 62
     0
370
    -2
100
AcDbLine
 10
138.2262538042091
 20
13.30200000000008
 30
0.0
 11
138.2262538042091
 21
16.60400000000008
 31
0.0
  0
SOLID
  5
EB
330
E2
100
AcDbEntity
  8
치수문자_일반주서
 62
     0
100
AcDbTrace
 10
138.7765871375425
 20
-13.30199999999992
 30
0.0
 11
137.6759204708759
 21
-13.30199999999992
 31
0.0
 12
138.2262538042092
 22
-9.999999999999918
 32
0.0
 13
138.2262538042092
 23
-9.999999999999918
 33
0.0
  0
SOLID
  5
EC
330
E2
100
AcDbEntity
  8
치수문자_일반주서
 62
     0
100
AcDbTrace
 10
137.6759204708758
 20
13.30200000000008
 30
0.0
 11
138.7765871375425
 21
13.30200000000008
 31
0.0
 12
138.2262538042091
 22
10.00000000000008
 32
0.0
 13
138.2262538042091
 23
10.00000000000008
 33
0.0
  0
MTEXT
  5
ED
330
E2
100
AcDbEntity
  8
치수문자_일반주서
 62
     0
100
AcDbMText
 10
133.8512538042091
 20
21.47945535954018
 30
0.0
 40
3.5
 41
0.0
 71
     2
 72
     1
  1
\A1;%%c20
  7
SLDTEXTSTYLE0
 11
-2.842170943040401E-15
 21
1.0
 31
0.0
 73
     1
 44
1.0
  0
POINT
  5
145
330
E2
100
AcDbEntity
  8
Defpoints
 62
     0
100
AcDbPoint
 10
122.0000000000001
 20
-9.99999999999998
 30
0.0
  0
POINT
  5
146
330
E2
100
AcDbEntity
  8
Defpoints
 62
     0
100
AcDbPoint
 10
121.9999999999994
 20
10.00000000000002
 30
0.0
  0
POINT
  5
147
330
E2
100
AcDbEntity
  8
Defpoints
 62
     0
100
AcDbPoint
 10
138.2262538042091
 20
10.00000000000008
 30
0.0
  0
ENDBLK
  5
E4
330
E2
100
AcDbEntity
  8
0
100
AcDbBlockEnd
  0
BLOCK
  5
F1
330
F0
100
AcDbEntity
  8
0
100
AcDbBlockBegin
  2
_D_1
 70
     0
 10
0.0
 20
0.0
 30
0.0
  3
_D_1
  1

  0
LINE
  5
F3
330
F0
100
AcDbEntity
  8
치수문자_일반주서
 62
     0
370
    -2
100
AcDbLine
 10
-77.99999999999999
 20
9.062499999999991
 30
0.0
 11
-77.99999999999999
 21
30.78841044024269
 31
0.0
  0
LINE
  5
F4
330
F0
100
AcDbEntity
  8
치수문자_일반주서
 62
     0
370
    -2
100
AcDbLine
 10
121.9999999999994
 20
10.06250000000002
 30
0.0
 11
121.9999999999994
 21
30.78841044024269
 31
0.0
  0
LINE
  5
F5
330
F0
100
AcDbEntity
  8
치수문자_일반주서
 62
     0
370
    -2
100
AcDbLine
 10
-74.69799999999998
 20
30.78841044024269
 30
0.0
 11
118.6979999999994
 21
30.78841044024269
 31
0.0
  0
SOLID
  5
F6
330
F0
100
AcDbEntity
  8
치수문자_일반주서
 62
     0
100
AcDbTrace
 10
-74.69799999999998
 20
31.33874377357602
 30
0.0
 11
-74.69799999999998
 21
30.23807710690935
 31
0.0
 12
-77.99999999999999
 22
30.78841044024269
 32
0.0
 13
-77.99999999999999
 23
30.78841044024269
 33
0.0
  0
SOLID
  5
F7
330
F0
100
AcDbEntity
  8
치수문자_일반주서
 62
     0
100
AcDbTrace
 10
118.6979999999994
 20
30.23807710690935
 30
0.0
 11
118.6979999999994
 21
31.33874377357602
 31
0.0
 12
121.9999999999994
 22
30.78841044024269
 32
0.0
 13
121.9999999999994
 23
30.78841044024269
 33
0.0
  0
MTEXT
  5
F8
330
F0
100
AcDbEntity
  8
치수문자_일반주서
 62
     0
100
AcDbMText
 10
21.99999999999973
 20
35.16341044024269
 30
0.0
 40
3.5
 41
0.0
 71
     2
 72
     1
  1
\A1;200
  7
SLDTEXTSTYLE0
 73
     1
 44
1.0
  0
POINT
  5
13C
330
F0
100
AcDbEntity
  8
Defpoints
 62
     0
100
AcDbPoint
 10
-77.99999999999999
 20
8.999999999999991
 30
0.0
  0
POINT
  5
13D
330
F0
100
AcDbEntity
  8
Defpoints
 62
     0
100
AcDbPoint
 10
121.9999999999994
 20
10.00000000000002
 30
0.0
  0
POINT
  5
13E
330
F0
100
AcDbEntity
  8
Defpoints
 62
     0
100
AcDbPoint
 10
121.9999999999994
 20
30.78841044024269
 30
0.0
  0
ENDBLK
  5
F2
330
F0
100
AcDbEntity
  8
0
100
AcDbBlockEnd
  0
BLOCK
  5
FB
330
FA
100
AcDbEntity
  8
0
100
AcDbBlockBegin
  2
_D_2
 70
     0
 10
0.0
 20
0.0
 30
0.0
  3
_D_2
  1

  0
LINE
  5
FD
330
FA
100
AcDbEntity
  8
치수문자_일반주서
 62
     0
370
    -2
100
AcDbLine
 10
12.0
 20
10.00335235336878
 30
0.0
 11
12.0
 21
23.2878501595364
 31
0.0
  0
LINE
  5
FE
330
FA
100
AcDbEntity
  8
치수문자_일반주서
 62
     0
370
    -2
100
AcDbLine
 10
121.9999999999994
 20
10.06250000000002
 30
0.0
 11
121.9999999999994
 21
23.2878501595364
 31
0.0
  0
LINE
  5
FF
330
FA
100
AcDbEntity
  8
치수문자_일반주서
 62
     0
370
    -2
100
AcDbLine
 10
15.302
 20
23.2878501595364
 30
0.0
 11
118.6979999999994
 21
23.2878501595364
 31
0.0
  0
SOLID
  5
100
330
FA
100
AcDbEntity
  8
치수문자_일반주서
 62
     0
100
AcDbTrace
 10
15.302
 20
23.83818349286974
 30
0.0
 11
15.302
 21
22.73751682620307
 31
0.0
 12
12.0
 22
23.2878501595364
 32
0.0
 13
12.0
 23
23.2878501595364
 33
0.0
  0
SOLID
  5
101
330
FA
100
AcDbEntity
  8
치수문자_일반주서
 62
     0
100
AcDbTrace
 10
118.6979999999994
 20
22.73751682620307
 30
0.0
 11
118.6979999999994
 21
23.83818349286974
 31
0.0
 12
121.9999999999994
 22
23.2878501595364
 32
0.0
 13
121.9999999999994
 23
23.2878501595364
 33
0.0
  0
MTEXT
  5
102
330
FA
100
AcDbEntity
  8
치수문자_일반주서
 62
     0
100
AcDbMText
 10
66.99999999999994
 20
27.6628501595364
 30
0.0
 40
3.5
 41
0.0
 71
     2
 72
     1
  1
\A1;110
  7
SLDTEXTSTYLE0
 73
     1
 44
1.0
  0
POINT
  5
13F
330
FA
100
AcDbEntity
  8
Defpoints
 62
     0
100
AcDbPoint
 10
12.0
 20
9.94085235336878
 30
0.0
  0
POINT
  5
140
330
FA
100
AcDbEntity
  8
Defpoints
 62
     0
100
AcDbPoint
 10
121.9999999999994
 20
10.00000000000002
 30
0.0
  0
POINT
  5
141
330
FA
100
AcDbEntity
  8
Defpoints
 62
     0
100
AcDbPoint
 10
121.9999999999994
 20
23.2878501595364
 30
0.0
  0
ENDBLK
  5
FC
330
FA
100
AcDbEntity
  8
0
100
AcDbBlockEnd
  0
BLOCK
  5
105
330
104
100
AcDbEntity
  8
0
100
AcDbBlockBegin
  2
_D_3
 70
     0
 10
0.0
 20
0.0
 30
0.0
  3
_D_3
  1

  0
LINE
  5
107
330
104
100
AcDbEntity
  8
치수문자_일반주서
 62
     0
370
    -2
100
AcDbLine
 10
-77.06249999999999
 20
9.999999999999995
 30
0.0
 11
-90.6176943589334
 21
9.999999999999947
 31
0.0
  0
LINE
  5
108
330
104
100
AcDbEntity
  8
치수문자_일반주서
 62
     0
370
    -2
100
AcDbLine
 10
-77.06249999999999
 20
-9.999999999999995
 30
0.0
 11
-90.61769435893333
 21
-10.00000000000005
 31
0.0
  0
LINE
  5
109
330
104
100
AcDbEntity
  8
치수문자_일반주서
 62
     0
370
    -2
100
AcDbLine
 10
-90.6176943589334
 20
9.999999999999947
 30
0.0
 11
-90.61769435893346
 21
24.91649999999995
 31
0.0
  0
LINE
  5
10A
330
104
100
AcDbEntity
  8
치수문자_일반주서
 62
     0
370
    -2
100
AcDbLine
 10
-90.6176943589334
 20
9.999999999999947
 30
0.0
 11
-90.61769435893333
 21
-10.00000000000005
 31
0.0
  0
LINE
  5
10B
330
104
100
AcDbEntity
  8
치수문자_일반주서
 62
     0
370
    -2
100
AcDbLine
 10
-90.61769435893342
 20
13.30199999999995
 30
0.0
 11
-90.61769435893343
 21
16.60399999999995
 31
0.0
  0
LINE
  5
10C
330
104
100
AcDbEntity
  8
치수문자_일반주서
 62
     0
370
    -2
100
AcDbLine
 10
-90.61769435893332
 20
-13.30200000000005
 30
0.0
 11
-90.6176943589333
 21
-16.60400000000005
 31
0.0
  0
SOLID
  5
10D
330
104
100
AcDbEntity
  8
치수문자_일반주서
 62
     0
100
AcDbTrace
 10
-91.16802769226675
 20
13.30199999999994
 30
0.0
 11
-90.06736102560009
 21
13.30199999999995
 31
0.0
 12
-90.6176943589334
 22
9.999999999999947
 32
0.0
 13
-90.6176943589334
 23
9.999999999999947
 33
0.0
  0
SOLID
  5
10E
330
104
100
AcDbEntity
  8
치수문자_일반주서
 62
     0
100
AcDbTrace
 10
-90.0673610256
 20
-13.30200000000004
 30
0.0
 11
-91.16802769226665
 21
-13.30200000000005
 31
0.0
 12
-90.61769435893333
 22
-10.00000000000005
 32
0.0
 13
-90.61769435893333
 23
-10.00000000000005
 33
0.0
  0
MTEXT
  5
10F
330
104
100
AcDbEntity
  8
치수문자_일반주서
 62
     0
100
AcDbMText
 10
-94.99269435893345
 20
20.76024999999993
 30
0.0
 40
3.5
 41
0.0
 71
     2
 72
     1
  1
\A1;%%c20
  7
SLDTEXTSTYLE0
 11
-3.552713678800503E-15
 21
1.0
 31
0.0
 73
     1
 44
1.0
  0
POINT
  5
142
330
104
100
AcDbEntity
  8
Defpoints
 62
     0
100
AcDbPoint
 10
-76.99999999999999
 20
9.999999999999995
 30
0.0
  0
POINT
  5
143
330
104
100
AcDbEntity
  8
Defpoints
 62
     0
100
AcDbPoint
 10
-76.99999999999999
 20
-9.999999999999995
 30
0.0
  0
POINT
  5
144
330
104
100
AcDbEntity
  8
Defpoints
 62
     0
100
AcDbPoint
 10
-90.61769435893333
 20
-10.00000000000005
 30
0.0
  0
ENDBLK
  5
106
330
104
100
AcDbEntity
  8
0
100
AcDbBlockEnd
  0
BLOCK
  5
111
330
110
100
AcDbEntity
  8
0
100
AcDbBlockBegin
  2
SW_DOWELSYMBOL_0
 70
     0
 10
0.0
 20
0.0
 30
0.0
  3
SW_DOWELSYMBOL_0
  1

  0
CIRCLE
  5
113
330
110
100
AcDbEntity
  8
외형선
 62
     0
100
AcDbCircle
 10
0.0
 20
0.0
 30
0.0
 40
3.000000000000004
  0
HATCH
  5
114
330
110
100
AcDbEntity
  8
0
  6
Continuous
 62
     0
370
    30
100
AcDbHatch
 10
0.0
 20
0.0
 30
0.0
210
0.0
220
0.0
230
1.0
  2
SOLID
 70
     1
 71
     0
 91
        1
 92
        0
 93
        3
 72
     2
 10
0.0000000000000104
 20
0.0
 40
3.000000000000004
 50
0.0
 51
90.0
 73
     1
 72
     1
 10
0.0000000000000104
 20
3.000000000000004
 11
0.0000000000000104
 21
0.0
 72
     1
 10
0.0000000000000104
 20
0.0
 11
3.000000000000015
 21
0.0
 97
        0
 75
     0
 76
     1
 98
        1
 10
0.0
 20
0.0
  0
HATCH
  5
115
330
110
100
AcDbEntity
  8
0
  6
Continuous
 62
     0
370
    30
100
AcDbHatch
 10
0.0
 20
0.0
 30
0.0
210
0.0
220
0.0
230
1.0
  2
SOLID
 70
     1
 71
     0
 91
        1
 92
        0
 93
        3
 72
     2
 10
0.0000000000000104
 20
0.0
 40
3.000000000000004
 50
180.0
 51
270.0000000000008
 73
     1
 72
     1
 10
0.0000000000000104
 20
-3.000000000000004
 11
0.0000000000000104
 21
0.0
 72
     1
 10
0.0000000000000104
 20
0.0
 11
-2.999999999999994
 21
0.0
 97
        0
 75
     0
 76
     1
 98
        1
 10
0.0
 20
0.0
  0
ENDBLK
  5
112
330
110
100
AcDbEntity
  8
0
100
AcDbBlockEnd
  0
ENDSEC
  0
SECTION
  2
ENTITIES
  0
LINE
  5
95
330
1F
100
AcDbEntity
  8
0
  6
Continuous
 62
   131
370
    15
100
AcDbLine
 10
36.20194708881969
 20
2.785918984533013
 30
0.0
 11
36.03945536023986
 21
2.8750048778788
 31
0.0
  0
LINE
  5
96
330
1F
100
AcDbEntity
  8
0
  6
Continuous
 62
     1
370
    15
100
AcDbLine
 10
68.29903137928336
 20
-10.00000000000001
 30
0.0
 11
73.14391952854865
 21
-10.00000000000001
 31
0.0
  0
LINE
  5
97
330
1F
100
AcDbEntity
  8
0
  6
Continuous
 62
     1
370
    15
100
AcDbLine
 10
18.73262452089157
 20
10.00000000000002
 30
0.0
 11
13.88507811410987
 21
10.00000000000002
 31
0.0
  0
LINE
  5
98
330
1F
100
AcDbEntity
  8
0
  6
Continuous
 62
     1
370
    15
100
AcDbLine
 10
13.88507811410988
 20
-10.00000000000001
 30
0.0
 11
18.73262452089151
 21
-10.00000000000001
 31
0.0
  0
LINE
  5
99
330
1F
100
AcDbEntity
  8
0
  6
Continuous
 62
     1
370
    15
100
AcDbLine
 10
73.14391952854861
 20
10.00000000000002
 30
0.0
 11
68.29903137928346
 21
10.00000000000002
 31
0.0
  0
SPLINE
  5
9A
330
1F
100
AcDbEntity
  8
0
  6
Continuous
 62
     1
370
    15
100
AcDbSpline
210
0.0
220
0.0
230
1.0
 70
     8
 71
     3
 72
     9
 73
     5
 74
     0
 42
0.000000001
 43
0.00000001
 40
0.0
 40
0.0
 40
0.0
 40
0.0
 40
0.4894929742436168
 40
1.0
 40
1.0
 40
1.0
 40
1.0
 10
41.67913747223486
 20
2.56236622304408
 30
0.0
 10
41.22476994191103
 20
2.778813633809943
 30
0.0
 10
40.29652877353481
 20
3.221000594920724
 30
0.0
 10
39.37457523174066
 20
3.703709845221751
 30
0.0
 10
38.90391147123377
 20
3.950136308898023
 30
0.0
  0
SPLINE
  5
9B
330
1F
100
AcDbEntity
  8
0
  6
Continuous
 62
     1
370
    15
100
AcDbSpline
210
0.0
220
0.0
230
1.0
 70
     8
 71
     3
 72
     9
 73
     5
 74
     0
 42
0.000000001
 43
0.00000001
 40
0.0
 40
0.0
 40
0.0
 40
0.0
 40
0.4992544393967787
 40
1.0
 40
1.0
 40
1.0
 40
1.0
 10
96.09294764594993
 20
2.56244623293187
 30
0.0
 10
95.6311894658346
 20
2.782452520666609
 30
0.0
 10
94.70629397432283
 20
3.223122188022117
 30
0.0
 10
93.78131534419597
 20
3.707471057762564
 30
0.0
 10
93.3181364015071
 20
3.950006604068281
 30
0.0
  0
SPLINE
  5
9C
330
1F
100
AcDbEntity
  8
0
  6
Continuous
 62
     1
370
    15
100
AcDbSpline
210
0.0
220
0.0
230
1.0
 70
     8
 71
     3
 72
    25
 73
    21
 74
     0
 42
0.000000001
 43
0.00000001
 40
0.0
 40
0.0
 40
0.0
 40
0.0
 40
0.0912598140771407
 40
0.1636246170241708
 40
0.2157265710655089
 40
0.2582266531622883
 40
0.3045749352495954
 40
0.3697475130639588
 40
0.4281819139523916
 40
0.4660698736822521
 40
0.5074803048502367
 40
0.5575398376896283
 40
0.6239715693297193
 40
0.6977124458381091
 40
0.7389988571022426
 40
0.7758158239729323
 40
0.8117729344109172
 40
0.8495925146571799
 40
0.9107895191628104
 40
1.0
 40
1.0
 40
1.0
 40
1.0
 10
23.33149866686993
 20
-8.321390524146194
 30
0.0
 10
23.77797733906054
 20
-8.277837676707419
 30
0.0
 10
24.57849290536331
 20
-8.199749439792337
 30
0.0
 10
25.68041740559191
 20
-8.110463610671383
 30
0.0
 10
26.52496574494824
 20
-8.048116728788358
 30
0.0
 10
27.23083173519506
 20
-8.001332940044144
 30
0.0
 10
28.00503263989209
 20
-7.955148795087511
 30
0.0
 10
28.86277018680081
 20
-7.911155656572205
 30
0.0
 10
29.67864680899343
 20
-7.877124283224568
 30
0.0
 10
30.35614662323788
 20
-7.85424423509888
 30
0.0
 10
31.00430113692115
 20
-7.836128307710642
 30
0.0
 10
31.80053917417899
 20
-7.819768624454131
 30
0.0
 10
32.76354006766063
 20
-7.808766276930933
 30
0.0
 10
33.68488311270576
 20
-7.808256836525287
 30
0.0
 10
34.44074998114249
 20
-7.815725052296489
 30
0.0
 10
34.99804375484474
 20
-7.82464853677478
 30
0.0
 10
35.54781240479674
 20
-7.836216349087512
 30
0.0
 10
36.2244547178919
 20
-7.854584138763196
 30
0.0
 10
37.1690831623838
 20
-7.886753058587758
 30
0.0
 10
37.92521870285451
 20
-7.924194436001348
 30
0.0
 10
38.37370180188201
 20
-7.946401863209242
 30
0.0
  0
SPLINE
  5
9D
330
1F
100
AcDbEntity
  8
0
  6
Continuous
 62
     1
370
    15
100
AcDbSpline
210
0.0
220
0.0
230
1.0
 70
     8
 71
     3
 72
    19
 73
    15
 74
     0
 42
0.000000001
 43
0.00000001
 40
0.0
 40
0.0
 40
0.0
 40
0.0
 40
0.127277723123913
 40
0.2196562087971791
 40
0.2768203781752429
 40
0.3031076796978762
 40
0.3441274690917951
 40
0.4126415115367871
 40
0.5001066825977155
 40
0.5767151578355965
 40
0.6998456071872076
 40
0.8122308102207042
 40
0.9219585778098777
 40
1.0
 40
1.0
 40
1.0
 40
1.0
 10
92.78744129811375
 20
7.946388963499952
 30
0.0
 10
92.43930266486501
 20
7.928858953939543
 30
0.0
 10
91.83848415210139
 20
7.898605620161183
 30
0.0
 10
91.0850473589589
 20
7.869749590028474
 30
0.0
 10
90.6053261623397
 20
7.854149200080485
 30
0.0
 10
90.27416851035679
 20
7.844250277296326
 30
0.0
 10
89.89602764475714
 20
7.834619591918957
 30
0.0
 10
89.35008671545219
 20
7.823338546736246
 30
0.0
 10
88.70322932457287
 20
7.81398499508736
 30
0.0
 10
87.90678966197832
 20
7.808035080921448
 30
0.0
 10
87.06654210798594
 20
7.809984260104894
 30
0.0
 10
86.12841769998133
 20
7.821145828036017
 30
0.0
 10
85.30504058586216
 20
7.838388428017288
 30
0.0
 10
84.78980260881627
 20
7.854467933790716
 30
0.0
 10
84.5756572288299
 20
7.861150965762829
 30
0.0
  0
SPLINE
  5
9E
330
1F
100
AcDbEntity
  8
0
  6
Continuous
 62
     1
370
    15
100
AcDbSpline
210
0.0
220
0.0
230
1.0
 70
     8
 71
     3
 72
    27
 73
    23
 74
     0
 42
0.000000001
 43
0.00000001
 40
0.0
 40
0.0
 40
0.0
 40
0.0
 40
0.0791841726902457
 40
0.1331472959767133
 40
0.1658298690947147
 40
0.2007053340022433
 40
0.2415529047480921
 40
0.2797213854395207
 40
0.3098425563440521
 40
0.365485468246338
 40
0.4359370239136924
 40
0.496314452330876
 40
0.5534854905570831
 40
0.6120510178012317
 40
0.6743230319224887
 40
0.761074334773156
 40
0.804455900019375
 40
0.8312820667469821
 40
0.8458685147024401
 40
0.8761885934473234
 40
0.9276241200983357
 40
0.9999999999999999
 40
0.9999999999999999
 40
0.9999999999999999
 40
0.9999999999999999
 10
77.74532884172035
 20
-8.321405616127729
 30
0.0
 10
78.14205355603278
 20
-8.282913894445128
 30
0.0
 10
78.80914170210039
 20
-8.218190497263544
 30
0.0
 10
79.63971697107094
 20
-8.147708697403537
 30
0.0
 10
80.25194560197541
 20
-8.099101292595924
 30
0.0
 10
80.79695877785267
 20
-8.058507032806487
 30
0.0
 10
81.36837428773617
 20
-8.019265555658246
 30
0.0
 10
81.91626598592383
 20
-7.984907827320519
 30
0.0
 10
82.54191997752599
 20
-7.948878713417199
 30
0.0
 10
83.32916585246514
 20
-7.908672649109667
 30
0.0
 10
84.25665331056912
 20
-7.870379919267984
 30
0.0
 10
85.20235803375293
 20
-7.841054929642141
 30
0.0
 10
86.08588435928883
 20
-7.821883121763809
 30
0.0
 10
86.97332509266461
 20
-7.810899819202927
 30
0.0
 10
87.99262088418767
 20
-7.807142938912968
 30
0.0
 10
88.97729269857015
 20
-7.816556009265059
 30
0.0
 10
89.77304510944873
 20
-7.831775352994042
 30
0.0
 10
90.20635456941308
 20
-7.842360691400707
 30
0.0
 10
90.55760057050648
 20
-7.852654365488722
 30
0.0
 10
91.03699906444996
 20
-7.868050227883737
 30
0.0
 10
91.80548395363968
 20
-7.897050133011534
 30
0.0
 10
92.42518527165734
 20
-7.928187267893383
 30
0.0
 10
92.78744129811375
 20
-7.946388963499934
 30
0.0
  0
SPLINE
  5
9F
330
1F
100
AcDbEntity
  8
0
  6
Continuous
 62
     1
370
    15
100
AcDbSpline
210
0.0
220
0.0
230
1.0
 70
     8
 71
     3
 72
    19
 73
    15
 74
     0
 42
0.000000001
 43
0.00000001
 40
0.0
 40
0.0
 40
0.0
 40
0.0
 40
0.1447452578725886
 40
0.2514717715021736
 40
0.320421164885415
 40
0.376904221349257
 40
0.4344243330740608
 40
0.4934823606301662
 40
0.559766638092076
 40
0.6963145225820476
 40
0.8193278748498073
 40
0.9120244039858201
 40
0.9887051682992544
 40
1.0
 40
1.0
 40
1.0
 40
1.0
 10
38.37370180188204
 20
7.946401863209257
 30
0.0
 10
37.98068669074116
 20
7.92675914573738
 30
0.0
 10
37.2978856948514
 20
7.892633060832291
 30
0.0
 10
36.42955469260202
 20
7.861267068747271
 30
0.0
 10
35.80013417009364
 20
7.842731931364672
 30
0.0
 10
35.30726027339674
 20
7.830914213842945
 30
0.0
 10
34.84449393560379
 20
7.822057053679017
 30
0.0
 10
34.36238018629783
 20
7.814861456957122
 30
0.0
 10
33.65658171973745
 20
7.808278230507725
 30
0.0
 10
32.76368932834334
 20
7.8087975213263
 30
0.0
 10
31.80045946887218
 20
7.819668819928513
 30
0.0
 10
31.00444572572225
 20
7.836382722365914
 30
0.0
 10
30.51514820084301
 20
7.849290560730919
 30
0.0
 10
30.28006243159384
 20
7.857338924263609
 30
0.0
 10
30.24988071849148
 20
7.858372221174193
 30
0.0
  0
SPLINE
  5
A0
330
1F
100
AcDbEntity
  8
0
  6
Continuous
 62
     1
370
    15
100
AcDbSpline
210
0.0
220
0.0
230
1.0
 70
     8
 71
     3
 72
    13
 73
     9
 74
     0
 42
0.000000001
 43
0.00000001
 40
0.0
 40
0.0
 40
0.0
 40
0.0
 40
0.1952591497290034
 40
0.3821596151163686
 40
0.5351482885354496
 40
0.6672018979356363
 40
0.8417231237751902
 40
1.0
 40
1.0
 40
1.0
 40
1.0
 10
100.8144021374232
 20
-7.521340011034163
 30
0.0
 10
101.2757603630737
 20
-7.449875891892657
 30
0.0
 10
102.1787269190076
 20
-7.310006900843317
 30
0.0
 10
103.5617621344651
 20
-7.131336271219618
 30
0.0
 10
104.7413105235869
 20
-6.995141209841204
 30
0.0
 10
105.8787780743539
 20
-6.880704040433417
 30
0.0
 10
107.0356378418392
 20
-6.780450577650839
 30
0.0
 10
107.8662406662478
 20
-6.727327311296174
 30
0.0
 10
108.2612706246984
 20
-6.702062189285805
 30
0.0
  0
SPLINE
  5
A1
330
1F
100
AcDbEntity
  8
0
  6
Continuous
 62
     1
370
    15
100
AcDbSpline
210
0.0
220
0.0
230
1.0
 70
     8
 71
     3
 72
    27
 73
    23
 74
     0
 42
0.000000001
 43
0.00000001
 40
0.0
 40
0.0
 40
0.0
 40
0.0
 40
0.0712670973437888
 40
0.1225450849598099
 40
0.1693114382157723
 40
0.2298429800997185
 40
0.2979614639545811
 40
0.3451546672423146
 40
0.4154821042352925
 40
0.46135695694653
 40
0.4956250313983382
 40
0.5310696714032029
 40
0.5769182589402206
 40
0.6346904715249349
 40
0.6861397737485808
 40
0.7203422095865579
 40
0.7755144202585015
 40
0.8312604421878969
 40
0.8541143636912643
 40
0.8884687677345344
 40
0.9370690574479669
 40
1.0
 40
1.0
 40
1.0
 40
1.0
 10
63.87111976035609
 20
6.839538892955669
 30
0.0
 10
63.45626216050128
 20
6.805869746066217
 30
0.0
 10
62.74290688555315
 20
6.747975028589671
 30
0.0
 10
61.75734995510277
 20
6.687679759332516
 30
0.0
 10
60.85558334653859
 20
6.641757861850189
 30
0.0
 10
59.81382169471868
 20
6.604111013848465
 30
0.0
 10
58.77282740250244
 20
6.583649580955007
 30
0.0
 10
57.72015502442267
 20
6.578370218742685
 30
0.0
 10
56.74811467420481
 20
6.588068190943241
 30
0.0
 10
55.85797607257939
 20
6.610056761654708
 30
0.0
 10
55.18325483924599
 20
6.634088055922016
 30
0.0
 10
54.52794128434332
 20
6.66367517377371
 30
0.0
 10
53.7277313807711
 20
6.707159466179243
 30
0.0
 10
52.82685248173334
 20
6.76762906062665
 30
0.0
 10
51.99194236249428
 20
6.834906445186845
 30
0.0
 10
51.16703717952116
 20
6.910307760032393
 30
0.0
 10
50.32193252697085
 20
6.996299447960844
 30
0.0
 10
49.54254155307835
 20
7.085566411894491
 30
0.0
 10
48.88383554671245
 20
7.166943835807169
 30
0.0
 10
48.26805359690967
 20
7.247293088325126
 30
0.0
 10
47.41839348828994
 20
7.365082755062818
 30
0.0
 10
46.76761814633325
 20
7.464975817912328
 30
0.0
 10
46.40042139949305
 20
7.521339981311565
 30
0.0
  0
SPLINE
  5
A2
330
1F
100
AcDbEntity
  8
0
  6
Continuous
 62
     1
370
    15
100
AcDbSpline
210
0.0
220
0.0
230
1.0
 70
     8
 71
     3
 72
    16
 73
    12
 74
     0
 42
0.000000001
 43
0.00000001
 40
0.0
 40
0.0
 40
0.0
 40
0.0
 40
0.1807497052865578
 40
0.3212013603295382
 40
0.4276984752627567
 40
0.517713891473474
 40
0.6537545187382294
 40
0.774294299249754
 40
0.8696719026641379
 40
0.9677471165412256
 40
1.0
 40
1.0
 40
1.0
 40
1.0
 10
46.40042139949306
 20
-7.521339981311548
 30
0.0
 10
46.83533137075953
 20
-7.454304928789536
 30
0.0
 10
47.60818836751203
 20
-7.335180252897555
 30
0.0
 10
48.70158599557922
 20
-7.189187001338442
 30
0.0
 10
49.56282899925663
 20
-7.082894170531368
 30
0.0
 10
50.37612060749861
 20
-6.991035015354076
 30
0.0
 10
51.24445675507208
 20
-6.902170529351298
 30
0.0
 10
52.12090990239037
 20
-6.823678745228052
 30
0.0
 10
52.90391420739621
 20
-6.763310809569244
 30
0.0
 10
53.46692408651218
 20
-6.723745645015048
 30
0.0
 10
53.79427461394846
 20
-6.705766866178102
 30
0.0
 10
53.87528552891918
 20
-6.701317576497575
 30
0.0
  0
SPLINE
  5
A3
330
1F
100
AcDbEntity
  8
0
  6
Continuous
 62
     1
370
    15
100
AcDbSpline
210
0.0
220
0.0
230
1.0
 70
     8
 71
     3
 72
    26
 73
    22
 74
     0
 42
0.000000001
 43
0.00000001
 40
0.0
 40
0.0
 40
0.0
 40
0.0
 40
0.0679581282988824
 40
0.1256435184146353
 40
0.1706946208689379
 40
0.192292837367552
 40
0.2228416758053019
 40
0.2656846471581668
 40
0.3053271889043471
 40
0.3353497645762285
 40
0.3604795840120365
 40
0.3962397090536535
 40
0.4422469826429506
 40
0.4980484123366175
 40
0.5734057424877397
 40
0.6419747547351045
 40
0.7162070086915999
 40
0.7723757470310785
 40
0.837449172931454
 40
0.9169469116419177
 40
0.9999999999999999
 40
0.9999999999999999
 40
0.9999999999999999
 40
0.9999999999999999
 10
118.3053256332432
 20
6.841275324475895
 30
0.0
 10
117.9321037565171
 20
6.809710631866446
 30
0.0
 10
117.2420772517412
 20
6.751352652675416
 30
0.0
 10
116.2023436463845
 20
6.689438000934834
 30
0.0
 10
115.4476397611387
 20
6.650958644838214
 30
0.0
 10
114.8974757242297
 20
6.628751814178878
 30
0.0
 10
114.3423390873701
 20
6.609474616256474
 30
0.0
 10
113.6748773286773
 20
6.592639161183042
 30
0.0
 10
113.0109887385551
 20
6.582962255820468
 30
0.0
 10
112.4433683616116
 20
6.579182010423247
 30
0.0
 10
111.9084375746426
 20
6.580172179754313
 30
0.0
 10
111.3078681932092
 20
6.587074060584814
 30
0.0
 10
110.5232423247075
 20
6.602727802333405
 30
0.0
 10
109.4936807280043
 20
6.636319225047963
 30
0.0
 10
108.3233820243414
 20
6.694461640503414
 30
0.0
 10
107.0428360154931
 20
6.780878065414865
 30
0.0
 10
105.878796957932
 20
6.880490208557952
 30
0.0
 10
104.7413053001549
 20
6.995200358390758
 30
0.0
 10
103.5617639782248
 20
7.131315393048045
 30
0.0
 10
102.1787263944592
 20
7.310012840668229
 30
0.0
 10
101.2757601856932
 20
7.449877900495841
 30
0.0
 10
100.8144021374232
 20
7.521340011034182
 30
0.0
  0
LINE
  5
A4
330
1F
100
AcDbEntity
  8
0
  6
Continuous
 62
   131
370
    15
100
AcDbLine
 10
8.950100503385007
 20
10.00000000000001
 30
0.0
 11
-76.99999999999999
 21
9.999999999999998
 31
0.0
  0
LINE
  5
A5
330
1F
100
AcDbEntity
  8
0
  6
Continuous
 62
   131
370
    15
100
AcDbLine
 10
-76.99999999999999
 20
-10.0
 30
0.0
 11
8.950100503385011
 21
-9.999999999999995
 31
0.0
  0
LINE
  5
A6
330
1F
100
AcDbEntity
  8
0
  6
Continuous
 62
   131
370
    15
100
AcDbLine
 10
-76.99999999999999
 20
9.999999999999995
 30
0.0
 11
-77.99999999999999
 21
8.999999999999991
 31
0.0
  0
LINE
  5
A7
330
1F
100
AcDbEntity
  8
0
  6
Continuous
 62
   131
370
    15
100
AcDbLine
 10
-77.99999999999999
 20
-8.999999999999995
 30
0.0
 11
-76.99999999999999
 21
-9.999999999999995
 31
0.0
  0
SPLINE
  5
A8
330
1F
100
AcDbEntity
  8
0
  6
Continuous
 62
   131
370
    15
100
AcDbSpline
210
0.0
220
0.0
230
1.0
 70
     8
 71
     3
 72
     9
 73
     5
 74
     0
 42
0.000000001
 43
0.00000001
 40
0.0
 40
0.0
 40
0.0
 40
0.0
 40
0.4981600882903783
 40
0.9999999999999999
 40
0.9999999999999999
 40
0.9999999999999999
 40
0.9999999999999999
 10
9.562028068571355
 20
6.848444255646097
 30
0.0
 10
9.459961413602125
 20
6.838885827998954
 30
0.0
 10
9.255074154730165
 20
6.819698366233506
 30
0.0
 10
9.052024359214883
 20
6.79802149810055
 30
0.0
 10
8.950125867760839
 20
6.787143180510563
 30
0.0
  0
SPLINE
  5
A9
330
1F
100
AcDbEntity
  8
0
  6
Continuous
 62
     1
370
    15
100
AcDbSpline
210
0.0
220
0.0
230
1.0
 70
     8
 71
     3
 72
    10
 73
     6
 74
     0
 42
0.000000001
 43
0.00000001
 40
0.0
 40
0.0
 40
0.0
 40
0.0
 40
0.5
 40
0.5
 40
1.0
 40
1.0
 40
1.0
 40
1.0
 10
122.0
 20
-2.67242946029643
 30
0.0
 10
121.1432431594078
 20
-1.998877176673846
 30
0.0
 10
120.2980363641846
 20
-1.303046910902127
 30
0.0
 10
118.6306763784572
 20
0.1330799216817057
 30
0.0
 10
117.8079842188581
 20
0.8737316691697633
 30
0.0
 10
117.0000000000023
 20
1.639931148972214
 30
0.0
  0
LINE
  5
AA
330
1F
100
AcDbEntity
  8
0
  6
Continuous
 62
     1
370
    15
100
AcDbLine
 10
117.0
 20
2.937719435296609
 30
0.0
 11
122.0
 21
0.0000000000000184
 31
0.0
  0
LINE
  5
AB
330
1F
100
AcDbEntity
  8
0
  6
Continuous
 62
     1
370
    15
100
AcDbLine
 10
122.0
 20
0.0000000000000184
 30
0.0
 11
122.0
 21
-2.67242946029643
 31
0.0
  0
LINE
  5
AC
330
1F
100
AcDbEntity
  8
0
  6
Continuous
 62
     1
370
    15
100
AcDbLine
 10
12.0
 20
-9.940852353368783
 30
0.0
 11
13.88507811410988
 21
-9.946107782037046
 31
0.0
  0
SPLINE
  5
AD
330
1F
100
AcDbEntity
  8
0
  6
Continuous
 62
     1
370
    15
100
AcDbSpline
210
0.0
220
0.0
230
1.0
 70
     8
 71
     3
 72
    27
 73
    23
 74
     0
 42
0.000000001
 43
0.00000001
 40
0.0
 40
0.0
 40
0.0
 40
0.0
 40
0.014704623258073
 40
0.0665523458624299
 40
0.1184079895072353
 40
0.1702693264591311
 40
0.222134118864198
 40
0.2740001227173737
 40
0.3258650918555179
 40
0.3777267819587853
 40
0.4295829545449029
 40
0.4814313809410002
 40
0.5332742572040956
 40
0.5851250836320548
 40
0.6369830315001291
 40
0.688845868981054
 40
0.7407113555505812
 40
0.7925772459671595
 40
0.8444412942697598
 40
0.896301257778467
 40
0.9481549010824515
 40
1.0
 40
1.0
 40
1.0
 40
1.0
 10
53.87390714024212
 20
6.700706706744851
 30
0.0
 10
54.20781115115963
 20
6.851301803035955
 30
0.0
 10
55.71904301541252
 20
7.532887230806026
 30
0.0
 10
58.4078311861556
 20
8.459478758879802
 30
0.0
 10
61.94048578181099
 20
9.402429920859232
 30
0.0
 10
65.47360278164078
 20
9.935128154360612
 30
0.0
 10
69.00700286428348
 20
10.06139662126628
 30
0.0
 10
72.54050172764344
 20
9.769018305158756
 30
0.0
 10
76.07391612681197
 20
9.071984610140492
 30
0.0
 10
79.60706247857682
 20
7.99872822842512
 30
0.0
 10
83.1397584273394
 20
6.593935016295646
 30
0.0
 10
86.6719201609224
 20
4.915830613239511
 30
0.0
 10
90.20383051000883
 20
3.033796511633373
 30
0.0
 10
93.73613075382461
 20
1.026155912418447
 30
0.0
 10
97.26896879924581
 20
-1.024147974203952
 30
0.0
 10
100.8022096836637
 20
-3.032022549612793
 30
0.0
 10
104.3356661814164
 20
-4.914377536163312
 30
0.0
 10
107.8691557151139
 20
-6.592399622996041
 30
0.0
 10
111.4024954212538
 20
-7.999197057746009
 30
0.0
 10
114.9354985686463
 20
-9.066329797724835
 30
0.0
 10
118.4679958391516
 20
-9.78729695909428
 30
0.0
 10
120.8227299534629
 20
-9.923468161227394
 30
0.0
 10
122.0000000000001
 20
-9.99999999999998
 30
0.0
  0
SPLINE
  5
AE
330
1F
100
AcDbEntity
  8
0
  6
Continuous
 62
     1
370
    15
100
AcDbSpline
210
0.0
220
0.0
230
1.0
 70
     8
 71
     3
 72
    15
 73
    11
 74
     0
 42
0.000000001
 43
0.00000001
 40
0.0
 40
0.0
 40
0.0
 40
0.0
 40
0.1019387256135201
 40
0.2434385114091165
 40
0.3850710163559256
 40
0.5265658015200985
 40
0.6681993763443359
 40
0.8096967663066696
 40
0.9513246191107247
 40
1.0
 40
1.0
 40
1.0
 40
1.0
 10
97.12804487091108
 20
-0.9358171243997434
 30
0.0
 10
95.99732723629616
 20
-0.4816699128104135
 30
0.0
 10
93.29707552981222
 20
0.6028729876871035
 30
0.0
 10
89.02669700978801
 20
2.318019102170694
 30
0.0
 10
84.31633634041054
 20
4.029221500096532
 30
0.0
 10
79.60588051314421
 20
5.446935317900317
 30
0.0
 10
74.89551297686084
 20
6.470374566356327
 30
0.0
 10
70.18506709628527
 20
6.985973413122434
 30
0.0
 10
66.50442224042203
 20
7.086111867462619
 30
0.0
 10
64.39383121998273
 20
6.843597094432862
 30
0.0
 10
63.8539884657239
 20
6.781567150330483
 30
0.0
  0
SPLINE
  5
AF
330
1F
100
AcDbEntity
  8
0
  6
Continuous
 62
     1
370
    15
100
AcDbSpline
210
0.0
220
0.0
230
1.0
 70
     8
 71
     3
 72
    23
 73
    19
 74
     0
 42
0.000000001
 43
0.00000001
 40
0.0
 40
0.0
 40
0.0
 40
0.0
 40
0.0639820413957162
 40
0.1279542086884797
 40
0.1919118622040419
 40
0.2558719017826079
 40
0.3198458524058169
 40
0.3838289631390927
 40
0.4478164592562625
 40
0.5105779880040721
 40
0.5733365248035752
 40
0.6360893578168426
 40
0.6988337853522479
 40
0.7615681473242825
 40
0.8243080432635629
 40
0.887057524296045
 40
0.9498138946859852
 40
1.0
 40
1.0
 40
1.0
 40
1.0
 10
12.0
 20
9.94085235336879
 30
0.0
 10
13.20075596592435
 20
9.97461859994193
 30
0.0
 10
15.60208258971207
 20
10.04214588207293
 30
0.0
 10
19.20359820140059
 20
9.596030571537826
 30
0.0
 10
22.80447162492695
 20
8.767164616777873
 30
0.0
 10
26.40542540726433
 20
7.552332405352597
 30
0.0
 10
30.0070596854307
 20
6.014368030661188
 30
0.0
 10
33.60929023379691
 20
4.216564113829581
 30
0.0
 10
37.18885820863486
 20
2.249811575918584
 30
0.0
 10
40.74529610048597
 20
0.2013780590302885
 30
0.0
 10
44.27856880395426
 20
-1.842117923962203
 30
0.0
 10
47.81144244126685
 20
-3.809109784840142
 30
0.0
 10
51.34378448254167
 20
-5.618320782280657
 30
0.0
 10
54.87570624754942
 20
-7.193854401141484
 30
0.0
 10
58.40783147875267
 20
-8.474392887969026
 30
0.0
 10
61.9404861441777
 20
-9.39118942548408
 30
0.0
 10
65.23762179230563
 20
-9.92684045783671
 30
0.0
 10
67.3571962760621
 20
-9.95445743036661
 30
0.0
 10
68.29903137928339
 20
-9.96672906053233
 30
0.0
  0
SPLINE
  5
B0
330
1F
100
AcDbEntity
  8
0
  6
Continuous
 62
     1
370
    15
100
AcDbSpline
210
0.0
220
0.0
230
1.0
 70
     8
 71
     3
 72
    11
 73
     7
 74
     0
 42
0.000000001
 43
0.00000001
 40
0.0
 40
0.0
 40
0.0
 40
0.0
 40
0.2286385923071619
 40
0.4857940775446508
 40
0.7429182230895844
 40
1.0
 40
1.0
 40
1.0
 40
1.0
 10
108.2612706246984
 20
6.70206218928583
 30
0.0
 10
109.3083762646112
 20
7.134831649244934
 30
0.0
 10
111.5331875412213
 20
8.054347635014686
 30
0.0
 10
114.9354980957411
 20
9.06194477740458
 30
0.0
 10
118.4679959573491
 20
9.788392947769161
 30
0.0
 10
120.8227299928598
 20
9.923833470717291
 30
0.0
 10
121.9999999999994
 20
10.00000000000002
 30
0.0
  0
SPLINE
  5
B1
330
1F
100
AcDbEntity
  8
0
  6
Continuous
 62
     1
370
    15
100
AcDbSpline
210
0.0
220
0.0
230
1.0
 70
    24
 71
     3
 72
    10
 73
     6
 74
     0
 42
0.000000001
 43
0.00000001
 40
0.0
 40
0.0
 40
0.0
 40
0.0
 40
0.5
 40
0.5
 40
1.0
 40
1.0
 40
1.0
 40
1.0
 10
122.0
 20
7.000000000000019
 30
0.0
 10
122.0
 20
7.424322568073156
 30
0.0
 10
122.0
 20
7.91742468867119
 30
0.0
 10
122.0
 20
8.951951609608578
 30
0.0
 10
122.0
 20
9.490734358014754
 30
0.0
 10
121.9999999999994
 20
10.00000000000002
 30
0.0
  0
LINE
  5
B2
330
1F
100
AcDbEntity
  8
0
  6
Continuous
 62
     1
370
    15
100
AcDbLine
 10
122.0
 20
7.000000000000019
 30
0.0
 11
118.2958191345176
 21
6.797684309694877
 31
0.0
  0
SPLINE
  5
B3
330
1F
100
AcDbEntity
  8
0
  6
Continuous
 62
     1
370
    15
100
AcDbSpline
210
0.0
220
0.0
230
1.0
 70
     8
 71
     3
 72
    15
 73
    11
 74
     0
 42
0.000000001
 43
0.00000001
 40
0.0
 40
0.0
 40
0.0
 40
0.0
 40
0.0262935163127983
 40
0.179571322570088
 40
0.332860421980427
 40
0.4861063306587516
 40
0.6394209390454042
 40
0.7595839323858737
 40
0.8797754562799565
 40
1.0
 40
1.0
 40
1.0
 40
1.0
 10
42.73053105919968
 20
-0.9402685406622129
 30
0.0
 10
42.46117951844677
 20
-0.8347561873330862
 30
0.0
 10
40.62164570205313
 20
-0.1141605618034843
 30
0.0
 10
37.21177025777085
 20
1.294351919702103
 30
0.0
 10
32.50122091013338
 20
3.111606608975503
 30
0.0
 10
27.79079609217737
 20
4.709312204772138
 30
0.0
 10
23.41873716021022
 20
5.869588657176767
 30
0.0
 10
19.38711600208018
 20
6.600369538039246
 30
0.0
 10
15.69389122692286
 20
6.992903912873374
 30
0.0
 10
13.23140981173853
 20
6.986944549999535
 30
0.0
 10
12.00000000000002
 20
6.983964459319741
 30
0.0
  0
SPLINE
  5
B4
330
1F
100
AcDbEntity
  8
0
  6
Continuous
 62
   131
370
    15
100
AcDbSpline
210
0.0
220
0.0
230
1.0
 70
    24
 71
     3
 72
    10
 73
     6
 74
     0
 42
0.000000001
 43
0.00000001
 40
0.0
 40
0.0
 40
0.0
 40
0.0
 40
0.5
 40
0.5
 40
1.0
 40
1.0
 40
1.0
 40
1.0
 10
12.0
 20
9.94085235336878
 30
0.0
 10
12.0
 20
9.432517001846524
 30
0.0
 10
12.0
 20
8.892912261598825
 30
0.0
 10
12.0
 20
7.870746248406631
 30
0.0
 10
12.0
 20
7.390742248799775
 30
0.0
 10
12.0
 20
6.983964459319742
 30
0.0
  0
SPLINE
  5
B5
330
1F
100
AcDbEntity
  8
0
  6
Continuous
 62
     1
370
    15
100
AcDbSpline
210
0.0
220
0.0
230
1.0
 70
     8
 71
     3
 72
    27
 73
    23
 74
     0
 42
0.000000001
 43
0.00000001
 40
0.0
 40
0.0
 40
0.0
 40
0.0
 40
0.0217713121353325
 40
0.0754276252512127
 40
0.1290896475868559
 40
0.1827550630206589
 40
0.236421549390502
 40
0.2900867826264831
 40
0.3437484408909928
 40
0.3974042087101978
 40
0.4510517810810578
 40
0.504694618937517
 40
0.5583460627439635
 40
0.6120046942418058
 40
0.6656682033398503
 40
0.719334271270454
 40
0.7740488610085929
 40
0.8287597013721202
 40
0.8834627092425329
 40
0.9381538218458522
 40
0.9928428919315255
 40
1.0
 40
1.0
 40
1.0
 40
1.0
 10
84.57333551199211
 20
-7.861991446404356
 30
0.0
 10
84.09554311226401
 20
-8.040720581212836
 30
0.0
 10
82.44021127693183
 20
-8.65993517507873
 30
0.0
 10
79.60709741018019
 20
-9.3644828668404
 30
0.0
 10
76.07396011554084
 20
-9.92934790909981
 30
0.0
 10
72.54054749897713
 20
-10.06255719057277
 30
0.0
 10
69.0070523268085
 20
-9.78389576472324
 30
0.0
 10
65.47365543366989
 20
-9.098135681546754
 30
0.0
 10
61.94054154633857
 20
-8.035560955793612
 30
0.0
 10
58.4078906653267
 20
-6.639798030187211
 30
0.0
 10
54.87576847282091
 20
-4.968839951673667
 30
0.0
 10
51.3438500653766
 20
-3.091765448811937
 30
0.0
 10
47.81151140341093
 20
-1.086668402516707
 30
0.0
 10
44.27864115056149
 20
0.9635824555238335
 30
0.0
 10
40.74537181854449
 20
2.97400754838819
 30
0.0
 10
37.188932321047
 20
4.873243033863969
 30
0.0
 10
33.60935816119294
 20
6.579367283603037
 30
0.0
 10
30.00711523347871
 20
8.009867140461845
 30
0.0
 10
26.40547346944639
 20
9.10648245617575
 30
0.0
 10
22.80449395117072
 20
9.768559439957594
 30
0.0
 10
20.2470414214927
 20
10.05176338359931
 30
0.0
 10
18.88970175607363
 20
9.98338399589066
 30
0.0
 10
18.73262452089156
 20
9.975470836466851
 30
0.0
  0
LINE
  5
B6
330
1F
100
AcDbEntity
  8
0
  6
Continuous
 62
   131
370
    15
100
AcDbLine
 10
11.99999999999999
 20
-9.940852353368772
 30
0.0
 11
11.99999999999999
 21
-9.25427016769599
 31
0.0
  0
SPLINE
  5
B7
330
1F
100
AcDbEntity
  8
0
  6
Continuous
 62
     1
370
    15
100
AcDbSpline
210
0.0
220
0.0
230
1.0
 70
     8
 71
     3
 72
    21
 73
    17
 74
     0
 42
0.000000001
 43
0.00000001
 40
0.0
 40
0.0
 40
0.0
 40
0.0
 40
0.0722938731956717
 40
0.1445996606655492
 40
0.2169142610543242
 40
0.2892345573490789
 40
0.3615574224009596
 40
0.4338797244858155
 40
0.5061983328824361
 40
0.5785101234469306
 40
0.6508119841618076
 40
0.7231027584581173
 40
0.7954012703000488
 40
0.8677105837224391
 40
0.9400275911091978
 40
0.9999999999999999
 40
0.9999999999999999
 40
0.9999999999999999
 40
0.9999999999999999
 10
122.0
 20
-9.489408692318989
 30
0.0
 10
120.8227310465648
 20
-9.2368330585627
 30
0.0
 10
118.467999121799
 20
-8.73164016573355
 30
0.0
 10
114.9355051419013
 20
-7.506516416602721
 30
0.0
 10
111.4025052915203
 20
-5.998370203052407
 30
0.0
 10
107.8691688836035
 20
-4.233905342003109
 30
0.0
 10
104.3356826438804
 20
-2.29589240585266
 30
0.0
 10
100.8022294301832
 20
-0.2621514137588527
 30
0.0
 10
97.26899181535285
 20
1.782286466773489
 30
0.0
 10
93.7361570163441
 20
3.752736679954479
 30
0.0
 10
90.20386002015894
 20
5.567727057587534
 30
0.0
 10
86.67195290601943
 20
7.151200091071805
 30
0.0
 10
83.13979463363594
 20
8.441235830122798
 30
0.0
 10
79.60710153910784
 20
9.369649477939532
 30
0.0
 10
76.27507483193763
 20
9.920184288538282
 30
0.0
 10
74.12062369741318
 20
9.954874306351732
 30
0.0
 10
73.14391952854861
 20
9.970600764229298
 30
0.0
  0
SPLINE
  5
B8
330
1F
100
AcDbEntity
  8
0
  6
Continuous
 62
     1
370
    15
100
AcDbSpline
210
0.0
220
0.0
230
1.0
 70
     8
 71
     3
 72
    13
 73
     9
 74
     0
 42
0.000000001
 43
0.00000001
 40
0.0
 40
0.0
 40
0.0
 40
0.0
 40
0.0133103683347121
 40
0.2106630448404622
 40
0.4079728066530347
 40
0.605275199650986
 40
0.8026223685448439
 40
1.0
 40
1.0
 40
1.0
 40
1.0
 10
30.24988071849148
 20
-7.858372221174178
 30
0.0
 10
30.16890630814272
 20
-7.890564016537287
 30
0.0
 10
28.8873252572455
 20
-8.400063187374505
 30
0.0
 10
26.40547622271703
 20
-9.076857558910364
 30
0.0
 10
22.8045037738087
 20
-9.80223902993822
 30
0.0
 10
19.20362109969445
 20
-10.06219842646289
 30
0.0
 10
15.60209374488715
 20
-9.926680736895541
 30
0.0
 10
13.20075968861923
 20
-9.478418555530572
 30
0.0
 10
11.99999999999647
 20
-9.254270167715799
 30
0.0
  0
LINE
  5
B9
330
1F
100
AcDbEntity
  8
0
  6
Continuous
 62
     1
370
    15
100
AcDbLine
 10
122.0000000000001
 20
-9.99999999999998
 30
0.0
 11
121.9999999999982
 21
-9.489408692318971
 31
0.0
  0
SPLINE
  5
BA
330
1F
100
AcDbEntity
  8
0
  6
Continuous
 62
     1
370
    15
100
AcDbSpline
210
0.0
220
0.0
230
1.0
 70
     8
 71
     3
 72
    18
 73
    14
 74
     0
 42
0.000000001
 43
0.00000001
 40
0.0
 40
0.0
 40
0.0
 40
0.0
 40
0.0466164381094328
 40
0.1443862729586394
 40
0.2421581461665748
 40
0.3399276342313013
 40
0.4376903179369599
 40
0.5354417902863404
 40
0.6331776643864001
 40
0.7309045274901707
 40
0.8286477699879882
 40
0.9264046927932477
 40
0.9999999999999999
 40
0.9999999999999999
 40
0.9999999999999999
 40
0.9999999999999999
 10
77.75875372361908
 20
-8.27710736425152
 30
0.0
 10
77.1971786689232
 20
-8.342439481560222
 30
0.0
 10
75.4577980464969
 20
-8.544794301131718
 30
0.0
 10
72.54054467871082
 20
-8.508631736564572
 30
0.0
 10
69.00705450026032
 20
-8.182076454601392
 30
0.0
 10
65.47366063080875
 20
-7.497502343204912
 30
0.0
 10
61.94055016432365
 20
-6.50713910345519
 30
0.0
 10
58.40790302115459
 20
-5.245640804015189
 30
0.0
 10
54.87577715523561
 20
-3.7673105947991
 30
0.0
 10
51.34383509463436
 20
-2.131690868200208
 30
0.0
 10
47.81150108603758
 20
-0.4112261322365979
 30
0.0
 10
44.56981223381806
 20
1.194676798510336
 30
0.0
 10
42.50556319900629
 20
2.164849697334959
 30
0.0
 10
41.61897396782112
 20
2.581536264691908
 30
0.0
  0
SPLINE
  5
BB
330
1F
100
AcDbEntity
  8
0
  6
Continuous
 62
   131
370
    15
100
AcDbSpline
210
0.0
220
0.0
230
1.0
 70
    24
 71
     3
 72
     8
 73
     4
 74
     0
 42
0.000000001
 43
0.00000001
 40
0.0
 40
0.0
 40
0.0
 40
0.0
 40
1.0
 40
1.0
 40
1.0
 40
1.0
 10
12.0
 20
-7.657700875333804
 30
0.0
 10
12.0
 20
-8.184348522771238
 30
0.0
 10
12.0
 20
-8.719934094717736
 30
0.0
 10
12.0
 20
-9.254270167704245
 30
0.0
  0
SPLINE
  5
BC
330
1F
100
AcDbEntity
  8
0
  6
Continuous
 62
     1
370
    15
100
AcDbSpline
210
0.0
220
0.0
230
1.0
 70
     8
 71
     3
 72
    15
 73
    11
 74
     0
 42
0.000000001
 43
0.00000001
 40
0.0
 40
0.0
 40
0.0
 40
0.0
 40
0.1360830871610048
 40
0.2721896040962019
 40
0.4083134521985154
 40
0.5444485017987414
 40
0.6805886031195654
 40
0.8167275973069703
 40
0.9528593274966219
 40
1.0
 40
1.0
 40
1.0
 40
1.0
 10
122.0
 20
-7.889722643682143
 30
0.0
 10
120.8227291118417
 20
-7.643019585142334
 30
0.0
 10
118.4679846417763
 20
-7.149570992564297
 30
0.0
 10
114.9354959177969
 20
-6.025458480279005
 30
0.0
 10
111.4024989141785
 20
-4.674821847049383
 30
0.0
 10
107.8691662824934
 20
-3.124575180720917
 30
0.0
 10
104.3356825865097
 20
-1.444381786723299
 30
0.0
 10
100.8022359512421
 20
0.2884690280195726
 30
0.0
 10
98.03879497970213
 20
1.656706849778642
 30
0.0
 10
96.45321663229642
 20
2.38399094628099
 30
0.0
 10
96.04537983578379
 20
2.571060362659828
 30
0.0
  0
SPLINE
  5
BD
330
1F
100
AcDbEntity
  8
0
  6
Continuous
 62
     1
370
    15
100
AcDbSpline
210
0.0
220
0.0
230
1.0
 70
     8
 71
     3
 72
    11
 73
     7
 74
     0
 42
0.000000001
 43
0.00000001
 40
0.0
 40
0.0
 40
0.0
 40
0.0
 40
0.022487939043437
 40
0.3482471068129976
 40
0.6740805576392133
 40
1.0
 40
1.0
 40
1.0
 40
1.0
 10
23.33441629261295
 20
-8.309703497207233
 30
0.0
 10
23.24945561413082
 20
-8.321965285899298
 30
0.0
 10
21.93375876805169
 20
-8.511850736412006
 30
0.0
 10
19.3871269483103
 20
-8.533901884076572
 30
0.0
 10
15.69394959974438
 20
-8.34958126011552
 30
0.0
 10
13.23142483415265
 20
-7.888347955126735
 30
0.0
 10
12.00000000000005
 20
-7.657700875333814
 30
0.0
  0
LINE
  5
BE
330
1F
100
AcDbEntity
  8
0
  6
Continuous
 62
     1
370
    15
100
AcDbLine
 10
121.9999999999994
 20
-9.489408692318996
 30
0.0
 11
122.0
 21
-7.889722643682143
 31
0.0
  0
SPLINE
  5
BF
330
1F
100
AcDbEntity
  8
0
  6
Continuous
 62
     1
370
    15
100
AcDbSpline
210
0.0
220
0.0
230
1.0
 70
     8
 71
     3
 72
    15
 73
    11
 74
     0
 42
0.000000001
 43
0.00000001
 40
0.0
 40
0.0
 40
0.0
 40
0.0
 40
0.1256811948657225
 40
0.251362203083861
 40
0.3770437310469413
 40
0.5229394832560992
 40
0.6688340321777334
 40
0.814720687362323
 40
0.9605927725773072
 40
1.0
 40
1.0
 40
1.0
 40
1.0
 10
117.0
 20
2.277336188987585
 30
0.0
 10
115.9854688807219
 20
2.719792263137058
 30
0.0
 10
113.9564081488333
 20
3.604703754349977
 30
0.0
 10
110.912778371152
 20
4.802137489168905
 30
0.0
 10
107.706121869756
 20
5.913657523068388
 30
0.0
 10
104.3356407664097
 20
6.862421331287303
 30
0.0
 10
100.8022298481394
 20
7.579883587741084
 30
0.0
 10
97.26898893422043
 20
7.957532583640459
 30
0.0
 10
94.59546576854024
 20
8.065367917238039
 30
0.0
 10
93.09973367359352
 20
7.94032704426324
 30
0.0
 10
92.78160503856208
 20
7.913731985979067
 30
0.0
  0
SPLINE
  5
C0
330
1F
100
AcDbEntity
  8
0
  6
Continuous
 62
     1
370
    15
100
AcDbSpline
210
0.0
220
0.0
230
1.0
 70
     8
 71
     3
 72
    17
 73
    13
 74
     0
 42
0.000000001
 43
0.00000001
 40
0.0
 40
0.0
 40
0.0
 40
0.0
 40
0.0621174179743838
 40
0.16478000469778
 40
0.2674477765698659
 40
0.3701160250234777
 40
0.4727800406327004
 40
0.5754351215966831
 40
0.6780765821940572
 40
0.7853582783244425
 40
0.892664782763534
 40
1.0
 40
1.0
 40
1.0
 40
1.0
 10
46.41653907954569
 20
-7.481481692277753
 30
0.0
 10
45.70392409203316
 20
-7.597546224720264
 30
0.0
 10
43.81355735080054
 20
-7.905432721371004
 30
0.0
 10
40.74532370671982
 20
-8.045357167015359
 30
0.0
 10
37.2118655359982
 20
-7.923645550158047
 30
0.0
 10
33.67838627277025
 20
-7.459799769989383
 30
0.0
 10
30.14507271463555
 20
-6.6903042137991
 30
0.0
 10
26.61210668492889
 20
-5.642480721619116
 30
0.0
 10
23.02623072668917
 20
-4.341665537449924
 30
0.0
 10
19.38707584597982
 20
-2.830793880899195
 30
0.0
 10
15.69392429059443
 20
-1.167957010957513
 30
0.0
 10
13.23141790069116
 20
-0.0285771871274208
 30
0.0
 10
12.0
 20
0.5411889326696692
 30
0.0
  0
SPLINE
  5
C1
330
1F
100
AcDbEntity
  8
0
  6
Continuous
 62
     1
370
    15
100
AcDbSpline
210
0.0
220
0.0
230
1.0
 70
    24
 71
     3
 72
     8
 73
     4
 74
     0
 42
0.000000001
 43
0.00000001
 40
0.0
 40
0.0
 40
0.0
 40
0.0
 40
1.0
 40
1.0
 40
1.0
 40
1.0
 10
117.0
 20
1.639931148963795
 30
0.0
 10
117.0
 20
1.854493127011698
 30
0.0
 10
117.0
 20
2.067125113709735
 30
0.0
 10
117.0
 20
2.277336188987592
 30
0.0
  0
SPLINE
  5
C2
330
1F
100
AcDbEntity
  8
0
  6
Continuous
 62
     1
370
    15
100
AcDbSpline
210
0.0
220
0.0
230
1.0
 70
    24
 71
     3
 72
    10
 73
     6
 74
     0
 42
0.000000001
 43
0.00000001
 40
0.0
 40
0.0
 40
0.0
 40
0.0
 40
0.5
 40
0.5
 40
1.0
 40
1.0
 40
1.0
 40
1.0
 10
122.0
 20
-7.889722643682139
 30
0.0
 10
122.0
 20
-7.284913890038029
 30
0.0
 10
122.0
 20
-6.520714839064664
 30
0.0
 10
122.0
 20
-4.744025591506779
 30
0.0
 10
122.0
 20
-3.73307443051308
 30
0.0
 10
122.0
 20
-2.67242946029675
 30
0.0
  0
SPLINE
  5
C3
330
1F
100
AcDbEntity
  8
0
  6
Continuous
 62
   131
370
    15
100
AcDbSpline
210
0.0
220
0.0
230
1.0
 70
    24
 71
     3
 72
    14
 73
    10
 74
     0
 42
0.000000001
 43
0.00000001
 40
0.0
 40
0.0
 40
0.0
 40
0.0
 40
0.25
 40
0.25
 40
0.4999999999999999
 40
0.4999999999999999
 40
0.75
 40
0.75
 40
1.0
 40
1.0
 40
1.0
 40
1.0
 10
12.0
 20
0.5411889326696692
 30
0.0
 10
12.0
 20
-0.2291352689570284
 30
0.0
 10
12.0
 20
-1.013803482044607
 30
0.0
 10
12.0
 20
-2.557042211412201
 30
0.0
 10
12.0
 20
-3.315168519072001
 30
0.0
 10
12.0
 20
-4.748127650921268
 30
0.0
 10
12.0
 20
-5.42254668001251
 30
0.0
 10
12.0
 20
-6.642742980494343
 30
0.0
 10
12.0
 20
-7.188330420370776
 30
0.0
 10
12.0
 20
-7.6577008753338
 30
0.0
  0
SPLINE
  5
C4
330
1F
100
AcDbEntity
  8
0
  6
Continuous
 62
     1
370
    15
100
AcDbSpline
210
0.0
220
0.0
230
1.0
 70
     8
 71
     3
 72
    26
 73
    22
 74
     0
 42
0.000000001
 43
0.00000001
 40
0.0
 40
0.0
 40
0.0
 40
0.0
 40
0.0001993513941621
 40
0.0567787758273974
 40
0.1133525495690514
 40
0.1699180935319964
 40
0.2264744499010091
 40
0.2830372196297533
 40
0.3396089412457617
 40
0.3961870393498618
 40
0.4527689270768855
 40
0.5093520107381224
 40
0.5659336944900624
 40
0.6225113850114437
 40
0.6790824961705793
 40
0.7356444536649851
 40
0.792201125202624
 40
0.8487674090038748
 40
0.905341720370496
 40
0.9619214792488407
 40
1.0
 40
1.0
 40
1.0
 40
1.0
 10
100.8146118412173
 20
-7.520770937657205
 30
0.0
 10
100.8104620976289
 20
-7.521601866140022
 30
0.0
 10
99.62854229245417
 20
-7.758264881479455
 30
0.0
 10
97.26898861976147
 20
-7.950060933760858
 30
0.0
 10
93.73615375319804
 20
-8.046955463981115
 30
0.0
 10
90.20386068215807
 20
-7.772947304610028
 30
0.0
 10
86.67191819674201
 20
-7.18665117118829
 30
0.0
 10
83.13975588899784
 20
-6.299791505184731
 30
0.0
 10
79.60706574829545
 20
-5.152466786306011
 30
0.0
 10
76.07392511262104
 20
-3.791278919724074
 30
0.0
 10
72.54051647195688
 20
-2.272914357487898
 30
0.0
 10
69.00702333017988
 20
-0.6602802305876315
 30
0.0
 10
65.47362904786289
 20
0.9797069767878824
 30
0.0
 10
61.94051747653334
 20
2.579049992960302
 30
0.0
 10
58.40786955690555
 20
4.071331837090186
 30
0.0
 10
54.87574052147197
 20
5.395059933134004
 30
0.0
 10
51.3437883445719
 20
6.49429488050273
 30
0.0
 10
47.81145479543657
 20
7.327601226732281
 30
0.0
 10
44.27858355698455
 20
7.844517498046732
 30
0.0
 10
41.13050936924299
 20
8.057431343342625
 30
0.0
 10
39.16007889218485
 20
7.952049645736349
 30
0.0
 10
38.36742685896547
 20
7.9096573777298
 30
0.0
  0
SPLINE
  5
C5
330
1F
100
AcDbEntity
  8
0
  6
Continuous
 62
     1
370
    15
100
AcDbSpline
210
0.0
220
0.0
230
1.0
 70
    24
 71
     3
 72
    10
 73
     6
 74
     0
 42
0.000000001
 43
0.00000001
 40
0.0
 40
0.0
 40
0.0
 40
0.0
 40
0.4999999999999999
 40
0.4999999999999999
 40
1.0
 40
1.0
 40
1.0
 40
1.0
 10
117.0
 20
2.277336188987596
 30
0.0
 10
117.0
 20
2.878840455911257
 30
0.0
 10
117.0
 20
3.450743803947688
 30
0.0
 10
117.0
 20
4.486413301752656
 30
0.0
 10
117.0
 20
4.949784524560221
 30
0.0
 10
117.0
 20
5.338750903172989
 30
0.0
  0
SPLINE
  5
C6
330
1F
100
AcDbEntity
  8
0
  6
Continuous
 62
     1
370
    15
100
AcDbSpline
210
0.0
220
0.0
230
1.0
 70
     8
 71
     3
 72
    10
 73
     6
 74
     0
 42
0.000000001
 43
0.00000001
 40
0.0
 40
0.0
 40
0.0
 40
0.0
 40
0.5
 40
0.5
 40
1.0
 40
1.0
 40
1.0
 40
1.0
 10
122.0
 20
7.000000000000019
 30
0.0
 10
121.1576359540482
 20
6.771599311814838
 30
0.0
 10
120.3193608276095
 20
6.520011639069245
 30
0.0
 10
118.6514643580287
 20
5.967828526894
 30
0.0
 10
117.822597271291
 20
5.667959600724488
 30
0.0
 10
117.0
 20
5.338750903172985
 30
0.0
  0
SPLINE
  5
C7
330
1F
100
AcDbEntity
  8
0
  6
Continuous
 62
   131
370
    15
100
AcDbSpline
210
0.0
220
0.0
230
1.0
 70
    24
 71
     3
 72
    14
 73
    10
 74
     0
 42
0.000000001
 43
0.00000001
 40
0.0
 40
0.0
 40
0.0
 40
0.0
 40
0.2499999999999998
 40
0.2499999999999998
 40
0.4999999999999999
 40
0.4999999999999999
 40
0.75
 40
0.75
 40
1.0
 40
1.0
 40
1.0
 40
1.0
 10
12.0
 20
6.983964459319742
 30
0.0
 10
12.0
 20
6.854356644460303
 30
0.0
 10
12.0
 20
6.613172206835507
 30
0.0
 10
12.0
 20
5.898179605603886
 30
0.0
 10
12.0
 20
5.424266677984949
 30
0.0
 10
12.0
 20
4.279199714528764
 30
0.0
 10
12.0
 20
3.608655818242856
 30
0.0
 10
12.0
 20
2.144435693653482
 30
0.0
 10
12.0
 20
1.351707031820901
 30
0.0
 10
12.0
 20
0.5411889326696687
 30
0.0
  0
LINE
  5
C8
330
1F
100
AcDbEntity
  8
0
  6
Continuous
 62
     1
370
    15
100
AcDbLine
 10
122.0
 20
0.0000000000000184
 30
0.0
 11
122.0
 21
7.000000000000018
 31
0.0
  0
SPLINE
  5
C9
330
1F
100
AcDbEntity
  8
0
  6
Continuous
 62
   131
370
    15
100
AcDbSpline
210
0.0
220
0.0
230
1.0
 70
     8
 71
     3
 72
    10
 73
     6
 74
     0
 42
0.000000001
 43
0.00000001
 40
0.0
 40
0.0
 40
0.0
 40
0.0
 40
0.5
 40
0.5
 40
1.0
 40
1.0
 40
1.0
 40
1.0
 10
12.0
 20
-9.254270167716564
 30
0.0
 10
11.49080980085828
 20
-9.142997621000015
 30
0.0
 10
10.9807896535239
 20
-9.019671659683384
 30
0.0
 10
9.965010323056338
 20
-8.750405014106482
 30
0.0
 10
9.4592026751229
 20
-8.604501216648062
 30
0.0
 10
8.950205791304237
 20
-8.447363353455817
 30
0.0
  0
SPLINE
  5
CA
330
1F
100
AcDbEntity
  8
0
  6
Continuous
 62
   131
370
    15
100
AcDbSpline
210
0.0
220
0.0
230
1.0
 70
     8
 71
     3
 72
    10
 73
     6
 74
     0
 42
0.000000001
 43
0.00000001
 40
0.0
 40
0.0
 40
0.0
 40
0.0
 40
0.5
 40
0.5
 40
1.0
 40
1.0
 40
1.0
 40
1.0
 10
12.0
 20
-9.940852353368768
 30
0.0
 10
11.49079224620974
 20
-9.908959798981952
 30
0.0
 10
10.98075448721078
 20
-9.8641659787276
 30
0.0
 10
9.96494043051375
 20
-9.749361242815388
 30
0.0
 10
9.459115090150084
 20
-9.679394003833279
 30
0.0
 10
8.950100503385007
 20
-9.596863787206953
 30
0.0
  0
LINE
  5
CB
330
1F
100
AcDbEntity
  8
0
  6
Continuous
 62
   131
370
    15
100
AcDbLine
 10
8.950100503385011
 20
-9.999999999999995
 30
0.0
 11
8.950100503385007
 21
-9.596863567759351
 31
0.0
  0
SPLINE
  5
CC
330
1F
100
AcDbEntity
  8
0
  6
Continuous
 62
   131
370
    15
100
AcDbSpline
210
0.0
220
0.0
230
1.0
 70
     8
 71
     3
 72
    10
 73
     6
 74
     0
 42
0.000000001
 43
0.00000001
 40
0.0
 40
0.0
 40
0.0
 40
0.0
 40
0.5
 40
0.5
 40
1.0
 40
1.0
 40
1.0
 40
1.0
 10
12.0
 20
9.94085235336878
 30
0.0
 10
11.49079224620974
 20
9.908959798981963
 30
0.0
 10
10.98075448721078
 20
9.86416597872761
 30
0.0
 10
9.96494043051375
 20
9.749361242815398
 30
0.0
 10
9.459115090150084
 20
9.679394003833288
 30
0.0
 10
8.950100503385007
 20
9.596863787206964
 30
0.0
  0
LINE
  5
CD
330
1F
100
AcDbEntity
  8
0
  6
Continuous
 62
   131
370
    15
100
AcDbLine
 10
8.950100503385011
 20
-8.447133981447859
 30
0.0
 11
8.950100503385007
 21
10.00000000000001
 31
0.0
  0
LINE
  5
CE
330
1F
100
AcDbEntity
  8
0
  6
Continuous
 62
   131
370
    15
100
AcDbLine
 10
-76.99999999999999
 20
9.999999999999995
 30
0.0
 11
-76.99999999999999
 21
-10.0
 31
0.0
  0
LINE
  5
CF
330
1F
100
AcDbEntity
  8
0
  6
Continuous
 62
   131
370
    15
100
AcDbLine
 10
-77.99999999999999
 20
8.999999999999991
 30
0.0
 11
-77.99999999999999
 21
-8.999999999999988
 31
0.0
  0
SPLINE
  5
D0
330
1F
100
AcDbEntity
  8
0
  6
Continuous
 62
   131
370
    15
100
AcDbSpline
210
0.0
220
0.0
230
1.0
 70
     8
 71
     3
 72
    10
 73
     6
 74
     0
 42
0.000000001
 43
0.00000001
 40
0.0
 40
0.0
 40
0.0
 40
0.0
 40
0.5
 40
0.5
 40
1.0
 40
1.0
 40
1.0
 40
1.0
 10
12.00000000000005
 20
-7.657700875333814
 30
0.0
 10
11.49080980085832
 20
-7.549368891721589
 30
0.0
 10
10.98078965352394
 20
-7.431054205243986
 30
0.0
 10
9.965010323056353
 20
-7.175882844939573
 30
0.0
 10
9.459202675122906
 20
-7.039055938475541
 30
0.0
 10
8.950205791304237
 20
-6.893024843237031
 30
0.0
  0
SPLINE
  5
D1
330
1F
100
AcDbEntity
  8
0
  6
Continuous
 62
   131
370
    15
100
AcDbSpline
210
0.0
220
0.0
230
1.0
 70
     8
 71
     3
 72
    10
 73
     6
 74
     0
 42
0.000000001
 43
0.00000001
 40
0.0
 40
0.0
 40
0.0
 40
0.0
 40
0.5
 40
0.5
 40
1.0
 40
1.0
 40
1.0
 40
1.0
 10
12.0
 20
0.5411889326696692
 30
0.0
 10
11.49079865632633
 20
0.7755779247935114
 30
0.0
 10
10.9807673282637
 20
1.009392005808143
 30
0.0
 10
9.964965951917943
 20
1.473160732235983
 30
0.0
 10
9.459147071991605
 20
1.703128788006705
 30
0.0
 10
8.95013894949237
 20
1.931080182360692
 30
0.0
  0
SPLINE
  5
D2
330
1F
100
AcDbEntity
  8
0
  6
Continuous
 62
   131
370
    15
100
AcDbSpline
210
0.0
220
0.0
230
1.0
 70
    24
 71
     3
 72
    14
 73
    10
 74
     0
 42
0.000000001
 43
0.00000001
 40
0.0
 40
0.0
 40
0.0
 40
0.0
 40
0.25
 40
0.25
 40
0.4999999999999999
 40
0.4999999999999999
 40
0.75
 40
0.75
 40
1.0
 40
1.0
 40
1.0
 40
1.0
 10
12.0
 20
0.5411889326696692
 30
0.0
 10
12.0
 20
-0.2291352689570284
 30
0.0
 10
12.0
 20
-1.013803482044607
 30
0.0
 10
12.0
 20
-2.557042211412201
 30
0.0
 10
12.0
 20
-3.315168519072001
 30
0.0
 10
12.0
 20
-4.748127650921268
 30
0.0
 10
12.0
 20
-5.42254668001251
 30
0.0
 10
12.0
 20
-6.642742980494343
 30
0.0
 10
12.0
 20
-7.188330420370776
 30
0.0
 10
12.0
 20
-7.6577008753338
 30
0.0
  0
LINE
  5
D3
330
1F
100
AcDbEntity
  8
0
  6
Continuous
 62
   131
370
    15
100
AcDbLine
 10
12.00000000000002
 20
6.983964459319741
 30
0.0
 11
9.560253824219295
 21
6.83120624500646
 31
0.0
  0
SPLINE
  5
D4
330
1F
100
AcDbEntity
  8
0
  6
Continuous
 62
   131
370
    15
100
AcDbSpline
210
0.0
220
0.0
230
1.0
 70
    24
 71
     3
 72
    14
 73
    10
 74
     0
 42
0.000000001
 43
0.00000001
 40
0.0
 40
0.0
 40
0.0
 40
0.0
 40
0.2499999999999998
 40
0.2499999999999998
 40
0.4999999999999999
 40
0.4999999999999999
 40
0.75
 40
0.75
 40
1.0
 40
1.0
 40
1.0
 40
1.0
 10
12.0
 20
6.983964459319742
 30
0.0
 10
12.0
 20
6.854356644460303
 30
0.0
 10
12.0
 20
6.613172206835507
 30
0.0
 10
12.0
 20
5.898179605603886
 30
0.0
 10
12.0
 20
5.424266677984949
 30
0.0
 10
12.0
 20
4.279199714528764
 30
0.0
 10
12.0
 20
3.608655818242856
 30
0.0
 10
12.0
 20
2.144435693653482
 30
0.0
 10
12.0
 20
1.351707031820901
 30
0.0
 10
12.0
 20
0.5411889326696687
 30
0.0
  0
SPLINE
  5
D5
330
1F
100
AcDbEntity
  8
0
  6
Continuous
 62
   131
370
    15
100
AcDbSpline
210
0.0
220
0.0
230
1.0
 70
    24
 71
     3
 72
     8
 73
     4
 74
     0
 42
0.000000001
 43
0.00000001
 40
0.0
 40
0.0
 40
0.0
 40
0.0
 40
1.0
 40
1.0
 40
1.0
 40
1.0
 10
12.0
 20
-7.657700875333804
 30
0.0
 10
12.0
 20
-8.18434852277122
 30
0.0
 10
12.0
 20
-8.719934094717694
 30
0.0
 10
12.0
 20
-9.254270167704187
 30
0.0
  0
SPLINE
  5
D6
330
1F
100
AcDbEntity
  8
0
  6
Continuous
 62
   131
370
    15
100
AcDbSpline
210
0.0
220
0.0
230
1.0
 70
    24
 71
     3
 72
    10
 73
     6
 74
     0
 42
0.000000001
 43
0.00000001
 40
0.0
 40
0.0
 40
0.0
 40
0.0
 40
0.5
 40
0.5
 40
1.0
 40
1.0
 40
1.0
 40
1.0
 10
12.0
 20
9.940852353368776
 30
0.0
 10
12.0
 20
9.43251700184652
 30
0.0
 10
12.0
 20
8.892912261598825
 30
0.0
 10
12.0
 20
7.870746248406631
 30
0.0
 10
12.0
 20
7.390742248799773
 30
0.0
 10
12.0
 20
6.983964459319742
 30
0.0
  0
LINE
  5
D7
330
1F
100
AcDbEntity
  8
중심선
100
AcDbLine
 10
-80.99999999999999
 20
0.0000000000000005
 30
0.0
 11
132.0
 21
0.0000000000000193
 31
0.0
  0
CIRCLE
  5
D8
330
1F
100
AcDbEntity
  8
외형선
100
AcDbCircle
 10
0.0000000000000104
 20
0.0
 30
0.0
 40
3.000000000000005
  0
INSERT
  5
D9
330
1F
100
AcDbEntity
  8
0
  6
Continuous
 62
     7
100
AcDbBlockReference
 66
     1
  2
블럭10
 10
-22.93944368806589
 20
-52.04609937292004
 30
0.0
  0
ATTRIB
  5
DA
330
D9
100
AcDbEntity
  8
FORMAT
 62
     2
100
AcDbText
 10
-40.63836564979034
 20
-49.97073246008785
 30
0.0
 40
4.233333333333333
  1
SEME70200110E [ 2 FLUTE ]
 41
0.75
  7
SLDTEXTSTYLE0
 11
-40.63836564979034
 21
-52.08739912675452
 31
0.0
100
AcDbAttribute
  2
AUTOATTR0
 70
     0
 74
     1
  0
SEQEND
  5
DB
330
D9
100
AcDbEntity
  8
0
  6
Continuous
 62
     7
  0
HATCH
  5
DC
330
1F
100
AcDbEntity
  8
중심선
100
AcDbHatch
 10
0.0
 20
0.0
 30
0.0
210
0.0
220
0.0
230
1.0
  2
SOLID
 70
     1
 71
     0
 91
        1
 92
        0
 93
        4
 72
     1
 10
-17.22453438368504
 20
-35.7989250712761
 11
-20.67080962752232
 21
-35.7989250712761
 72
     1
 10
-20.67080962752232
 20
-35.7989250712761
 11
-22.79903948672635
 21
-38.3352506518487
 72
     1
 10
-22.79903948672635
 20
-38.3352506518487
 11
-19.35273115777591
 21
-38.33521122254621
 72
     1
 10
-19.35273115777591
 20
-38.33521122254621
 11
-17.22453438368504
 21
-35.7989250712761
 97
        0
 75
     0
 76
     1
 98
        1
 10
0.0
 20
0.0
  0
HATCH
  5
DD
330
1F
100
AcDbEntity
  8
중심선
100
AcDbHatch
 10
0.0
 20
0.0
 30
0.0
210
0.0
220
0.0
230
1.0
  2
SOLID
 70
     1
 71
     0
 91
        1
 92
        0
 93
        4
 72
     1
 10
-12.21177039264909
 20
-35.7989250712761
 11
-15.65804563648637
 21
-35.7989250712761
 72
     1
 10
-15.65804563648637
 20
-35.7989250712761
 11
-20.18918364484376
 21
-41.19892507127612
 72
     1
 10
-20.18918364484376
 20
-41.19892507127612
 11
-16.74290840100648
 21
-41.19892507127612
 72
     1
 10
-16.74290840100648
 20
-41.19892507127612
 11
-12.21177039264909
 21
-35.7989250712761
 97
        0
 75
     0
 76
     1
 98
        1
 10
0.0
 20
0.0
  0
HATCH
  5
DE
330
1F
100
AcDbEntity
  8
중심선
100
AcDbHatch
 10
0.0
 20
0.0
 30
0.0
210
0.0
220
0.0
230
1.0
  2
SOLID
 70
     1
 71
     0
 91
        1
 92
        0
 93
        4
 72
     1
 10
-7.199006401613195
 20
-35.79892507127613
 11
-10.64528164545031
 21
-35.7989250712761
 72
     1
 10
-10.64528164545031
 20
-35.7989250712761
 11
-17.69371854733956
 21
-44.19892507127612
 72
     1
 10
-17.69371854733956
 20
-44.19892507127612
 11
-14.24744330350228
 21
-44.19892507127612
 72
     1
 10
-14.24744330350228
 20
-44.19892507127612
 11
-7.199006401613195
 21
-35.79892507127613
 97
        0
 75
     0
 76
     1
 98
        1
 10
0.0
 20
0.0
  0
HATCH
  5
DF
330
1F
100
AcDbEntity
  8
중심선
100
AcDbHatch
 10
0.0
 20
0.0
 30
0.0
210
0.0
220
0.0
230
1.0
  2
SOLID
 70
     1
 71
     0
 91
        1
 92
        0
 93
        6
 72
     3
 10
-2.399115970600996
 20
-39.99892507132738
 11
3.960054785062284
 21
1.540850780301639E-10
 40
0.3939339440162633
 50
17.09539180608433
 51
320.0019657685079
 73
     0
 72
     1
 10
-0.7161163149004002
 20
-38.58681907591441
 11
1.589185558800638
 21
-36.65249236586649
 72
     3
 10
-2.399115970653842
 20
-39.99892507127625
 11
6.600054785286829
 21
-1.249000902703301E-13
 40
0.6363583540795982
 50
39.99873849337408
 51
368.4976242363725
 73
     1
 72
     1
 10
4.026216521246767
 20
-39.03892507120613
 11
-3.71904866381792
 21
-39.0389250712061
 72
     1
 10
-3.71904866381792
 20
-39.0389250712061
 11
-3.719073708263854
 21
-40.95892507120602
 72
     1
 10
-3.719073708263854
 20
-40.95892507120602
 11
0.7223060612081831
 21
-40.95892507120599
 97
        0
 75
     0
 76
     1
 98
        1
 10
0.0
 20
0.0
  0
DIMENSION
  5
E0
330
1F
100
AcDbEntity
  8
치수문자_일반주서
100
AcDbDimension
  2
_D
 10
138.2262538042091
 20
10.00000000000008
 30
0.0
 11
138.2262538042091
 21
21.47945535954019
 31
0.0
 70
   160
  1
%%c<>
 71
     2
 42
20.0
 52
-270.0
  3
SLDDIMSTYLE0
100
AcDbAlignedDimension
 13
122.0000000000001
 23
-9.99999999999998
 33
0.0
 14
121.9999999999994
 24
10.00000000000002
 34
0.0
 50
90.0000000000002
100
AcDbRotatedDimension
  0
DIMENSION
  5
EE
330
1F
100
AcDbEntity
  8
치수문자_일반주서
100
AcDbDimension
  2
_D_1
 10
121.9999999999994
 20
30.78841044024269
 30
0.0
 11
21.99999999999973
 21
30.78841044024269
 31
0.0
 70
   160
  1
<>
 71
     2
 42
199.9999999999994
  3
SLDDIMSTYLE1
100
AcDbAlignedDimension
 13
-77.99999999999999
 23
8.999999999999991
 33
0.0
 14
121.9999999999994
 24
10.00000000000002
 34
0.0
 50
-0.0000000000000041
100
AcDbRotatedDimension
  0
DIMENSION
  5
F9
330
1F
100
AcDbEntity
  8
치수문자_일반주서
100
AcDbDimension
  2
_D_2
 10
121.9999999999994
 20
23.2878501595364
 30
0.0
 11
66.99999999999994
 21
23.2878501595364
 31
0.0
 70
   160
  1
<>
 71
     2
 42
109.9999999999994
  3
SLDDIMSTYLE1
100
AcDbAlignedDimension
 13
12.0
 23
9.94085235336878
 33
0.0
 14
121.9999999999994
 24
10.00000000000002
 34
0.0
 50
0.0000000000001073
100
AcDbRotatedDimension
  0
DIMENSION
  5
103
330
1F
100
AcDbEntity
  8
치수문자_일반주서
100
AcDbDimension
  2
_D_3
 10
-90.61769435893333
 20
-10.00000000000005
 30
0.0
 11
-90.61769435893345
 21
20.76024999999995
 31
0.0
 70
   160
  1
%%c<>
 71
     2
 42
19.99999999999999
 52
-270.0
  3
SLDDIMSTYLE0
100
AcDbAlignedDimension
 13
-76.99999999999999
 23
9.999999999999995
 33
0.0
 14
-76.99999999999999
 24
-9.999999999999995
 34
0.0
 50
90.0000000000002
100
AcDbRotatedDimension
  0
INSERT
  5
116
330
1F
100
AcDbEntity
  8
외형선
100
AcDbBlockReference
  2
SW_DOWELSYMBOL_0
 10
0.0000000000000104
 20
0.0
 30
0.0
  0
ENDSEC
  0
SECTION
  2
OBJECTS
  0
DICTIONARY
  5
C
330
0
100
AcDbDictionary
281
     1
  3
ACAD_GROUP
350
D
  3
ACAD_IMAGE_VARS
350
13A
  3
ACAD_LAYOUT
350
1A
  3
ACAD_MLINESTYLE
350
17
  3
ACAD_PLOTSETTINGS
350
19
  3
ACAD_PLOTSTYLENAME
350
E
  3
ACAD_SCALELIST
350
47
  3
APPDATA
350
138
  3
DWGPROPS
350
14C
  0
DICTIONARY
  5
D
102
{ACAD_REACTORS
330
C
102
}
330
C
100
AcDbDictionary
281
     1
  0
RASTERVARIABLES
  5
13A
102
{ACAD_REACTORS
330
C
102
}
330
C
100
AcDbRasterVariables
 90
        0
 70
     1
 71
     1
 72
     1
  0
DICTIONARY
  5
1A
102
{ACAD_REACTORS
330
C
102
}
330
C
100
AcDbDictionary
281
     1
  3
Layout1
350
1E
  3
Layout2
350
26
  3
Model
350
22
  0
DICTIONARY
  5
17
102
{ACAD_REACTORS
330
C
102
}
330
C
100
AcDbDictionary
281
     1
  3
Standard
350
18
  0
DICTIONARY
  5
19
102
{ACAD_REACTORS
330
C
102
}
330
C
100
AcDbDictionary
281
     1
  0
ACDBDICTIONARYWDFLT
  5
E
102
{ACAD_REACTORS
330
C
102
}
330
C
100
AcDbDictionary
281
     1
  3
Normal
350
F
100
AcDbDictionaryWithDefault
340
F
  0
DICTIONARY
  5
47
102
{ACAD_REACTORS
330
C
102
}
330
C
100
AcDbDictionary
281
     1
  3
A0
350
48
  3
A1
350
49
  3
A2
350
4A
  3
A3
350
4B
  3
A4
350
4C
  3
A5
350
4D
  3
A6
350
4E
  3
A7
350
4F
  3
A8
350
50
  3
A9
350
51
  3
B0
350
52
  3
B1
350
53
  3
B2
350
54
  3
B3
350
55
  3
B4
350
56
  3
B5
350
57
  3
B6
350
58
  3
B7
350
59
  3
B8
350
5A
  3
B9
350
5B
  3
C0
350
5C
  3
C1
350
5D
  3
C2
350
5E
  3
C3
350
5F
  3
C4
350
60
  3
C5
350
61
  3
C6
350
62
  3
C7
350
63
  3
C8
350
64
  3
C9
350
65
  3
D0
350
66
  3
D1
350
67
  3
D2
350
68
  0
DICTIONARY
  5
138
102
{ACAD_REACTORS
330
C
102
}
330
C
100
AcDbDictionary
281
     1
  0
XRECORD
  5
14C
102
{ACAD_REACTORS
330
C
102
}
330
C
100
AcDbXrecord
280
     1
  1
DWGPROPS COOKIE
  2

  3

  4

  6

  7

  8
12014102
  9

300
=
301
=
302
=
303
=
304
=
305
=
306
=
307
=
308
=
309
=
 40
0.0
 41
2458262.177618484
 42
2458266.252202257
  1

 90
        0
  0
LAYOUT
  5
1E
102
{ACAD_REACTORS
330
1A
102
}
330
1A
100
AcDbPlotSettings
  1

  2
none_device
  4

  6

 40
0.0
 41
0.0
 42
0.0
 43
0.0
 44
0.0
 45
0.0
 46
0.0
 47
0.0
 48
0.0
 49
0.0
140
0.0
141
0.0
142
1.0
143
1.0
 70
   688
 72
     1
 73
     0
 74
     5
  7

 75
    16
147
1.0
148
0.0
149
0.0
100
AcDbLayout
  1
Layout1
 70
     1
 71
     1
 10
0.0
 20
0.0
 11
420.0
 21
297.0
 12
0.0
 22
0.0
 32
0.0
 14
1.000000000000000E+20
 24
1.000000000000000E+20
 34
1.000000000000000E+20
 15
-1.000000000000000E+20
 25
-1.000000000000000E+20
 35
-1.000000000000000E+20
146
0.0
 13
0.0
 23
0.0
 33
0.0
 16
1.0
 26
0.0
 36
0.0
 17
0.0
 27
1.0
 37
0.0
 76
     0
330
1B
  0
LAYOUT
  5
26
102
{ACAD_REACTORS
330
1A
102
}
330
1A
100
AcDbPlotSettings
  1

  2
none_device
  4

  6

 40
0.0
 41
0.0
 42
0.0
 43
0.0
 44
0.0
 45
0.0
 46
0.0
 47
0.0
 48
0.0
 49
0.0
140
0.0
141
0.0
142
1.0
143
1.0
 70
   688
 72
     1
 73
     0
 74
     5
  7

 75
    16
147
1.0
148
0.0
149
0.0
100
AcDbLayout
  1
Layout2
 70
     1
 71
     2
 10
0.0
 20
0.0
 11
0.0
 21
0.0
 12
0.0
 22
0.0
 32
0.0
 14
0.0
 24
0.0
 34
0.0
 15
0.0
 25
0.0
 35
0.0
146
0.0
 13
0.0
 23
0.0
 33
0.0
 16
1.0
 26
0.0
 36
0.0
 17
0.0
 27
1.0
 37
0.0
 76
     0
330
23
  0
LAYOUT
  5
22
102
{ACAD_REACTORS
330
1A
102
}
330
1A
100
AcDbPlotSettings
  1

  2
none_device
  4
ANSI_A_(11.00_x_8.50_Inches)
  6

 40
6.35
 41
19.05
 42
6.35000508
 43
19.05000254
 44
279.4
 45
215.9
 46
111.6273685207664
 47
98.76630211529802
 48
0.0
 49
0.0
140
0.0
141
0.0
142
0.0504022769828517
143
1.0
 70
  1696
 72
     0
 73
     0
 74
     0
  7

 75
     0
147
0.0235690232323232
148
0.0
149
0.0
100
AcDbLayout
  1
Model
 70
     1
 71
     0
 10
0.0
 20
0.0
 11
420.0
 21
297.0
 12
0.0
 22
0.0
 32
0.0
 14
-94.99269435893348
 24
-49.97073246008785
 34
0.0
 15
138.7765871375425
 25
35.16341044024269
 35
0.0
146
0.0
 13
0.0
 23
0.0
 33
0.0
 16
1.0
 26
0.0
 36
0.0
 17
0.0
 27
1.0
 37
0.0
 76
     0
330
1F
331
29
  0
MLINESTYLE
  5
18
102
{ACAD_REACTORS
330
17
102
}
330
17
100
AcDbMlineStyle
  2
Standard
 70
     0
  3

 62
   256
 51
90.0
 52
90.0
 71
     2
 49
0.5
 62
   256
  6
BYLAYER
 49
-0.5
 62
   256
  6
BYLAYER
  0
ACDBPLACEHOLDER
  5
F
102
{ACAD_REACTORS
330
E
102
}
330
E
  0
SCALE
  5
48
102
{ACAD_REACTORS
330
47
102
}
330
47
100
AcDbScale
 70
     0
300
1:1
140
1.0
141
1.0
290
     1
  0
SCALE
  5
49
102
{ACAD_REACTORS
330
47
102
}
330
47
100
AcDbScale
 70
     0
300
1:2
140
1.0
141
2.0
290
     0
  0
SCALE
  5
4A
102
{ACAD_REACTORS
330
47
102
}
330
47
100
AcDbScale
 70
     0
300
1:4
140
1.0
141
4.0
290
     0
  0
SCALE
  5
4B
102
{ACAD_REACTORS
330
47
102
}
330
47
100
AcDbScale
 70
     0
300
1:5
140
1.0
141
5.0
290
     0
  0
SCALE
  5
4C
102
{ACAD_REACTORS
330
47
102
}
330
47
100
AcDbScale
 70
     0
300
1:8
140
1.0
141
8.0
290
     0
  0
SCALE
  5
4D
102
{ACAD_REACTORS
330
47
102
}
330
47
100
AcDbScale
 70
     0
300
1:10
140
1.0
141
10.0
290
     0
  0
SCALE
  5
4E
102
{ACAD_REACTORS
330
47
102
}
330
47
100
AcDbScale
 70
     0
300
1:16
140
1.0
141
16.0
290
     0
  0
SCALE
  5
4F
102
{ACAD_REACTORS
330
47
102
}
330
47
100
AcDbScale
 70
     0
300
1:20
140
1.0
141
20.0
290
     0
  0
SCALE
  5
50
102
{ACAD_REACTORS
330
47
102
}
330
47
100
AcDbScale
 70
     0
300
1:30
140
1.0
141
30.0
290
     0
  0
SCALE
  5
51
102
{ACAD_REACTORS
330
47
102
}
330
47
100
AcDbScale
 70
     0
300
1:40
140
1.0
141
40.0
290
     0
  0
SCALE
  5
52
102
{ACAD_REACTORS
330
47
102
}
330
47
100
AcDbScale
 70
     0
300
1:50
140
1.0
141
50.0
290
     0
  0
SCALE
  5
53
102
{ACAD_REACTORS
330
47
102
}
330
47
100
AcDbScale
 70
     0
300
1:100
140
1.0
141
100.0
290
     0
  0
SCALE
  5
54
102
{ACAD_REACTORS
330
47
102
}
330
47
100
AcDbScale
 70
     0
300
2:1
140
2.0
141
1.0
290
     0
  0
SCALE
  5
55
102
{ACAD_REACTORS
330
47
102
}
330
47
100
AcDbScale
 70
     0
300
4:1
140
4.0
141
1.0
290
     0
  0
SCALE
  5
56
102
{ACAD_REACTORS
330
47
102
}
330
47
100
AcDbScale
 70
     0
300
8:1
140
8.0
141
1.0
290
     0
  0
SCALE
  5
57
102
{ACAD_REACTORS
330
47
102
}
330
47
100
AcDbScale
 70
     0
300
10:1
140
10.0
141
1.0
290
     0
  0
SCALE
  5
58
102
{ACAD_REACTORS
330
47
102
}
330
47
100
AcDbScale
 70
     0
300
100:1
140
100.0
141
1.0
290
     0
  0
SCALE
  5
59
102
{ACAD_REACTORS
330
47
102
}
330
47
100
AcDbScale
 70
     0
300
1/128" = 1'-0"
140
0.0078125
141
12.0
290
     0
  0
SCALE
  5
5A
102
{ACAD_REACTORS
330
47
102
}
330
47
100
AcDbScale
 70
     0
300
1/64" = 1'-0"
140
0.015625
141
12.0
290
     0
  0
SCALE
  5
5B
102
{ACAD_REACTORS
330
47
102
}
330
47
100
AcDbScale
 70
     0
300
1/32" = 1'-0"
140
0.03125
141
12.0
290
     0
  0
SCALE
  5
5C
102
{ACAD_REACTORS
330
47
102
}
330
47
100
AcDbScale
 70
     0
300
1/16" = 1'-0"
140
0.0625
141
12.0
290
     0
  0
SCALE
  5
5D
102
{ACAD_REACTORS
330
47
102
}
330
47
100
AcDbScale
 70
     0
300
3/32" = 1'-0"
140
0.09375
141
12.0
290
     0
  0
SCALE
  5
5E
102
{ACAD_REACTORS
330
47
102
}
330
47
100
AcDbScale
 70
     0
300
1/8" = 1'-0"
140
0.125
141
12.0
290
     0
  0
SCALE
  5
5F
102
{ACAD_REACTORS
330
47
102
}
330
47
100
AcDbScale
 70
     0
300
3/16" = 1'-0"
140
0.1875
141
12.0
290
     0
  0
SCALE
  5
60
102
{ACAD_REACTORS
330
47
102
}
330
47
100
AcDbScale
 70
     0
300
1/4" = 1'-0"
140
0.25
141
12.0
290
     0
  0
SCALE
  5
61
102
{ACAD_REACTORS
330
47
102
}
330
47
100
AcDbScale
 70
     0
300
3/8" = 1'-0"
140
0.375
141
12.0
290
     0
  0
SCALE
  5
62
102
{ACAD_REACTORS
330
47
102
}
330
47
100
AcDbScale
 70
     0
300
1/2" = 1'-0"
140
0.5
141
12.0
290
     0
  0
SCALE
  5
63
102
{ACAD_REACTORS
330
47
102
}
330
47
100
AcDbScale
 70
     0
300
3/4" = 1'-0"
140
0.75
141
12.0
290
     0
  0
SCALE
  5
64
102
{ACAD_REACTORS
330
47
102
}
330
47
100
AcDbScale
 70
     0
300
1" = 1'-0"
140
1.0
141
12.0
290
     0
  0
SCALE
  5
65
102
{ACAD_REACTORS
330
47
102
}
330
47
100
AcDbScale
 70
     0
300
1-1/2" = 1'-0"
140
1.5
141
12.0
290
     0
  0
SCALE
  5
66
102
{ACAD_REACTORS
330
47
102
}
330
47
100
AcDbScale
 70
     0
300
3" = 1'-0"
140
3.0
141
12.0
290
     0
  0
SCALE
  5
67
102
{ACAD_REACTORS
330
47
102
}
330
47
100
AcDbScale
 70
     0
300
6" = 1'-0"
140
6.0
141
12.0
290
     0
  0
SCALE
  5
68
102
{ACAD_REACTORS
330
47
102
}
330
47
100
AcDbScale
 70
     0
300
1'-0" = 1'-0"
140
12.0
141
12.0
290
     0
  0
ENDSEC
  0
EOF
