  0
SECTION
  2
HEADER
  9
$ACADVER
  1
AC1015
  9
$ACADMAINTVER
 70
     6
  9
$DWGCODEPAGE
  3
ANSI_949
  9
$INSBASE
 10
0.0
 20
0.0
 30
0.0
  9
$EXTMIN
 10
-63.92248824489857
 20
-49.97073246008785
 30
0.0
  9
$EXTMAX
 10
96.58628865899794
 20
35.1634104402427
 30
0.0
  9
$LIMMIN
 10
0.0
 20
0.0
  9
$LIMMAX
 10
420.0
 20
297.0
  9
$ORTHOMODE
 70
     0
  9
$REGENMODE
 70
     1
  9
$FILLMODE
 70
     1
  9
$QTEXTMODE
 70
     0
  9
$MIRRTEXT
 70
     1
  9
$LTSCALE
 40
1.0
  9
$ATTMODE
 70
     1
  9
$TEXTSIZE
 40
3.5
  9
$TRACEWID
 40
1.0
  9
$TEXTSTYLE
  7
Standard
  9
$CLAYER
  8
0
  9
$CELTYPE
  6
ByLayer
  9
$CECOLOR
 62
   256
  9
$CELTSCALE
 40
1.0
  9
$DISPSILH
 70
     0
  9
$DIMSCALE
 40
1.0
  9
$DIMASZ
 40
3.302
  9
$DIMEXO
 40
1.0
  9
$DIMDLI
 40
3.75
  9
$DIMRND
 40
0.0
  9
$DIMDLE
 40
0.0
  9
$DIMEXE
 40
1.0
  9
$DIMTP
 40
0.0
  9
$DIMTM
 40
0.0
  9
$DIMTXT
 40
3.5
  9
$DIMCEN
 40
2.5
  9
$DIMTSZ
 40
0.0
  9
$DIMTOL
 70
     0
  9
$DIMLIM
 70
     0
  9
$DIMTIH
 70
     1
  9
$DIMTOH
 70
     1
  9
$DIMSE1
 70
     0
  9
$DIMSE2
 70
     0
  9
$DIMTAD
 70
     1
  9
$DIMZIN
 70
     0
  9
$DIMBLK
  1

  9
$DIMASO
 70
     1
  9
$DIMSHO
 70
     1
  9
$DIMPOST
  1

  9
$DIMAPOST
  1

  9
$DIMALT
 70
     0
  9
$DIMALTD
 70
     3
  9
$DIMALTF
 40
0.0393700787401575
  9
$DIMLFAC
 40
1.0
  9
$DIMTOFL
 70
     1
  9
$DIMTVP
 40
0.0
  9
$DIMTIX
 70
     0
  9
$DIMSOXD
 70
     0
  9
$DIMSAH
 70
     0
  9
$DIMBLK1
  1

  9
$DIMBLK2
  1

  9
$DIMSTYLE
  2
ISO-25
  9
$DIMCLRD
 70
     0
  9
$DIMCLRE
 70
     0
  9
$DIMCLRT
 70
     0
  9
$DIMTFAC
 40
1.0
  9
$DIMGAP
 40
1.524
  9
$DIMJUST
 70
     0
  9
$DIMSD1
 70
     0
  9
$DIMSD2
 70
     0
  9
$DIMTOLJ
 70
     0
  9
$DIMTZIN
 70
     0
  9
$DIMALTZ
 70
     0
  9
$DIMALTTZ
 70
     0
  9
$DIMUPT
 70
     0
  9
$DIMDEC
 70
     2
  9
$DIMTDEC
 70
     2
  9
$DIMALTU
 70
     2
  9
$DIMALTTD
 70
     3
  9
$DIMTXSTY
  7
Standard
  9
$DIMAUNIT
 70
     0
  9
$DIMADEC
 70
     2
  9
$DIMALTRND
 40
0.0
  9
$DIMAZIN
 70
     0
  9
$DIMDSEP
 70
    44
  9
$DIMATFIT
 70
     3
  9
$DIMFRAC
 70
     0
  9
$DIMLDRBLK
  1

  9
$DIMLUNIT
 70
     2
  9
$DIMLWD
 70
    -2
  9
$DIMLWE
 70
    -2
  9
$DIMTMOVE
 70
     0
  9
$LUNITS
 70
     2
  9
$LUPREC
 70
     2
  9
$SKETCHINC
 40
1.0
  9
$FILLETRAD
 40
10.0
  9
$AUNITS
 70
     0
  9
$AUPREC
 70
     2
  9
$MENU
  1
.
  9
$ELEVATION
 40
0.0
  9
$PELEVATION
 40
0.0
  9
$THICKNESS
 40
0.0
  9
$LIMCHECK
 70
     0
  9
$CHAMFERA
 40
0.0
  9
$CHAMFERB
 40
0.0
  9
$CHAMFERC
 40
0.0
  9
$CHAMFERD
 40
0.0
  9
$SKPOLY
 70
     0
  9
$TDCREATE
 40
2458262.553557327
  9
$TDUCREATE
 40
2458262.178557327
  9
$TDUPDATE
 40
2458266.573460405
  9
$TDUUPDATE
 40
2458266.198460405
  9
$TDINDWG
 40
0.0012719907
  9
$TDUSRTIMER
 40
2458266.197188461
  9
$USRTIMER
 70
     1
  9
$ANGBASE
 50
0.0
  9
$ANGDIR
 70
     0
  9
$PDMODE
 70
     0
  9
$PDSIZE
 40
-1.0
  9
$PLINEWID
 40
0.0
  9
$SPLFRAME
 70
     0
  9
$SPLINETYPE
 70
     6
  9
$SPLINESEGS
 70
     8
  9
$HANDSEED
  5
13F
  9
$SURFTAB1
 70
     6
  9
$SURFTAB2
 70
     6
  9
$SURFTYPE
 70
     6
  9
$SURFU
 70
     6
  9
$SURFV
 70
     6
  9
$UCSBASE
  2

  9
$UCSNAME
  2

  9
$UCSORG
 10
0.0
 20
0.0
 30
0.0
  9
$UCSXDIR
 10
1.0
 20
0.0
 30
0.0
  9
$UCSYDIR
 10
0.0
 20
1.0
 30
0.0
  9
$UCSORTHOREF
  2

  9
$UCSORTHOVIEW
 70
     0
  9
$UCSORGTOP
 10
0.0
 20
0.0
 30
0.0
  9
$UCSORGBOTTOM
 10
0.0
 20
0.0
 30
0.0
  9
$UCSORGLEFT
 10
0.0
 20
0.0
 30
0.0
  9
$UCSORGRIGHT
 10
0.0
 20
0.0
 30
0.0
  9
$UCSORGFRONT
 10
0.0
 20
0.0
 30
0.0
  9
$UCSORGBACK
 10
0.0
 20
0.0
 30
0.0
  9
$PUCSBASE
  2

  9
$PUCSNAME
  2

  9
$PUCSORG
 10
0.0
 20
0.0
 30
0.0
  9
$PUCSXDIR
 10
1.0
 20
0.0
 30
0.0
  9
$PUCSYDIR
 10
0.0
 20
1.0
 30
0.0
  9
$PUCSORTHOREF
  2

  9
$PUCSORTHOVIEW
 70
     0
  9
$PUCSORGTOP
 10
0.0
 20
0.0
 30
0.0
  9
$PUCSORGBOTTOM
 10
0.0
 20
0.0
 30
0.0
  9
$PUCSORGLEFT
 10
0.0
 20
0.0
 30
0.0
  9
$PUCSORGRIGHT
 10
0.0
 20
0.0
 30
0.0
  9
$PUCSORGFRONT
 10
0.0
 20
0.0
 30
0.0
  9
$PUCSORGBACK
 10
0.0
 20
0.0
 30
0.0
  9
$USERI1
 70
     0
  9
$USERI2
 70
     0
  9
$USERI3
 70
     0
  9
$USERI4
 70
     0
  9
$USERI5
 70
     0
  9
$USERR1
 40
0.0
  9
$USERR2
 40
0.0
  9
$USERR3
 40
0.0
  9
$USERR4
 40
0.0
  9
$USERR5
 40
0.0
  9
$WORLDVIEW
 70
     1
  9
$SHADEDGE
 70
     3
  9
$SHADEDIF
 70
    70
  9
$TILEMODE
 70
     1
  9
$MAXACTVP
 70
    64
  9
$PINSBASE
 10
0.0
 20
0.0
 30
0.0
  9
$PLIMCHECK
 70
     0
  9
$PEXTMIN
 10
1.000000000000000E+20
 20
1.000000000000000E+20
 30
1.000000000000000E+20
  9
$PEXTMAX
 10
-1.000000000000000E+20
 20
-1.000000000000000E+20
 30
-1.000000000000000E+20
  9
$PLIMMIN
 10
0.0
 20
0.0
  9
$PLIMMAX
 10
0.0
 20
0.0
  9
$UNITMODE
 70
     0
  9
$VISRETAIN
 70
     1
  9
$PLINEGEN
 70
     0
  9
$PSLTSCALE
 70
     1
  9
$TREEDEPTH
 70
  3020
  9
$CMLSTYLE
  2
Standard
  9
$CMLJUST
 70
     0
  9
$CMLSCALE
 40
20.0
  9
$PROXYGRAPHICS
 70
     1
  9
$MEASUREMENT
 70
     1
  9
$CELWEIGHT
370
    -1
  9
$ENDCAPS
280
     0
  9
$JOINSTYLE
280
     0
  9
$LWDISPLAY
290
     1
  9
$INSUNITS
 70
     4
  9
$HYPERLINKBASE
  1

  9
$STYLESHEET
  1

  9
$XEDIT
290
     1
  9
$CEPSNTYPE
380
     0
  9
$PSTYLEMODE
290
     1
  9
$FINGERPRINTGUID
  2
{82C690DC-FE9C-44EB-BC7A-B0AAC735C179}
  9
$VERSIONGUID
  2
{FAEB1C32-E019-11D5-929B-00C0DF256EC4}
  9
$EXTNAMES
290
     1
  9
$PSVPSCALE
 40
0.0
  9
$OLESTARTUP
290
     0
  0
ENDSEC
  0
SECTION
  2
CLASSES
  0
CLASS
  1
ACDBDICTIONARYWDFLT
  2
AcDbDictionaryWithDefault
  3
ObjectDBX Classes
 90
        0
280
     0
281
     0
  0
CLASS
  1
VISUALSTYLE
  2
AcDbVisualStyle
  3
ObjectDBX Classes
 90
     4095
280
     0
281
     0
  0
CLASS
  1
MATERIAL
  2
AcDbMaterial
  3
ObjectDBX Classes
 90
     1153
280
     0
281
     0
  0
CLASS
  1
SCALE
  2
AcDbScale
  3
ObjectDBX Classes
 90
     1153
280
     0
281
     0
  0
CLASS
  1
SUN
  2
AcDbSun
  3
SCENEOE
 90
     1153
280
     0
281
     0
  0
CLASS
  1
ACDBPLACEHOLDER
  2
AcDbPlaceHolder
  3
ObjectDBX Classes
 90
        0
280
     0
281
     0
  0
CLASS
  1
LAYOUT
  2
AcDbLayout
  3
ObjectDBX Classes
 90
        0
280
     0
281
     0
  0
CLASS
  1
TABLESTYLE
  2
AcDbTableStyle
  3
ObjectDBX Classes
 90
     4095
280
     0
281
     0
  0
CLASS
  1
MLEADERSTYLE
  2
AcDbMLeaderStyle
  3
ACDB_MLEADERSTYLE_CLASS
 90
     4095
280
     0
281
     0
  0
CLASS
  1
RASTERVARIABLES
  2
AcDbRasterVariables
  3
ISM
 90
        0
280
     0
281
     0
  0
ENDSEC
  0
SECTION
  2
TABLES
  0
TABLE
  2
VPORT
  5
8
330
0
100
AcDbSymbolTable
 70
     1
  0
VPORT
  5
29
330
8
100
AcDbSymbolTableRecord
100
AcDbViewportTableRecord
  2
*Active
 70
     0
 10
0.0
 20
0.0
 11
1.0
 21
1.0
 12
16.33190020704969
 22
-7.40366100992258
 13
0.0
 23
0.0
 14
10.0
 24
10.0
 15
10.0
 25
10.0
 16
0.0
 26
0.0
 36
1.0
 17
0.0
 27
0.0
 37
0.0
 40
142.0610641144487
 41
1.152454780361757
 42
50.0
 43
0.0
 44
0.0
 50
0.0
 51
0.0
 71
    16
 72
  2000
 73
     1
 74
     3
 75
     0
 76
     0
 77
     0
 78
     0
281
     0
 65
     1
110
0.0
120
0.0
130
0.0
111
1.0
121
0.0
131
0.0
112
0.0
122
1.0
132
0.0
 79
     0
146
0.0
  0
ENDTAB
  0
TABLE
  2
LTYPE
  5
5
330
0
100
AcDbSymbolTable
 70
     6
  0
LTYPE
  5
14
330
5
100
AcDbSymbolTableRecord
100
AcDbLinetypeTableRecord
  2
ByBlock
 70
     0
  3

 72
    65
 73
     0
 40
0.0
  0
LTYPE
  5
15
330
5
100
AcDbSymbolTableRecord
100
AcDbLinetypeTableRecord
  2
ByLayer
 70
     0
  3

 72
    65
 73
     0
 40
0.0
  0
LTYPE
  5
16
330
5
100
AcDbSymbolTableRecord
100
AcDbLinetypeTableRecord
  2
Continuous
 70
     0
  3
Solid line
 72
    65
 73
     0
 40
0.0
  0
LTYPE
  5
6A
330
5
100
AcDbSymbolTableRecord
100
AcDbLinetypeTableRecord
  2
HIDDEN
 70
     0
  3
Hidden __ __ __ __ __ __ __ __ __ __ __ __ __ __
 72
    65
 73
     2
 40
1.905
 49
1.27
 74
     0
 49
-0.635
 74
     0
  0
LTYPE
  5
6B
330
5
100
AcDbSymbolTableRecord
100
AcDbLinetypeTableRecord
  2
PHANTOM
 70
     0
  3
Phantom ______  __  __  ______  __  __  ______
 72
    65
 73
     6
 40
12.7
 49
6.35
 74
     0
 49
-1.27
 74
     0
 49
1.27
 74
     0
 49
-1.27
 74
     0
 49
1.27
 74
     0
 49
-1.27
 74
     0
  0
LTYPE
  5
6C
330
5
100
AcDbSymbolTableRecord
100
AcDbLinetypeTableRecord
  2
CENTER
 70
     0
  3
Center ____ _ ____ _ ____ _ ____ _ ____ _ ____
 72
    65
 73
     4
 40
10.16
 49
6.35
 74
     0
 49
-1.27
 74
     0
 49
1.27
 74
     0
 49
-1.27
 74
     0
  0
LTYPE
  5
6D
330
5
100
AcDbSymbolTableRecord
100
AcDbLinetypeTableRecord
  2
CENTERX2
 70
     0
  3
Center (2x) ________  __  ________  __  _____
 72
    65
 73
     4
 40
20.32
 49
12.7
 74
     0
 49
-2.54
 74
     0
 49
2.54
 74
     0
 49
-2.54
 74
     0
  0
LTYPE
  5
6E
330
5
100
AcDbSymbolTableRecord
100
AcDbLinetypeTableRecord
  2
DOT2
 70
     0
  3
Dot (.5x) ........................................
 72
    65
 73
     2
 40
0.635
 49
0.0
 74
     0
 49
-0.635
 74
     0
  0
ENDTAB
  0
TABLE
  2
LAYER
  5
2
330
0
100
AcDbSymbolTable
 70
    17
  0
LAYER
  5
10
330
2
100
AcDbSymbolTableRecord
100
AcDbLayerTableRecord
  2
0
 70
     0
 62
     7
  6
Continuous
370
    -3
390
F
  0
LAYER
  5
6F
330
2
100
AcDbSymbolTableRecord
100
AcDbLayerTableRecord
  2
FORMAT
 70
     0
 62
     2
  6
Continuous
370
    -3
390
F
  0
LAYER
  5
70
330
2
100
AcDbSymbolTableRecord
100
AcDbLayerTableRecord
  2
외형선
 70
     0
 62
   100
  6
Continuous
370
    30
390
F
  0
LAYER
  5
71
330
2
100
AcDbSymbolTableRecord
100
AcDbLayerTableRecord
  2
숨은선
 70
     0
 62
     2
  6
HIDDEN
370
    15
390
F
  0
LAYER
  5
72
330
2
100
AcDbSymbolTableRecord
100
AcDbLayerTableRecord
  2
중심선
 70
     0
 62
     1
  6
CENTERX2
370
    -3
390
F
  0
LAYER
  5
73
330
2
100
AcDbSymbolTableRecord
100
AcDbLayerTableRecord
  2
파단선
 70
     0
 62
     4
  6
Continuous
370
    -3
390
F
  0
LAYER
  5
74
330
2
100
AcDbSymbolTableRecord
100
AcDbLayerTableRecord
  2
해칭선
 70
     0
 62
     4
  6
Continuous
370
    -3
390
F
  0
LAYER
  5
75
330
2
100
AcDbSymbolTableRecord
100
AcDbLayerTableRecord
  2
가는실선
 70
     0
 62
     4
  6
Continuous
370
    -3
390
F
  0
LAYER
  5
76
330
2
100
AcDbSymbolTableRecord
100
AcDbLayerTableRecord
  2
치수_보조선
 70
     0
 62
     4
  6
Continuous
370
    -3
390
F
  0
LAYER
  5
77
330
2
100
AcDbSymbolTableRecord
100
AcDbLayerTableRecord
  2
치수문자_일반주서
 70
     0
 62
     7
  6
Continuous
370
    15
390
F
  0
LAYER
  5
78
330
2
100
AcDbSymbolTableRecord
100
AcDbLayerTableRecord
  2
개별주서
 70
     0
 62
   100
  6
Continuous
370
    30
390
F
  0
LAYER
  5
79
330
2
100
AcDbSymbolTableRecord
100
AcDbLayerTableRecord
  2
중간선
 70
     0
 62
     2
  6
Continuous
370
    15
390
F
  0
LAYER
  5
7A
330
2
100
AcDbSymbolTableRecord
100
AcDbLayerTableRecord
  2
윤곽선
 70
     0
 62
     3
  6
Continuous
370
    40
390
F
  0
LAYER
  5
7B
330
2
100
AcDbSymbolTableRecord
100
AcDbLayerTableRecord
  2
중심마크
 70
     0
 62
   100
  6
Continuous
370
    30
390
F
  0
LAYER
  5
7C
330
2
100
AcDbSymbolTableRecord
100
AcDbLayerTableRecord
  2
가상선
 70
     0
 62
     4
  6
PHANTOM
370
    -3
390
F
  0
LAYER
  5
7D
330
2
100
AcDbSymbolTableRecord
100
AcDbLayerTableRecord
  2
특수지정선
 70
     0
 62
     5
  6
CENTERX2
370
    60
390
F
  0
LAYER
  5
12F
330
2
100
AcDbSymbolTableRecord
100
AcDbLayerTableRecord
  2
Defpoints
 70
     0
 62
     7
  6
Continuous
290
     0
370
    -3
390
F
  0
ENDTAB
  0
TABLE
  2
STYLE
  5
3
330
0
100
AcDbSymbolTable
 70
     2
  0
STYLE
  5
11
330
3
100
AcDbSymbolTableRecord
100
AcDbTextStyleTableRecord
  2
Standard
 70
     0
 40
0.0
 41
1.0
 50
0.0
 71
     0
 42
3.5
  3
txt
  4

  0
STYLE
  5
93
330
3
100
AcDbSymbolTableRecord
100
AcDbTextStyleTableRecord
  2
SLDTEXTSTYLE0
 70
     0
 40
0.0
 41
0.75
 50
0.0
 71
     0
 42
3.5
  3
TXT
  4

  0
ENDTAB
  0
TABLE
  2
VIEW
  5
6
330
0
100
AcDbSymbolTable
 70
     0
  0
ENDTAB
  0
TABLE
  2
UCS
  5
7
330
0
100
AcDbSymbolTable
 70
     0
  0
ENDTAB
  0
TABLE
  2
APPID
  5
9
330
0
100
AcDbSymbolTable
 70
     1
  0
APPID
  5
12
330
9
100
AcDbSymbolTableRecord
100
AcDbRegAppTableRecord
  2
ACAD
 70
     0
  0
ENDTAB
  0
TABLE
  2
DIMSTYLE
  5
A
330
0
100
AcDbSymbolTable
 70
     3
100
AcDbDimStyleTable
  0
DIMSTYLE
105
27
330
A
100
AcDbSymbolTableRecord
100
AcDbDimStyleTableRecord
  2
ISO-25
 70
     0
 41
2.5
 42
0.625
 43
3.75
 44
1.25
 73
     0
 74
     0
 77
     1
 78
     8
140
2.5
141
2.5
143
0.03937007874016
147
0.625
171
     3
172
     1
178
     0
271
     2
272
     2
274
     3
278
    44
283
     0
284
     8
340
11
  0
DIMSTYLE
105
D5
102
{ACAD_REACTORS
330
D4
330
F7
102
}
330
A
100
AcDbSymbolTableRecord
100
AcDbDimStyleTableRecord
  2
SLDDIMSTYLE0
 70
     0
 41
3.302
 44
0.0
 45
0.000000001
 73
     0
 74
     0
 77
     1
 78
    12
 79
     3
140
3.5
147
0.875
172
     1
173
     1
178
     0
271
     2
272
     2
276
     2
284
    12
289
     0
340
93
  0
DIMSTYLE
105
E3
102
{ACAD_REACTORS
330
E2
330
ED
102
}
330
A
100
AcDbSymbolTableRecord
100
AcDbDimStyleTableRecord
  2
SLDDIMSTYLE1
 70
     0
 41
3.302
 44
0.0
 45
0.000000001
 73
     0
 74
     0
 77
     1
 78
    12
 79
     3
140
3.5
147
0.875
173
     1
178
     0
271
     2
272
     2
276
     2
284
    12
340
93
  0
ENDTAB
  0
TABLE
  2
BLOCK_RECORD
  5
1
330
0
100
AcDbSymbolTable
 70
     7
  0
BLOCK_RECORD
  5
1F
330
1
100
AcDbSymbolTableRecord
100
AcDbBlockTableRecord
  2
*Model_Space
340
22
  0
BLOCK_RECORD
  5
1B
330
1
100
AcDbSymbolTableRecord
100
AcDbBlockTableRecord
  2
*Paper_Space
340
1E
  0
BLOCK_RECORD
  5
23
330
1
100
AcDbSymbolTableRecord
100
AcDbBlockTableRecord
  2
*Paper_Space0
340
26
  0
BLOCK_RECORD
  5
7E
330
1
100
AcDbSymbolTableRecord
100
AcDbBlockTableRecord
  2
블럭10
340
0
102
{BLKREFS
331
CD
102
}
  0
BLOCK_RECORD
  5
D6
330
1
100
AcDbSymbolTableRecord
100
AcDbBlockTableRecord
  2
_D
340
0
  0
BLOCK_RECORD
  5
E4
330
1
100
AcDbSymbolTableRecord
100
AcDbBlockTableRecord
  2
_D_1
340
0
  0
BLOCK_RECORD
  5
EE
330
1
100
AcDbSymbolTableRecord
100
AcDbBlockTableRecord
  2
_D_2
340
0
  0
BLOCK_RECORD
  5
F8
330
1
100
AcDbSymbolTableRecord
100
AcDbBlockTableRecord
  2
_D_3
340
0
  0
BLOCK_RECORD
  5
104
330
1
100
AcDbSymbolTableRecord
100
AcDbBlockTableRecord
  2
SW_DOWELSYMBOL_0
340
0
102
{BLKREFS
331
10A
102
}
  0
ENDTAB
  0
ENDSEC
  0
SECTION
  2
BLOCKS
  0
BLOCK
  5
20
330
1F
100
AcDbEntity
  8
0
100
AcDbBlockBegin
  2
*Model_Space
 70
     0
 10
0.0
 20
0.0
 30
0.0
  3
*Model_Space
  1

  0
ENDBLK
  5
21
330
1F
100
AcDbEntity
  8
0
100
AcDbBlockEnd
  0
BLOCK
  5
1C
330
1B
100
AcDbEntity
 67
     1
  8
0
100
AcDbBlockBegin
  2
*Paper_Space
 70
     0
 10
0.0
 20
0.0
 30
0.0
  3
*Paper_Space
  1

  0
ENDBLK
  5
1D
330
1B
100
AcDbEntity
 67
     1
  8
0
100
AcDbBlockEnd
  0
BLOCK
  5
24
330
23
100
AcDbEntity
  8
0
100
AcDbBlockBegin
  2
*Paper_Space0
 70
     0
 10
0.0
 20
0.0
 30
0.0
  3
*Paper_Space0
  1

  0
ENDBLK
  5
25
330
23
100
AcDbEntity
  8
0
100
AcDbBlockEnd
  0
BLOCK
  5
7F
330
7E
100
AcDbEntity
  8
0
100
AcDbBlockBegin
  2
블럭10
 70
     2
 10
0.0
 20
0.0
 30
0.0
  3
블럭10
  1

  0
ELLIPSE
  5
81
330
7E
100
AcDbEntity
  8
중심선
100
AcDbEllipse
 10
20.54032771741204
 20
12.0471743016438
 30
0.0
 11
6.600054785286829
 21
-1.261213355974178E-13
 31
0.0
210
0.0
220
0.0
230
1.0
 40
0.636358354079598
 41
0.9219305317359503
 42
6.513795318482858
  0
ELLIPSE
  5
82
330
7E
100
AcDbEntity
  8
중심선
100
AcDbEllipse
 10
20.54032771746488
 20
12.04717430159265
 30
0.0
 11
3.960054785062283
 21
1.540847449632565E-10
 31
0.0
210
0.0
220
0.0
230
1.0
 40
0.3939339440162632
 41
1.131841032648279
 42
5.62031148352944
  0
LINE
  5
83
330
7E
100
AcDbEntity
  8
중심선
100
AcDbLine
 10
2.268634060543552
 20
16.24717430164393
 30
0.0
 11
5.714909304380834
 21
16.24717430164393
 31
0.0
  0
LINE
  5
84
330
7E
100
AcDbEntity
  8
중심선
100
AcDbLine
 10
5.245725140726316
 20
7.84717430164391
 30
0.0
 11
8.692000384563599
 21
7.84717430164391
 31
0.0
  0
LINE
  5
85
330
7E
100
AcDbEntity
  8
중심선
100
AcDbLine
 10
15.74043728645272
 20
16.24717430164393
 30
0.0
 11
8.692000384563599
 21
7.84717430164391
 31
0.0
  0
LINE
  5
86
330
7E
100
AcDbEntity
  8
중심선
100
AcDbLine
 10
0.1404042013395286
 20
13.71084872107135
 30
0.0
 11
3.58671253028996
 21
13.71088815037384
 31
0.0
  0
LINE
  5
87
330
7E
100
AcDbEntity
  8
중심선
100
AcDbLine
 10
2.750260043222114
 20
10.84717430164391
 30
0.0
 11
6.196535287059397
 21
10.84717430164391
 31
0.0
  0
LINE
  5
88
330
7E
100
AcDbEntity
  8
중심선
100
AcDbLine
 10
12.29416204261559
 20
16.24717430164393
 30
0.0
 11
5.245725140726316
 21
7.84717430164391
 31
0.0
  0
LINE
  5
89
330
7E
100
AcDbEntity
  8
중심선
100
AcDbLine
 10
10.72767329541681
 20
16.24717430164393
 30
0.0
 11
6.196535287059397
 21
10.84717430164391
 31
0.0
  0
LINE
  5
8A
330
7E
100
AcDbEntity
  8
중심선
100
AcDbLine
 10
7.28139805157953
 20
16.24717430164393
 30
0.0
 11
2.750260043222114
 21
10.84717430164391
 31
0.0
  0
LINE
  5
8B
330
7E
100
AcDbEntity
  8
중심선
100
AcDbLine
 10
5.714909304380834
 20
16.24717430164393
 30
0.0
 11
3.58671253028996
 21
13.71088815037384
 31
0.0
  0
LINE
  5
8C
330
7E
100
AcDbEntity
  8
중심선
100
AcDbLine
 10
2.268634060543552
 20
16.24717430164393
 30
0.0
 11
0.1404042013395286
 21
13.71084872107135
 31
0.0
  0
LINE
  5
8D
330
7E
100
AcDbEntity
  8
중심선
100
AcDbLine
 10
7.28139805157953
 20
16.24717430164393
 30
0.0
 11
10.72767329541681
 21
16.24717430164393
 31
0.0
  0
LINE
  5
8E
330
7E
100
AcDbEntity
  8
중심선
100
AcDbLine
 10
12.29416204261559
 20
16.24717430164393
 30
0.0
 11
15.74043728645272
 21
16.24717430164393
 31
0.0
  0
LINE
  5
8F
330
7E
100
AcDbEntity
  8
중심선
100
AcDbLine
 10
19.22036997980202
 20
11.08717430171403
 30
0.0
 11
23.66174974927406
 21
11.08717430171406
 31
0.0
  0
LINE
  5
90
330
7E
100
AcDbEntity
  8
중심선
100
AcDbLine
 10
19.22039502424796
 20
13.00717430171391
 30
0.0
 11
19.22036997980202
 21
11.08717430171403
 31
0.0
  0
LINE
  5
91
330
7E
100
AcDbEntity
  8
중심선
100
AcDbLine
 10
19.22039502424796
 20
13.00717430171391
 30
0.0
 11
26.96566020931264
 21
13.00717430171391
 31
0.0
  0
LINE
  5
92
330
7E
100
AcDbEntity
  8
중심선
100
AcDbLine
 10
22.22332737316547
 20
13.45928029700563
 30
0.0
 11
24.52862924686651
 21
15.39360700705356
 31
0.0
  0
ATTDEF
  5
94
330
7E
100
AcDbEntity
  8
FORMAT
 62
     2
100
AcDbText
 10
-16.11926103943555
 20
2.075366912832191
 30
0.0
 40
4.233333333333333
  1
SEME7020070E [ 2 FLUTE ]
 41
0.75
  7
SLDTEXTSTYLE0
 11
-16.11926103943555
 21
-0.0412997538344756
 31
0.0
100
AcDbAttributeDefinition
  3

  2
AUTOATTR0
 70
     0
 74
     1
  0
ENDBLK
  5
80
330
7E
100
AcDbEntity
  8
0
100
AcDbBlockEnd
  0
BLOCK
  5
D7
330
D6
100
AcDbEntity
  8
0
100
AcDbBlockBegin
  2
_D
 70
     0
 10
0.0
 20
0.0
 30
0.0
  3
_D
  1

  0
LINE
  5
D9
330
D6
100
AcDbEntity
  8
치수문자_일반주서
 62
     0
370
    -2
100
AcDbLine
 10
82.06249999999943
 20
-9.999999999999732
 30
0.0
 11
96.0359553256646
 21
-9.999999999999677
 31
0.0
  0
LINE
  5
DA
330
D6
100
AcDbEntity
  8
치수문자_일반주서
 62
     0
370
    -2
100
AcDbLine
 10
82.0625
 20
10.00000000000026
 30
0.0
 11
96.03595532566453
 21
10.00000000000031
 31
0.0
  0
LINE
  5
DB
330
D6
100
AcDbEntity
  8
치수문자_일반주서
 62
     0
370
    -2
100
AcDbLine
 10
96.0359553256646
 20
-9.999999999999677
 30
0.0
 11
96.03595532566447
 21
24.91650000000031
 31
0.0
  0
LINE
  5
DC
330
D6
100
AcDbEntity
  8
치수문자_일반주서
 62
     0
370
    -2
100
AcDbLine
 10
96.0359553256646
 20
-9.999999999999677
 30
0.0
 11
96.03595532566453
 21
10.00000000000031
 31
0.0
  0
LINE
  5
DD
330
D6
100
AcDbEntity
  8
치수문자_일반주서
 62
     0
370
    -2
100
AcDbLine
 10
96.03595532566462
 20
-13.30199999999968
 30
0.0
 11
96.03595532566463
 21
-16.60399999999968
 31
0.0
  0
LINE
  5
DE
330
D6
100
AcDbEntity
  8
치수문자_일반주서
 62
     0
370
    -2
100
AcDbLine
 10
96.03595532566452
 20
13.30200000000031
 30
0.0
 11
96.0359553256645
 21
16.60400000000031
 31
0.0
  0
SOLID
  5
DF
330
D6
100
AcDbEntity
  8
치수문자_일반주서
 62
     0
100
AcDbTrace
 10
96.58628865899794
 20
-13.30199999999967
 30
0.0
 11
95.48562199233129
 21
-13.30199999999968
 31
0.0
 12
96.0359553256646
 22
-9.999999999999677
 32
0.0
 13
96.0359553256646
 23
-9.999999999999677
 33
0.0
  0
SOLID
  5
E0
330
D6
100
AcDbEntity
  8
치수문자_일반주서
 62
     0
100
AcDbTrace
 10
95.48562199233119
 20
13.30200000000031
 30
0.0
 11
96.58628865899784
 21
13.30200000000032
 31
0.0
 12
96.03595532566453
 22
10.00000000000031
 32
0.0
 13
96.03595532566453
 23
10.00000000000031
 33
0.0
  0
MTEXT
  5
E1
330
D6
100
AcDbEntity
  8
치수문자_일반주서
 62
     0
100
AcDbMText
 10
91.66095532566449
 20
20.76025000000029
 30
0.0
 40
3.5
 41
0.0
 71
     2
 72
     1
  1
\A1;%%c20
  7
SLDTEXTSTYLE0
 11
-3.552713678800503E-15
 21
1.0
 31
0.0
 73
     1
 44
1.0
  0
POINT
  5
139
330
D6
100
AcDbEntity
  8
Defpoints
 62
     0
100
AcDbPoint
 10
81.99999999999943
 20
-9.999999999999732
 30
0.0
  0
POINT
  5
13A
330
D6
100
AcDbEntity
  8
Defpoints
 62
     0
100
AcDbPoint
 10
82.0
 20
10.00000000000026
 30
0.0
  0
POINT
  5
13B
330
D6
100
AcDbEntity
  8
Defpoints
 62
     0
100
AcDbPoint
 10
96.03595532566453
 20
10.00000000000031
 30
0.0
  0
ENDBLK
  5
D8
330
D6
100
AcDbEntity
  8
0
100
AcDbBlockEnd
  0
BLOCK
  5
E5
330
E4
100
AcDbEntity
  8
0
100
AcDbBlockBegin
  2
_D_1
 70
     0
 10
0.0
 20
0.0
 30
0.0
  3
_D_1
  1

  0
LINE
  5
E7
330
E4
100
AcDbEntity
  8
치수문자_일반주서
 62
     0
370
    -2
100
AcDbLine
 10
-48.0
 20
9.062499999999998
 30
0.0
 11
-47.99999999999999
 21
30.7884104402427
 31
0.0
  0
LINE
  5
E8
330
E4
100
AcDbEntity
  8
치수문자_일반주서
 62
     0
370
    -2
100
AcDbLine
 10
82.0
 20
10.06250000000026
 30
0.0
 11
82.0
 21
30.7884104402427
 31
0.0
  0
LINE
  5
E9
330
E4
100
AcDbEntity
  8
치수문자_일반주서
 62
     0
370
    -2
100
AcDbLine
 10
-44.69799999999999
 20
30.7884104402427
 30
0.0
 11
78.69800000000001
 21
30.7884104402427
 31
0.0
  0
SOLID
  5
EA
330
E4
100
AcDbEntity
  8
치수문자_일반주서
 62
     0
100
AcDbTrace
 10
-44.69799999999999
 20
31.33874377357603
 30
0.0
 11
-44.69799999999999
 21
30.23807710690936
 31
0.0
 12
-47.99999999999999
 22
30.7884104402427
 32
0.0
 13
-47.99999999999999
 23
30.7884104402427
 33
0.0
  0
SOLID
  5
EB
330
E4
100
AcDbEntity
  8
치수문자_일반주서
 62
     0
100
AcDbTrace
 10
78.69800000000001
 20
30.23807710690936
 30
0.0
 11
78.69800000000001
 21
31.33874377357603
 31
0.0
 12
82.0
 22
30.7884104402427
 32
0.0
 13
82.0
 23
30.7884104402427
 33
0.0
  0
MTEXT
  5
EC
330
E4
100
AcDbEntity
  8
치수문자_일반주서
 62
     0
100
AcDbMText
 10
17.00000000000001
 20
35.1634104402427
 30
0.0
 40
3.5
 41
0.0
 71
     2
 72
     1
  1
\A1;130
  7
SLDTEXTSTYLE0
 73
     1
 44
1.0
  0
POINT
  5
130
330
E4
100
AcDbEntity
  8
Defpoints
 62
     0
100
AcDbPoint
 10
-48.0
 20
8.999999999999998
 30
0.0
  0
POINT
  5
131
330
E4
100
AcDbEntity
  8
Defpoints
 62
     0
100
AcDbPoint
 10
82.0
 20
10.00000000000026
 30
0.0
  0
POINT
  5
132
330
E4
100
AcDbEntity
  8
Defpoints
 62
     0
100
AcDbPoint
 10
82.0
 20
30.7884104402427
 30
0.0
  0
ENDBLK
  5
E6
330
E4
100
AcDbEntity
  8
0
100
AcDbBlockEnd
  0
BLOCK
  5
EF
330
EE
100
AcDbEntity
  8
0
100
AcDbBlockBegin
  2
_D_2
 70
     0
 10
0.0
 20
0.0
 30
0.0
  3
_D_2
  1

  0
LINE
  5
F1
330
EE
100
AcDbEntity
  8
치수문자_일반주서
 62
     0
370
    -2
100
AcDbLine
 10
11.99999999999997
 20
6.89810843018138
 30
0.0
 11
11.99999999999997
 21
19.612693172325
 31
0.0
  0
LINE
  5
F2
330
EE
100
AcDbEntity
  8
치수문자_일반주서
 62
     0
370
    -2
100
AcDbLine
 10
82.0
 20
10.06250000000026
 30
0.0
 11
82.0
 21
19.612693172325
 31
0.0
  0
LINE
  5
F3
330
EE
100
AcDbEntity
  8
치수문자_일반주서
 62
     0
370
    -2
100
AcDbLine
 10
15.30199999999997
 20
19.612693172325
 30
0.0
 11
78.69800000000001
 21
19.612693172325
 31
0.0
  0
SOLID
  5
F4
330
EE
100
AcDbEntity
  8
치수문자_일반주서
 62
     0
100
AcDbTrace
 10
15.30199999999997
 20
20.16302650565834
 30
0.0
 11
15.30199999999997
 21
19.06235983899167
 31
0.0
 12
11.99999999999997
 22
19.612693172325
 32
0.0
 13
11.99999999999997
 23
19.612693172325
 33
0.0
  0
SOLID
  5
F5
330
EE
100
AcDbEntity
  8
치수문자_일반주서
 62
     0
100
AcDbTrace
 10
78.69800000000001
 20
19.06235983899167
 30
0.0
 11
78.69800000000001
 21
20.16302650565834
 31
0.0
 12
82.0
 22
19.612693172325
 32
0.0
 13
82.0
 23
19.612693172325
 33
0.0
  0
MTEXT
  5
F6
330
EE
100
AcDbEntity
  8
치수문자_일반주서
 62
     0
100
AcDbMText
 10
47.00000000000004
 20
23.987693172325
 30
0.0
 40
3.5
 41
0.0
 71
     2
 72
     1
  1
\A1;70
  7
SLDTEXTSTYLE0
 73
     1
 44
1.0
  0
POINT
  5
133
330
EE
100
AcDbEntity
  8
Defpoints
 62
     0
100
AcDbPoint
 10
11.99999999999997
 20
6.83560843018138
 30
0.0
  0
POINT
  5
134
330
EE
100
AcDbEntity
  8
Defpoints
 62
     0
100
AcDbPoint
 10
82.0
 20
10.00000000000026
 30
0.0
  0
POINT
  5
135
330
EE
100
AcDbEntity
  8
Defpoints
 62
     0
100
AcDbPoint
 10
82.0
 20
19.612693172325
 30
0.0
  0
ENDBLK
  5
F0
330
EE
100
AcDbEntity
  8
0
100
AcDbBlockEnd
  0
BLOCK
  5
F9
330
F8
100
AcDbEntity
  8
0
100
AcDbBlockBegin
  2
_D_3
 70
     0
 10
0.0
 20
0.0
 30
0.0
  3
_D_3
  1

  0
LINE
  5
FB
330
F8
100
AcDbEntity
  8
치수문자_일반주서
 62
     0
370
    -2
100
AcDbLine
 10
-47.06249999999999
 20
9.999999999999998
 30
0.0
 11
-59.54748824489853
 21
9.999999999999952
 31
0.0
  0
LINE
  5
FC
330
F8
100
AcDbEntity
  8
치수문자_일반주서
 62
     0
370
    -2
100
AcDbLine
 10
-47.06249999999999
 20
-9.999999999999998
 30
0.0
 11
-59.54748824489846
 21
-10.00000000000005
 31
0.0
  0
LINE
  5
FD
330
F8
100
AcDbEntity
  8
치수문자_일반주서
 62
     0
370
    -2
100
AcDbLine
 10
-59.54748824489853
 20
9.999999999999952
 30
0.0
 11
-59.54748824489858
 21
24.91649999999995
 31
0.0
  0
LINE
  5
FE
330
F8
100
AcDbEntity
  8
치수문자_일반주서
 62
     0
370
    -2
100
AcDbLine
 10
-59.54748824489853
 20
9.999999999999952
 30
0.0
 11
-59.54748824489846
 21
-10.00000000000005
 31
0.0
  0
LINE
  5
FF
330
F8
100
AcDbEntity
  8
치수문자_일반주서
 62
     0
370
    -2
100
AcDbLine
 10
-59.54748824489855
 20
13.30199999999995
 30
0.0
 11
-59.54748824489856
 21
16.60399999999995
 31
0.0
  0
LINE
  5
100
330
F8
100
AcDbEntity
  8
치수문자_일반주서
 62
     0
370
    -2
100
AcDbLine
 10
-59.54748824489845
 20
-13.30200000000005
 30
0.0
 11
-59.54748824489843
 21
-16.60400000000005
 31
0.0
  0
SOLID
  5
101
330
F8
100
AcDbEntity
  8
치수문자_일반주서
 62
     0
100
AcDbTrace
 10
-60.09782157823188
 20
13.30199999999995
 30
0.0
 11
-58.99715491156521
 21
13.30199999999995
 31
0.0
 12
-59.54748824489853
 22
9.999999999999952
 32
0.0
 13
-59.54748824489853
 23
9.999999999999952
 33
0.0
  0
SOLID
  5
102
330
F8
100
AcDbEntity
  8
치수문자_일반주서
 62
     0
100
AcDbTrace
 10
-58.99715491156511
 20
-13.30200000000004
 30
0.0
 11
-60.09782157823178
 21
-13.30200000000005
 31
0.0
 12
-59.54748824489846
 22
-10.00000000000005
 32
0.0
 13
-59.54748824489846
 23
-10.00000000000005
 33
0.0
  0
MTEXT
  5
103
330
F8
100
AcDbEntity
  8
치수문자_일반주서
 62
     0
100
AcDbMText
 10
-63.92248824489857
 20
20.76024999999993
 30
0.0
 40
3.5
 41
0.0
 71
     2
 72
     1
  1
\A1;%%c20
  7
SLDTEXTSTYLE0
 11
-3.552713678800502E-15
 21
1.0
 31
0.0
 73
     1
 44
1.0
  0
POINT
  5
136
330
F8
100
AcDbEntity
  8
Defpoints
 62
     0
100
AcDbPoint
 10
-46.99999999999999
 20
9.999999999999998
 30
0.0
  0
POINT
  5
137
330
F8
100
AcDbEntity
  8
Defpoints
 62
     0
100
AcDbPoint
 10
-46.99999999999999
 20
-9.999999999999998
 30
0.0
  0
POINT
  5
138
330
F8
100
AcDbEntity
  8
Defpoints
 62
     0
100
AcDbPoint
 10
-59.54748824489842
 20
-10.00000000000004
 30
0.0
  0
ENDBLK
  5
FA
330
F8
100
AcDbEntity
  8
0
100
AcDbBlockEnd
  0
BLOCK
  5
105
330
104
100
AcDbEntity
  8
0
100
AcDbBlockBegin
  2
SW_DOWELSYMBOL_0
 70
     0
 10
0.0
 20
0.0
 30
0.0
  3
SW_DOWELSYMBOL_0
  1

  0
CIRCLE
  5
107
330
104
100
AcDbEntity
  8
외형선
 62
     0
100
AcDbCircle
 10
0.0
 20
0.0
 30
0.0
 40
3.000000000000004
  0
HATCH
  5
108
330
104
100
AcDbEntity
  8
0
  6
Continuous
 62
     0
370
    30
100
AcDbHatch
 10
0.0
 20
0.0
 30
0.0
210
0.0
220
0.0
230
1.0
  2
SOLID
 70
     1
 71
     0
 91
        1
 92
        0
 93
        3
 72
     2
 10
0.0000000000000104
 20
0.0
 40
3.000000000000004
 50
0.0
 51
90.0
 73
     1
 72
     1
 10
0.0000000000000104
 20
3.000000000000004
 11
0.0000000000000104
 21
0.0
 72
     1
 10
0.0000000000000104
 20
0.0
 11
3.000000000000015
 21
0.0
 97
        0
 75
     0
 76
     1
 98
        1
 10
0.0
 20
0.0
  0
HATCH
  5
109
330
104
100
AcDbEntity
  8
0
  6
Continuous
 62
     0
370
    30
100
AcDbHatch
 10
0.0
 20
0.0
 30
0.0
210
0.0
220
0.0
230
1.0
  2
SOLID
 70
     1
 71
     0
 91
        1
 92
        0
 93
        3
 72
     2
 10
0.0000000000000104
 20
0.0
 40
3.000000000000004
 50
180.0
 51
270.0000000000008
 73
     1
 72
     1
 10
0.0000000000000104
 20
-3.000000000000004
 11
0.0000000000000104
 21
0.0
 72
     1
 10
0.0000000000000104
 20
0.0
 11
-2.999999999999994
 21
0.0
 97
        0
 75
     0
 76
     1
 98
        1
 10
0.0
 20
0.0
  0
ENDBLK
  5
106
330
104
100
AcDbEntity
  8
0
100
AcDbBlockEnd
  0
ENDSEC
  0
SECTION
  2
ENTITIES
  0
SPLINE
  5
95
330
1F
100
AcDbEntity
  8
0
  6
Continuous
 62
     1
370
    15
100
AcDbSpline
210
0.0
220
0.0
230
1.0
 70
     8
 71
     3
 72
    10
 73
     6
 74
     0
 42
0.000000001
 43
0.00000001
 40
0.0
 40
0.0
 40
0.0
 40
0.0
 40
0.4242823514493129
 40
0.5976956343158879
 40
1.0
 40
1.0
 40
1.0
 40
1.0
 10
56.09294584791278
 20
2.562447075436571
 30
0.0
 10
55.70095811756708
 20
2.749071215038175
 30
0.0
 10
55.14875660757567
 20
3.01197263697291
 30
0.0
 10
54.22217860274849
 20
3.475952271929524
 30
0.0
 10
53.68998009419408
 20
3.755022430260991
 30
0.0
 10
53.31808636479216
 20
3.95003320214116
 30
0.0
  0
LINE
  5
96
330
1F
100
AcDbEntity
  8
0
  6
Continuous
 62
     1
370
    15
100
AcDbLine
 10
33.1446202329263
 20
10.00000000000001
 30
0.0
 11
28.29888550107265
 21
10.00000000000001
 31
0.0
  0
LINE
  5
97
330
1F
100
AcDbEntity
  8
0
  6
Continuous
 62
     1
370
    15
100
AcDbLine
 10
28.29888550107264
 20
-10.0
 30
0.0
 11
33.14462023292631
 21
-10.0
 31
0.0
  0
SPLINE
  5
98
330
1F
100
AcDbEntity
  8
0
  6
Continuous
 62
     1
370
    15
100
AcDbSpline
210
0.0
220
0.0
230
1.0
 70
     8
 71
     3
 72
    21
 73
    17
 74
     0
 42
0.000000001
 43
0.00000001
 40
0.0
 40
0.0
 40
0.0
 40
0.0
 40
0.1211407922072683
 40
0.21529567092544
 40
0.2883535096305118
 40
0.3347020998518263
 40
0.3834330030325839
 40
0.4376157545197524
 40
0.4966446717207854
 40
0.5568197828834578
 40
0.6174657886505234
 40
0.7276961985952344
 40
0.8240513028952408
 40
0.9089097276175202
 40
0.9909152137977353
 40
1.0
 40
1.0
 40
1.0
 40
1.0
 10
52.78756346627886
 20
7.946395491168136
 30
0.0
 10
52.45668363363608
 20
7.929681119909331
 30
0.0
 10
51.86863237306118
 20
7.899975752223566
 30
0.0
 10
51.0828758341743
 20
7.869608401575163
 30
0.0
 10
50.50183577122061
 20
7.8509044826082
 30
0.0
 10
50.04777329413869
 20
7.838630534442188
 30
0.0
 10
49.64228708883682
 20
7.829292828419641
 30
0.0
 10
49.200990389052
 20
7.821138551774035
 30
0.0
 10
48.72730518758727
 20
7.814721928514062
 30
0.0
 10
48.23520960169702
 20
7.810600907287411
 30
0.0
 10
47.60227763506855
 20
7.808600675608795
 30
0.0
 10
46.86768182613615
 20
7.811637150623559
 30
0.0
 10
46.07452011451731
 20
7.82223834530908
 30
0.0
 10
45.37018000794529
 20
7.837766918250272
 30
0.0
 10
44.89064328577916
 20
7.850024413599583
 30
0.0
 10
44.64255386254051
 20
7.859032270447035
 30
0.0
 10
44.61781094202642
 20
7.859930658951746
 30
0.0
  0
SPLINE
  5
99
330
1F
100
AcDbEntity
  8
0
  6
Continuous
 62
     1
370
    15
100
AcDbSpline
210
0.0
220
0.0
230
1.0
 70
     8
 71
     3
 72
    28
 73
    24
 74
     0
 42
0.000000001
 43
0.00000001
 40
0.0
 40
0.0
 40
0.0
 40
0.0
 40
0.0719204736999007
 40
0.1270748951324506
 40
0.1687859846136657
 40
0.1938763785859535
 40
0.219117660048995
 40
0.2461003890930242
 40
0.274913950050253
 40
0.3061074455578264
 40
0.3397383420361785
 40
0.405258492333747
 40
0.460521388230184
 40
0.5063210737084524
 40
0.5671495491892874
 40
0.640160146291347
 40
0.7185985622940536
 40
0.7752784043871445
 40
0.8234953773228995
 40
0.8467373227970283
 40
0.8830579770220572
 40
0.9342000271302497
 40
1.0
 40
1.0
 40
1.0
 40
1.0
 10
37.74522787590139
 20
-8.321415723588885
 30
0.0
 10
38.10740196465576
 20
-8.28617959138794
 30
0.0
 10
38.74732036313837
 20
-8.223921550332872
 30
0.0
 10
39.59535533845578
 20
-8.151187995104364
 30
0.0
 10
40.20733058080127
 20
-8.10248755803409
 30
0.0
 10
40.66473966562745
 20
-8.068353683118135
 30
0.0
 10
41.05073251253226
 20
-8.040984856362972
 30
0.0
 10
41.45631934799832
 20
-8.013820832420478
 30
0.0
 10
41.89277401874957
 20
-7.98642807819629
 30
0.0
 10
42.3624422877452
 20
-7.959078765132559
 30
0.0
 10
43.01621871905471
 20
-7.924216554214956
 30
0.0
 10
43.79038242506306
 20
-7.88870361566905
 30
0.0
 10
44.6256289809219
 20
-7.858358240367259
 30
0.0
 10
45.43763767735452
 20
-7.835454241792396
 30
0.0
 10
46.32177416097056
 20
-7.817483573164477
 30
0.0
 10
47.39522029604746
 20
-7.807540442770515
 30
0.0
 10
48.44539806004911
 20
-7.81064350693474
 30
0.0
 10
49.36763076860706
 20
-7.823203936903305
 30
0.0
 10
50.00907269736903
 20
-7.837416938741361
 30
0.0
 10
50.54513538452928
 20
-7.852267133983587
 30
0.0
 10
51.0997700422796
 20
-7.87026448082867
 30
0.0
 10
51.86862209818548
 20
-7.899974153381543
 30
0.0
 10
52.45667993395809
 20
-7.92968054421373
 30
0.0
 10
52.78756346627888
 20
-7.946395491168125
 30
0.0
  0
SPLINE
  5
9A
330
1F
100
AcDbEntity
  8
0
  6
Continuous
 62
     1
370
    15
100
AcDbSpline
210
0.0
220
0.0
230
1.0
 70
     8
 71
     3
 72
    19
 73
    15
 74
     0
 42
0.000000001
 43
0.00000001
 40
0.0
 40
0.0
 40
0.0
 40
0.0
 40
0.1481413077488017
 40
0.2605033376918877
 40
0.3372505770863313
 40
0.3902334516821112
 40
0.4546240843641834
 40
0.5597823552475147
 40
0.6705968770875502
 40
0.7572569948560218
 40
0.8285699172225043
 40
0.899695984055047
 40
0.9752766752102348
 40
1.0
 40
1.0
 40
1.0
 40
1.0
 10
60.81422068581026
 20
-7.521368531616257
 30
0.0
 10
61.18256330595782
 20
-7.464829793523179
 30
0.0
 10
61.8302859663067
 20
-7.365407625554278
 30
0.0
 10
62.66773385120857
 20
-7.249283803721175
 30
0.0
 10
63.26906709418136
 20
-7.170635386076825
 30
0.0
 10
63.7536940250015
 20
-7.110526301711507
 30
0.0
 10
64.30807450697313
 20
-7.044938105745217
 30
0.0
 10
65.00577378978764
 20
-6.968236931205238
 30
0.0
 10
65.75779035792823
 20
-6.893523138198824
 30
0.0
 10
66.42531221152984
 20
-6.833826798737255
 30
0.0
 10
66.99473935797292
 20
-6.787631987825957
 30
0.0
 10
67.53683817475306
 20
-6.748113900431531
 30
0.0
 10
67.96332815430938
 20
-6.71912000286039
 30
0.0
 10
68.21271565343673
 20
-6.705242259472711
 30
0.0
 10
68.27418565622125
 20
-6.701821619193353
 30
0.0
  0
SPLINE
  5
9B
330
1F
100
AcDbEntity
  8
0
  6
Continuous
 62
     1
370
    15
100
AcDbSpline
210
0.0
220
0.0
230
1.0
 70
     8
 71
     3
 72
    22
 73
    18
 74
     0
 42
0.000000001
 43
0.00000001
 40
0.0
 40
0.0
 40
0.0
 40
0.0
 40
0.0997777509549906
 40
0.1792207953788379
 40
0.2426555336416531
 40
0.3039402696045793
 40
0.3635594948936973
 40
0.4163949105833757
 40
0.4623702521234186
 40
0.525618900748055
 40
0.6020328597988686
 40
0.670475027063525
 40
0.7065144928367982
 40
0.7539595271762664
 40
0.8185859044481121
 40
0.9006967791996583
 40
0.9999999999999999
 40
0.9999999999999999
 40
0.9999999999999999
 40
0.9999999999999999
 10
23.87098986782572
 20
6.839527711150549
 30
0.0
 10
23.48545812021327
 20
6.807979870925615
 30
0.0
 10
22.79296599857719
 20
6.751313640593886
 30
0.0
 10
21.83438419142285
 20
6.691339076166002
 30
0.0
 10
21.00891007593792
 20
6.649700805467679
 30
0.0
 10
20.2719542980656
 20
6.620313316336422
 30
0.0
 10
19.58447054187343
 20
6.600161715177358
 30
0.0
 10
18.95760126408489
 20
6.587884283422626
 30
0.0
 10
18.31585021501637
 20
6.580832639461036
 30
0.0
 10
17.58110031027445
 20
6.57978944011183
 30
0.0
 10
16.75727224839437
 20
6.588705574732844
 30
0.0
 10
16.04121983994282
 20
6.605459550638591
 30
0.0
 10
15.43979939485213
 20
6.625001705863925
 30
0.0
 10
14.85378476283616
 20
6.64828573308469
 30
0.0
 10
14.0856804302842
 20
6.68649859604623
 30
0.0
 10
13.11174130468877
 20
6.7458762962157
 30
0.0
 10
12.39327638810084
 20
6.803865857162125
 30
0.0
 10
11.99999999999997
 20
6.83560843018138
 30
0.0
  0
SPLINE
  5
9C
330
1F
100
AcDbEntity
  8
0
  6
Continuous
 62
     1
370
    15
100
AcDbSpline
210
0.0
220
0.0
230
1.0
 70
     8
 71
     3
 72
     9
 73
     5
 74
     0
 42
0.000000001
 43
0.00000001
 40
0.0
 40
0.0
 40
0.0
 40
0.0
 40
0.6645600733821808
 40
1.0
 40
1.0
 40
1.0
 40
1.0
 10
11.99999999999998
 20
-6.835608430181372
 30
0.0
 10
12.41519820462857
 20
-6.801579916982104
 30
0.0
 10
13.0399697207919
 20
-6.750375346376344
 30
0.0
 10
13.66435235355495
 20
-6.714179725504228
 30
0.0
 10
13.87379521807043
 20
-6.702038269094999
 30
0.0
  0
SPLINE
  5
9D
330
1F
100
AcDbEntity
  8
0
  6
Continuous
 62
     1
370
    15
100
AcDbSpline
210
0.0
220
0.0
230
1.0
 70
     8
 71
     3
 72
    29
 73
    25
 74
     0
 42
0.000000001
 43
0.00000001
 40
0.0
 40
0.0
 40
0.0
 40
0.0
 40
0.0739297806689711
 40
0.1385697173322322
 40
0.1930655992672607
 40
0.2373230473594289
 40
0.2770404112641288
 40
0.3177908133257696
 40
0.3748191214681031
 40
0.4344146000518365
 40
0.4797811261952573
 40
0.5093772578957597
 40
0.5376191740321192
 40
0.5701161548719575
 40
0.6133795047533253
 40
0.6624942915660352
 40
0.702843345139754
 40
0.7339170564703367
 40
0.760997817579501
 40
0.7858915494823704
 40
0.8136934264634289
 40
0.8586868511570492
 40
0.9206778863358142
 40
1.0
 40
1.0
 40
1.0
 40
1.0
 10
78.2851523635749
 20
6.839543341397721
 30
0.0
 10
77.87363339826913
 20
6.8055714619525
 30
0.0
 10
77.10230598212809
 20
6.741896530289344
 30
0.0
 10
75.95392888713738
 20
6.674315579123717
 30
0.0
 10
74.9813424690926
 20
6.630605155130699
 30
0.0
 10
74.17332296118872
 20
6.604450420206895
 30
0.0
 10
73.44694004285554
 20
6.588720714890757
 30
0.0
 10
72.6450208798422
 20
6.579606531709024
 30
0.0
 10
71.72828505704985
 20
6.580771430245568
 30
0.0
 10
70.784338106837
 20
6.596117372641034
 30
0.0
 10
70.00023867083632
 20
6.619380353570019
 30
0.0
 10
69.39893393779982
 20
6.6430043381254
 30
0.0
 10
68.87275924470345
 20
6.667611448135363
 30
0.0
 10
68.26684634496584
 20
6.700516289322386
 30
0.0
 10
67.53935080962123
 20
6.746861494075016
 30
0.0
 10
66.7658516722039
 20
6.804947749344444
 30
0.0
 10
66.0634605402588
 20
6.865541058018245
 30
0.0
 10
65.48903720639922
 20
6.920094666530344
 30
0.0
 10
65.00560145081784
 20
6.96922698118005
 30
0.0
 10
64.5439886045267
 20
7.01889311562923
 30
0.0
 10
63.97682126639437
 20
7.08329911547596
 30
0.0
 10
63.19171057180156
 20
7.17921195882391
 30
0.0
 10
62.10521668133567
 20
7.324441185762876
 30
0.0
 10
61.27835561117724
 20
7.450569815518639
 30
0.0
 10
60.81422068581026
 20
7.521368531616273
 30
0.0
  0
LINE
  5
9E
330
1F
100
AcDbEntity
  8
0
  6
Continuous
 62
   131
370
    15
100
AcDbLine
 10
8.949879357747282
 20
10.00000000000001
 30
0.0
 11
-46.99999999999999
 21
10.0
 31
0.0
  0
LINE
  5
9F
330
1F
100
AcDbEntity
  8
0
  6
Continuous
 62
   131
370
    15
100
AcDbLine
 10
-46.99999999999999
 20
-9.999999999999998
 30
0.0
 11
8.949879357747282
 21
-9.999999999999995
 31
0.0
  0
LINE
  5
A0
330
1F
100
AcDbEntity
  8
0
  6
Continuous
 62
   131
370
    15
100
AcDbLine
 10
-46.99999999999999
 20
9.999999999999998
 30
0.0
 11
-48.0
 21
8.999999999999998
 31
0.0
  0
LINE
  5
A1
330
1F
100
AcDbEntity
  8
0
  6
Continuous
 62
   131
370
    15
100
AcDbLine
 10
-48.0
 20
-8.999999999999998
 30
0.0
 11
-46.99999999999999
 21
-9.999999999999998
 31
0.0
  0
SPLINE
  5
A2
330
1F
100
AcDbEntity
  8
0
  6
Continuous
 62
   131
370
    15
100
AcDbSpline
210
0.0
220
0.0
230
1.0
 70
     8
 71
     3
 72
     9
 73
     5
 74
     0
 42
0.000000001
 43
0.00000001
 40
0.0
 40
0.0
 40
0.0
 40
0.0
 40
0.4428334914568995
 40
1.0
 40
1.0
 40
1.0
 40
1.0
 10
8.931542626340248
 20
-7.161271856561055
 30
0.0
 10
9.377709715504512
 20
-7.106811452061142
 30
0.0
 10
10.38523759623547
 20
-6.983829777118848
 30
0.0
 10
11.42222522402316
 20
-6.888643201936109
 30
0.0
 10
12.00000000000002
 20
-6.835608430181367
 30
0.0
  0
SPLINE
  5
A3
330
1F
100
AcDbEntity
  8
0
  6
Continuous
 62
   131
370
    15
100
AcDbSpline
210
0.0
220
0.0
230
1.0
 70
     8
 71
     3
 72
     9
 73
     5
 74
     0
 42
0.000000001
 43
0.00000001
 40
0.0
 40
0.0
 40
0.0
 40
0.0
 40
0.4395799725188945
 40
0.9999999999999999
 40
0.9999999999999999
 40
0.9999999999999999
 40
0.9999999999999999
 10
12.00000000000002
 20
6.835608430181376
 30
0.0
 10
11.55304667743989
 20
6.87596234556026
 30
0.0
 10
10.53627305147375
 20
6.967763423638609
 30
0.0
 10
9.523655628175705
 20
7.089959656315354
 30
0.0
 10
8.95616454398317
 20
7.158440872390143
 30
0.0
  0
SPLINE
  5
A4
330
1F
100
AcDbEntity
  8
0
  6
Continuous
 62
     1
370
    15
100
AcDbSpline
210
0.0
220
0.0
230
1.0
 70
     8
 71
     3
 72
    10
 73
     6
 74
     0
 42
0.000000001
 43
0.00000001
 40
0.0
 40
0.0
 40
0.0
 40
0.0
 40
0.5
 40
0.5
 40
1.0
 40
1.0
 40
1.0
 40
1.0
 10
82.0
 20
-2.672429460296435
 30
0.0
 10
81.1432431594078
 20
-1.998877176673851
 30
0.0
 10
80.29803636418455
 20
-1.303046910902127
 30
0.0
 10
78.6306763784572
 20
0.1330799216817076
 30
0.0
 10
77.80798421885814
 20
0.8737316691697647
 30
0.0
 10
77.00000000000225
 20
1.639931148972217
 30
0.0
  0
LINE
  5
A5
330
1F
100
AcDbEntity
  8
0
  6
Continuous
 62
     1
370
    15
100
AcDbLine
 10
77.0
 20
2.937719435296604
 30
0.0
 11
82.0
 21
0.0000000000000135
 31
0.0
  0
LINE
  5
A6
330
1F
100
AcDbEntity
  8
0
  6
Continuous
 62
     1
370
    15
100
AcDbLine
 10
82.0
 20
0.0000000000000135
 30
0.0
 11
82.0
 21
-2.672429460296435
 31
0.0
  0
SPLINE
  5
A7
330
1F
100
AcDbEntity
  8
0
  6
Continuous
 62
     1
370
    15
100
AcDbSpline
210
0.0
220
0.0
230
1.0
 70
     8
 71
     3
 72
    31
 73
    27
 74
     0
 42
0.000000001
 43
0.00000001
 40
0.0
 40
0.0
 40
0.0
 40
0.0
 40
0.0187017729064335
 40
0.0652812330840707
 40
0.1074944626325233
 40
0.1500005957103859
 40
0.1922138428499392
 40
0.234720173783906
 40
0.2769333524922116
 40
0.3194392475445572
 40
0.3616524095108062
 40
0.404158119358805
 40
0.4463712877889988
 40
0.4888770355088601
 40
0.5310803820632483
 40
0.5735763781276672
 40
0.6157797600064866
 40
0.6582760563041271
 40
0.7004793629776247
 40
0.7429752008600699
 40
0.7851784885271181
 40
0.8276741236558051
 40
0.8699995270856591
 40
0.912619853451088
 40
0.9561492973913347
 40
1.0
 40
1.0
 40
1.0
 40
1.0
 10
13.87312244443435
 20
6.701746838195848
 30
0.0
 10
14.29784129053722
 20
6.889632851009959
 30
0.0
 10
15.78038362095452
 20
7.545476051390998
 30
0.0
 10
18.22162272631218
 20
8.390256213747223
 30
0.0
 10
21.20339233781559
 20
9.21722716346185
 30
0.0
 10
24.08608731011511
 20
9.750133680704508
 30
0.0
 10
26.97526125763785
 20
10.01718264421275
 30
0.0
 10
29.85774489858094
 20
10.00568600905957
 30
0.0
 10
32.74677270065456
 20
9.716924330891551
 30
0.0
 10
35.62916545755301
 20
9.159872773078982
 30
0.0
 10
38.51814325553583
 20
8.34755025061137
 30
0.0
 10
41.40054807112569
 20
7.306087874225056
 30
0.0
 10
44.28960137280913
 20
6.059755742842574
 30
0.0
 10
47.17189229699262
 20
4.648755774475741
 30
0.0
 10
50.0607008534402
 20
3.106089777910068
 30
0.0
 10
52.94273180075485
 20
1.481215678435839
 30
0.0
 10
55.83124072102007
 20
-0.1885673318453776
 30
0.0
 10
58.71305724080516
 20
-1.849558693267105
 30
0.0
 10
61.60141156957865
 20
-3.463116016130628
 30
0.0
 10
64.48312911567243
 20
-4.977299627822955
 30
0.0
 10
67.371424312373
 20
-6.357032783167281
 30
0.0
 10
70.25591738191346
 20
-7.558590270049369
 30
0.0
 10
73.14989157167034
 20
-8.555240175759222
 30
0.0
 10
76.06743494684272
 20
-9.314285402389093
 30
0.0
 10
79.0197133859337
 20
-9.835102538328922
 30
0.0
 10
81.00413917275552
 20
-9.939271952480917
 30
0.0
 10
81.99999999999943
 20
-9.999999999999732
 30
0.0
  0
SPLINE
  5
A8
330
1F
100
AcDbEntity
  8
0
  6
Continuous
 62
     1
370
    15
100
AcDbSpline
210
0.0
220
0.0
230
1.0
 70
     8
 71
     3
 72
    17
 73
    13
 74
     0
 42
0.000000001
 43
0.00000001
 40
0.0
 40
0.0
 40
0.0
 40
0.0
 40
0.0217294346596874
 40
0.1314116836889367
 40
0.241126572232388
 40
0.3508619536566051
 40
0.4606052743022231
 40
0.5703439538895411
 40
0.6800654277029854
 40
0.7897571886643165
 40
0.8994369801910221
 40
1.0
 40
1.0
 40
1.0
 40
1.0
 10
57.15607741868236
 20
-0.9477687538784337
 30
0.0
 10
56.91496325889585
 20
-0.8526362212294831
 30
0.0
 10
55.45679289252305
 20
-0.2773094129262608
 30
0.0
 10
52.78126259329522
 20
0.8206057962234615
 30
0.0
 10
49.12903313779471
 20
2.26476849616787
 30
0.0
 10
45.47607588545651
 20
3.613436591349052
 30
0.0
 10
41.82282181483551
 20
4.800911537369209
 30
0.0
 10
38.16973989251685
 20
5.775437715353601
 30
0.0
 10
34.51728725591907
 20
6.496058880200382
 30
0.0
 10
30.86559608639625
 20
6.921077108295325
 30
0.0
 10
27.31564863306654
 20
7.064736886335898
 30
0.0
 10
24.98260897920973
 20
6.900287473140751
 30
0.0
 10
23.86667302194491
 20
6.821628281458266
 30
0.0
  0
SPLINE
  5
A9
330
1F
100
AcDbEntity
  8
0
  6
Continuous
 62
     1
370
    15
100
AcDbSpline
210
0.0
220
0.0
230
1.0
 70
     8
 71
     3
 72
    24
 73
    20
 74
     0
 42
0.000000001
 43
0.00000001
 40
0.0
 40
0.0
 40
0.0
 40
0.0
 40
0.064191103750753
 40
0.1283816578644841
 40
0.1925716852891301
 40
0.256761209007849
 40
0.3209502520375045
 40
0.3851388374271429
 40
0.4493269882564653
 40
0.5081696751121677
 40
0.5670049074974325
 40
0.6258356454474507
 40
0.6846648565711972
 40
0.7434955110522202
 40
0.8023305766402204
 40
0.8611730136513379
 40
0.9200257699949959
 40
0.9788869103547395
 40
1.0
 40
1.0
 40
1.0
 40
1.0
 10
82.0
 20
-9.489408692318982
 30
0.0
 10
80.95459669803219
 20
-9.269008084496377
 30
0.0
 10
78.86379904537364
 20
-8.828208756033753
 30
0.0
 10
75.72762256834793
 20
-7.795262933443277
 30
0.0
 10
72.59147619906
 20
-6.529746849763767
 30
0.0
 10
69.45536081941313
 20
-5.044795123322795
 30
0.0
 10
66.31926851736495
 20
-3.396517158666462
 30
0.0
 10
63.18322196783721
 20
-1.636794096096403
 30
0.0
 10
60.13417943558004
 20
0.1260553980535881
 30
0.0
 10
57.17256338471376
 20
1.833092929167128
 30
0.0
 10
54.29823048031903
 20
3.439682638864679
 30
0.0
 10
51.42416979306003
 20
4.951702928784472
 30
0.0
 10
48.55019627121366
 20
6.327554996884253
 30
0.0
 10
45.67613858239484
 20
7.52989849084631
 30
0.0
 10
42.80182302601623
 20
8.52404165252247
 30
0.0
 10
39.92707255533071
 20
9.28888257007954
 30
0.0
 10
37.05180787118826
 20
9.78012136527479
 30
0.0
 10
34.79084065839466
 20
10.00877233366689
 30
0.0
 10
33.48844970173625
 20
9.976780616254048
 30
0.0
 10
33.14462023292629
 20
9.968334845690197
 30
0.0
  0
SPLINE
  5
AA
330
1F
100
AcDbEntity
  8
0
  6
Continuous
 62
     1
370
    15
100
AcDbSpline
210
0.0
220
0.0
230
1.0
 70
     8
 71
     3
 72
    16
 73
    12
 74
     0
 42
0.000000001
 43
0.00000001
 40
0.0
 40
0.0
 40
0.0
 40
0.0
 40
0.1172802376862995
 40
0.234554512724551
 40
0.3518234680804483
 40
0.4690877488277029
 40
0.5863480018945553
 40
0.7036048758087241
 40
0.8208590204410023
 40
0.9381110867477254
 40
1.0
 40
1.0
 40
1.0
 40
1.0
 10
82.0
 20
-7.889722643682147
 30
0.0
 10
80.9852378123266
 20
-7.680951660241029
 30
0.0
 10
78.95576502853427
 20
-7.263420307490565
 30
0.0
 10
75.91165745429879
 20
-6.34824493402641
 30
0.0
 10
72.86770661836417
 20
-5.255008972253041
 30
0.0
 10
69.8238956070366
 20
-3.995173428657231
 30
0.0
 10
66.78020453965033
 20
-2.613833740295079
 30
0.0
 10
63.7366141815699
 20
-1.150609843657937
 30
0.0
 10
60.69310538499132
 20
0.3440075737163581
 30
0.0
 10
58.12865487080156
 20
1.606873163578883
 30
0.0
 10
56.57870628333972
 20
2.326708451303488
 30
0.0
 10
56.04323620881488
 20
2.5753942840347
 30
0.0
  0
LINE
  5
AB
330
1F
100
AcDbEntity
  8
0
  6
Continuous
 62
     1
370
    15
100
AcDbLine
 10
82.0
 20
-9.489408692318992
 30
0.0
 11
82.0
 21
-7.889722643682147
 31
0.0
  0
LINE
  5
AC
330
1F
100
AcDbEntity
  8
0
  6
Continuous
 62
     1
370
    15
100
AcDbLine
 10
81.99999999999943
 20
-9.999999999999732
 30
0.0
 11
82.0
 21
-9.489408692319001
 31
0.0
  0
SPLINE
  5
AD
330
1F
100
AcDbEntity
  8
0
  6
Continuous
 62
     1
370
    15
100
AcDbSpline
210
0.0
220
0.0
230
1.0
 70
     8
 71
     3
 72
    19
 73
    15
 74
     0
 42
0.000000001
 43
0.00000001
 40
0.0
 40
0.0
 40
0.0
 40
0.0
 40
0.0556779332217941
 40
0.1438097975140413
 40
0.2319571176925712
 40
0.3201169951172897
 40
0.4082615546500379
 40
0.4963913610996177
 40
0.5845108331889504
 40
0.6675821278906134
 40
0.7506552039360307
 40
0.833745167851069
 40
0.916867062285002
 40
1.0
 40
1.0
 40
1.0
 40
1.0
 10
44.6180003718774
 20
-7.859865372335398
 30
0.0
 10
44.01264609459542
 20
-8.076506407183976
 30
0.0
 10
42.449084536134
 20
-8.636065671546387
 30
0.0
 10
39.92707262188915
 20
-9.280155793405028
 30
0.0
 10
37.05180263241964
 20
-9.793088609202906
 30
0.0
 10
34.17625495154972
 20
-10.027783923022
 30
0.0
 10
31.30105560826938
 20
-9.989322853902348
 30
0.0
 10
28.42640221175368
 20
-9.675652544649461
 30
0.0
 10
25.60690125266642
 20
-9.107372162097546
 30
0.0
 10
22.84268614950512
 20
-8.316410568548493
 30
0.0
 10
20.13307803891181
 20
-7.338355043853346
 30
0.0
 10
17.42284319445724
 20
-6.179241919223992
 30
0.0
 10
14.71167367631346
 20
-4.875220821096836
 30
0.0
 10
12.90393125115691
 20
-3.911369941205789
 30
0.0
 10
11.99999999999981
 20
-3.429412489931531
 30
0.0
  0
SPLINE
  5
AE
330
1F
100
AcDbEntity
  8
0
  6
Continuous
 62
   131
370
    15
100
AcDbSpline
210
0.0
220
0.0
230
1.0
 70
    24
 71
     3
 72
     8
 73
     4
 74
     0
 42
0.000000001
 43
0.00000001
 40
0.0
 40
0.0
 40
0.0
 40
0.0
 40
1.0
 40
1.0
 40
1.0
 40
1.0
 10
12.00000000000005
 20
-2.428457807196017
 30
0.0
 10
12.00000000000005
 20
-2.727108368983328
 30
0.0
 10
12.00000000000005
 20
-3.062749008082667
 30
0.0
 10
12.00000000000005
 20
-3.429412489923001
 30
0.0
  0
SPLINE
  5
AF
330
1F
100
AcDbEntity
  8
0
  6
Continuous
 62
     1
370
    15
100
AcDbSpline
210
0.0
220
0.0
230
1.0
 70
     8
 71
     3
 72
    16
 73
    12
 74
     0
 42
0.000000001
 43
0.00000001
 40
0.0
 40
0.0
 40
0.0
 40
0.0
 40
0.0547693154268965
 40
0.1729419957191974
 40
0.291118491873632
 40
0.4092994564901137
 40
0.5274855403951152
 40
0.6456773923855984
 40
0.7638730375689865
 40
0.8819394285294538
 40
1.0
 40
1.0
 40
1.0
 40
1.0
 10
37.75628432881575
 20
-8.288576856300262
 30
0.0
 10
37.28607507757237
 20
-8.34264184483806
 30
0.0
 10
35.80132169546739
 20
-8.513359827040022
 30
0.0
 10
33.3019790495979
 20
-8.523700023003858
 30
0.0
 10
30.25821538472893
 20
-8.327038190252777
 30
0.0
 10
27.21431893237797
 20
-7.859628394946107
 30
0.0
 10
24.17027127414975
 20
-7.153832269091897
 30
0.0
 10
21.12607532670412
 20
-6.227020361064111
 30
0.0
 10
18.08288310239438
 20
-5.107640629922878
 30
0.0
 10
15.04084888815953
 20
-3.836793114745721
 30
0.0
 10
13.0135996417973
 20
-2.897895196479382
 30
0.0
 10
12.00000000000001
 20
-2.428457807196
 30
0.0
  0
SPLINE
  5
B0
330
1F
100
AcDbEntity
  8
0
  6
Continuous
 62
     1
370
    15
100
AcDbSpline
210
0.0
220
0.0
230
1.0
 70
     8
 71
     3
 72
    13
 73
     9
 74
     0
 42
0.000000001
 43
0.00000001
 40
0.0
 40
0.0
 40
0.0
 40
0.0
 40
0.1930955071110212
 40
0.387798083072156
 40
0.5642497744695663
 40
0.741925805339069
 40
0.9183775702674436
 40
1.0
 40
1.0
 40
1.0
 40
1.0
 10
12.0
 20
-5.890350955620887
 30
0.0
 10
13.04909139751988
 20
-6.361100153778277
 30
0.0
 10
15.15600542681311
 20
-7.306516437069784
 30
0.0
 10
18.22162180872856
 20
-8.395049352819273
 30
0.0
 10
21.20339316558925
 20
-9.218384171986692
 30
0.0
 10
24.08608485330185
 20
-9.740744275273508
 30
0.0
 10
26.45342624850882
 20
-9.99691273218685
 30
0.0
 10
27.85545787374302
 20
-9.972902995970967
 30
0.0
 10
28.29888550107264
 20
-9.965309315363914
 30
0.0
  0
SPLINE
  5
B1
330
1F
100
AcDbEntity
  8
0
  6
Continuous
 62
     1
370
    15
100
AcDbSpline
210
0.0
220
0.0
230
1.0
 70
     8
 71
     3
 72
    12
 73
     8
 74
     0
 42
0.000000001
 43
0.00000001
 40
0.0
 40
0.0
 40
0.0
 40
0.0
 40
0.1447230491457553
 40
0.3547898293480372
 40
0.5663203525146732
 40
0.7823629508487406
 40
1.0
 40
1.0
 40
1.0
 40
1.0
 10
68.27330646368398
 20
6.701456991542563
 30
0.0
 10
68.93546500668552
 20
6.98415882948879
 30
0.0
 10
70.5587525055293
 20
7.677204874561431
 30
0.0
 10
73.1498926568353
 20
8.550793176126877
 30
0.0
 10
76.06743464976995
 20
9.315502804834132
 30
0.0
 10
79.01971346149881
 20
9.83479287302275
 30
0.0
 10
81.00413919800559
 20
9.939168478020955
 30
0.0
 10
82.0
 20
10.00000000000026
 30
0.0
  0
LINE
  5
B2
330
1F
100
AcDbEntity
  8
0
  6
Continuous
 62
   131
370
    15
100
AcDbLine
 10
12.0
 20
-5.890350955620884
 30
0.0
 11
12.0
 21
-3.429412489921456
 31
0.0
  0
SPLINE
  5
B3
330
1F
100
AcDbEntity
  8
0
  6
Continuous
 62
     1
370
    15
100
AcDbSpline
210
0.0
220
0.0
230
1.0
 70
     8
 71
     3
 72
    16
 73
    12
 74
     0
 42
0.000000001
 43
0.00000001
 40
0.0
 40
0.0
 40
0.0
 40
0.0
 40
0.0852444297139643
 40
0.1706441318861588
 40
0.2963249448587976
 40
0.4220013805753458
 40
0.5476741438662202
 40
0.6733439410267756
 40
0.7990114795364002
 40
0.9246774677765938
 40
0.9999999999999999
 40
0.9999999999999999
 40
0.9999999999999999
 40
0.9999999999999999
 10
77.00000000000003
 20
2.27733618898758
 30
0.0
 10
76.31203429559304
 20
2.579106557627531
 30
0.0
 10
74.9348497594315
 20
3.183196968676348
 30
0.0
 10
72.54242686445315
 20
4.167897385396655
 30
0.0
 10
69.82393040033219
 20
5.198641156305693
 30
0.0
 10
66.78021631742979
 20
6.190923313376588
 30
0.0
 10
63.73663627478454
 20
6.992229731182752
 30
0.0
 10
60.69312865226664
 20
7.580921948682299
 30
0.0
 10
57.64968544200027
 20
7.925389619933395
 30
0.0
 10
55.01268528141089
 20
8.047166276945076
 30
0.0
 10
53.39016453528392
 20
7.952246214481131
 30
0.0
 10
52.78210806070816
 20
7.916673936785386
 30
0.0
  0
SPLINE
  5
B4
330
1F
100
AcDbEntity
  8
0
  6
Continuous
 62
     1
370
    15
100
AcDbSpline
210
0.0
220
0.0
230
1.0
 70
    24
 71
     3
 72
     8
 73
     4
 74
     0
 42
0.000000001
 43
0.00000001
 40
0.0
 40
0.0
 40
0.0
 40
0.0
 40
1.0
 40
1.0
 40
1.0
 40
1.0
 10
77.0
 20
1.639931148963762
 30
0.0
 10
77.0
 20
1.854493127011674
 30
0.0
 10
77.0
 20
2.067125113709721
 30
0.0
 10
77.0
 20
2.277336188987587
 30
0.0
  0
SPLINE
  5
B5
330
1F
100
AcDbEntity
  8
0
  6
Continuous
 62
     1
370
    15
100
AcDbSpline
210
0.0
220
0.0
230
1.0
 70
    24
 71
     3
 72
    10
 73
     6
 74
     0
 42
0.000000001
 43
0.00000001
 40
0.0
 40
0.0
 40
0.0
 40
0.0
 40
0.5
 40
0.5
 40
1.0
 40
1.0
 40
1.0
 40
1.0
 10
82.0
 20
-7.889722643682143
 30
0.0
 10
82.0
 20
-7.284913890038032
 30
0.0
 10
82.00000000000003
 20
-6.520714839064672
 30
0.0
 10
82.00000000000003
 20
-4.744025591506785
 30
0.0
 10
82.0
 20
-3.733074430513084
 30
0.0
 10
82.0
 20
-2.672429460296754
 30
0.0
  0
SPLINE
  5
B6
330
1F
100
AcDbEntity
  8
0
  6
Continuous
 62
     1
370
    15
100
AcDbSpline
210
0.0
220
0.0
230
1.0
 70
     8
 71
     3
 72
    24
 73
    20
 74
     0
 42
0.000000001
 43
0.00000001
 40
0.0
 40
0.0
 40
0.0
 40
0.0
 40
0.0025250651669572
 40
0.0648703440541064
 40
0.1272148538326922
 40
0.1895589462471798
 40
0.2519029732088384
 40
0.3142472866551004
 40
0.3765922384088935
 40
0.4389381800380718
 40
0.501285462715063
 40
0.5636344370768515
 40
0.6259854530854146
 40
0.6883388598887322
 40
0.7506950056824828
 40
0.8130542375725459
 40
0.8754154970437849
 40
0.9377093044646021
 40
1.0
 40
1.0
 40
1.0
 40
1.0
 10
60.81637556131614
 20
-7.516593286988283
 30
0.0
 10
60.77528771857437
 20
-7.524524179287294
 30
0.0
 10
59.71971793369179
 20
-7.728273262212094
 30
0.0
 10
57.64968587248816
 20
-7.91578187957221
 30
0.0
 10
54.60628389702449
 20
-8.045188916598427
 30
0.0
 10
51.56290592776352
 20
-7.900680437497149
 30
0.0
 10
48.51953132845426
 20
-7.519841325641691
 30
0.0
 10
45.47614095566016
 20
-6.905521707647717
 30
0.0
 10
42.43271527209566
 20
-6.079017860748525
 30
0.0
 10
39.38923486220847
 20
-5.065142926510007
 30
0.0
 10
36.34568030455944
 20
-3.895290666613722
 30
0.0
 10
33.30203221469722
 20
-2.605434182905398
 30
0.0
 10
30.25827124914132
 20
-1.235332437508648
 30
0.0
 10
27.21437809427709
 20
0.172912287436937
 30
0.0
 10
24.17033355430089
 20
1.575588031973023
 30
0.0
 10
21.12614111070997
 20
2.930738555276925
 30
0.0
 10
18.08294141997469
 20
4.191438987800462
 30
0.0
 10
15.04088497701094
 20
5.33659152300761
 30
0.0
 10
13.01361144651657
 20
5.955999242318934
 30
0.0
 10
12.00000000000001
 20
6.265695366157522
 30
0.0
  0
SPLINE
  5
B7
330
1F
100
AcDbEntity
  8
0
  6
Continuous
 62
   131
370
    15
100
AcDbSpline
210
0.0
220
0.0
230
1.0
 70
    24
 71
     3
 72
    14
 73
    10
 74
     0
 42
0.000000001
 43
0.00000001
 40
0.0
 40
0.0
 40
0.0
 40
0.0
 40
0.25
 40
0.25
 40
0.5
 40
0.5
 40
0.75
 40
0.75
 40
1.0
 40
1.0
 40
1.0
 40
1.0
 10
12.0
 20
6.265695366157525
 30
0.0
 10
12.0
 20
5.719589461555252
 30
0.0
 10
12.0
 20
5.102609556379898
 30
0.0
 10
12.0
 20
3.756772238536359
 30
0.0
 10
12.0
 20
3.028157019104595
 30
0.0
 10
12.0
 20
1.508638343381963
 30
0.0
 10
12.0
 20
0.7181736779579818
 30
0.0
 10
12.0
 20
-0.8663525042260788
 30
0.0
 10
12.0
 20
-1.659983874164914
 30
0.0
 10
12.0
 20
-2.428457807195989
 30
0.0
  0
SPLINE
  5
B8
330
1F
100
AcDbEntity
  8
0
  6
Continuous
 62
     1
370
    15
100
AcDbSpline
210
0.0
220
0.0
230
1.0
 70
    24
 71
     3
 72
    10
 73
     6
 74
     0
 42
0.000000001
 43
0.00000001
 40
0.0
 40
0.0
 40
0.0
 40
0.0
 40
0.5
 40
0.5
 40
1.0
 40
1.0
 40
1.0
 40
1.0
 10
82.0
 20
7.000000000000013
 30
0.0
 10
82.00000000000003
 20
7.424322568073149
 30
0.0
 10
82.00000000000003
 20
7.917424688671183
 30
0.0
 10
82.0
 20
8.951951609608567
 30
0.0
 10
82.0
 20
9.49073435801474
 30
0.0
 10
82.0
 20
10.00000000000026
 30
0.0
  0
SPLINE
  5
B9
330
1F
100
AcDbEntity
  8
0
  6
Continuous
 62
     1
370
    15
100
AcDbSpline
210
0.0
220
0.0
230
1.0
 70
     8
 71
     3
 72
     9
 73
     5
 74
     0
 42
0.000000001
 43
0.00000001
 40
0.0
 40
0.0
 40
0.0
 40
0.0
 40
0.9827048920653907
 40
1.0
 40
1.0
 40
1.0
 40
1.0
 10
82.0
 20
7.000000000000013
 30
0.0
 10
80.78293321621356
 20
6.997970353991071
 30
0.0
 10
79.544446674004
 20
6.995904987241264
 30
0.0
 10
78.30590443329794
 20
6.839612019362609
 30
0.0
 10
78.28448371156338
 20
6.836908915613727
 30
0.0
  0
SPLINE
  5
BA
330
1F
100
AcDbEntity
  8
0
  6
Continuous
 62
   131
370
    15
100
AcDbSpline
210
0.0
220
0.0
230
1.0
 70
    24
 71
     3
 72
     9
 73
     5
 74
     0
 42
0.000000001
 43
0.00000001
 40
0.0
 40
0.0
 40
0.0
 40
0.0
 40
0.4761777765981039
 40
1.0
 40
1.0
 40
1.0
 40
1.0
 10
12.0
 20
6.826551511122746
 30
0.0
 10
12.0
 20
6.808253914649903
 30
0.0
 10
12.0
 20
6.769827937269008
 30
0.0
 10
12.0
 20
6.438993694685239
 30
0.0
 10
12.0
 20
6.265695366157526
 30
0.0
  0
SPLINE
  5
BB
330
1F
100
AcDbEntity
  8
0
  6
Continuous
 62
     1
370
    15
100
AcDbSpline
210
0.0
220
0.0
230
1.0
 70
    24
 71
     3
 72
    10
 73
     6
 74
     0
 42
0.000000001
 43
0.00000001
 40
0.0
 40
0.0
 40
0.0
 40
0.0
 40
0.5
 40
0.5
 40
1.0
 40
1.0
 40
1.0
 40
1.0
 10
77.00000000000003
 20
2.277336188987584
 30
0.0
 10
77.0
 20
2.878840455911245
 30
0.0
 10
77.00000000000003
 20
3.450743803947676
 30
0.0
 10
77.0
 20
4.486413301752649
 30
0.0
 10
77.00000000000003
 20
4.949784524560215
 30
0.0
 10
77.0
 20
5.338750903172982
 30
0.0
  0
SPLINE
  5
BC
330
1F
100
AcDbEntity
  8
0
  6
Continuous
 62
     1
370
    15
100
AcDbSpline
210
0.0
220
0.0
230
1.0
 70
     8
 71
     3
 72
    10
 73
     6
 74
     0
 42
0.000000001
 43
0.00000001
 40
0.0
 40
0.0
 40
0.0
 40
0.0
 40
0.5
 40
0.5
 40
1.0
 40
1.0
 40
1.0
 40
1.0
 10
82.0
 20
7.000000000000013
 30
0.0
 10
81.1576359540482
 20
6.771599311814835
 30
0.0
 10
80.31936082760961
 20
6.520011639069242
 30
0.0
 10
78.65146435802876
 20
5.967828526894
 30
0.0
 10
77.82259727129096
 20
5.667959600724482
 30
0.0
 10
77.0
 20
5.338750903172981
 30
0.0
  0
SPLINE
  5
BD
330
1F
100
AcDbEntity
  8
0
  6
Continuous
 62
   131
370
    15
100
AcDbSpline
210
0.0
220
0.0
230
1.0
 70
    24
 71
     3
 72
    11
 73
     7
 74
     0
 42
0.000000001
 43
0.00000001
 40
0.0
 40
0.0
 40
0.0
 40
0.0
 40
0.1084427885384538
 40
0.534313649337462
 40
0.9725347939501834
 40
1.0
 40
1.0
 40
1.0
 40
1.0
 10
12.0
 20
-5.981190912927521
 30
0.0
 10
12.0
 20
-6.048691816565695
 30
0.0
 10
12.0
 20
-6.381278746896244
 30
0.0
 10
12.0
 20
-6.672017665561812
 30
0.0
 10
12.0
 20
-6.880429098416986
 30
0.0
 10
12.0
 20
-6.829552111361081
 30
0.0
 10
12.0
 20
-6.826551493175265
 30
0.0
  0
LINE
  5
BE
330
1F
100
AcDbEntity
  8
0
  6
Continuous
 62
     1
370
    15
100
AcDbLine
 10
82.0
 20
0.0000000000000135
 30
0.0
 11
82.0
 21
7.000000000000012
 31
0.0
  0
SPLINE
  5
BF
330
1F
100
AcDbEntity
  8
0
  6
Continuous
 62
   131
370
    15
100
AcDbSpline
210
0.0
220
0.0
230
1.0
 70
     8
 71
     3
 72
    10
 73
     6
 74
     0
 42
0.000000001
 43
0.00000001
 40
0.0
 40
0.0
 40
0.0
 40
0.0
 40
0.5
 40
0.5
 40
1.0
 40
1.0
 40
1.0
 40
1.0
 10
12.00000000000234
 20
-3.429412489932908
 30
0.0
 10
11.49233824019776
 20
-3.15383891696071
 30
0.0
 10
10.98617660953478
 20
-2.874114446291173
 30
0.0
 10
9.967924968284516
 20
-2.30687074281847
 30
0.0
 10
9.45783849895264
 20
-2.019714412746379
 30
0.0
 10
8.949753061431261
 20
-1.730697004124793
 30
0.0
  0
SPLINE
  5
C0
330
1F
100
AcDbEntity
  8
0
  6
Continuous
 62
   131
370
    15
100
AcDbSpline
210
0.0
220
0.0
230
1.0
 70
     8
 71
     3
 72
    10
 73
     6
 74
     0
 42
0.000000001
 43
0.00000001
 40
0.0
 40
0.0
 40
0.0
 40
0.0
 40
0.5
 40
0.5
 40
1.0
 40
1.0
 40
1.0
 40
1.0
 10
8.949879357747271
 20
-4.383579237224043
 30
0.0
 10
9.457944077019478
 20
-4.647317442327346
 30
0.0
 10
9.968009417861618
 20
-4.905728593988704
 30
0.0
 10
10.98621871483133
 20
-5.408870350454656
 30
0.0
 10
11.49235927202249
 20
-5.653291065825788
 30
0.0
 10
12.0
 20
-5.890350955620877
 30
0.0
  0
LINE
  5
C1
330
1F
100
AcDbEntity
  8
0
  6
Continuous
 62
   131
370
    15
100
AcDbLine
 10
8.949879357747282
 20
-9.999999999999995
 30
0.0
 11
8.949879357747271
 21
-4.383578535486162
 31
0.0
  0
LINE
  5
C2
330
1F
100
AcDbEntity
  8
0
  6
Continuous
 62
   131
370
    15
100
AcDbLine
 10
-46.99999999999999
 20
9.999999999999998
 30
0.0
 11
-46.99999999999999
 21
-9.999999999999998
 31
0.0
  0
LINE
  5
C3
330
1F
100
AcDbEntity
  8
0
  6
Continuous
 62
   131
370
    15
100
AcDbLine
 10
8.949879357747275
 20
-1.730274897997029
 30
0.0
 11
8.949879357747282
 21
10.00000000000001
 31
0.0
  0
LINE
  5
C4
330
1F
100
AcDbEntity
  8
0
  6
Continuous
 62
   131
370
    15
100
AcDbLine
 10
-48.0
 20
8.999999999999998
 30
0.0
 11
-48.0
 21
-9.000000000000009
 31
0.0
  0
SPLINE
  5
C5
330
1F
100
AcDbEntity
  8
0
  6
Continuous
 62
   131
370
    15
100
AcDbSpline
210
0.0
220
0.0
230
1.0
 70
    24
 71
     3
 72
     8
 73
     4
 74
     0
 42
0.000000001
 43
0.00000001
 40
0.0
 40
0.0
 40
0.0
 40
0.0
 40
1.0
 40
1.0
 40
1.0
 40
1.0
 10
12.00000000000005
 20
-2.428457807196017
 30
0.0
 10
12.00000000000005
 20
-2.727108368983331
 30
0.0
 10
12.00000000000005
 20
-3.062749008082672
 30
0.0
 10
12.00000000000005
 20
-3.42941248992301
 30
0.0
  0
SPLINE
  5
C6
330
1F
100
AcDbEntity
  8
0
  6
Continuous
 62
   131
370
    15
100
AcDbSpline
210
0.0
220
0.0
230
1.0
 70
     8
 71
     3
 72
    10
 73
     6
 74
     0
 42
0.000000001
 43
0.00000001
 40
0.0
 40
0.0
 40
0.0
 40
0.0
 40
0.5
 40
0.5
 40
1.0
 40
1.0
 40
1.0
 40
1.0
 10
12.00000000000271
 20
-2.428457807197272
 30
0.0
 10
11.49233824019807
 20
-2.189491921085291
 30
0.0
 10
10.98617660953503
 20
-1.947629689638716
 30
0.0
 10
9.967924968284633
 20
-1.458554931950554
 30
0.0
 10
9.457838498952702
 20
-1.2116575236682
 30
0.0
 10
8.949753061431261
 20
-0.9638374932231869
 30
0.0
  0
SPLINE
  5
C7
330
1F
100
AcDbEntity
  8
0
  6
Continuous
 62
   131
370
    15
100
AcDbSpline
210
0.0
220
0.0
230
1.0
 70
     8
 71
     3
 72
    10
 73
     6
 74
     0
 42
0.000000001
 43
0.00000001
 40
0.0
 40
0.0
 40
0.0
 40
0.0
 40
0.5
 40
0.5
 40
1.0
 40
1.0
 40
1.0
 40
1.0
 10
12.0
 20
6.265695366157523
 30
0.0
 10
11.49235159050077
 20
6.411611966453598
 30
0.0
 10
10.9862033365794
 20
6.549307699334623
 30
0.0
 10
9.967978574071335
 20
6.807948756757945
 30
0.0
 10
9.457905516400638
 20
6.928695646600876
 30
0.0
 10
8.949833230127915
 20
7.040185788636307
 30
0.0
  0
SPLINE
  5
C8
330
1F
100
AcDbEntity
  8
0
  6
Continuous
 62
   131
370
    15
100
AcDbSpline
210
0.0
220
0.0
230
1.0
 70
    24
 71
     3
 72
    14
 73
    10
 74
     0
 42
0.000000001
 43
0.00000001
 40
0.0
 40
0.0
 40
0.0
 40
0.0
 40
0.25
 40
0.25
 40
0.5
 40
0.5
 40
0.75
 40
0.75
 40
1.0
 40
1.0
 40
1.0
 40
1.0
 10
12.0
 20
6.265695366157525
 30
0.0
 10
12.0
 20
5.719589461555252
 30
0.0
 10
12.0
 20
5.102609556379898
 30
0.0
 10
12.0
 20
3.756772238536359
 30
0.0
 10
12.0
 20
3.028157019104595
 30
0.0
 10
12.0
 20
1.508638343381963
 30
0.0
 10
12.0
 20
0.7181736779579818
 30
0.0
 10
12.0
 20
-0.8663525042260788
 30
0.0
 10
12.0
 20
-1.659983874164914
 30
0.0
 10
12.0
 20
-2.428457807195989
 30
0.0
  0
SPLINE
  5
C9
330
1F
100
AcDbEntity
  8
0
  6
Continuous
 62
   131
370
    15
100
AcDbSpline
210
0.0
220
0.0
230
1.0
 70
    24
 71
     3
 72
    11
 73
     7
 74
     0
 42
0.000000001
 43
0.00000001
 40
0.0
 40
0.0
 40
0.0
 40
0.0
 40
0.1082034602160617
 40
0.5331126957646841
 40
0.970344327929613
 40
1.0
 40
1.0
 40
1.0
 40
1.0
 10
12.0
 20
-5.98118091292752
 30
0.0
 10
12.0
 20
-6.04868356728656
 30
0.0
 10
12.0
 20
-6.381265556483222
 30
0.0
 10
12.0
 20
-6.672229565347675
 30
0.0
 10
12.0
 20
-6.880483795234056
 30
0.0
 10
12.0
 20
-6.829119763629646
 30
0.0
 10
12.0
 20
-6.825857231400445
 30
0.0
  0
SPLINE
  5
CA
330
1F
100
AcDbEntity
  8
0
  6
Continuous
 62
   131
370
    15
100
AcDbSpline
210
0.0
220
0.0
230
1.0
 70
    24
 71
     3
 72
     9
 73
     5
 74
     0
 42
0.000000001
 43
0.00000001
 40
0.0
 40
0.0
 40
0.0
 40
0.0
 40
0.4751470564188132
 40
0.9999999999999999
 40
0.9999999999999999
 40
0.9999999999999999
 40
0.9999999999999999
 10
12.0
 20
6.826051685337719
 30
0.0
 10
12.0
 20
6.807781909534008
 30
0.0
 10
12.0
 20
6.769331127703625
 30
0.0
 10
12.0
 20
6.439046319803862
 30
0.0
 10
12.0
 20
6.265695366157525
 30
0.0
  0
LINE
  5
CB
330
1F
100
AcDbEntity
  8
중심선
100
AcDbLine
 10
-51.0
 20
0.0000000000000005
 30
0.0
 11
89.0
 21
0.0000000000000142
 31
0.0
  0
CIRCLE
  5
CC
330
1F
100
AcDbEntity
  8
외형선
100
AcDbCircle
 10
0.0000000000000104
 20
0.0
 30
0.0
 40
3.000000000000005
  0
INSERT
  5
CD
330
1F
100
AcDbEntity
  8
0
  6
Continuous
 62
     7
100
AcDbBlockReference
 66
     1
  2
블럭10
 10
-22.93944368806589
 20
-52.04609937292004
 30
0.0
  0
ATTRIB
  5
CE
330
CD
100
AcDbEntity
  8
FORMAT
 62
     2
100
AcDbText
 10
-39.05870472750145
 20
-49.97073246008785
 30
0.0
 40
4.233333333333333
  1
SEME7020070E [ 2 FLUTE ]
 41
0.75
  7
SLDTEXTSTYLE0
 11
-39.05870472750145
 21
-52.08739912675452
 31
0.0
100
AcDbAttribute
  2
AUTOATTR0
 70
     0
 74
     1
  0
SEQEND
  5
CF
330
CD
100
AcDbEntity
  8
0
  6
Continuous
 62
     7
  0
HATCH
  5
D0
330
1F
100
AcDbEntity
  8
중심선
100
AcDbHatch
 10
0.0
 20
0.0
 30
0.0
210
0.0
220
0.0
230
1.0
  2
SOLID
 70
     1
 71
     0
 91
        1
 92
        0
 93
        4
 72
     1
 10
-17.22453438368504
 20
-35.7989250712761
 11
-20.67080962752232
 21
-35.7989250712761
 72
     1
 10
-20.67080962752232
 20
-35.7989250712761
 11
-22.79903948672635
 21
-38.3352506518487
 72
     1
 10
-22.79903948672635
 20
-38.3352506518487
 11
-19.35273115777591
 21
-38.33521122254621
 72
     1
 10
-19.35273115777591
 20
-38.33521122254621
 11
-17.22453438368504
 21
-35.7989250712761
 97
        0
 75
     0
 76
     1
 98
        1
 10
0.0
 20
0.0
  0
HATCH
  5
D1
330
1F
100
AcDbEntity
  8
중심선
100
AcDbHatch
 10
0.0
 20
0.0
 30
0.0
210
0.0
220
0.0
230
1.0
  2
SOLID
 70
     1
 71
     0
 91
        1
 92
        0
 93
        4
 72
     1
 10
-12.21177039264909
 20
-35.7989250712761
 11
-15.65804563648637
 21
-35.7989250712761
 72
     1
 10
-15.65804563648637
 20
-35.7989250712761
 11
-20.18918364484376
 21
-41.19892507127612
 72
     1
 10
-20.18918364484376
 20
-41.19892507127612
 11
-16.74290840100648
 21
-41.19892507127612
 72
     1
 10
-16.74290840100648
 20
-41.19892507127612
 11
-12.21177039264909
 21
-35.7989250712761
 97
        0
 75
     0
 76
     1
 98
        1
 10
0.0
 20
0.0
  0
HATCH
  5
D2
330
1F
100
AcDbEntity
  8
중심선
100
AcDbHatch
 10
0.0
 20
0.0
 30
0.0
210
0.0
220
0.0
230
1.0
  2
SOLID
 70
     1
 71
     0
 91
        1
 92
        0
 93
        4
 72
     1
 10
-7.199006401613195
 20
-35.79892507127613
 11
-10.64528164545031
 21
-35.7989250712761
 72
     1
 10
-10.64528164545031
 20
-35.7989250712761
 11
-17.69371854733956
 21
-44.19892507127612
 72
     1
 10
-17.69371854733956
 20
-44.19892507127612
 11
-14.24744330350228
 21
-44.19892507127612
 72
     1
 10
-14.24744330350228
 20
-44.19892507127612
 11
-7.199006401613195
 21
-35.79892507127613
 97
        0
 75
     0
 76
     1
 98
        1
 10
0.0
 20
0.0
  0
HATCH
  5
D3
330
1F
100
AcDbEntity
  8
중심선
100
AcDbHatch
 10
0.0
 20
0.0
 30
0.0
210
0.0
220
0.0
230
1.0
  2
SOLID
 70
     1
 71
     0
 91
        1
 92
        0
 93
        6
 72
     3
 10
-2.399115970600996
 20
-39.99892507132738
 11
3.960054785062284
 21
1.540850780301639E-10
 40
0.3939339440162633
 50
17.09539180608433
 51
320.0019657685079
 73
     0
 72
     1
 10
-0.7161163149004002
 20
-38.58681907591441
 11
1.589185558800638
 21
-36.65249236586649
 72
     3
 10
-2.399115970653842
 20
-39.99892507127625
 11
6.600054785286829
 21
-1.249000902703301E-13
 40
0.6363583540795982
 50
39.99873849337408
 51
368.4976242363725
 73
     1
 72
     1
 10
4.026216521246767
 20
-39.03892507120613
 11
-3.71904866381792
 21
-39.0389250712061
 72
     1
 10
-3.71904866381792
 20
-39.0389250712061
 11
-3.719073708263854
 21
-40.95892507120602
 72
     1
 10
-3.719073708263854
 20
-40.95892507120602
 11
0.7223060612081831
 21
-40.95892507120599
 97
        0
 75
     0
 76
     1
 98
        1
 10
0.0
 20
0.0
  0
DIMENSION
  5
D4
330
1F
100
AcDbEntity
  8
치수문자_일반주서
100
AcDbDimension
  2
_D
 10
96.03595532566453
 20
10.00000000000031
 30
0.0
 11
96.03595532566449
 21
20.76025000000031
 31
0.0
 70
   160
  1
%%c<>
 71
     2
 42
19.99999999999999
 52
-270.0
  3
SLDDIMSTYLE0
100
AcDbAlignedDimension
 13
81.99999999999943
 23
-9.999999999999732
 33
0.0
 14
82.0
 24
10.00000000000026
 34
0.0
 50
90.0000000000002
100
AcDbRotatedDimension
  0
DIMENSION
  5
E2
330
1F
100
AcDbEntity
  8
치수문자_일반주서
100
AcDbDimension
  2
_D_1
 10
82.0
 20
30.7884104402427
 30
0.0
 11
17.00000000000001
 21
30.7884104402427
 31
0.0
 70
   160
  1
<>
 71
     2
 42
130.0
  3
SLDDIMSTYLE1
100
AcDbAlignedDimension
 13
-48.0
 23
8.999999999999998
 33
0.0
 14
82.0
 24
10.00000000000026
 34
0.0
 50
-0.0000000000000031
100
AcDbRotatedDimension
  0
DIMENSION
  5
ED
330
1F
100
AcDbEntity
  8
치수문자_일반주서
100
AcDbDimension
  2
_D_2
 10
82.0
 20
19.612693172325
 30
0.0
 11
47.00000000000004
 21
19.612693172325
 31
0.0
 70
   160
  1
<>
 71
     2
 42
70.00000000000003
  3
SLDDIMSTYLE1
100
AcDbAlignedDimension
 13
11.99999999999997
 23
6.83560843018138
 33
0.0
 14
82.0
 24
10.00000000000026
 34
0.0
 50
-0.000000000000064
100
AcDbRotatedDimension
  0
DIMENSION
  5
F7
330
1F
100
AcDbEntity
  8
치수문자_일반주서
100
AcDbDimension
  2
_D_3
 10
-59.54748824489846
 20
-10.00000000000005
 30
0.0
 11
-59.54748824489857
 21
20.76024999999995
 31
0.0
 70
   160
  1
%%c<>
 71
     2
 42
20.0
 52
-270.0
  3
SLDDIMSTYLE0
100
AcDbAlignedDimension
 13
-46.99999999999999
 23
9.999999999999998
 33
0.0
 14
-46.99999999999999
 24
-9.999999999999998
 34
0.0
 50
90.0000000000002
100
AcDbRotatedDimension
  0
INSERT
  5
10A
330
1F
100
AcDbEntity
  8
외형선
100
AcDbBlockReference
  2
SW_DOWELSYMBOL_0
 10
0.0000000000000104
 20
0.0
 30
0.0
  0
ENDSEC
  0
SECTION
  2
OBJECTS
  0
DICTIONARY
  5
C
330
0
100
AcDbDictionary
281
     1
  3
ACAD_GROUP
350
D
  3
ACAD_IMAGE_VARS
350
12E
  3
ACAD_LAYOUT
350
1A
  3
ACAD_MLINESTYLE
350
17
  3
ACAD_PLOTSETTINGS
350
19
  3
ACAD_PLOTSTYLENAME
350
E
  3
ACAD_SCALELIST
350
47
  3
APPDATA
350
12C
  3
DWGPROPS
350
13E
  0
DICTIONARY
  5
D
102
{ACAD_REACTORS
330
C
102
}
330
C
100
AcDbDictionary
281
     1
  0
RASTERVARIABLES
  5
12E
102
{ACAD_REACTORS
330
C
102
}
330
C
100
AcDbRasterVariables
 90
        0
 70
     1
 71
     1
 72
     1
  0
DICTIONARY
  5
1A
102
{ACAD_REACTORS
330
C
102
}
330
C
100
AcDbDictionary
281
     1
  3
Layout1
350
1E
  3
Layout2
350
26
  3
Model
350
22
  0
DICTIONARY
  5
17
102
{ACAD_REACTORS
330
C
102
}
330
C
100
AcDbDictionary
281
     1
  3
Standard
350
18
  0
DICTIONARY
  5
19
102
{ACAD_REACTORS
330
C
102
}
330
C
100
AcDbDictionary
281
     1
  0
ACDBDICTIONARYWDFLT
  5
E
102
{ACAD_REACTORS
330
C
102
}
330
C
100
AcDbDictionary
281
     1
  3
Normal
350
F
100
AcDbDictionaryWithDefault
340
F
  0
DICTIONARY
  5
47
102
{ACAD_REACTORS
330
C
102
}
330
C
100
AcDbDictionary
281
     1
  3
A0
350
48
  3
A1
350
49
  3
A2
350
4A
  3
A3
350
4B
  3
A4
350
4C
  3
A5
350
4D
  3
A6
350
4E
  3
A7
350
4F
  3
A8
350
50
  3
A9
350
51
  3
B0
350
52
  3
B1
350
53
  3
B2
350
54
  3
B3
350
55
  3
B4
350
56
  3
B5
350
57
  3
B6
350
58
  3
B7
350
59
  3
B8
350
5A
  3
B9
350
5B
  3
C0
350
5C
  3
C1
350
5D
  3
C2
350
5E
  3
C3
350
5F
  3
C4
350
60
  3
C5
350
61
  3
C6
350
62
  3
C7
350
63
  3
C8
350
64
  3
C9
350
65
  3
D0
350
66
  3
D1
350
67
  3
D2
350
68
  0
DICTIONARY
  5
12C
102
{ACAD_REACTORS
330
C
102
}
330
C
100
AcDbDictionary
281
     1
  0
XRECORD
  5
13E
102
{ACAD_REACTORS
330
C
102
}
330
C
100
AcDbXrecord
280
     1
  1
DWGPROPS COOKIE
  2

  3

  4

  6

  7

  8
12014102
  9

300
=
301
=
302
=
303
=
304
=
305
=
306
=
307
=
308
=
309
=
 40
0.0
 41
2458262.178557327
 42
2458266.198460405
  1

 90
        0
  0
LAYOUT
  5
1E
102
{ACAD_REACTORS
330
1A
102
}
330
1A
100
AcDbPlotSettings
  1

  2
none_device
  4

  6

 40
0.0
 41
0.0
 42
0.0
 43
0.0
 44
0.0
 45
0.0
 46
0.0
 47
0.0
 48
0.0
 49
0.0
140
0.0
141
0.0
142
1.0
143
1.0
 70
   688
 72
     1
 73
     0
 74
     5
  7

 75
    16
147
1.0
148
0.0
149
0.0
100
AcDbLayout
  1
Layout1
 70
     1
 71
     1
 10
0.0
 20
0.0
 11
420.0
 21
297.0
 12
0.0
 22
0.0
 32
0.0
 14
1.000000000000000E+20
 24
1.000000000000000E+20
 34
1.000000000000000E+20
 15
-1.000000000000000E+20
 25
-1.000000000000000E+20
 35
-1.000000000000000E+20
146
0.0
 13
0.0
 23
0.0
 33
0.0
 16
1.0
 26
0.0
 36
0.0
 17
0.0
 27
1.0
 37
0.0
 76
     0
330
1B
  0
LAYOUT
  5
26
102
{ACAD_REACTORS
330
1A
102
}
330
1A
100
AcDbPlotSettings
  1

  2
none_device
  4

  6

 40
0.0
 41
0.0
 42
0.0
 43
0.0
 44
0.0
 45
0.0
 46
0.0
 47
0.0
 48
0.0
 49
0.0
140
0.0
141
0.0
142
1.0
143
1.0
 70
   688
 72
     1
 73
     0
 74
     5
  7

 75
    16
147
1.0
148
0.0
149
0.0
100
AcDbLayout
  1
Layout2
 70
     1
 71
     2
 10
0.0
 20
0.0
 11
0.0
 21
0.0
 12
0.0
 22
0.0
 32
0.0
 14
0.0
 24
0.0
 34
0.0
 15
0.0
 25
0.0
 35
0.0
146
0.0
 13
0.0
 23
0.0
 33
0.0
 16
1.0
 26
0.0
 36
0.0
 17
0.0
 27
1.0
 37
0.0
 76
     0
330
23
  0
LAYOUT
  5
22
102
{ACAD_REACTORS
330
1A
102
}
330
1A
100
AcDbPlotSettings
  1

  2
none_device
  4
ANSI_A_(11.00_x_8.50_Inches)
  6

 40
6.35
 41
19.05
 42
6.35000508
 43
19.05000254
 44
279.4
 45
215.9
 46
110.6856154359161
 47
103.494724361852
 48
0.0
 49
0.0
140
0.0
141
0.0
142
0.0745575495764173
143
1.0
 70
  1696
 72
     0
 73
     0
 74
     0
  7

 75
     0
147
0.0235690232323232
148
0.0
149
0.0
100
AcDbLayout
  1
Model
 70
     1
 71
     0
 10
0.0
 20
0.0
 11
420.0
 21
297.0
 12
0.0
 22
0.0
 32
0.0
 14
-63.92248824489857
 24
-49.97073246008785
 34
0.0
 15
96.58628865899794
 25
35.1634104402427
 35
0.0
146
0.0
 13
0.0
 23
0.0
 33
0.0
 16
1.0
 26
0.0
 36
0.0
 17
0.0
 27
1.0
 37
0.0
 76
     0
330
1F
331
29
  0
MLINESTYLE
  5
18
102
{ACAD_REACTORS
330
17
102
}
330
17
100
AcDbMlineStyle
  2
Standard
 70
     0
  3

 62
   256
 51
90.0
 52
90.0
 71
     2
 49
0.5
 62
   256
  6
BYLAYER
 49
-0.5
 62
   256
  6
BYLAYER
  0
ACDBPLACEHOLDER
  5
F
102
{ACAD_REACTORS
330
E
102
}
330
E
  0
SCALE
  5
48
102
{ACAD_REACTORS
330
47
102
}
330
47
100
AcDbScale
 70
     0
300
1:1
140
1.0
141
1.0
290
     1
  0
SCALE
  5
49
102
{ACAD_REACTORS
330
47
102
}
330
47
100
AcDbScale
 70
     0
300
1:2
140
1.0
141
2.0
290
     0
  0
SCALE
  5
4A
102
{ACAD_REACTORS
330
47
102
}
330
47
100
AcDbScale
 70
     0
300
1:4
140
1.0
141
4.0
290
     0
  0
SCALE
  5
4B
102
{ACAD_REACTORS
330
47
102
}
330
47
100
AcDbScale
 70
     0
300
1:5
140
1.0
141
5.0
290
     0
  0
SCALE
  5
4C
102
{ACAD_REACTORS
330
47
102
}
330
47
100
AcDbScale
 70
     0
300
1:8
140
1.0
141
8.0
290
     0
  0
SCALE
  5
4D
102
{ACAD_REACTORS
330
47
102
}
330
47
100
AcDbScale
 70
     0
300
1:10
140
1.0
141
10.0
290
     0
  0
SCALE
  5
4E
102
{ACAD_REACTORS
330
47
102
}
330
47
100
AcDbScale
 70
     0
300
1:16
140
1.0
141
16.0
290
     0
  0
SCALE
  5
4F
102
{ACAD_REACTORS
330
47
102
}
330
47
100
AcDbScale
 70
     0
300
1:20
140
1.0
141
20.0
290
     0
  0
SCALE
  5
50
102
{ACAD_REACTORS
330
47
102
}
330
47
100
AcDbScale
 70
     0
300
1:30
140
1.0
141
30.0
290
     0
  0
SCALE
  5
51
102
{ACAD_REACTORS
330
47
102
}
330
47
100
AcDbScale
 70
     0
300
1:40
140
1.0
141
40.0
290
     0
  0
SCALE
  5
52
102
{ACAD_REACTORS
330
47
102
}
330
47
100
AcDbScale
 70
     0
300
1:50
140
1.0
141
50.0
290
     0
  0
SCALE
  5
53
102
{ACAD_REACTORS
330
47
102
}
330
47
100
AcDbScale
 70
     0
300
1:100
140
1.0
141
100.0
290
     0
  0
SCALE
  5
54
102
{ACAD_REACTORS
330
47
102
}
330
47
100
AcDbScale
 70
     0
300
2:1
140
2.0
141
1.0
290
     0
  0
SCALE
  5
55
102
{ACAD_REACTORS
330
47
102
}
330
47
100
AcDbScale
 70
     0
300
4:1
140
4.0
141
1.0
290
     0
  0
SCALE
  5
56
102
{ACAD_REACTORS
330
47
102
}
330
47
100
AcDbScale
 70
     0
300
8:1
140
8.0
141
1.0
290
     0
  0
SCALE
  5
57
102
{ACAD_REACTORS
330
47
102
}
330
47
100
AcDbScale
 70
     0
300
10:1
140
10.0
141
1.0
290
     0
  0
SCALE
  5
58
102
{ACAD_REACTORS
330
47
102
}
330
47
100
AcDbScale
 70
     0
300
100:1
140
100.0
141
1.0
290
     0
  0
SCALE
  5
59
102
{ACAD_REACTORS
330
47
102
}
330
47
100
AcDbScale
 70
     0
300
1/128" = 1'-0"
140
0.0078125
141
12.0
290
     0
  0
SCALE
  5
5A
102
{ACAD_REACTORS
330
47
102
}
330
47
100
AcDbScale
 70
     0
300
1/64" = 1'-0"
140
0.015625
141
12.0
290
     0
  0
SCALE
  5
5B
102
{ACAD_REACTORS
330
47
102
}
330
47
100
AcDbScale
 70
     0
300
1/32" = 1'-0"
140
0.03125
141
12.0
290
     0
  0
SCALE
  5
5C
102
{ACAD_REACTORS
330
47
102
}
330
47
100
AcDbScale
 70
     0
300
1/16" = 1'-0"
140
0.0625
141
12.0
290
     0
  0
SCALE
  5
5D
102
{ACAD_REACTORS
330
47
102
}
330
47
100
AcDbScale
 70
     0
300
3/32" = 1'-0"
140
0.09375
141
12.0
290
     0
  0
SCALE
  5
5E
102
{ACAD_REACTORS
330
47
102
}
330
47
100
AcDbScale
 70
     0
300
1/8" = 1'-0"
140
0.125
141
12.0
290
     0
  0
SCALE
  5
5F
102
{ACAD_REACTORS
330
47
102
}
330
47
100
AcDbScale
 70
     0
300
3/16" = 1'-0"
140
0.1875
141
12.0
290
     0
  0
SCALE
  5
60
102
{ACAD_REACTORS
330
47
102
}
330
47
100
AcDbScale
 70
     0
300
1/4" = 1'-0"
140
0.25
141
12.0
290
     0
  0
SCALE
  5
61
102
{ACAD_REACTORS
330
47
102
}
330
47
100
AcDbScale
 70
     0
300
3/8" = 1'-0"
140
0.375
141
12.0
290
     0
  0
SCALE
  5
62
102
{ACAD_REACTORS
330
47
102
}
330
47
100
AcDbScale
 70
     0
300
1/2" = 1'-0"
140
0.5
141
12.0
290
     0
  0
SCALE
  5
63
102
{ACAD_REACTORS
330
47
102
}
330
47
100
AcDbScale
 70
     0
300
3/4" = 1'-0"
140
0.75
141
12.0
290
     0
  0
SCALE
  5
64
102
{ACAD_REACTORS
330
47
102
}
330
47
100
AcDbScale
 70
     0
300
1" = 1'-0"
140
1.0
141
12.0
290
     0
  0
SCALE
  5
65
102
{ACAD_REACTORS
330
47
102
}
330
47
100
AcDbScale
 70
     0
300
1-1/2" = 1'-0"
140
1.5
141
12.0
290
     0
  0
SCALE
  5
66
102
{ACAD_REACTORS
330
47
102
}
330
47
100
AcDbScale
 70
     0
300
3" = 1'-0"
140
3.0
141
12.0
290
     0
  0
SCALE
  5
67
102
{ACAD_REACTORS
330
47
102
}
330
47
100
AcDbScale
 70
     0
300
6" = 1'-0"
140
6.0
141
12.0
290
     0
  0
SCALE
  5
68
102
{ACAD_REACTORS
330
47
102
}
330
47
100
AcDbScale
 70
     0
300
1'-0" = 1'-0"
140
12.0
141
12.0
290
     0
  0
ENDSEC
  0
EOF
