  0
SECTION
  2
HEADER
  9
$ACADVER
  1
AC1015
  9
$ACADMAINTVER
 70
     6
  9
$DWGCODEPAGE
  3
ANSI_949
  9
$INSBASE
 10
0.0
 20
0.0
 30
0.0
  9
$EXTMIN
 10
-73.85069843469988
 20
-49.97073246008785
 30
0.0
  9
$EXTMAX
 10
108.2421013492561
 20
35.1634104402427
 30
0.0
  9
$LIMMIN
 10
0.0
 20
0.0
  9
$LIMMAX
 10
420.0
 20
297.0
  9
$ORTHOMODE
 70
     0
  9
$REGENMODE
 70
     1
  9
$FILLMODE
 70
     1
  9
$QTEXTMODE
 70
     0
  9
$MIRRTEXT
 70
     1
  9
$LTSCALE
 40
1.0
  9
$ATTMODE
 70
     1
  9
$TEXTSIZE
 40
3.5
  9
$TRACEWID
 40
1.0
  9
$TEXTSTYLE
  7
Standard
  9
$CLAYER
  8
0
  9
$CELTYPE
  6
ByLayer
  9
$CECOLOR
 62
   256
  9
$CELTSCALE
 40
1.0
  9
$DISPSILH
 70
     0
  9
$DIMSCALE
 40
1.0
  9
$DIMASZ
 40
3.302
  9
$DIMEXO
 40
1.0
  9
$DIMDLI
 40
3.75
  9
$DIMRND
 40
0.0
  9
$DIMDLE
 40
0.0
  9
$DIMEXE
 40
1.0
  9
$DIMTP
 40
0.0
  9
$DIMTM
 40
0.0
  9
$DIMTXT
 40
3.5
  9
$DIMCEN
 40
2.5
  9
$DIMTSZ
 40
0.0
  9
$DIMTOL
 70
     0
  9
$DIMLIM
 70
     0
  9
$DIMTIH
 70
     1
  9
$DIMTOH
 70
     1
  9
$DIMSE1
 70
     0
  9
$DIMSE2
 70
     0
  9
$DIMTAD
 70
     1
  9
$DIMZIN
 70
     0
  9
$DIMBLK
  1

  9
$DIMASO
 70
     1
  9
$DIMSHO
 70
     1
  9
$DIMPOST
  1

  9
$DIMAPOST
  1

  9
$DIMALT
 70
     0
  9
$DIMALTD
 70
     3
  9
$DIMALTF
 40
0.0393700787401575
  9
$DIMLFAC
 40
1.0
  9
$DIMTOFL
 70
     1
  9
$DIMTVP
 40
0.0
  9
$DIMTIX
 70
     0
  9
$DIMSOXD
 70
     0
  9
$DIMSAH
 70
     0
  9
$DIMBLK1
  1

  9
$DIMBLK2
  1

  9
$DIMSTYLE
  2
ISO-25
  9
$DIMCLRD
 70
     0
  9
$DIMCLRE
 70
     0
  9
$DIMCLRT
 70
     0
  9
$DIMTFAC
 40
1.0
  9
$DIMGAP
 40
1.524
  9
$DIMJUST
 70
     0
  9
$DIMSD1
 70
     0
  9
$DIMSD2
 70
     0
  9
$DIMTOLJ
 70
     0
  9
$DIMTZIN
 70
     0
  9
$DIMALTZ
 70
     0
  9
$DIMALTTZ
 70
     0
  9
$DIMUPT
 70
     0
  9
$DIMDEC
 70
     2
  9
$DIMTDEC
 70
     2
  9
$DIMALTU
 70
     2
  9
$DIMALTTD
 70
     3
  9
$DIMTXSTY
  7
Standard
  9
$DIMAUNIT
 70
     0
  9
$DIMADEC
 70
     2
  9
$DIMALTRND
 40
0.0
  9
$DIMAZIN
 70
     0
  9
$DIMDSEP
 70
    44
  9
$DIMATFIT
 70
     3
  9
$DIMFRAC
 70
     0
  9
$DIMLDRBLK
  1

  9
$DIMLUNIT
 70
     2
  9
$DIMLWD
 70
    -2
  9
$DIMLWE
 70
    -2
  9
$DIMTMOVE
 70
     0
  9
$LUNITS
 70
     2
  9
$LUPREC
 70
     2
  9
$SKETCHINC
 40
1.0
  9
$FILLETRAD
 40
10.0
  9
$AUNITS
 70
     0
  9
$AUPREC
 70
     2
  9
$MENU
  1
.
  9
$ELEVATION
 40
0.0
  9
$PELEVATION
 40
0.0
  9
$THICKNESS
 40
0.0
  9
$LIMCHECK
 70
     0
  9
$CHAMFERA
 40
0.0
  9
$CHAMFERB
 40
0.0
  9
$CHAMFERC
 40
0.0
  9
$CHAMFERD
 40
0.0
  9
$SKPOLY
 70
     0
  9
$TDCREATE
 40
2458262.553744155
  9
$TDUCREATE
 40
2458262.178744155
  9
$TDUPDATE
 40
2458266.589976887
  9
$TDUUPDATE
 40
2458266.214976887
  9
$TDINDWG
 40
0.0164161806
  9
$TDUSRTIMER
 40
2458266.198560729
  9
$USRTIMER
 70
     1
  9
$ANGBASE
 50
0.0
  9
$ANGDIR
 70
     0
  9
$PDMODE
 70
     0
  9
$PDSIZE
 40
-1.0
  9
$PLINEWID
 40
0.0
  9
$SPLFRAME
 70
     0
  9
$SPLINETYPE
 70
     6
  9
$SPLINESEGS
 70
     8
  9
$HANDSEED
  5
143
  9
$SURFTAB1
 70
     6
  9
$SURFTAB2
 70
     6
  9
$SURFTYPE
 70
     6
  9
$SURFU
 70
     6
  9
$SURFV
 70
     6
  9
$UCSBASE
  2

  9
$UCSNAME
  2

  9
$UCSORG
 10
0.0
 20
0.0
 30
0.0
  9
$UCSXDIR
 10
1.0
 20
0.0
 30
0.0
  9
$UCSYDIR
 10
0.0
 20
1.0
 30
0.0
  9
$UCSORTHOREF
  2

  9
$UCSORTHOVIEW
 70
     0
  9
$UCSORGTOP
 10
0.0
 20
0.0
 30
0.0
  9
$UCSORGBOTTOM
 10
0.0
 20
0.0
 30
0.0
  9
$UCSORGLEFT
 10
0.0
 20
0.0
 30
0.0
  9
$UCSORGRIGHT
 10
0.0
 20
0.0
 30
0.0
  9
$UCSORGFRONT
 10
0.0
 20
0.0
 30
0.0
  9
$UCSORGBACK
 10
0.0
 20
0.0
 30
0.0
  9
$PUCSBASE
  2

  9
$PUCSNAME
  2

  9
$PUCSORG
 10
0.0
 20
0.0
 30
0.0
  9
$PUCSXDIR
 10
1.0
 20
0.0
 30
0.0
  9
$PUCSYDIR
 10
0.0
 20
1.0
 30
0.0
  9
$PUCSORTHOREF
  2

  9
$PUCSORTHOVIEW
 70
     0
  9
$PUCSORGTOP
 10
0.0
 20
0.0
 30
0.0
  9
$PUCSORGBOTTOM
 10
0.0
 20
0.0
 30
0.0
  9
$PUCSORGLEFT
 10
0.0
 20
0.0
 30
0.0
  9
$PUCSORGRIGHT
 10
0.0
 20
0.0
 30
0.0
  9
$PUCSORGFRONT
 10
0.0
 20
0.0
 30
0.0
  9
$PUCSORGBACK
 10
0.0
 20
0.0
 30
0.0
  9
$USERI1
 70
     0
  9
$USERI2
 70
     0
  9
$USERI3
 70
     0
  9
$USERI4
 70
     0
  9
$USERI5
 70
     0
  9
$USERR1
 40
0.0
  9
$USERR2
 40
0.0
  9
$USERR3
 40
0.0
  9
$USERR4
 40
0.0
  9
$USERR5
 40
0.0
  9
$WORLDVIEW
 70
     1
  9
$SHADEDGE
 70
     3
  9
$SHADEDIF
 70
    70
  9
$TILEMODE
 70
     1
  9
$MAXACTVP
 70
    64
  9
$PINSBASE
 10
0.0
 20
0.0
 30
0.0
  9
$PLIMCHECK
 70
     0
  9
$PEXTMIN
 10
1.000000000000000E+20
 20
1.000000000000000E+20
 30
1.000000000000000E+20
  9
$PEXTMAX
 10
-1.000000000000000E+20
 20
-1.000000000000000E+20
 30
-1.000000000000000E+20
  9
$PLIMMIN
 10
0.0
 20
0.0
  9
$PLIMMAX
 10
0.0
 20
0.0
  9
$UNITMODE
 70
     0
  9
$VISRETAIN
 70
     1
  9
$PLINEGEN
 70
     0
  9
$PSLTSCALE
 70
     1
  9
$TREEDEPTH
 70
  3020
  9
$CMLSTYLE
  2
Standard
  9
$CMLJUST
 70
     0
  9
$CMLSCALE
 40
20.0
  9
$PROXYGRAPHICS
 70
     1
  9
$MEASUREMENT
 70
     1
  9
$CELWEIGHT
370
    -1
  9
$ENDCAPS
280
     0
  9
$JOINSTYLE
280
     0
  9
$LWDISPLAY
290
     1
  9
$INSUNITS
 70
     4
  9
$HYPERLINKBASE
  1

  9
$STYLESHEET
  1

  9
$XEDIT
290
     1
  9
$CEPSNTYPE
380
     0
  9
$PSTYLEMODE
290
     1
  9
$FINGERPRINTGUID
  2
{039B6145-0B38-4BFA-AE37-A2BFCC4E76E1}
  9
$VERSIONGUID
  2
{FAEB1C32-E019-11D5-929B-00C0DF256EC4}
  9
$EXTNAMES
290
     1
  9
$PSVPSCALE
 40
0.0
  9
$OLESTARTUP
290
     0
  0
ENDSEC
  0
SECTION
  2
CLASSES
  0
CLASS
  1
ACDBDICTIONARYWDFLT
  2
AcDbDictionaryWithDefault
  3
ObjectDBX Classes
 90
        0
280
     0
281
     0
  0
CLASS
  1
VISUALSTYLE
  2
AcDbVisualStyle
  3
ObjectDBX Classes
 90
     4095
280
     0
281
     0
  0
CLASS
  1
MATERIAL
  2
AcDbMaterial
  3
ObjectDBX Classes
 90
     1153
280
     0
281
     0
  0
CLASS
  1
SCALE
  2
AcDbScale
  3
ObjectDBX Classes
 90
     1153
280
     0
281
     0
  0
CLASS
  1
SUN
  2
AcDbSun
  3
SCENEOE
 90
     1153
280
     0
281
     0
  0
CLASS
  1
ACDBPLACEHOLDER
  2
AcDbPlaceHolder
  3
ObjectDBX Classes
 90
        0
280
     0
281
     0
  0
CLASS
  1
LAYOUT
  2
AcDbLayout
  3
ObjectDBX Classes
 90
        0
280
     0
281
     0
  0
CLASS
  1
TABLESTYLE
  2
AcDbTableStyle
  3
ObjectDBX Classes
 90
     4095
280
     0
281
     0
  0
CLASS
  1
MLEADERSTYLE
  2
AcDbMLeaderStyle
  3
ACDB_MLEADERSTYLE_CLASS
 90
     4095
280
     0
281
     0
  0
CLASS
  1
RASTERVARIABLES
  2
AcDbRasterVariables
  3
ISM
 90
        0
280
     0
281
     0
  0
ENDSEC
  0
SECTION
  2
TABLES
  0
TABLE
  2
VPORT
  5
8
330
0
100
AcDbSymbolTable
 70
     1
  0
VPORT
  5
29
330
8
100
AcDbSymbolTableRecord
100
AcDbViewportTableRecord
  2
*Active
 70
     0
 10
0.0
 20
0.0
 11
1.0
 21
1.0
 12
17.1957014572781
 22
-7.40366100992258
 13
0.0
 23
0.0
 14
10.0
 24
10.0
 15
10.0
 25
10.0
 16
0.0
 26
0.0
 36
1.0
 17
0.0
 27
0.0
 37
0.0
 40
161.1643762034053
 41
1.152454780361757
 42
50.0
 43
0.0
 44
0.0
 50
0.0
 51
0.0
 71
    16
 72
  2000
 73
     1
 74
     3
 75
     0
 76
     0
 77
     0
 78
     0
281
     0
 65
     1
110
0.0
120
0.0
130
0.0
111
1.0
121
0.0
131
0.0
112
0.0
122
1.0
132
0.0
 79
     0
146
0.0
  0
ENDTAB
  0
TABLE
  2
LTYPE
  5
5
330
0
100
AcDbSymbolTable
 70
     6
  0
LTYPE
  5
14
330
5
100
AcDbSymbolTableRecord
100
AcDbLinetypeTableRecord
  2
ByBlock
 70
     0
  3

 72
    65
 73
     0
 40
0.0
  0
LTYPE
  5
15
330
5
100
AcDbSymbolTableRecord
100
AcDbLinetypeTableRecord
  2
ByLayer
 70
     0
  3

 72
    65
 73
     0
 40
0.0
  0
LTYPE
  5
16
330
5
100
AcDbSymbolTableRecord
100
AcDbLinetypeTableRecord
  2
Continuous
 70
     0
  3
Solid line
 72
    65
 73
     0
 40
0.0
  0
LTYPE
  5
6A
330
5
100
AcDbSymbolTableRecord
100
AcDbLinetypeTableRecord
  2
HIDDEN
 70
     0
  3
Hidden __ __ __ __ __ __ __ __ __ __ __ __ __ __
 72
    65
 73
     2
 40
1.905
 49
1.27
 74
     0
 49
-0.635
 74
     0
  0
LTYPE
  5
6B
330
5
100
AcDbSymbolTableRecord
100
AcDbLinetypeTableRecord
  2
PHANTOM
 70
     0
  3
Phantom ______  __  __  ______  __  __  ______
 72
    65
 73
     6
 40
12.7
 49
6.35
 74
     0
 49
-1.27
 74
     0
 49
1.27
 74
     0
 49
-1.27
 74
     0
 49
1.27
 74
     0
 49
-1.27
 74
     0
  0
LTYPE
  5
6C
330
5
100
AcDbSymbolTableRecord
100
AcDbLinetypeTableRecord
  2
CENTER
 70
     0
  3
Center ____ _ ____ _ ____ _ ____ _ ____ _ ____
 72
    65
 73
     4
 40
10.16
 49
6.35
 74
     0
 49
-1.27
 74
     0
 49
1.27
 74
     0
 49
-1.27
 74
     0
  0
LTYPE
  5
6D
330
5
100
AcDbSymbolTableRecord
100
AcDbLinetypeTableRecord
  2
CENTERX2
 70
     0
  3
Center (2x) ________  __  ________  __  _____
 72
    65
 73
     4
 40
20.32
 49
12.7
 74
     0
 49
-2.54
 74
     0
 49
2.54
 74
     0
 49
-2.54
 74
     0
  0
LTYPE
  5
6E
330
5
100
AcDbSymbolTableRecord
100
AcDbLinetypeTableRecord
  2
DOT2
 70
     0
  3
Dot (.5x) ........................................
 72
    65
 73
     2
 40
0.635
 49
0.0
 74
     0
 49
-0.635
 74
     0
  0
ENDTAB
  0
TABLE
  2
LAYER
  5
2
330
0
100
AcDbSymbolTable
 70
    17
  0
LAYER
  5
10
330
2
100
AcDbSymbolTableRecord
100
AcDbLayerTableRecord
  2
0
 70
     0
 62
     7
  6
Continuous
370
    -3
390
F
  0
LAYER
  5
6F
330
2
100
AcDbSymbolTableRecord
100
AcDbLayerTableRecord
  2
FORMAT
 70
     0
 62
     2
  6
Continuous
370
    -3
390
F
  0
LAYER
  5
70
330
2
100
AcDbSymbolTableRecord
100
AcDbLayerTableRecord
  2
외형선
 70
     0
 62
   100
  6
Continuous
370
    30
390
F
  0
LAYER
  5
71
330
2
100
AcDbSymbolTableRecord
100
AcDbLayerTableRecord
  2
숨은선
 70
     0
 62
     2
  6
HIDDEN
370
    15
390
F
  0
LAYER
  5
72
330
2
100
AcDbSymbolTableRecord
100
AcDbLayerTableRecord
  2
중심선
 70
     0
 62
     1
  6
CENTERX2
370
    -3
390
F
  0
LAYER
  5
73
330
2
100
AcDbSymbolTableRecord
100
AcDbLayerTableRecord
  2
파단선
 70
     0
 62
     4
  6
Continuous
370
    -3
390
F
  0
LAYER
  5
74
330
2
100
AcDbSymbolTableRecord
100
AcDbLayerTableRecord
  2
해칭선
 70
     0
 62
     4
  6
Continuous
370
    -3
390
F
  0
LAYER
  5
75
330
2
100
AcDbSymbolTableRecord
100
AcDbLayerTableRecord
  2
가는실선
 70
     0
 62
     4
  6
Continuous
370
    -3
390
F
  0
LAYER
  5
76
330
2
100
AcDbSymbolTableRecord
100
AcDbLayerTableRecord
  2
치수_보조선
 70
     0
 62
     4
  6
Continuous
370
    -3
390
F
  0
LAYER
  5
77
330
2
100
AcDbSymbolTableRecord
100
AcDbLayerTableRecord
  2
치수문자_일반주서
 70
     0
 62
     7
  6
Continuous
370
    15
390
F
  0
LAYER
  5
78
330
2
100
AcDbSymbolTableRecord
100
AcDbLayerTableRecord
  2
개별주서
 70
     0
 62
   100
  6
Continuous
370
    30
390
F
  0
LAYER
  5
79
330
2
100
AcDbSymbolTableRecord
100
AcDbLayerTableRecord
  2
중간선
 70
     0
 62
     2
  6
Continuous
370
    15
390
F
  0
LAYER
  5
7A
330
2
100
AcDbSymbolTableRecord
100
AcDbLayerTableRecord
  2
윤곽선
 70
     0
 62
     3
  6
Continuous
370
    40
390
F
  0
LAYER
  5
7B
330
2
100
AcDbSymbolTableRecord
100
AcDbLayerTableRecord
  2
중심마크
 70
     0
 62
   100
  6
Continuous
370
    30
390
F
  0
LAYER
  5
7C
330
2
100
AcDbSymbolTableRecord
100
AcDbLayerTableRecord
  2
가상선
 70
     0
 62
     4
  6
PHANTOM
370
    -3
390
F
  0
LAYER
  5
7D
330
2
100
AcDbSymbolTableRecord
100
AcDbLayerTableRecord
  2
특수지정선
 70
     0
 62
     5
  6
CENTERX2
370
    60
390
F
  0
LAYER
  5
134
330
2
100
AcDbSymbolTableRecord
100
AcDbLayerTableRecord
  2
Defpoints
 70
     0
 62
     7
  6
Continuous
290
     0
370
    -3
390
F
  0
ENDTAB
  0
TABLE
  2
STYLE
  5
3
330
0
100
AcDbSymbolTable
 70
     2
  0
STYLE
  5
11
330
3
100
AcDbSymbolTableRecord
100
AcDbTextStyleTableRecord
  2
Standard
 70
     0
 40
0.0
 41
1.0
 50
0.0
 71
     0
 42
3.5
  3
txt
  4

  0
STYLE
  5
93
330
3
100
AcDbSymbolTableRecord
100
AcDbTextStyleTableRecord
  2
SLDTEXTSTYLE0
 70
     0
 40
0.0
 41
0.75
 50
0.0
 71
     0
 42
3.5
  3
TXT
  4

  0
ENDTAB
  0
TABLE
  2
VIEW
  5
6
330
0
100
AcDbSymbolTable
 70
     0
  0
ENDTAB
  0
TABLE
  2
UCS
  5
7
330
0
100
AcDbSymbolTable
 70
     0
  0
ENDTAB
  0
TABLE
  2
APPID
  5
9
330
0
100
AcDbSymbolTable
 70
     1
  0
APPID
  5
12
330
9
100
AcDbSymbolTableRecord
100
AcDbRegAppTableRecord
  2
ACAD
 70
     0
  0
ENDTAB
  0
TABLE
  2
DIMSTYLE
  5
A
330
0
100
AcDbSymbolTable
 70
     3
100
AcDbDimStyleTable
  0
DIMSTYLE
105
27
330
A
100
AcDbSymbolTableRecord
100
AcDbDimStyleTableRecord
  2
ISO-25
 70
     0
 41
2.5
 42
0.625
 43
3.75
 44
1.25
 73
     0
 74
     0
 77
     1
 78
     8
140
2.5
141
2.5
143
0.03937007874016
147
0.625
171
     3
172
     1
178
     0
271
     2
272
     2
274
     3
278
    44
283
     0
284
     8
340
11
  0
DIMSTYLE
105
DA
102
{ACAD_REACTORS
330
D9
330
FC
102
}
330
A
100
AcDbSymbolTableRecord
100
AcDbDimStyleTableRecord
  2
SLDDIMSTYLE0
 70
     0
 41
3.302
 44
0.0
 45
0.000000001
 73
     0
 74
     0
 77
     1
 78
    12
 79
     3
140
3.5
147
0.875
172
     1
173
     1
178
     0
271
     2
272
     2
276
     2
284
    12
289
     0
340
93
  0
DIMSTYLE
105
E8
102
{ACAD_REACTORS
330
E7
330
F2
102
}
330
A
100
AcDbSymbolTableRecord
100
AcDbDimStyleTableRecord
  2
SLDDIMSTYLE1
 70
     0
 41
3.302
 44
0.0
 45
0.000000001
 73
     0
 74
     0
 77
     1
 78
    12
 79
     3
140
3.5
147
0.875
173
     1
178
     0
271
     2
272
     2
276
     2
284
    12
340
93
  0
ENDTAB
  0
TABLE
  2
BLOCK_RECORD
  5
1
330
0
100
AcDbSymbolTable
 70
     7
  0
BLOCK_RECORD
  5
1F
330
1
100
AcDbSymbolTableRecord
100
AcDbBlockTableRecord
  2
*Model_Space
340
22
  0
BLOCK_RECORD
  5
1B
330
1
100
AcDbSymbolTableRecord
100
AcDbBlockTableRecord
  2
*Paper_Space
340
1E
  0
BLOCK_RECORD
  5
23
330
1
100
AcDbSymbolTableRecord
100
AcDbBlockTableRecord
  2
*Paper_Space0
340
26
  0
BLOCK_RECORD
  5
7E
330
1
100
AcDbSymbolTableRecord
100
AcDbBlockTableRecord
  2
블럭10
340
0
102
{BLKREFS
331
D2
102
}
  0
BLOCK_RECORD
  5
DB
330
1
100
AcDbSymbolTableRecord
100
AcDbBlockTableRecord
  2
_D
340
0
  0
BLOCK_RECORD
  5
E9
330
1
100
AcDbSymbolTableRecord
100
AcDbBlockTableRecord
  2
_D_1
340
0
  0
BLOCK_RECORD
  5
F3
330
1
100
AcDbSymbolTableRecord
100
AcDbBlockTableRecord
  2
_D_2
340
0
  0
BLOCK_RECORD
  5
FD
330
1
100
AcDbSymbolTableRecord
100
AcDbBlockTableRecord
  2
_D_3
340
0
  0
BLOCK_RECORD
  5
109
330
1
100
AcDbSymbolTableRecord
100
AcDbBlockTableRecord
  2
SW_DOWELSYMBOL_0
340
0
102
{BLKREFS
331
10F
102
}
  0
ENDTAB
  0
ENDSEC
  0
SECTION
  2
BLOCKS
  0
BLOCK
  5
20
330
1F
100
AcDbEntity
  8
0
100
AcDbBlockBegin
  2
*Model_Space
 70
     0
 10
0.0
 20
0.0
 30
0.0
  3
*Model_Space
  1

  0
ENDBLK
  5
21
330
1F
100
AcDbEntity
  8
0
100
AcDbBlockEnd
  0
BLOCK
  5
1C
330
1B
100
AcDbEntity
 67
     1
  8
0
100
AcDbBlockBegin
  2
*Paper_Space
 70
     0
 10
0.0
 20
0.0
 30
0.0
  3
*Paper_Space
  1

  0
ENDBLK
  5
1D
330
1B
100
AcDbEntity
 67
     1
  8
0
100
AcDbBlockEnd
  0
BLOCK
  5
24
330
23
100
AcDbEntity
  8
0
100
AcDbBlockBegin
  2
*Paper_Space0
 70
     0
 10
0.0
 20
0.0
 30
0.0
  3
*Paper_Space0
  1

  0
ENDBLK
  5
25
330
23
100
AcDbEntity
  8
0
100
AcDbBlockEnd
  0
BLOCK
  5
7F
330
7E
100
AcDbEntity
  8
0
100
AcDbBlockBegin
  2
블럭10
 70
     2
 10
0.0
 20
0.0
 30
0.0
  3
블럭10
  1

  0
ELLIPSE
  5
81
330
7E
100
AcDbEntity
  8
중심선
100
AcDbEllipse
 10
20.54032771741204
 20
12.0471743016438
 30
0.0
 11
6.600054785286829
 21
-1.261213355974178E-13
 31
0.0
210
0.0
220
0.0
230
1.0
 40
0.636358354079598
 41
0.9219305317359503
 42
6.513795318482858
  0
ELLIPSE
  5
82
330
7E
100
AcDbEntity
  8
중심선
100
AcDbEllipse
 10
20.54032771746488
 20
12.04717430159265
 30
0.0
 11
3.960054785062283
 21
1.540847449632565E-10
 31
0.0
210
0.0
220
0.0
230
1.0
 40
0.3939339440162632
 41
1.131841032648279
 42
5.62031148352944
  0
LINE
  5
83
330
7E
100
AcDbEntity
  8
중심선
100
AcDbLine
 10
2.268634060543552
 20
16.24717430164393
 30
0.0
 11
5.714909304380834
 21
16.24717430164393
 31
0.0
  0
LINE
  5
84
330
7E
100
AcDbEntity
  8
중심선
100
AcDbLine
 10
5.245725140726316
 20
7.84717430164391
 30
0.0
 11
8.692000384563599
 21
7.84717430164391
 31
0.0
  0
LINE
  5
85
330
7E
100
AcDbEntity
  8
중심선
100
AcDbLine
 10
15.74043728645272
 20
16.24717430164393
 30
0.0
 11
8.692000384563599
 21
7.84717430164391
 31
0.0
  0
LINE
  5
86
330
7E
100
AcDbEntity
  8
중심선
100
AcDbLine
 10
0.1404042013395286
 20
13.71084872107135
 30
0.0
 11
3.58671253028996
 21
13.71088815037384
 31
0.0
  0
LINE
  5
87
330
7E
100
AcDbEntity
  8
중심선
100
AcDbLine
 10
2.750260043222114
 20
10.84717430164391
 30
0.0
 11
6.196535287059397
 21
10.84717430164391
 31
0.0
  0
LINE
  5
88
330
7E
100
AcDbEntity
  8
중심선
100
AcDbLine
 10
12.29416204261559
 20
16.24717430164393
 30
0.0
 11
5.245725140726316
 21
7.84717430164391
 31
0.0
  0
LINE
  5
89
330
7E
100
AcDbEntity
  8
중심선
100
AcDbLine
 10
10.72767329541681
 20
16.24717430164393
 30
0.0
 11
6.196535287059397
 21
10.84717430164391
 31
0.0
  0
LINE
  5
8A
330
7E
100
AcDbEntity
  8
중심선
100
AcDbLine
 10
7.28139805157953
 20
16.24717430164393
 30
0.0
 11
2.750260043222114
 21
10.84717430164391
 31
0.0
  0
LINE
  5
8B
330
7E
100
AcDbEntity
  8
중심선
100
AcDbLine
 10
5.714909304380834
 20
16.24717430164393
 30
0.0
 11
3.58671253028996
 21
13.71088815037384
 31
0.0
  0
LINE
  5
8C
330
7E
100
AcDbEntity
  8
중심선
100
AcDbLine
 10
2.268634060543552
 20
16.24717430164393
 30
0.0
 11
0.1404042013395286
 21
13.71084872107135
 31
0.0
  0
LINE
  5
8D
330
7E
100
AcDbEntity
  8
중심선
100
AcDbLine
 10
7.28139805157953
 20
16.24717430164393
 30
0.0
 11
10.72767329541681
 21
16.24717430164393
 31
0.0
  0
LINE
  5
8E
330
7E
100
AcDbEntity
  8
중심선
100
AcDbLine
 10
12.29416204261559
 20
16.24717430164393
 30
0.0
 11
15.74043728645272
 21
16.24717430164393
 31
0.0
  0
LINE
  5
8F
330
7E
100
AcDbEntity
  8
중심선
100
AcDbLine
 10
19.22036997980202
 20
11.08717430171403
 30
0.0
 11
23.66174974927406
 21
11.08717430171406
 31
0.0
  0
LINE
  5
90
330
7E
100
AcDbEntity
  8
중심선
100
AcDbLine
 10
19.22039502424796
 20
13.00717430171391
 30
0.0
 11
19.22036997980202
 21
11.08717430171403
 31
0.0
  0
LINE
  5
91
330
7E
100
AcDbEntity
  8
중심선
100
AcDbLine
 10
19.22039502424796
 20
13.00717430171391
 30
0.0
 11
26.96566020931264
 21
13.00717430171391
 31
0.0
  0
LINE
  5
92
330
7E
100
AcDbEntity
  8
중심선
100
AcDbLine
 10
22.22332737316547
 20
13.45928029700563
 30
0.0
 11
24.52862924686651
 21
15.39360700705356
 31
0.0
  0
ATTDEF
  5
94
330
7E
100
AcDbEntity
  8
FORMAT
 62
     2
100
AcDbText
 10
-16.11926103943555
 20
2.075366912832191
 30
0.0
 40
4.233333333333333
  1
SEME7020080E [ 2 FLUTE ]
 41
0.75
  7
SLDTEXTSTYLE0
 11
-16.11926103943555
 21
-0.0412997538344756
 31
0.0
100
AcDbAttributeDefinition
  3

  2
AUTOATTR0
 70
     0
 74
     1
  0
ENDBLK
  5
80
330
7E
100
AcDbEntity
  8
0
100
AcDbBlockEnd
  0
BLOCK
  5
DC
330
DB
100
AcDbEntity
  8
0
100
AcDbBlockBegin
  2
_D
 70
     0
 10
0.0
 20
0.0
 30
0.0
  3
_D
  1

  0
LINE
  5
DE
330
DB
100
AcDbEntity
  8
치수문자_일반주서
 62
     0
370
    -2
100
AcDbLine
 10
92.06249999999932
 20
-9.999999999999696
 30
0.0
 11
107.6917680159227
 21
-9.999999999999641
 31
0.0
  0
LINE
  5
DF
330
DB
100
AcDbEntity
  8
치수문자_일반주서
 62
     0
370
    -2
100
AcDbLine
 10
92.0625
 20
10.0000000000003
 30
0.0
 11
107.6917680159227
 21
10.00000000000036
 31
0.0
  0
LINE
  5
E0
330
DB
100
AcDbEntity
  8
치수문자_일반주서
 62
     0
370
    -2
100
AcDbLine
 10
107.6917680159227
 20
-9.999999999999641
 30
0.0
 11
107.6917680159226
 21
24.91650000000036
 31
0.0
  0
LINE
  5
E1
330
DB
100
AcDbEntity
  8
치수문자_일반주서
 62
     0
370
    -2
100
AcDbLine
 10
107.6917680159227
 20
-9.999999999999641
 30
0.0
 11
107.6917680159227
 21
10.00000000000036
 31
0.0
  0
LINE
  5
E2
330
DB
100
AcDbEntity
  8
치수문자_일반주서
 62
     0
370
    -2
100
AcDbLine
 10
107.6917680159228
 20
-13.30199999999964
 30
0.0
 11
107.6917680159228
 21
-16.60399999999964
 31
0.0
  0
LINE
  5
E3
330
DB
100
AcDbEntity
  8
치수문자_일반주서
 62
     0
370
    -2
100
AcDbLine
 10
107.6917680159227
 20
13.30200000000036
 30
0.0
 11
107.6917680159226
 21
16.60400000000036
 31
0.0
  0
SOLID
  5
E4
330
DB
100
AcDbEntity
  8
치수문자_일반주서
 62
     0
100
AcDbTrace
 10
108.2421013492561
 20
-13.30199999999964
 30
0.0
 11
107.1414346825894
 21
-13.30199999999964
 31
0.0
 12
107.6917680159227
 22
-9.999999999999641
 32
0.0
 13
107.6917680159227
 23
-9.999999999999641
 33
0.0
  0
SOLID
  5
E5
330
DB
100
AcDbEntity
  8
치수문자_일반주서
 62
     0
100
AcDbTrace
 10
107.1414346825893
 20
13.30200000000036
 30
0.0
 11
108.242101349256
 21
13.30200000000036
 31
0.0
 12
107.6917680159227
 22
10.00000000000036
 32
0.0
 13
107.6917680159227
 23
10.00000000000036
 33
0.0
  0
MTEXT
  5
E6
330
DB
100
AcDbEntity
  8
치수문자_일반주서
 62
     0
100
AcDbMText
 10
103.3167680159226
 20
20.76025000000034
 30
0.0
 40
3.5
 41
0.0
 71
     2
 72
     1
  1
\A1;%%c20
  7
SLDTEXTSTYLE0
 11
-3.552713678800502E-15
 21
1.0
 31
0.0
 73
     1
 44
1.0
  0
POINT
  5
13E
330
DB
100
AcDbEntity
  8
Defpoints
 62
     0
100
AcDbPoint
 10
91.99999999999932
 20
-9.999999999999696
 30
0.0
  0
POINT
  5
13F
330
DB
100
AcDbEntity
  8
Defpoints
 62
     0
100
AcDbPoint
 10
92.0
 20
10.0000000000003
 30
0.0
  0
POINT
  5
140
330
DB
100
AcDbEntity
  8
Defpoints
 62
     0
100
AcDbPoint
 10
107.6917680159227
 20
10.00000000000036
 30
0.0
  0
ENDBLK
  5
DD
330
DB
100
AcDbEntity
  8
0
100
AcDbBlockEnd
  0
BLOCK
  5
EA
330
E9
100
AcDbEntity
  8
0
100
AcDbBlockBegin
  2
_D_1
 70
     0
 10
0.0
 20
0.0
 30
0.0
  3
_D_1
  1

  0
LINE
  5
EC
330
E9
100
AcDbEntity
  8
치수문자_일반주서
 62
     0
370
    -2
100
AcDbLine
 10
-57.99999999999999
 20
9.062499999999998
 30
0.0
 11
-58.0
 21
30.7884104402427
 31
0.0
  0
LINE
  5
ED
330
E9
100
AcDbEntity
  8
치수문자_일반주서
 62
     0
370
    -2
100
AcDbLine
 10
92.0
 20
10.0625000000003
 30
0.0
 11
91.99999999999999
 21
30.7884104402427
 31
0.0
  0
LINE
  5
EE
330
E9
100
AcDbEntity
  8
치수문자_일반주서
 62
     0
370
    -2
100
AcDbLine
 10
-54.698
 20
30.7884104402427
 30
0.0
 11
88.69799999999998
 21
30.7884104402427
 31
0.0
  0
SOLID
  5
EF
330
E9
100
AcDbEntity
  8
치수문자_일반주서
 62
     0
100
AcDbTrace
 10
-54.698
 20
31.33874377357603
 30
0.0
 11
-54.698
 21
30.23807710690936
 31
0.0
 12
-58.0
 22
30.7884104402427
 32
0.0
 13
-58.0
 23
30.7884104402427
 33
0.0
  0
SOLID
  5
F0
330
E9
100
AcDbEntity
  8
치수문자_일반주서
 62
     0
100
AcDbTrace
 10
88.69799999999998
 20
30.23807710690936
 30
0.0
 11
88.69799999999998
 21
31.33874377357603
 31
0.0
 12
91.99999999999999
 22
30.7884104402427
 32
0.0
 13
91.99999999999999
 23
30.7884104402427
 33
0.0
  0
MTEXT
  5
F1
330
E9
100
AcDbEntity
  8
치수문자_일반주서
 62
     0
100
AcDbMText
 10
17.0
 20
35.1634104402427
 30
0.0
 40
3.5
 41
0.0
 71
     2
 72
     1
  1
\A1;150
  7
SLDTEXTSTYLE0
 73
     1
 44
1.0
  0
POINT
  5
135
330
E9
100
AcDbEntity
  8
Defpoints
 62
     0
100
AcDbPoint
 10
-57.99999999999999
 20
8.999999999999998
 30
0.0
  0
POINT
  5
136
330
E9
100
AcDbEntity
  8
Defpoints
 62
     0
100
AcDbPoint
 10
92.0
 20
10.0000000000003
 30
0.0
  0
POINT
  5
137
330
E9
100
AcDbEntity
  8
Defpoints
 62
     0
100
AcDbPoint
 10
92.0
 20
30.7884104402427
 30
0.0
  0
ENDBLK
  5
EB
330
E9
100
AcDbEntity
  8
0
100
AcDbBlockEnd
  0
BLOCK
  5
F4
330
F3
100
AcDbEntity
  8
0
100
AcDbBlockBegin
  2
_D_2
 70
     0
 10
0.0
 20
0.0
 30
0.0
  3
_D_2
  1

  0
LINE
  5
F6
330
F3
100
AcDbEntity
  8
치수문자_일반주서
 62
     0
370
    -2
100
AcDbLine
 10
12.00000000000001
 20
8.027489100901898
 30
0.0
 11
12.0
 21
21.31198690706942
 31
0.0
  0
LINE
  5
F7
330
F3
100
AcDbEntity
  8
치수문자_일반주서
 62
     0
370
    -2
100
AcDbLine
 10
92.0
 20
10.0625000000003
 30
0.0
 11
92.0
 21
21.31198690706942
 31
0.0
  0
LINE
  5
F8
330
F3
100
AcDbEntity
  8
치수문자_일반주서
 62
     0
370
    -2
100
AcDbLine
 10
15.302
 20
21.31198690706942
 30
0.0
 11
88.69800000000001
 21
21.31198690706942
 31
0.0
  0
SOLID
  5
F9
330
F3
100
AcDbEntity
  8
치수문자_일반주서
 62
     0
100
AcDbTrace
 10
15.302
 20
21.86232024040275
 30
0.0
 11
15.302
 21
20.76165357373608
 31
0.0
 12
12.0
 22
21.31198690706942
 32
0.0
 13
12.0
 23
21.31198690706942
 33
0.0
  0
SOLID
  5
FA
330
F3
100
AcDbEntity
  8
치수문자_일반주서
 62
     0
100
AcDbTrace
 10
88.69800000000001
 20
20.76165357373608
 30
0.0
 11
88.69800000000001
 21
21.86232024040275
 31
0.0
 12
92.0
 22
21.31198690706942
 32
0.0
 13
92.0
 23
21.31198690706942
 33
0.0
  0
MTEXT
  5
FB
330
F3
100
AcDbEntity
  8
치수문자_일반주서
 62
     0
100
AcDbMText
 10
52.0
 20
25.68698690706942
 30
0.0
 40
3.5
 41
0.0
 71
     2
 72
     1
  1
\A1;80
  7
SLDTEXTSTYLE0
 73
     1
 44
1.0
  0
POINT
  5
138
330
F3
100
AcDbEntity
  8
Defpoints
 62
     0
100
AcDbPoint
 10
12.00000000000001
 20
7.964989100901898
 30
0.0
  0
POINT
  5
139
330
F3
100
AcDbEntity
  8
Defpoints
 62
     0
100
AcDbPoint
 10
92.0
 20
10.0000000000003
 30
0.0
  0
POINT
  5
13A
330
F3
100
AcDbEntity
  8
Defpoints
 62
     0
100
AcDbPoint
 10
92.0
 20
21.31198690706942
 30
0.0
  0
ENDBLK
  5
F5
330
F3
100
AcDbEntity
  8
0
100
AcDbBlockEnd
  0
BLOCK
  5
FE
330
FD
100
AcDbEntity
  8
0
100
AcDbBlockBegin
  2
_D_3
 70
     0
 10
0.0
 20
0.0
 30
0.0
  3
_D_3
  1

  0
LINE
  5
100
330
FD
100
AcDbEntity
  8
치수문자_일반주서
 62
     0
370
    -2
100
AcDbLine
 10
-57.06249999999999
 20
9.999999999999995
 30
0.0
 11
-69.47569843469982
 21
9.999999999999948
 31
0.0
  0
LINE
  5
101
330
FD
100
AcDbEntity
  8
치수문자_일반주서
 62
     0
370
    -2
100
AcDbLine
 10
-57.06249999999999
 20
-9.999999999999995
 30
0.0
 11
-69.47569843469975
 21
-10.00000000000004
 31
0.0
  0
LINE
  5
102
330
FD
100
AcDbEntity
  8
치수문자_일반주서
 62
     0
370
    -2
100
AcDbLine
 10
-69.47569843469982
 20
9.999999999999948
 30
0.0
 11
-69.47569843469988
 21
24.91649999999995
 31
0.0
  0
LINE
  5
103
330
FD
100
AcDbEntity
  8
치수문자_일반주서
 62
     0
370
    -2
100
AcDbLine
 10
-69.47569843469982
 20
9.999999999999948
 30
0.0
 11
-69.47569843469975
 21
-10.00000000000004
 31
0.0
  0
LINE
  5
104
330
FD
100
AcDbEntity
  8
치수문자_일반주서
 62
     0
370
    -2
100
AcDbLine
 10
-69.47569843469984
 20
13.30199999999995
 30
0.0
 11
-69.47569843469985
 21
16.60399999999995
 31
0.0
  0
LINE
  5
105
330
FD
100
AcDbEntity
  8
치수문자_일반주서
 62
     0
370
    -2
100
AcDbLine
 10
-69.47569843469974
 20
-13.30200000000004
 30
0.0
 11
-69.47569843469972
 21
-16.60400000000004
 31
0.0
  0
SOLID
  5
106
330
FD
100
AcDbEntity
  8
치수문자_일반주서
 62
     0
100
AcDbTrace
 10
-70.02603176803316
 20
13.30199999999995
 30
0.0
 11
-68.92536510136651
 21
13.30199999999995
 31
0.0
 12
-69.47569843469982
 22
9.999999999999948
 32
0.0
 13
-69.47569843469982
 23
9.999999999999948
 33
0.0
  0
SOLID
  5
107
330
FD
100
AcDbEntity
  8
치수문자_일반주서
 62
     0
100
AcDbTrace
 10
-68.92536510136641
 20
-13.30200000000004
 30
0.0
 11
-70.02603176803306
 21
-13.30200000000004
 31
0.0
 12
-69.47569843469975
 22
-10.00000000000004
 32
0.0
 13
-69.47569843469975
 23
-10.00000000000004
 33
0.0
  0
MTEXT
  5
108
330
FD
100
AcDbEntity
  8
치수문자_일반주서
 62
     0
100
AcDbMText
 10
-73.85069843469986
 20
20.76024999999993
 30
0.0
 40
3.5
 41
0.0
 71
     2
 72
     1
  1
\A1;%%c20
  7
SLDTEXTSTYLE0
 11
-3.552713678800503E-15
 21
1.0
 31
0.0
 73
     1
 44
1.0
  0
POINT
  5
13B
330
FD
100
AcDbEntity
  8
Defpoints
 62
     0
100
AcDbPoint
 10
-56.99999999999999
 20
9.999999999999995
 30
0.0
  0
POINT
  5
13C
330
FD
100
AcDbEntity
  8
Defpoints
 62
     0
100
AcDbPoint
 10
-56.99999999999999
 20
-9.999999999999995
 30
0.0
  0
POINT
  5
13D
330
FD
100
AcDbEntity
  8
Defpoints
 62
     0
100
AcDbPoint
 10
-69.47569843469974
 20
-10.00000000000004
 30
0.0
  0
ENDBLK
  5
FF
330
FD
100
AcDbEntity
  8
0
100
AcDbBlockEnd
  0
BLOCK
  5
10A
330
109
100
AcDbEntity
  8
0
100
AcDbBlockBegin
  2
SW_DOWELSYMBOL_0
 70
     0
 10
0.0
 20
0.0
 30
0.0
  3
SW_DOWELSYMBOL_0
  1

  0
CIRCLE
  5
10C
330
109
100
AcDbEntity
  8
외형선
 62
     0
100
AcDbCircle
 10
0.0
 20
0.0
 30
0.0
 40
3.000000000000004
  0
HATCH
  5
10D
330
109
100
AcDbEntity
  8
0
  6
Continuous
 62
     0
370
    30
100
AcDbHatch
 10
0.0
 20
0.0
 30
0.0
210
0.0
220
0.0
230
1.0
  2
SOLID
 70
     1
 71
     0
 91
        1
 92
        0
 93
        3
 72
     2
 10
0.0000000000000104
 20
0.0
 40
3.000000000000004
 50
0.0
 51
90.0
 73
     1
 72
     1
 10
0.0000000000000104
 20
3.000000000000004
 11
0.0000000000000104
 21
0.0
 72
     1
 10
0.0000000000000104
 20
0.0
 11
3.000000000000015
 21
0.0
 97
        0
 75
     0
 76
     1
 98
        1
 10
0.0
 20
0.0
  0
HATCH
  5
10E
330
109
100
AcDbEntity
  8
0
  6
Continuous
 62
     0
370
    30
100
AcDbHatch
 10
0.0
 20
0.0
 30
0.0
210
0.0
220
0.0
230
1.0
  2
SOLID
 70
     1
 71
     0
 91
        1
 92
        0
 93
        3
 72
     2
 10
0.0000000000000104
 20
0.0
 40
3.000000000000004
 50
180.0
 51
270.0000000000008
 73
     1
 72
     1
 10
0.0000000000000104
 20
-3.000000000000004
 11
0.0000000000000104
 21
0.0
 72
     1
 10
0.0000000000000104
 20
0.0
 11
-2.999999999999994
 21
0.0
 97
        0
 75
     0
 76
     1
 98
        1
 10
0.0
 20
0.0
  0
ENDBLK
  5
10B
330
109
100
AcDbEntity
  8
0
100
AcDbBlockEnd
  0
ENDSEC
  0
SECTION
  2
ENTITIES
  0
LINE
  5
95
330
1F
100
AcDbEntity
  8
0
  6
Continuous
 62
     1
370
    15
100
AcDbLine
 10
60.55913797061753
 20
2.816842556754214
 30
0.0
 11
60.45326795080589
 21
2.875098032172019
 31
0.0
  0
SPLINE
  5
96
330
1F
100
AcDbEntity
  8
0
  6
Continuous
 62
     1
370
    15
100
AcDbSpline
210
0.0
220
0.0
230
1.0
 70
     8
 71
     3
 72
     9
 73
     5
 74
     0
 42
0.000000001
 43
0.00000001
 40
0.0
 40
0.0
 40
0.0
 40
0.0
 40
0.4622792072945274
 40
1.0
 40
1.0
 40
1.0
 40
1.0
 10
66.09300964284738
 20
2.562417183078224
 30
0.0
 10
65.66586328137329
 20
2.765674225574854
 30
0.0
 10
64.74186247248129
 20
3.205358812918043
 30
0.0
 10
63.81595281459639
 20
3.689635321944098
 30
0.0
 10
63.31807193938486
 20
3.950040870266227
 30
0.0
  0
LINE
  5
97
330
1F
100
AcDbEntity
  8
0
  6
Continuous
 62
     1
370
    15
100
AcDbLine
 10
43.14648471051139
 20
10.00000000000001
 30
0.0
 11
38.29777199936382
 21
10.00000000000001
 31
0.0
  0
LINE
  5
98
330
1F
100
AcDbEntity
  8
0
  6
Continuous
 62
     1
370
    15
100
AcDbLine
 10
38.2977719993638
 20
-10.0
 30
0.0
 11
43.14648471051143
 21
-10.0
 31
0.0
  0
SPLINE
  5
99
330
1F
100
AcDbEntity
  8
0
  6
Continuous
 62
     1
370
    15
100
AcDbSpline
210
0.0
220
0.0
230
1.0
 70
     8
 71
     3
 72
    22
 73
    18
 74
     0
 42
0.000000001
 43
0.00000001
 40
0.0
 40
0.0
 40
0.0
 40
0.0
 40
0.1094516960321706
 40
0.2020909200273077
 40
0.2796482123238212
 40
0.3472695796774684
 40
0.4070470541956309
 40
0.462440167857323
 40
0.5245685696690261
 40
0.6035902760706032
 40
0.6721878191212858
 40
0.7383208551010887
 40
0.7742134385293675
 40
0.8122389714027612
 40
0.8521852265975248
 40
0.919112470919658
 40
1.0
 40
1.0
 40
1.0
 40
1.0
 10
47.74518512861205
 20
-8.321420002839721
 30
0.0
 10
48.28859032057615
 20
-8.268974435074316
 30
0.0
 10
49.29193023373163
 20
-8.172139270108483
 30
0.0
 10
50.71328940270034
 20
-8.061218944646388
 30
0.0
 10
51.93954137604302
 20
-7.98239184890434
 30
0.0
 10
52.99441391308953
 20
-7.9230344720729
 30
0.0
 10
53.92724606162781
 20
-7.881715822276872
 30
0.0
 10
54.79103096929954
 20
-7.852998932246144
 30
0.0
 10
55.77758665209977
 20
-7.826909255813623
 30
0.0
 10
56.84376389074603
 20
-7.811147688357758
 30
0.0
 10
57.91829957156202
 20
-7.807764133680894
 30
0.0
 10
58.79798315190089
 20
-7.815043397690224
 30
0.0
 10
59.52110773226723
 20
-7.825257696379619
 30
0.0
 10
60.09958914941991
 20
-7.832829660714769
 30
0.0
 10
60.85093139412582
 20
-7.845137943513876
 30
0.0
 10
61.80011577305365
 20
-7.888698483589448
 30
0.0
 10
62.43843325695909
 20
-7.925995104008987
 30
0.0
 10
62.78773477028824
 20
-7.946404643592484
 30
0.0
  0
SPLINE
  5
9A
330
1F
100
AcDbEntity
  8
0
  6
Continuous
 62
     1
370
    15
100
AcDbSpline
210
0.0
220
0.0
230
1.0
 70
     8
 71
     3
 72
    16
 73
    12
 74
     0
 42
0.000000001
 43
0.00000001
 40
0.0
 40
0.0
 40
0.0
 40
0.0
 40
0.147874572051978
 40
0.2702276433508133
 40
0.3990399313091529
 40
0.5157964438660596
 40
0.6223938350532123
 40
0.7382937874521637
 40
0.8689832020749768
 40
0.9825632673165999
 40
1.0
 40
1.0
 40
1.0
 40
1.0
 10
62.78773477028824
 20
7.9464046435925
 30
0.0
 10
62.43876905491442
 20
7.925952343370052
 30
0.0
 10
61.8010652119403
 20
7.888577581681655
 30
0.0
 10
60.69356152344442
 20
7.838454956888037
 30
0.0
 10
59.65759496304526
 20
7.827891969797736
 30
0.0
 10
58.66265946793787
 20
7.812865416956042
 30
0.0
 10
57.71415633796157
 20
7.807974032787893
 30
0.0
 10
56.74025078665601
 20
7.812343532840595
 30
0.0
 10
55.73987627429892
 20
7.828426263143021
 30
0.0
 10
55.02112385901168
 20
7.845863342045165
 30
0.0
 10
54.66794673651842
 20
7.858030655892944
 30
0.0
 10
54.62094318298681
 20
7.859649976486933
 30
0.0
  0
SPLINE
  5
9B
330
1F
100
AcDbEntity
  8
0
  6
Continuous
 62
     1
370
    15
100
AcDbSpline
210
0.0
220
0.0
230
1.0
 70
     8
 71
     3
 72
    17
 73
    13
 74
     0
 42
0.000000001
 43
0.00000001
 40
0.0
 40
0.0
 40
0.0
 40
0.0
 40
0.1483885079951611
 40
0.2634014639948783
 40
0.3452358012685554
 40
0.4207630695742498
 40
0.5136133050346525
 40
0.6211494818339012
 40
0.7191187177199944
 40
0.8292826073580881
 40
0.9246999608458488
 40
1.0
 40
1.0
 40
1.0
 40
1.0
 10
70.81442456396837
 20
-7.521336485970895
 30
0.0
 10
71.18085104813431
 20
-7.465079384314105
 30
0.0
 10
71.8312873499735
 20
-7.365218531632777
 30
0.0
 10
72.68486222899405
 20
-7.246767680835696
 30
0.0
 10
73.36473730411403
 20
-7.158203489162336
 30
0.0
 10
73.99215733748524
 20
-7.081583780704433
 30
0.0
 10
74.67965967455602
 20
-7.003226486890136
 30
0.0
 10
75.42092379307174
 20
-6.926112170777544
 30
0.0
 10
76.20421725432155
 20
-6.852399231298848
 30
0.0
 10
76.95793607681475
 20
-6.789962858163482
 30
0.0
 10
77.65474323914832
 20
-6.739113256706238
 30
0.0
 10
78.07666683139624
 20
-6.713516420590983
 30
0.0
 10
78.26276891815296
 20
-6.702226166376849
 30
0.0
  0
SPLINE
  5
9C
330
1F
100
AcDbEntity
  8
0
  6
Continuous
 62
     1
370
    15
100
AcDbSpline
210
0.0
220
0.0
230
1.0
 70
     8
 71
     3
 72
    29
 73
    25
 74
     0
 42
0.000000001
 43
0.00000001
 40
0.0
 40
0.0
 40
0.0
 40
0.0
 40
0.070921570256085
 40
0.1255630660795207
 40
0.1672450943580563
 40
0.1922866172772786
 40
0.2173450349362396
 40
0.2443940309749608
 40
0.2734333871982129
 40
0.3045550202143265
 40
0.3377301817226051
 40
0.4018551744567711
 40
0.4558304622168498
 40
0.5005430320241748
 40
0.5435437280130353
 40
0.5950393542756723
 40
0.6571252905006741
 40
0.7155841271817753
 40
0.7678279429774295
 40
0.8136023315314082
 40
0.8369638168370521
 40
0.8749777770141931
 40
0.9292374533912983
 40
1.0
 40
1.0
 40
1.0
 40
1.0
 10
33.87130570803393
 20
6.839554899609984
 30
0.0
 10
33.45535127881834
 20
6.805814042726852
 30
0.0
 10
32.71892492371819
 20
6.746077555969736
 30
0.0
 10
31.74204685148192
 20
6.686634587405181
 30
0.0
 10
31.03497932944488
 20
6.651320311187807
 30
0.0
 10
30.50716120793598
 20
6.629662239127221
 30
0.0
 10
30.06078939898532
 20
6.614094494922215
 30
0.0
 10
29.58949773066748
 20
6.600785684510047
 30
0.0
 10
29.08134581802662
 20
6.590065091937231
 30
0.0
 10
28.53622560117672
 20
6.58276417922904
 30
0.0
 10
27.78514978988018
 20
6.578915377579236
 30
0.0
 10
26.89683274317617
 20
6.58550982700176
 30
0.0
 10
25.94930150502949
 20
6.607155624478703
 30
0.0
 10
25.13629205021837
 20
6.635890195171544
 30
0.0
 10
24.32594485667458
 20
6.673497565459688
 30
0.0
 10
23.41414461358574
 20
6.726592660831706
 30
0.0
 10
22.41208577499969
 20
6.79893375315067
 30
0.0
 10
21.40618879534939
 20
6.886761340373418
 30
0.0
 10
20.4939996769671
 20
6.978345514187051
 30
0.0
 10
19.79057876167094
 20
7.056877306642202
 30
0.0
 10
19.17254335127567
 20
7.130632199708467
 30
0.0
 10
18.49865589273168
 20
7.21604075841844
 30
0.0
 10
17.54722682389205
 20
7.345831251292948
 30
0.0
 10
16.81479505222098
 20
7.457924131737368
 30
0.0
 10
16.40023885458841
 20
7.521368673735731
 30
0.0
  0
SPLINE
  5
9D
330
1F
100
AcDbEntity
  8
0
  6
Continuous
 62
     1
370
    15
100
AcDbSpline
210
0.0
220
0.0
230
1.0
 70
     8
 71
     3
 72
    18
 73
    14
 74
     0
 42
0.000000001
 43
0.00000001
 40
0.0
 40
0.0
 40
0.0
 40
0.0
 40
0.1662972690607691
 40
0.2938115606468197
 40
0.3912990601865078
 40
0.4501380850388638
 40
0.5095160055259046
 40
0.573734090152853
 40
0.6426889036720476
 40
0.7160966130237878
 40
0.7942278726328033
 40
0.9444081830711076
 40
0.9999999999999999
 40
0.9999999999999999
 40
0.9999999999999999
 40
0.9999999999999999
 10
16.40023885458842
 20
-7.521368673735718
 30
0.0
 10
16.81479359015666
 20
-7.457925387372351
 30
0.0
 10
17.54722277867404
 20
-7.345834725365315
 30
0.0
 10
18.51890928218726
 20
-7.213270099629728
 30
0.0
 10
19.22270437994317
 20
-7.124353743650818
 30
0.0
 10
19.75160268580074
 20
-7.061761518865259
 30
0.0
 10
20.20131470084763
 20
-7.011040644393806
 30
0.0
 10
20.67740924052489
 20
-6.960210603431618
 30
0.0
 10
21.18970389815698
 20
-6.9088886808184
 30
0.0
 10
21.73600382158069
 20
-6.857871017700758
 30
0.0
 10
22.48367196295242
 20
-6.794444371701657
 30
0.0
 10
23.1872877927388
 20
-6.7410850941778
 30
0.0
 10
23.69713792905645
 20
-6.712005797799012
 30
0.0
 10
23.83488008005614
 20
-6.704149675877181
 30
0.0
  0
SPLINE
  5
9E
330
1F
100
AcDbEntity
  8
0
  6
Continuous
 62
     1
370
    15
100
AcDbSpline
210
0.0
220
0.0
230
1.0
 70
     8
 71
     3
 72
    28
 73
    24
 74
     0
 42
0.000000001
 43
0.00000001
 40
0.0
 40
0.0
 40
0.0
 40
0.0
 40
0.058707030970332
 40
0.1051619116971336
 40
0.1391878960247963
 40
0.1642760711252543
 40
0.1941911628950791
 40
0.2303671312097406
 40
0.2708611850515901
 40
0.3077997896471785
 40
0.3715874053095308
 40
0.4256989084634731
 40
0.4794415871362392
 40
0.5328508295602715
 40
0.5928535470418894
 40
0.6568316591461092
 40
0.7104746692267164
 40
0.7402877363553401
 40
0.7678475749074526
 40
0.7957756207982654
 40
0.8420826210288559
 40
0.910044726532315
 40
1.0
 40
1.0
 40
1.0
 40
1.0
 10
88.28494662722561
 20
6.839525630637278
 30
0.0
 10
87.94437672307721
 20
6.811602240819523
 30
0.0
 10
87.33431381247192
 20
6.761583069252436
 30
0.0
 10
86.52610970978391
 20
6.708870077574466
 30
0.0
 10
85.91154483967131
 20
6.674339757657314
 30
0.0
 10
85.38834224095567
 20
6.648945769550389
 30
0.0
 10
84.85512689406907
 20
6.626826412369646
 30
0.0
 10
84.23307131659034
 20
6.606311164884272
 30
0.0
 10
83.57157794841146
 20
6.590979955165803
 30
0.0
 10
82.74944418102496
 20
6.580050537093748
 30
0.0
 10
81.84850554981976
 20
6.579755286255524
 30
0.0
 10
80.84876518447622
 20
6.594589947242246
 30
0.0
 10
79.90902285739136
 20
6.62146572559157
 30
0.0
 10
78.93658319180228
 20
6.662717060525335
 30
0.0
 10
77.89910929534628
 20
6.721516837741323
 30
0.0
 10
76.85494252881134
 20
6.796574113219608
 30
0.0
 10
75.99703926505995
 20
6.871175569289766
 30
0.0
 10
75.36094291447549
 20
6.932822390799593
 30
0.0
 10
74.87025314079075
 20
6.983452956675092
 30
0.0
 10
74.28370235728458
 20
7.047608295569431
 30
0.0
 10
73.45600950032204
 20
7.14536875887095
 30
0.0
 10
72.26559991278957
 20
7.300778105641017
 30
0.0
 10
71.34106949259757
 20
7.441293813965935
 30
0.0
 10
70.8144245639684
 20
7.521336485970916
 30
0.0
  0
LINE
  5
9F
330
1F
100
AcDbEntity
  8
0
  6
Continuous
 62
   131
370
    15
100
AcDbLine
 10
8.949941892192667
 20
10.00000000000001
 30
0.0
 11
-56.99999999999999
 21
10.0
 31
0.0
  0
LINE
  5
A0
330
1F
100
AcDbEntity
  8
0
  6
Continuous
 62
   131
370
    15
100
AcDbLine
 10
-56.99999999999999
 20
-9.999999999999998
 30
0.0
 11
8.949941892192667
 21
-9.999999999999995
 31
0.0
  0
LINE
  5
A1
330
1F
100
AcDbEntity
  8
0
  6
Continuous
 62
   131
370
    15
100
AcDbLine
 10
-56.99999999999999
 20
9.999999999999995
 30
0.0
 11
-57.99999999999999
 21
8.999999999999998
 31
0.0
  0
LINE
  5
A2
330
1F
100
AcDbEntity
  8
0
  6
Continuous
 62
   131
370
    15
100
AcDbLine
 10
-57.99999999999999
 20
-8.999999999999998
 30
0.0
 11
-56.99999999999999
 21
-9.999999999999995
 31
0.0
  0
SPLINE
  5
A3
330
1F
100
AcDbEntity
  8
0
  6
Continuous
 62
   131
370
    15
100
AcDbSpline
210
0.0
220
0.0
230
1.0
 70
     8
 71
     3
 72
     9
 73
     5
 74
     0
 42
0.000000001
 43
0.00000001
 40
0.0
 40
0.0
 40
0.0
 40
0.0
 40
0.4233210260952045
 40
1.0
 40
1.0
 40
1.0
 40
1.0
 10
11.48120677619103
 20
2.654903307402568
 30
0.0
 10
11.13238120685716
 20
2.822122088725893
 30
0.0
 10
10.30835984285475
 20
3.21713856798227
 30
0.0
 10
9.446752155939102
 20
3.66547397956116
 30
0.0
 10
8.949881119140104
 20
3.924019584675658
 30
0.0
  0
SPLINE
  5
A4
330
1F
100
AcDbEntity
  8
0
  6
Continuous
 62
     1
370
    15
100
AcDbSpline
210
0.0
220
0.0
230
1.0
 70
     8
 71
     3
 72
    10
 73
     6
 74
     0
 42
0.000000001
 43
0.00000001
 40
0.0
 40
0.0
 40
0.0
 40
0.0
 40
0.5
 40
0.5
 40
1.0
 40
1.0
 40
1.0
 40
1.0
 10
92.0
 20
-2.672429460296434
 30
0.0
 10
91.14324315940779
 20
-1.99887717667385
 30
0.0
 10
90.2980363641846
 20
-1.303046910902126
 30
0.0
 10
88.63067637845721
 20
0.1330799216817037
 30
0.0
 10
87.80798421885805
 20
0.8737316691697551
 30
0.0
 10
87.00000000000223
 20
1.639931148972205
 30
0.0
  0
LINE
  5
A5
330
1F
100
AcDbEntity
  8
0
  6
Continuous
 62
     1
370
    15
100
AcDbLine
 10
86.99999999999999
 20
2.937719435296605
 30
0.0
 11
92.0
 21
0.0000000000000147
 31
0.0
  0
LINE
  5
A6
330
1F
100
AcDbEntity
  8
0
  6
Continuous
 62
     1
370
    15
100
AcDbLine
 10
92.0
 20
0.0000000000000147
 30
0.0
 11
92.0
 21
-2.672429460296434
 31
0.0
  0
SPLINE
  5
A7
330
1F
100
AcDbEntity
  8
0
  6
Continuous
 62
     1
370
    15
100
AcDbSpline
210
0.0
220
0.0
230
1.0
 70
     8
 71
     3
 72
    32
 73
    28
 74
     0
 42
0.000000001
 43
0.00000001
 40
0.0
 40
0.0
 40
0.0
 40
0.0
 40
0.0036488254992329
 40
0.0458175905522043
 40
0.0882785967041956
 40
0.1304473327030946
 40
0.1729080706990617
 40
0.2150768050570375
 40
0.2575375025400613
 40
0.2997062680287929
 40
0.3421671606617865
 40
0.384336039936877
 40
0.4267976312276776
 40
0.4689663995739098
 40
0.5114274292188431
 40
0.5535961659532803
 40
0.5960569131813062
 40
0.6382256470318228
 40
0.6806863407357131
 40
0.7228551027100829
 40
0.7653159759593277
 40
0.807484861448817
 40
0.8499464744008173
 40
0.8869569904700242
 40
0.9241648962710644
 40
0.9619773878027071
 40
1.0
 40
1.0
 40
1.0
 40
1.0
 10
23.83459597522515
 20
6.704020907179326
 30
0.0
 10
23.91750612621818
 20
6.741786526177564
 30
0.0
 10
24.9585927311048
 20
7.216002042533593
 30
0.0
 10
26.96440017454405
 20
7.959106982874744
 30
0.0
 10
29.84546765337381
 20
8.876612067473197
 30
0.0
 10
32.7330846071262
 20
9.531388283902979
 30
0.0
 10
35.61412210646283
 20
9.926226450534065
 30
0.0
 10
38.50177214468896
 20
10.04557440466824
 30
0.0
 10
41.38289001137233
 20
9.887342523124037
 30
0.0
 10
44.27068899574192
 20
9.454811549834726
 30
0.0
 10
47.15202732514602
 20
8.762102393482307
 30
0.0
 10
50.03996645226758
 20
7.825219107273466
 30
0.0
 10
52.92115738718141
 20
6.674028602269376
 30
0.0
 10
55.80888370948226
 20
5.335300397974569
 30
0.0
 10
58.68994694529624
 20
3.852014951662253
 30
0.0
 10
61.57756830911467
 20
2.258632149423293
 30
0.0
 10
64.45860371249766
 20
0.6063902611964955
 30
0.0
 10
67.34624860190017
 20
-1.066314311531142
 30
0.0
 10
70.22735888041447
 20
-2.705711095973415
 30
0.0
 10
73.11514562351758
 20
-4.273694352884269
 30
0.0
 10
75.99646828578608
 20
-5.719879668277398
 30
0.0
 10
78.88440486783925
 20
-7.010988947672423
 30
0.0
 10
81.648496337128
 20
-8.060800089224427
 30
0.0
 10
84.29934038699987
 20
-8.87546184234255
 30
0.0
 10
86.8444879681733
 20
-9.46347272880483
 30
0.0
 10
89.4127693258788
 20
-9.865683277401192
 30
0.0
 10
91.1359982256201
 20
-9.949515767503955
 30
0.0
 10
91.99999999999932
 20
-9.999999999999696
 30
0.0
  0
SPLINE
  5
A8
330
1F
100
AcDbEntity
  8
0
  6
Continuous
 62
     1
370
    15
100
AcDbSpline
210
0.0
220
0.0
230
1.0
 70
     8
 71
     3
 72
    17
 73
    13
 74
     0
 42
0.000000001
 43
0.00000001
 40
0.0
 40
0.0
 40
0.0
 40
0.0
 40
0.08507840179044
 40
0.1890546833718904
 40
0.2930242012414432
 40
0.3969845803470104
 40
0.5009334557100943
 40
0.6048750204839409
 40
0.7088280436990331
 40
0.8127917734306778
 40
0.9167638410088776
 40
1.0
 40
1.0
 40
1.0
 40
1.0
 10
67.14765018476788
 20
-0.9468923768118576
 30
0.0
 10
66.20373992286395
 20
-0.5672966048553898
 30
0.0
 10
64.10625510955876
 20
0.2762119351064211
 30
0.0
 10
60.85528673822087
 20
1.588529193807069
 30
0.0
 10
57.39485387633773
 20
2.918705297133178
 30
0.0
 10
53.93475637367739
 20
4.133647849616648
 30
0.0
 10
50.47500968499277
 20
5.184045278890747
 30
0.0
 10
47.01538744998268
 20
6.027751420932638
 30
0.0
 10
43.55553888699197
 20
6.633811400199666
 30
0.0
 10
40.09531921896641
 20
6.967823993979177
 30
0.0
 10
36.86491442712158
 20
7.049418229311445
 30
0.0
 10
34.78792015747642
 20
6.888558768535355
 30
0.0
 10
33.86445098937435
 20
6.817037746741867
 30
0.0
  0
SPLINE
  5
A9
330
1F
100
AcDbEntity
  8
0
  6
Continuous
 62
     1
370
    15
100
AcDbSpline
210
0.0
220
0.0
230
1.0
 70
     8
 71
     3
 72
    22
 73
    18
 74
     0
 42
0.000000001
 43
0.00000001
 40
0.0
 40
0.0
 40
0.0
 40
0.0
 40
0.0708172351783218
 40
0.1416421654404377
 40
0.212473311582154
 40
0.2833091876659819
 40
0.3541483026228683
 40
0.4249891618659341
 40
0.4958302689124578
 40
0.5666701270103094
 40
0.6375072407650129
 40
0.7083401177636262
 40
0.7791672701916268
 40
0.8499872164390342
 40
0.9208025841489709
 40
0.9916251300829485
 40
0.9999999999999999
 40
0.9999999999999999
 40
0.9999999999999999
 40
0.9999999999999999
 10
92.0
 20
-9.489408692318985
 30
0.0
 10
90.8468245732973
 20
-9.24278238500039
 30
0.0
 10
88.54034841449817
 20
-8.749502971659522
 30
0.0
 10
85.08037121062439
 20
-7.56042967999016
 30
0.0
 10
81.62003618195227
 20
-6.09766121223238
 30
0.0
 10
78.1594222460244
 20
-4.385009141414782
 30
0.0
 10
74.69861895924112
 20
-2.499818767897803
 30
0.0
 10
71.237713325512
 20
-0.514628508487102
 30
0.0
 10
67.77679319695619
 20
1.490884745142014
 30
0.0
 10
64.31594627443674
 20
3.437161385743324
 30
0.0
 10
60.85526011349111
 20
5.246448013501868
 30
0.0
 10
57.39482250887283
 20
6.847745580459735
 30
0.0
 10
53.93471936059288
 20
8.173724411191015
 30
0.0
 10
50.47497544856006
 20
9.185229271404888
 30
0.0
 10
47.0153772401756
 20
9.79153110983809
 30
0.0
 10
44.57255269599112
 20
10.04962097059487
 30
0.0
 10
43.28286500213578
 20
9.985971453440683
 30
0.0
 10
43.14648471051139
 20
9.97924072339449
 30
0.0
  0
SPLINE
  5
AA
330
1F
100
AcDbEntity
  8
0
  6
Continuous
 62
     1
370
    15
100
AcDbSpline
210
0.0
220
0.0
230
1.0
 70
     8
 71
     3
 72
    15
 73
    11
 74
     0
 42
0.000000001
 43
0.00000001
 40
0.0
 40
0.0
 40
0.0
 40
0.0
 40
0.1332699515710034
 40
0.2665550318563996
 40
0.3998523328954959
 40
0.5331589333683457
 40
0.6664719017736107
 40
0.7997882996303037
 40
0.933105184695924
 40
1.0
 40
1.0
 40
1.0
 40
1.0
 10
92.0
 20
-7.889722643682147
 30
0.0
 10
90.84682334133736
 20
-7.648719245656981
 30
0.0
 10
88.54033911618095
 20
-7.166685091064583
 30
0.0
 10
85.08036466262097
 20
-6.074519278576139
 30
0.0
 10
81.62003094023532
 20
-4.76309975999404
 30
0.0
 10
78.15941875917949
 20
-3.256502655789116
 30
0.0
 10
74.69861691625441
 20
-1.620502529561201
 30
0.0
 10
71.23771354870296
 20
0.0750591163567717
 30
0.0
 10
68.35155041931361
 20
1.503134973652212
 30
0.0
 10
66.619039549917
 20
2.305609139872829
 30
0.0
 10
66.04017230885873
 20
2.573732136862998
 30
0.0
  0
LINE
  5
AB
330
1F
100
AcDbEntity
  8
0
  6
Continuous
 62
     1
370
    15
100
AcDbLine
 10
92.0
 20
-9.489408692318992
 30
0.0
 11
92.0
 21
-7.889722643682147
 31
0.0
  0
SPLINE
  5
AC
330
1F
100
AcDbEntity
  8
0
  6
Continuous
 62
     1
370
    15
100
AcDbSpline
210
0.0
220
0.0
230
1.0
 70
     8
 71
     3
 72
    21
 73
    17
 74
     0
 42
0.000000001
 43
0.00000001
 40
0.0
 40
0.0
 40
0.0
 40
0.0
 40
0.0161024800661677
 40
0.0972748112777194
 40
0.1784418946660273
 40
0.2596172055835871
 40
0.3408002032933403
 40
0.4219891869977227
 40
0.5031824494079096
 40
0.5843782785893671
 40
0.6536378423509543
 40
0.7228996963336934
 40
0.792165346373643
 40
0.8614362945794101
 40
0.9307140378630011
 40
1.0
 40
1.0
 40
1.0
 40
1.0
 10
54.62094318298681
 20
-7.859649976486918
 30
0.0
 10
54.39216657588024
 20
-7.948414984902483
 30
0.0
 10
53.01013093977927
 20
-8.48464290794343
 30
0.0
 10
50.47497804089082
 20
-9.161896303408797
 30
0.0
 10
47.01538003058097
 20
-9.820947477469296
 30
0.0
 10
43.55552495742755
 20
-10.06272482360681
 30
0.0
 10
40.0953053437197
 20
-9.91135267559478
 30
0.0
 10
36.63475698201333
 20
-9.363773820352781
 30
0.0
 10
33.17406856075503
 20
-8.444164292891292
 30
0.0
 10
29.88257132493896
 20
-7.250011596108926
 30
0.0
 10
26.76151232308743
 20
-5.87833400868555
 30
0.0
 10
23.8096876856064
 20
-4.410955099509856
 30
0.0
 10
20.85772640511072
 20
-2.815369339464782
 30
0.0
 10
17.90547743552441
 20
-1.139405338139137
 30
0.0
 10
14.95289181810602
 20
0.574347534450539
 30
0.0
 10
12.98433619407768
 20
1.694037275881885
 30
0.0
 10
12.0
 20
2.253915353582818
 30
0.0
  0
SPLINE
  5
AD
330
1F
100
AcDbEntity
  8
0
  6
Continuous
 62
   131
370
    15
100
AcDbSpline
210
0.0
220
0.0
230
1.0
 70
    24
 71
     3
 72
     8
 73
     4
 74
     0
 42
0.000000001
 43
0.00000001
 40
0.0
 40
0.0
 40
0.0
 40
0.0
 40
1.0
 40
1.0
 40
1.0
 40
1.0
 10
12.0
 20
2.411473902321299
 30
0.0
 10
12.0
 20
2.4015882056418
 30
0.0
 10
12.0
 20
2.34892032476723
 30
0.0
 10
12.0
 20
2.253915353586049
 30
0.0
  0
SPLINE
  5
AE
330
1F
100
AcDbEntity
  8
0
  6
Continuous
 62
     1
370
    15
100
AcDbSpline
210
0.0
220
0.0
230
1.0
 70
     8
 71
     3
 72
    18
 73
    14
 74
     0
 42
0.000000001
 43
0.00000001
 40
0.0
 40
0.0
 40
0.0
 40
0.0
 40
0.0206187755601648
 40
0.1173937333750952
 40
0.2141782649552312
 40
0.3109702520858403
 40
0.4077675683933232
 40
0.5045680816648591
 40
0.6013696561817579
 40
0.6981701550610583
 40
0.7949674425998592
 40
0.8974983931427768
 40
0.9999999999999999
 40
0.9999999999999999
 40
0.9999999999999999
 40
0.9999999999999999
 10
47.75262078826108
 20
-8.293217151625065
 30
0.0
 10
47.50690727260012
 20
-8.326359676881136
 30
0.0
 10
46.10792861550235
 20
-8.515057825417436
 30
0.0
 10
43.55551705444582
 20
-8.533460754893456
 30
0.0
 10
40.09529656437482
 20
-8.323399297391887
 30
0.0
 10
36.63476577547173
 20
-7.754218316550362
 30
0.0
 10
33.1740176929582
 20
-6.884044436175676
 30
0.0
 10
29.7131367482958
 20
-5.737931906807862
 30
0.0
 10
26.25221726395328
 20
-4.364205012800412
 30
0.0
 10
22.79132345699825
 20
-2.816195740043392
 30
0.0
 10
19.2622362789304
 20
-1.125351332531707
 30
0.0
 10
15.66496193016866
 20
0.6550779435919613
 30
0.0
 10
13.22153741136368
 20
1.82606444551498
 30
0.0
 10
11.99999999999999
 20
2.411473902321306
 30
0.0
  0
LINE
  5
AF
330
1F
100
AcDbEntity
  8
0
  6
Continuous
 62
     1
370
    15
100
AcDbLine
 10
91.99999999999932
 20
-9.999999999999696
 30
0.0
 11
92.0
 21
-9.489408692319001
 31
0.0
  0
SPLINE
  5
B0
330
1F
100
AcDbEntity
  8
0
  6
Continuous
 62
     1
370
    15
100
AcDbSpline
210
0.0
220
0.0
230
1.0
 70
     8
 71
     3
 72
    16
 73
    12
 74
     0
 42
0.000000001
 43
0.00000001
 40
0.0
 40
0.0
 40
0.0
 40
0.0
 40
0.1195479793160518
 40
0.2400901730646551
 40
0.3493965003360311
 40
0.4594614864420901
 40
0.5687675443359139
 40
0.6788311231684776
 40
0.7881371057509634
 40
0.8981999894937405
 40
1.0
 40
1.0
 40
1.0
 40
1.0
 10
12.0
 20
-0.5244907418106333
 30
0.0
 10
13.04801058700044
 20
-1.127014024044139
 30
0.0
 10
15.15274748549139
 20
-2.337071441447119
 30
0.0
 10
18.21572691030427
 20
-4.018774884883251
 30
0.0
 10
21.1955098410557
 20
-5.533518128102095
 30
0.0
 10
24.07669046410586
 20
-6.845586903045357
 30
0.0
 10
26.96440710341248
 20
-7.970614720078553
 30
0.0
 10
29.84546549990175
 20
-8.87452103273288
 30
0.0
 10
32.73308632208173
 20
-9.528328472541999
 30
0.0
 10
35.54832310022321
 20
-9.931235363659852
 30
0.0
 10
37.40543209376581
 20
-9.971743598084608
 30
0.0
 10
38.2977719993638
 20
-9.991207783659185
 30
0.0
  0
SPLINE
  5
B1
330
1F
100
AcDbEntity
  8
0
  6
Continuous
 62
     1
370
    15
100
AcDbSpline
210
0.0
220
0.0
230
1.0
 70
     8
 71
     3
 72
    13
 73
     9
 74
     0
 42
0.000000001
 43
0.00000001
 40
0.0
 40
0.0
 40
0.0
 40
0.0
 40
0.0445842507432347
 40
0.2553131007365066
 40
0.4389892012590644
 40
0.6236449092034262
 40
0.8113010602980808
 40
1.0
 40
1.0
 40
1.0
 40
1.0
 10
78.26533599588475
 20
6.703368534742276
 30
0.0
 10
78.46947535568343
 20
6.795237105489917
 30
0.0
 10
79.63848575876786
 20
7.32132533769758
 30
0.0
 10
81.64849575675169
 20
8.052492913584585
 30
0.0
 10
84.29934053414244
 20
8.877567956866544
 30
0.0
 10
86.84448792814047
 20
9.462899721564062
 30
0.0
 10
89.41276933601945
 20
9.865828424740243
 30
0.0
 10
91.13599822900653
 20
9.94956423923853
 30
0.0
 10
92.0
 20
10.0000000000003
 30
0.0
  0
LINE
  5
B2
330
1F
100
AcDbEntity
  8
0
  6
Continuous
 62
   131
370
    15
100
AcDbLine
 10
12.0
 20
-0.5244907418133786
 30
0.0
 11
12.0
 21
2.253915353582818
 31
0.0
  0
SPLINE
  5
B3
330
1F
100
AcDbEntity
  8
0
  6
Continuous
 62
     1
370
    15
100
AcDbSpline
210
0.0
220
0.0
230
1.0
 70
    24
 71
     3
 72
    10
 73
     6
 74
     0
 42
0.000000001
 43
0.00000001
 40
0.0
 40
0.0
 40
0.0
 40
0.0
 40
0.5
 40
0.5
 40
1.0
 40
1.0
 40
1.0
 40
1.0
 10
92.0
 20
7.000000000000014
 30
0.0
 10
92.00000000000001
 20
7.424322568073149
 30
0.0
 10
92.0
 20
7.917424688671186
 30
0.0
 10
91.99999999999997
 20
8.951951609608567
 30
0.0
 10
91.99999999999999
 20
9.490734358014743
 30
0.0
 10
92.0
 20
10.0000000000003
 30
0.0
  0
SPLINE
  5
B4
330
1F
100
AcDbEntity
  8
0
  6
Continuous
 62
     1
370
    15
100
AcDbSpline
210
0.0
220
0.0
230
1.0
 70
     8
 71
     3
 72
     9
 73
     5
 74
     0
 42
0.000000001
 43
0.00000001
 40
0.0
 40
0.0
 40
0.0
 40
0.0
 40
0.9305035729274297
 40
1.0
 40
1.0
 40
1.0
 40
1.0
 10
92.0
 20
7.000000000000014
 30
0.0
 10
90.84682624840403
 20
6.995912424779617
 30
0.0
 10
89.60752552442293
 20
6.991519561238496
 30
0.0
 10
88.36820214540866
 20
6.840504530827562
 30
0.0
 10
88.28207359857966
 20
6.830009525779747
 30
0.0
  0
LINE
  5
B5
330
1F
100
AcDbEntity
  8
0
  6
Continuous
 62
     1
370
    15
100
AcDbLine
 10
12.74043833481145
 20
-0.9470038241002244
 30
0.0
 11
11.99999999999999
 21
-0.6541750829191837
 31
0.0
  0
SPLINE
  5
B6
330
1F
100
AcDbEntity
  8
0
  6
Continuous
 62
   131
370
    15
100
AcDbSpline
210
0.0
220
0.0
230
1.0
 70
    24
 71
     3
 72
    10
 73
     6
 74
     0
 42
0.000000001
 43
0.00000001
 40
0.0
 40
0.0
 40
0.0
 40
0.0
 40
0.2878634028185583
 40
0.6856902869050534
 40
1.0
 40
1.0
 40
1.0
 40
1.0
 10
12.0
 20
-0.3005285559580935
 30
0.0
 10
12.0
 20
-0.3024776439865566
 30
0.0
 10
12.0
 20
-0.3071203693776772
 30
0.0
 10
12.0
 20
-0.4318541728603599
 30
0.0
 10
12.0
 20
-0.5860978530082671
 30
0.0
 10
12.0
 20
-0.6541750829187605
 30
0.0
  0
SPLINE
  5
B7
330
1F
100
AcDbEntity
  8
0
  6
Continuous
 62
     1
370
    15
100
AcDbSpline
210
0.0
220
0.0
230
1.0
 70
     8
 71
     3
 72
    24
 73
    20
 74
     0
 42
0.000000001
 43
0.00000001
 40
0.0
 40
0.0
 40
0.0
 40
0.0
 40
0.0517743174784165
 40
0.1106096097832745
 40
0.169442487631498
 40
0.2282716380171963
 40
0.2870957520283206
 40
0.3459135262765296
 40
0.4047272717538447
 40
0.4635473321042488
 40
0.5223732928073022
 40
0.5812038484503081
 40
0.6400376885784058
 40
0.6988734991280517
 40
0.7577099638689822
 40
0.8165457658512708
 40
0.8753795888540781
 40
0.9376988372383682
 40
1.0
 40
1.0
 40
1.0
 40
1.0
 10
70.82231340658421
 20
-7.504069095453547
 30
0.0
 10
69.80713729694281
 20
-7.648091181467591
 30
0.0
 10
67.63833548906669
 20
-7.955777067251167
 30
0.0
 10
64.31596316458486
 20
-8.04556776401981
 30
0.0
 10
60.85528079579476
 20
-7.847541896182269
 30
0.0
 10
57.39484681898598
 20
-7.329685745874657
 30
0.0
 10
53.9347478607216
 20
-6.52232147725071
 30
0.0
 10
50.47500199195287
 20
-5.454983032381051
 30
0.0
 10
47.01538927983775
 20
-4.170737310523061
 30
0.0
 10
43.55553884687234
 20
-2.72062096258301
 30
0.0
 10
40.09531843635166
 20
-1.162236827084995
 30
0.0
 10
36.63479038338352
 20
0.4424390397574939
 30
0.0
 10
33.17404428912219
 20
2.029514765842369
 30
0.0
 10
29.71316564101552
 20
3.535987591464678
 30
0.0
 10
26.25224792806288
 20
4.901336324904997
 30
0.0
 10
22.79135763126114
 20
6.07335880928404
 30
0.0
 10
19.26225711332883
 20
7.015738881629124
 30
0.0
 10
15.6649884175653
 20
7.703393558151274
 30
0.0
 10
13.22154460370187
 20
7.877799023555961
 30
0.0
 10
12.00000000000001
 20
7.964989100901901
 30
0.0
  0
SPLINE
  5
B8
330
1F
100
AcDbEntity
  8
0
  6
Continuous
 62
   131
370
    15
100
AcDbSpline
210
0.0
220
0.0
230
1.0
 70
    24
 71
     3
 72
    14
 73
    10
 74
     0
 42
0.000000001
 43
0.00000001
 40
0.0
 40
0.0
 40
0.0
 40
0.0
 40
0.25
 40
0.25
 40
0.5
 40
0.5
 40
0.75
 40
0.75
 40
1.0
 40
1.0
 40
1.0
 40
1.0
 10
12.0
 20
7.964989100901901
 30
0.0
 10
12.0
 20
7.804654802275377
 30
0.0
 10
12.0
 20
7.56029533933924
 30
0.0
 10
12.0
 20
6.902956090733734
 30
0.0
 10
12.0
 20
6.489971683489612
 30
0.0
 10
12.0
 20
5.51935730715033
 30
0.0
 10
12.0
 20
4.96200762202299
 30
0.0
 10
12.0
 20
3.747535101237742
 30
0.0
 10
12.0
 20
3.090846354022074
 30
0.0
 10
12.0
 20
2.411473902321301
 30
0.0
  0
SPLINE
  5
B9
330
1F
100
AcDbEntity
  8
0
  6
Continuous
 62
     1
370
    15
100
AcDbSpline
210
0.0
220
0.0
230
1.0
 70
     8
 71
     3
 72
    15
 73
    11
 74
     0
 42
0.000000001
 43
0.00000001
 40
0.0
 40
0.0
 40
0.0
 40
0.0
 40
0.1110872900461582
 40
0.2221894019150065
 40
0.365090569556323
 40
0.5079986589191877
 40
0.6509104760395479
 40
0.793822822853469
 40
0.9367325007142844
 40
1.0
 40
1.0
 40
1.0
 40
1.0
 10
86.99999999999996
 20
2.277336188987587
 30
0.0
 10
86.10341518170114
 20
2.66912262081254
 30
0.0
 10
84.31012591826592
 20
3.452747758570693
 30
0.0
 10
81.36356612294354
 20
4.633135063367669
 30
0.0
 10
78.15938174877587
 20
5.772739768773852
 30
0.0
 10
74.69863588663091
 20
6.771110397891916
 30
0.0
 10
71.23771938929383
 20
7.505404794863602
 30
0.0
 10
67.77680800207469
 20
7.922749749394873
 30
0.0
 10
64.95881620428493
 20
8.061346022294648
 30
0.0
 10
63.29448443857007
 20
7.943402956743903
 30
0.0
 10
62.78376782940958
 20
7.907210964406245
 30
0.0
  0
SPLINE
  5
BA
330
1F
100
AcDbEntity
  8
0
  6
Continuous
 62
     1
370
    15
100
AcDbSpline
210
0.0
220
0.0
230
1.0
 70
     8
 71
     3
 72
     9
 73
     5
 74
     0
 42
0.000000001
 43
0.00000001
 40
0.0
 40
0.0
 40
0.0
 40
0.0
 40
0.1698292519684118
 40
1.0
 40
1.0
 40
1.0
 40
1.0
 10
16.4143963418766
 20
-7.492160410732828
 30
0.0
 10
16.16448966279478
 20
-7.540164501302201
 30
0.0
 10
14.69297238184777
 20
-7.822825409319988
 30
0.0
 10
13.22154006617769
 20
-7.90050323896228
 30
0.0
 10
12.00000000000001
 20
-7.964989100901889
 30
0.0
  0
SPLINE
  5
BB
330
1F
100
AcDbEntity
  8
0
  6
Continuous
 62
     1
370
    15
100
AcDbSpline
210
0.0
220
0.0
230
1.0
 70
    24
 71
     3
 72
     8
 73
     4
 74
     0
 42
0.000000001
 43
0.00000001
 40
0.0
 40
0.0
 40
0.0
 40
0.0
 40
1.0
 40
1.0
 40
1.0
 40
1.0
 10
86.99999999999996
 20
1.639931148963703
 30
0.0
 10
86.99999999999996
 20
1.854493127011636
 30
0.0
 10
86.99999999999999
 20
2.067125113709702
 30
0.0
 10
86.99999999999999
 20
2.277336188987589
 30
0.0
  0
SPLINE
  5
BC
330
1F
100
AcDbEntity
  8
0
  6
Continuous
 62
     1
370
    15
100
AcDbSpline
210
0.0
220
0.0
230
1.0
 70
    24
 71
     3
 72
    10
 73
     6
 74
     0
 42
0.000000001
 43
0.00000001
 40
0.0
 40
0.0
 40
0.0
 40
0.0
 40
0.5
 40
0.5
 40
1.0
 40
1.0
 40
1.0
 40
1.0
 10
92.0
 20
-7.889722643682143
 30
0.0
 10
92.0
 20
-7.284913890038033
 30
0.0
 10
92.00000000000001
 20
-6.52071483906467
 30
0.0
 10
92.0
 20
-4.744025591506785
 30
0.0
 10
92.00000000000001
 20
-3.733074430513085
 30
0.0
 10
92.0
 20
-2.672429460296755
 30
0.0
  0
SPLINE
  5
BD
330
1F
100
AcDbEntity
  8
0
  6
Continuous
 62
     1
370
    15
100
AcDbSpline
210
0.0
220
0.0
230
1.0
 70
    24
 71
     3
 72
    10
 73
     6
 74
     0
 42
0.000000001
 43
0.00000001
 40
0.0
 40
0.0
 40
0.0
 40
0.0
 40
0.5
 40
0.5
 40
1.0
 40
1.0
 40
1.0
 40
1.0
 10
87.0
 20
2.277336188987584
 30
0.0
 10
87.0
 20
2.878840455911245
 30
0.0
 10
87.0
 20
3.45074380394768
 30
0.0
 10
87.0
 20
4.486413301752651
 30
0.0
 10
87.0
 20
4.949784524560218
 30
0.0
 10
86.99999999999999
 20
5.338750903172985
 30
0.0
  0
SPLINE
  5
BE
330
1F
100
AcDbEntity
  8
0
  6
Continuous
 62
     1
370
    15
100
AcDbSpline
210
0.0
220
0.0
230
1.0
 70
     8
 71
     3
 72
    10
 73
     6
 74
     0
 42
0.000000001
 43
0.00000001
 40
0.0
 40
0.0
 40
0.0
 40
0.0
 40
0.5
 40
0.5
 40
1.0
 40
1.0
 40
1.0
 40
1.0
 10
92.0
 20
7.000000000000014
 30
0.0
 10
91.15763595404819
 20
6.771599311814835
 30
0.0
 10
90.31936082760951
 20
6.520011639069241
 30
0.0
 10
88.6514643580287
 20
5.967828526893998
 30
0.0
 10
87.82259727129092
 20
5.667959600724486
 30
0.0
 10
86.99999999999994
 20
5.338750903172986
 30
0.0
  0
SPLINE
  5
BF
330
1F
100
AcDbEntity
  8
0
  6
Continuous
 62
   131
370
    15
100
AcDbSpline
210
0.0
220
0.0
230
1.0
 70
    24
 71
     3
 72
    14
 73
    10
 74
     0
 42
0.000000001
 43
0.00000001
 40
0.0
 40
0.0
 40
0.0
 40
0.0
 40
0.25
 40
0.25
 40
0.5
 40
0.5
 40
0.75
 40
0.75
 40
1.0
 40
1.0
 40
1.0
 40
1.0
 10
12.0
 20
-0.6541750829191885
 30
0.0
 10
12.0
 20
-1.498300066267622
 30
0.0
 10
12.0
 20
-2.336601048420617
 30
0.0
 10
12.0
 20
-3.914917092544909
 30
0.0
 10
12.0
 20
-4.653973751622567
 30
0.0
 10
12.0
 20
-5.953316181501863
 30
0.0
 10
12.0
 20
-6.512909608333664
 30
0.0
 10
12.0
 20
-7.407412751871217
 30
0.0
 10
12.0
 20
-7.742324517799036
 30
0.0
 10
12.0
 20
-7.964989100901889
 30
0.0
  0
LINE
  5
C0
330
1F
100
AcDbEntity
  8
0
  6
Continuous
 62
     1
370
    15
100
AcDbLine
 10
92.0
 20
0.0000000000000147
 30
0.0
 11
92.0
 21
7.000000000000013
 31
0.0
  0
LINE
  5
C1
330
1F
100
AcDbEntity
  8
0
  6
Continuous
 62
   131
370
    15
100
AcDbLine
 10
12.0
 20
-0.5244907418106369
 30
0.0
 11
12.0
 21
-0.6541750829187611
 31
0.0
  0
SPLINE
  5
C2
330
1F
100
AcDbEntity
  8
0
  6
Continuous
 62
   131
370
    15
100
AcDbSpline
210
0.0
220
0.0
230
1.0
 70
     8
 71
     3
 72
     8
 73
     4
 74
     0
 42
0.000000001
 43
0.00000001
 40
0.0
 40
0.0
 40
0.0
 40
0.0
 40
1.0
 40
1.0
 40
1.0
 40
1.0
 10
11.99999999999999
 20
-0.6541750829191859
 30
0.0
 10
10.98765684916409
 20
-0.2457135187287182
 30
0.0
 10
9.96342375149708
 20
0.1677257997057375
 30
0.0
 10
8.949927242172619
 20
0.5767429448818899
 30
0.0
  0
SPLINE
  5
C3
330
1F
100
AcDbEntity
  8
0
  6
Continuous
 62
   131
370
    15
100
AcDbSpline
210
0.0
220
0.0
230
1.0
 70
     8
 71
     3
 72
     8
 73
     4
 74
     0
 42
0.000000001
 43
0.00000001
 40
0.0
 40
0.0
 40
0.0
 40
0.0
 40
1.0
 40
1.0
 40
1.0
 40
1.0
 10
8.94994189219266
 20
1.232870297080375
 30
0.0
 10
9.963433624631977
 20
0.6510423261493549
 30
0.0
 10
10.98766172694661
 20
0.060781180698731
 30
0.0
 10
12.0
 20
-0.5244907418106314
 30
0.0
  0
LINE
  5
C4
330
1F
100
AcDbEntity
  8
0
  6
Continuous
 62
   131
370
    15
100
AcDbLine
 10
8.949941892192664
 20
3.926083244221219
 30
0.0
 11
8.949941892192667
 21
10.00000000000001
 31
0.0
  0
SPLINE
  5
C5
330
1F
100
AcDbEntity
  8
0
  6
Continuous
 62
   131
370
    15
100
AcDbSpline
210
0.0
220
0.0
230
1.0
 70
     8
 71
     3
 72
     8
 73
     4
 74
     0
 42
0.000000001
 43
0.00000001
 40
0.0
 40
0.0
 40
0.0
 40
0.0
 40
1.0
 40
1.0
 40
1.0
 40
1.0
 10
12.0
 20
2.253915353582818
 30
0.0
 10
10.98764149231338
 20
2.824924549582149
 30
0.0
 10
9.963392667643637
 20
3.386444261010099
 30
0.0
 10
8.949881119140104
 20
3.925689080595469
 30
0.0
  0
LINE
  5
C6
330
1F
100
AcDbEntity
  8
0
  6
Continuous
 62
   131
370
    15
100
AcDbLine
 10
8.949941892192667
 20
-9.999999999999995
 30
0.0
 11
8.94994189219266
 21
1.232871071873413
 31
0.0
  0
LINE
  5
C7
330
1F
100
AcDbEntity
  8
0
  6
Continuous
 62
   131
370
    15
100
AcDbLine
 10
-56.99999999999999
 20
9.999999999999995
 30
0.0
 11
-56.99999999999999
 21
-9.999999999999998
 31
0.0
  0
LINE
  5
C8
330
1F
100
AcDbEntity
  8
0
  6
Continuous
 62
   131
370
    15
100
AcDbLine
 10
-57.99999999999999
 20
8.999999999999998
 30
0.0
 11
-57.99999999999999
 21
-9.000000000000002
 31
0.0
  0
LINE
  5
C9
330
1F
100
AcDbEntity
  8
0
  6
Continuous
 62
   131
370
    15
100
AcDbLine
 10
8.949941892192664
 20
3.909598677014564
 30
0.0
 11
8.949941892192664
 21
3.926083002483236
 31
0.0
  0
LINE
  5
CA
330
1F
100
AcDbEntity
  8
0
  6
Continuous
 62
   131
370
    15
100
AcDbLine
 10
11.99999999999999
 20
2.411473902321306
 30
0.0
 11
11.41720556006141
 21
2.677156645158676
 31
0.0
  0
SPLINE
  5
CB
330
1F
100
AcDbEntity
  8
0
  6
Continuous
 62
   131
370
    15
100
AcDbSpline
210
0.0
220
0.0
230
1.0
 70
    24
 71
     3
 72
     8
 73
     4
 74
     0
 42
0.000000001
 43
0.00000001
 40
0.0
 40
0.0
 40
0.0
 40
0.0
 40
1.0
 40
1.0
 40
1.0
 40
1.0
 10
12.0
 20
2.411473902321299
 30
0.0
 10
12.0
 20
2.401588205641777
 30
0.0
 10
12.0
 20
2.348920324766974
 30
0.0
 10
12.0
 20
2.253915353585362
 30
0.0
  0
SPLINE
  5
CC
330
1F
100
AcDbEntity
  8
0
  6
Continuous
 62
   131
370
    15
100
AcDbSpline
210
0.0
220
0.0
230
1.0
 70
     8
 71
     3
 72
     8
 73
     4
 74
     0
 42
0.000000001
 43
0.00000001
 40
0.0
 40
0.0
 40
0.0
 40
0.0
 40
1.0
 40
1.0
 40
1.0
 40
1.0
 10
12.00000000000001
 20
7.964989100901898
 30
0.0
 10
10.98765433443035
 20
8.008806337150387
 30
0.0
 10
9.963418661416396
 20
8.011445417000385
 30
0.0
 10
8.949919689376484
 20
7.972799805018462
 30
0.0
  0
SPLINE
  5
CD
330
1F
100
AcDbEntity
  8
0
  6
Continuous
 62
   131
370
    15
100
AcDbSpline
210
0.0
220
0.0
230
1.0
 70
    24
 71
     3
 72
    14
 73
    10
 74
     0
 42
0.000000001
 43
0.00000001
 40
0.0
 40
0.0
 40
0.0
 40
0.0
 40
0.25
 40
0.25
 40
0.5
 40
0.5
 40
0.75
 40
0.75
 40
1.0
 40
1.0
 40
1.0
 40
1.0
 10
12.0
 20
7.964989100901901
 30
0.0
 10
12.0
 20
7.804654802275377
 30
0.0
 10
12.0
 20
7.56029533933924
 30
0.0
 10
12.0
 20
6.902956090733734
 30
0.0
 10
12.0
 20
6.489971683489612
 30
0.0
 10
12.0
 20
5.51935730715033
 30
0.0
 10
12.0
 20
4.96200762202299
 30
0.0
 10
12.0
 20
3.747535101237742
 30
0.0
 10
12.0
 20
3.090846354022074
 30
0.0
 10
12.0
 20
2.411473902321301
 30
0.0
  0
SPLINE
  5
CE
330
1F
100
AcDbEntity
  8
0
  6
Continuous
 62
   131
370
    15
100
AcDbSpline
210
0.0
220
0.0
230
1.0
 70
     8
 71
     3
 72
     8
 73
     4
 74
     0
 42
0.000000001
 43
0.00000001
 40
0.0
 40
0.0
 40
0.0
 40
0.0
 40
1.0
 40
1.0
 40
1.0
 40
1.0
 10
12.00000000000001
 20
-7.964989100901889
 30
0.0
 10
10.98765433443035
 20
-8.008806337150377
 30
0.0
 10
9.9634186614164
 20
-8.011445417000374
 30
0.0
 10
8.949919689376484
 20
-7.972799805018453
 30
0.0
  0
SPLINE
  5
CF
330
1F
100
AcDbEntity
  8
0
  6
Continuous
 62
   131
370
    15
100
AcDbSpline
210
0.0
220
0.0
230
1.0
 70
    24
 71
     3
 72
    14
 73
    10
 74
     0
 42
0.000000001
 43
0.00000001
 40
0.0
 40
0.0
 40
0.0
 40
0.0
 40
0.25
 40
0.25
 40
0.5
 40
0.5
 40
0.75
 40
0.75
 40
1.0
 40
1.0
 40
1.0
 40
1.0
 10
12.0
 20
-0.6541750829191885
 30
0.0
 10
12.0
 20
-1.498300066267622
 30
0.0
 10
12.0
 20
-2.336601048420617
 30
0.0
 10
12.0
 20
-3.914917092544909
 30
0.0
 10
12.0
 20
-4.653973751622567
 30
0.0
 10
12.0
 20
-5.953316181501863
 30
0.0
 10
12.0
 20
-6.512909608333664
 30
0.0
 10
12.0
 20
-7.407412751871217
 30
0.0
 10
12.0
 20
-7.742324517799036
 30
0.0
 10
12.0
 20
-7.964989100901889
 30
0.0
  0
LINE
  5
D0
330
1F
100
AcDbEntity
  8
중심선
100
AcDbLine
 10
-60.99999999999999
 20
0.0000000000000004
 30
0.0
 11
99.00000000000001
 21
0.0000000000000153
 31
0.0
  0
CIRCLE
  5
D1
330
1F
100
AcDbEntity
  8
외형선
100
AcDbCircle
 10
0.0000000000000104
 20
0.0
 30
0.0
 40
3.000000000000005
  0
INSERT
  5
D2
330
1F
100
AcDbEntity
  8
0
  6
Continuous
 62
     7
100
AcDbBlockReference
 66
     1
  2
블럭10
 10
-22.93944368806589
 20
-52.04609937292004
 30
0.0
  0
ATTRIB
  5
D3
330
D2
100
AcDbEntity
  8
FORMAT
 62
     2
100
AcDbText
 10
-39.05870472750145
 20
-49.97073246008785
 30
0.0
 40
4.233333333333333
  1
SEME7020080E [ 2 FLUTE ]
 41
0.75
  7
SLDTEXTSTYLE0
 11
-39.05870472750145
 21
-52.08739912675452
 31
0.0
100
AcDbAttribute
  2
AUTOATTR0
 70
     0
 74
     1
  0
SEQEND
  5
D4
330
D2
100
AcDbEntity
  8
0
  6
Continuous
 62
     7
  0
HATCH
  5
D5
330
1F
100
AcDbEntity
  8
중심선
100
AcDbHatch
 10
0.0
 20
0.0
 30
0.0
210
0.0
220
0.0
230
1.0
  2
SOLID
 70
     1
 71
     0
 91
        1
 92
        0
 93
        4
 72
     1
 10
-17.22453438368504
 20
-35.7989250712761
 11
-20.67080962752232
 21
-35.7989250712761
 72
     1
 10
-20.67080962752232
 20
-35.7989250712761
 11
-22.79903948672635
 21
-38.3352506518487
 72
     1
 10
-22.79903948672635
 20
-38.3352506518487
 11
-19.35273115777591
 21
-38.33521122254621
 72
     1
 10
-19.35273115777591
 20
-38.33521122254621
 11
-17.22453438368504
 21
-35.7989250712761
 97
        0
 75
     0
 76
     1
 98
        1
 10
0.0
 20
0.0
  0
HATCH
  5
D6
330
1F
100
AcDbEntity
  8
중심선
100
AcDbHatch
 10
0.0
 20
0.0
 30
0.0
210
0.0
220
0.0
230
1.0
  2
SOLID
 70
     1
 71
     0
 91
        1
 92
        0
 93
        4
 72
     1
 10
-12.21177039264909
 20
-35.7989250712761
 11
-15.65804563648637
 21
-35.7989250712761
 72
     1
 10
-15.65804563648637
 20
-35.7989250712761
 11
-20.18918364484376
 21
-41.19892507127612
 72
     1
 10
-20.18918364484376
 20
-41.19892507127612
 11
-16.74290840100648
 21
-41.19892507127612
 72
     1
 10
-16.74290840100648
 20
-41.19892507127612
 11
-12.21177039264909
 21
-35.7989250712761
 97
        0
 75
     0
 76
     1
 98
        1
 10
0.0
 20
0.0
  0
HATCH
  5
D7
330
1F
100
AcDbEntity
  8
중심선
100
AcDbHatch
 10
0.0
 20
0.0
 30
0.0
210
0.0
220
0.0
230
1.0
  2
SOLID
 70
     1
 71
     0
 91
        1
 92
        0
 93
        4
 72
     1
 10
-7.199006401613195
 20
-35.79892507127613
 11
-10.64528164545031
 21
-35.7989250712761
 72
     1
 10
-10.64528164545031
 20
-35.7989250712761
 11
-17.69371854733956
 21
-44.19892507127612
 72
     1
 10
-17.69371854733956
 20
-44.19892507127612
 11
-14.24744330350228
 21
-44.19892507127612
 72
     1
 10
-14.24744330350228
 20
-44.19892507127612
 11
-7.199006401613195
 21
-35.79892507127613
 97
        0
 75
     0
 76
     1
 98
        1
 10
0.0
 20
0.0
  0
HATCH
  5
D8
330
1F
100
AcDbEntity
  8
중심선
100
AcDbHatch
 10
0.0
 20
0.0
 30
0.0
210
0.0
220
0.0
230
1.0
  2
SOLID
 70
     1
 71
     0
 91
        1
 92
        0
 93
        6
 72
     3
 10
-2.399115970600996
 20
-39.99892507132738
 11
3.960054785062284
 21
1.540850780301639E-10
 40
0.3939339440162633
 50
17.09539180608433
 51
320.0019657685079
 73
     0
 72
     1
 10
-0.7161163149004002
 20
-38.58681907591441
 11
1.589185558800638
 21
-36.65249236586649
 72
     3
 10
-2.399115970653842
 20
-39.99892507127625
 11
6.600054785286829
 21
-1.249000902703301E-13
 40
0.6363583540795982
 50
39.99873849337408
 51
368.4976242363725
 73
     1
 72
     1
 10
4.026216521246767
 20
-39.03892507120613
 11
-3.71904866381792
 21
-39.0389250712061
 72
     1
 10
-3.71904866381792
 20
-39.0389250712061
 11
-3.719073708263854
 21
-40.95892507120602
 72
     1
 10
-3.719073708263854
 20
-40.95892507120602
 11
0.7223060612081831
 21
-40.95892507120599
 97
        0
 75
     0
 76
     1
 98
        1
 10
0.0
 20
0.0
  0
DIMENSION
  5
D9
330
1F
100
AcDbEntity
  8
치수문자_일반주서
100
AcDbDimension
  2
_D
 10
107.6917680159227
 20
10.00000000000036
 30
0.0
 11
107.6917680159226
 21
20.76025000000036
 31
0.0
 70
   160
  1
%%c<>
 71
     2
 42
20.0
 52
-270.0
  3
SLDDIMSTYLE0
100
AcDbAlignedDimension
 13
91.99999999999932
 23
-9.999999999999696
 33
0.0
 14
92.0
 24
10.0000000000003
 34
0.0
 50
90.0000000000002
100
AcDbRotatedDimension
  0
DIMENSION
  5
E7
330
1F
100
AcDbEntity
  8
치수문자_일반주서
100
AcDbDimension
  2
_D_1
 10
91.99999999999999
 20
30.7884104402427
 30
0.0
 11
17.0
 21
30.7884104402427
 31
0.0
 70
   160
  1
<>
 71
     2
 42
150.0
  3
SLDDIMSTYLE1
100
AcDbAlignedDimension
 13
-57.99999999999999
 23
8.999999999999998
 33
0.0
 14
92.0
 24
10.0000000000003
 34
0.0
 50
-0.0000000000000027
100
AcDbRotatedDimension
  0
DIMENSION
  5
F2
330
1F
100
AcDbEntity
  8
치수문자_일반주서
100
AcDbDimension
  2
_D_2
 10
92.0
 20
21.31198690706942
 30
0.0
 11
52.0
 21
21.31198690706942
 31
0.0
 70
   160
  1
<>
 71
     2
 42
80.0
  3
SLDDIMSTYLE1
100
AcDbAlignedDimension
 13
12.00000000000001
 23
7.964989100901898
 33
0.0
 14
92.0
 24
10.0000000000003
 34
0.0
 50
-0.0000000000000025
100
AcDbRotatedDimension
  0
DIMENSION
  5
FC
330
1F
100
AcDbEntity
  8
치수문자_일반주서
100
AcDbDimension
  2
_D_3
 10
-69.47569843469975
 20
-10.00000000000004
 30
0.0
 11
-69.47569843469986
 21
20.76024999999995
 31
0.0
 70
   160
  1
%%c<>
 71
     2
 42
19.99999999999999
 52
-270.0
  3
SLDDIMSTYLE0
100
AcDbAlignedDimension
 13
-56.99999999999999
 23
9.999999999999995
 33
0.0
 14
-56.99999999999999
 24
-9.999999999999995
 34
0.0
 50
90.0000000000002
100
AcDbRotatedDimension
  0
INSERT
  5
10F
330
1F
100
AcDbEntity
  8
외형선
100
AcDbBlockReference
  2
SW_DOWELSYMBOL_0
 10
0.0000000000000104
 20
0.0
 30
0.0
  0
ENDSEC
  0
SECTION
  2
OBJECTS
  0
DICTIONARY
  5
C
330
0
100
AcDbDictionary
281
     1
  3
ACAD_GROUP
350
D
  3
ACAD_IMAGE_VARS
350
133
  3
ACAD_LAYOUT
350
1A
  3
ACAD_MLINESTYLE
350
17
  3
ACAD_PLOTSETTINGS
350
19
  3
ACAD_PLOTSTYLENAME
350
E
  3
ACAD_SCALELIST
350
47
  3
APPDATA
350
131
  3
DWGPROPS
350
142
  0
DICTIONARY
  5
D
102
{ACAD_REACTORS
330
C
102
}
330
C
100
AcDbDictionary
281
     1
  0
RASTERVARIABLES
  5
133
102
{ACAD_REACTORS
330
C
102
}
330
C
100
AcDbRasterVariables
 90
        0
 70
     1
 71
     1
 72
     1
  0
DICTIONARY
  5
1A
102
{ACAD_REACTORS
330
C
102
}
330
C
100
AcDbDictionary
281
     1
  3
Layout1
350
1E
  3
Layout2
350
26
  3
Model
350
22
  0
DICTIONARY
  5
17
102
{ACAD_REACTORS
330
C
102
}
330
C
100
AcDbDictionary
281
     1
  3
Standard
350
18
  0
DICTIONARY
  5
19
102
{ACAD_REACTORS
330
C
102
}
330
C
100
AcDbDictionary
281
     1
  0
ACDBDICTIONARYWDFLT
  5
E
102
{ACAD_REACTORS
330
C
102
}
330
C
100
AcDbDictionary
281
     1
  3
Normal
350
F
100
AcDbDictionaryWithDefault
340
F
  0
DICTIONARY
  5
47
102
{ACAD_REACTORS
330
C
102
}
330
C
100
AcDbDictionary
281
     1
  3
A0
350
48
  3
A1
350
49
  3
A2
350
4A
  3
A3
350
4B
  3
A4
350
4C
  3
A5
350
4D
  3
A6
350
4E
  3
A7
350
4F
  3
A8
350
50
  3
A9
350
51
  3
B0
350
52
  3
B1
350
53
  3
B2
350
54
  3
B3
350
55
  3
B4
350
56
  3
B5
350
57
  3
B6
350
58
  3
B7
350
59
  3
B8
350
5A
  3
B9
350
5B
  3
C0
350
5C
  3
C1
350
5D
  3
C2
350
5E
  3
C3
350
5F
  3
C4
350
60
  3
C5
350
61
  3
C6
350
62
  3
C7
350
63
  3
C8
350
64
  3
C9
350
65
  3
D0
350
66
  3
D1
350
67
  3
D2
350
68
  0
DICTIONARY
  5
131
102
{ACAD_REACTORS
330
C
102
}
330
C
100
AcDbDictionary
281
     1
  0
XRECORD
  5
142
102
{ACAD_REACTORS
330
C
102
}
330
C
100
AcDbXrecord
280
     1
  1
DWGPROPS COOKIE
  2

  3

  4

  6

  7

  8
12014102
  9

300
=
301
=
302
=
303
=
304
=
305
=
306
=
307
=
308
=
309
=
 40
0.0
 41
2458262.178744155
 42
2458266.214976887
  1

 90
        0
  0
LAYOUT
  5
1E
102
{ACAD_REACTORS
330
1A
102
}
330
1A
100
AcDbPlotSettings
  1

  2
none_device
  4

  6

 40
0.0
 41
0.0
 42
0.0
 43
0.0
 44
0.0
 45
0.0
 46
0.0
 47
0.0
 48
0.0
 49
0.0
140
0.0
141
0.0
142
1.0
143
1.0
 70
   688
 72
     1
 73
     0
 74
     5
  7

 75
    16
147
1.0
148
0.0
149
0.0
100
AcDbLayout
  1
Layout1
 70
     1
 71
     1
 10
0.0
 20
0.0
 11
420.0
 21
297.0
 12
0.0
 22
0.0
 32
0.0
 14
1.000000000000000E+20
 24
1.000000000000000E+20
 34
1.000000000000000E+20
 15
-1.000000000000000E+20
 25
-1.000000000000000E+20
 35
-1.000000000000000E+20
146
0.0
 13
0.0
 23
0.0
 33
0.0
 16
1.0
 26
0.0
 36
0.0
 17
0.0
 27
1.0
 37
0.0
 76
     0
330
1B
  0
LAYOUT
  5
26
102
{ACAD_REACTORS
330
1A
102
}
330
1A
100
AcDbPlotSettings
  1

  2
none_device
  4

  6

 40
0.0
 41
0.0
 42
0.0
 43
0.0
 44
0.0
 45
0.0
 46
0.0
 47
0.0
 48
0.0
 49
0.0
140
0.0
141
0.0
142
1.0
143
1.0
 70
   688
 72
     1
 73
     0
 74
     5
  7

 75
    16
147
1.0
148
0.0
149
0.0
100
AcDbLayout
  1
Layout2
 70
     1
 71
     2
 10
0.0
 20
0.0
 11
0.0
 21
0.0
 12
0.0
 22
0.0
 32
0.0
 14
0.0
 24
0.0
 34
0.0
 15
0.0
 25
0.0
 35
0.0
146
0.0
 13
0.0
 23
0.0
 33
0.0
 16
1.0
 26
0.0
 36
0.0
 17
0.0
 27
1.0
 37
0.0
 76
     0
330
23
  0
LAYOUT
  5
22
102
{ACAD_REACTORS
330
1A
102
}
330
1A
100
AcDbPlotSettings
  1

  2
none_device
  4
ANSI_A_(11.00_x_8.50_Inches)
  6

 40
6.35
 41
19.05
 42
6.35000508
 43
19.05000254
 44
279.4
 45
215.9
 46
113.4152498415311
 47
101.7369766684501
 48
0.0
 49
0.0
140
0.0
141
0.0
142
0.065578048070227
143
1.0
 70
  1696
 72
     0
 73
     0
 74
     0
  7

 75
     0
147
0.0235690232323232
148
0.0
149
0.0
100
AcDbLayout
  1
Model
 70
     1
 71
     0
 10
0.0
 20
0.0
 11
420.0
 21
297.0
 12
0.0
 22
0.0
 32
0.0
 14
-73.85069843469988
 24
-49.97073246008785
 34
0.0
 15
108.2421013492561
 25
35.1634104402427
 35
0.0
146
0.0
 13
0.0
 23
0.0
 33
0.0
 16
1.0
 26
0.0
 36
0.0
 17
0.0
 27
1.0
 37
0.0
 76
     0
330
1F
331
29
  0
MLINESTYLE
  5
18
102
{ACAD_REACTORS
330
17
102
}
330
17
100
AcDbMlineStyle
  2
Standard
 70
     0
  3

 62
   256
 51
90.0
 52
90.0
 71
     2
 49
0.5
 62
   256
  6
BYLAYER
 49
-0.5
 62
   256
  6
BYLAYER
  0
ACDBPLACEHOLDER
  5
F
102
{ACAD_REACTORS
330
E
102
}
330
E
  0
SCALE
  5
48
102
{ACAD_REACTORS
330
47
102
}
330
47
100
AcDbScale
 70
     0
300
1:1
140
1.0
141
1.0
290
     1
  0
SCALE
  5
49
102
{ACAD_REACTORS
330
47
102
}
330
47
100
AcDbScale
 70
     0
300
1:2
140
1.0
141
2.0
290
     0
  0
SCALE
  5
4A
102
{ACAD_REACTORS
330
47
102
}
330
47
100
AcDbScale
 70
     0
300
1:4
140
1.0
141
4.0
290
     0
  0
SCALE
  5
4B
102
{ACAD_REACTORS
330
47
102
}
330
47
100
AcDbScale
 70
     0
300
1:5
140
1.0
141
5.0
290
     0
  0
SCALE
  5
4C
102
{ACAD_REACTORS
330
47
102
}
330
47
100
AcDbScale
 70
     0
300
1:8
140
1.0
141
8.0
290
     0
  0
SCALE
  5
4D
102
{ACAD_REACTORS
330
47
102
}
330
47
100
AcDbScale
 70
     0
300
1:10
140
1.0
141
10.0
290
     0
  0
SCALE
  5
4E
102
{ACAD_REACTORS
330
47
102
}
330
47
100
AcDbScale
 70
     0
300
1:16
140
1.0
141
16.0
290
     0
  0
SCALE
  5
4F
102
{ACAD_REACTORS
330
47
102
}
330
47
100
AcDbScale
 70
     0
300
1:20
140
1.0
141
20.0
290
     0
  0
SCALE
  5
50
102
{ACAD_REACTORS
330
47
102
}
330
47
100
AcDbScale
 70
     0
300
1:30
140
1.0
141
30.0
290
     0
  0
SCALE
  5
51
102
{ACAD_REACTORS
330
47
102
}
330
47
100
AcDbScale
 70
     0
300
1:40
140
1.0
141
40.0
290
     0
  0
SCALE
  5
52
102
{ACAD_REACTORS
330
47
102
}
330
47
100
AcDbScale
 70
     0
300
1:50
140
1.0
141
50.0
290
     0
  0
SCALE
  5
53
102
{ACAD_REACTORS
330
47
102
}
330
47
100
AcDbScale
 70
     0
300
1:100
140
1.0
141
100.0
290
     0
  0
SCALE
  5
54
102
{ACAD_REACTORS
330
47
102
}
330
47
100
AcDbScale
 70
     0
300
2:1
140
2.0
141
1.0
290
     0
  0
SCALE
  5
55
102
{ACAD_REACTORS
330
47
102
}
330
47
100
AcDbScale
 70
     0
300
4:1
140
4.0
141
1.0
290
     0
  0
SCALE
  5
56
102
{ACAD_REACTORS
330
47
102
}
330
47
100
AcDbScale
 70
     0
300
8:1
140
8.0
141
1.0
290
     0
  0
SCALE
  5
57
102
{ACAD_REACTORS
330
47
102
}
330
47
100
AcDbScale
 70
     0
300
10:1
140
10.0
141
1.0
290
     0
  0
SCALE
  5
58
102
{ACAD_REACTORS
330
47
102
}
330
47
100
AcDbScale
 70
     0
300
100:1
140
100.0
141
1.0
290
     0
  0
SCALE
  5
59
102
{ACAD_REACTORS
330
47
102
}
330
47
100
AcDbScale
 70
     0
300
1/128" = 1'-0"
140
0.0078125
141
12.0
290
     0
  0
SCALE
  5
5A
102
{ACAD_REACTORS
330
47
102
}
330
47
100
AcDbScale
 70
     0
300
1/64" = 1'-0"
140
0.015625
141
12.0
290
     0
  0
SCALE
  5
5B
102
{ACAD_REACTORS
330
47
102
}
330
47
100
AcDbScale
 70
     0
300
1/32" = 1'-0"
140
0.03125
141
12.0
290
     0
  0
SCALE
  5
5C
102
{ACAD_REACTORS
330
47
102
}
330
47
100
AcDbScale
 70
     0
300
1/16" = 1'-0"
140
0.0625
141
12.0
290
     0
  0
SCALE
  5
5D
102
{ACAD_REACTORS
330
47
102
}
330
47
100
AcDbScale
 70
     0
300
3/32" = 1'-0"
140
0.09375
141
12.0
290
     0
  0
SCALE
  5
5E
102
{ACAD_REACTORS
330
47
102
}
330
47
100
AcDbScale
 70
     0
300
1/8" = 1'-0"
140
0.125
141
12.0
290
     0
  0
SCALE
  5
5F
102
{ACAD_REACTORS
330
47
102
}
330
47
100
AcDbScale
 70
     0
300
3/16" = 1'-0"
140
0.1875
141
12.0
290
     0
  0
SCALE
  5
60
102
{ACAD_REACTORS
330
47
102
}
330
47
100
AcDbScale
 70
     0
300
1/4" = 1'-0"
140
0.25
141
12.0
290
     0
  0
SCALE
  5
61
102
{ACAD_REACTORS
330
47
102
}
330
47
100
AcDbScale
 70
     0
300
3/8" = 1'-0"
140
0.375
141
12.0
290
     0
  0
SCALE
  5
62
102
{ACAD_REACTORS
330
47
102
}
330
47
100
AcDbScale
 70
     0
300
1/2" = 1'-0"
140
0.5
141
12.0
290
     0
  0
SCALE
  5
63
102
{ACAD_REACTORS
330
47
102
}
330
47
100
AcDbScale
 70
     0
300
3/4" = 1'-0"
140
0.75
141
12.0
290
     0
  0
SCALE
  5
64
102
{ACAD_REACTORS
330
47
102
}
330
47
100
AcDbScale
 70
     0
300
1" = 1'-0"
140
1.0
141
12.0
290
     0
  0
SCALE
  5
65
102
{ACAD_REACTORS
330
47
102
}
330
47
100
AcDbScale
 70
     0
300
1-1/2" = 1'-0"
140
1.5
141
12.0
290
     0
  0
SCALE
  5
66
102
{ACAD_REACTORS
330
47
102
}
330
47
100
AcDbScale
 70
     0
300
3" = 1'-0"
140
3.0
141
12.0
290
     0
  0
SCALE
  5
67
102
{ACAD_REACTORS
330
47
102
}
330
47
100
AcDbScale
 70
     0
300
6" = 1'-0"
140
6.0
141
12.0
290
     0
  0
SCALE
  5
68
102
{ACAD_REACTORS
330
47
102
}
330
47
100
AcDbScale
 70
     0
300
1'-0" = 1'-0"
140
12.0
141
12.0
290
     0
  0
ENDSEC
  0
EOF
