  0
SECTION
  2
HEADER
  9
$ACADVER
  1
AC1015
  9
$ACADMAINTVER
 70
     6
  9
$DWGCODEPAGE
  3
ANSI_949
  9
$INSBASE
 10
0.0
 20
0.0
 30
0.0
  9
$EXTMIN
 10
-114.7449570049968
 20
-49.97073246008785
 30
0.0
  9
$EXTMAX
 10
119.8736103989671
 20
35.16341044024269
 30
0.0
  9
$LIMMIN
 10
0.0
 20
0.0
  9
$LIMMAX
 10
420.0
 20
297.0
  9
$ORTHOMODE
 70
     0
  9
$REGENMODE
 70
     1
  9
$FILLMODE
 70
     1
  9
$QTEXTMODE
 70
     0
  9
$MIRRTEXT
 70
     1
  9
$LTSCALE
 40
1.0
  9
$ATTMODE
 70
     1
  9
$TEXTSIZE
 40
3.5
  9
$TRACEWID
 40
1.0
  9
$TEXTSTYLE
  7
Standard
  9
$CLAYER
  8
0
  9
$CELTYPE
  6
ByLayer
  9
$CECOLOR
 62
   256
  9
$CELTSCALE
 40
1.0
  9
$DISPSILH
 70
     0
  9
$DIMSCALE
 40
1.0
  9
$DIMASZ
 40
3.302
  9
$DIMEXO
 40
1.0
  9
$DIMDLI
 40
3.75
  9
$DIMRND
 40
0.0
  9
$DIMDLE
 40
0.0
  9
$DIMEXE
 40
1.0
  9
$DIMTP
 40
0.0
  9
$DIMTM
 40
0.0
  9
$DIMTXT
 40
3.5
  9
$DIMCEN
 40
2.5
  9
$DIMTSZ
 40
0.0
  9
$DIMTOL
 70
     0
  9
$DIMLIM
 70
     0
  9
$DIMTIH
 70
     1
  9
$DIMTOH
 70
     1
  9
$DIMSE1
 70
     0
  9
$DIMSE2
 70
     0
  9
$DIMTAD
 70
     1
  9
$DIMZIN
 70
     0
  9
$DIMBLK
  1

  9
$DIMASO
 70
     1
  9
$DIMSHO
 70
     1
  9
$DIMPOST
  1

  9
$DIMAPOST
  1

  9
$DIMALT
 70
     0
  9
$DIMALTD
 70
     3
  9
$DIMALTF
 40
0.0393700787401575
  9
$DIMLFAC
 40
1.0
  9
$DIMTOFL
 70
     1
  9
$DIMTVP
 40
0.0
  9
$DIMTIX
 70
     0
  9
$DIMSOXD
 70
     0
  9
$DIMSAH
 70
     0
  9
$DIMBLK1
  1

  9
$DIMBLK2
  1

  9
$DIMSTYLE
  2
ISO-25
  9
$DIMCLRD
 70
     0
  9
$DIMCLRE
 70
     0
  9
$DIMCLRT
 70
     0
  9
$DIMTFAC
 40
1.0
  9
$DIMGAP
 40
1.524
  9
$DIMJUST
 70
     0
  9
$DIMSD1
 70
     0
  9
$DIMSD2
 70
     0
  9
$DIMTOLJ
 70
     0
  9
$DIMTZIN
 70
     0
  9
$DIMALTZ
 70
     0
  9
$DIMALTTZ
 70
     0
  9
$DIMUPT
 70
     0
  9
$DIMDEC
 70
     2
  9
$DIMTDEC
 70
     2
  9
$DIMALTU
 70
     2
  9
$DIMALTTD
 70
     3
  9
$DIMTXSTY
  7
Standard
  9
$DIMAUNIT
 70
     0
  9
$DIMADEC
 70
     2
  9
$DIMALTRND
 40
0.0
  9
$DIMAZIN
 70
     0
  9
$DIMDSEP
 70
    44
  9
$DIMATFIT
 70
     3
  9
$DIMFRAC
 70
     0
  9
$DIMLDRBLK
  1

  9
$DIMLUNIT
 70
     2
  9
$DIMLWD
 70
    -2
  9
$DIMLWE
 70
    -2
  9
$DIMTMOVE
 70
     0
  9
$LUNITS
 70
     2
  9
$LUPREC
 70
     2
  9
$SKETCHINC
 40
1.0
  9
$FILLETRAD
 40
10.0
  9
$AUNITS
 70
     0
  9
$AUPREC
 70
     2
  9
$MENU
  1
.
  9
$ELEVATION
 40
0.0
  9
$PELEVATION
 40
0.0
  9
$THICKNESS
 40
0.0
  9
$LIMCHECK
 70
     0
  9
$CHAMFERA
 40
0.0
  9
$CHAMFERB
 40
0.0
  9
$CHAMFERC
 40
0.0
  9
$CHAMFERD
 40
0.0
  9
$SKPOLY
 70
     0
  9
$TDCREATE
 40
2458262.553932257
  9
$TDUCREATE
 40
2458262.178932257
  9
$TDUPDATE
 40
2458266.694614931
  9
$TDUUPDATE
 40
2458266.319614931
  9
$TDINDWG
 40
0.0010828472
  9
$TDUSRTIMER
 40
2458266.31853213
  9
$USRTIMER
 70
     1
  9
$ANGBASE
 50
0.0
  9
$ANGDIR
 70
     0
  9
$PDMODE
 70
     0
  9
$PDSIZE
 40
-1.0
  9
$PLINEWID
 40
0.0
  9
$SPLFRAME
 70
     0
  9
$SPLINETYPE
 70
     6
  9
$SPLINESEGS
 70
     8
  9
$HANDSEED
  5
148
  9
$SURFTAB1
 70
     6
  9
$SURFTAB2
 70
     6
  9
$SURFTYPE
 70
     6
  9
$SURFU
 70
     6
  9
$SURFV
 70
     6
  9
$UCSBASE
  2

  9
$UCSNAME
  2

  9
$UCSORG
 10
0.0
 20
0.0
 30
0.0
  9
$UCSXDIR
 10
1.0
 20
0.0
 30
0.0
  9
$UCSYDIR
 10
0.0
 20
1.0
 30
0.0
  9
$UCSORTHOREF
  2

  9
$UCSORTHOVIEW
 70
     0
  9
$UCSORGTOP
 10
0.0
 20
0.0
 30
0.0
  9
$UCSORGBOTTOM
 10
0.0
 20
0.0
 30
0.0
  9
$UCSORGLEFT
 10
0.0
 20
0.0
 30
0.0
  9
$UCSORGRIGHT
 10
0.0
 20
0.0
 30
0.0
  9
$UCSORGFRONT
 10
0.0
 20
0.0
 30
0.0
  9
$UCSORGBACK
 10
0.0
 20
0.0
 30
0.0
  9
$PUCSBASE
  2

  9
$PUCSNAME
  2

  9
$PUCSORG
 10
0.0
 20
0.0
 30
0.0
  9
$PUCSXDIR
 10
1.0
 20
0.0
 30
0.0
  9
$PUCSYDIR
 10
0.0
 20
1.0
 30
0.0
  9
$PUCSORTHOREF
  2

  9
$PUCSORTHOVIEW
 70
     0
  9
$PUCSORGTOP
 10
0.0
 20
0.0
 30
0.0
  9
$PUCSORGBOTTOM
 10
0.0
 20
0.0
 30
0.0
  9
$PUCSORGLEFT
 10
0.0
 20
0.0
 30
0.0
  9
$PUCSORGRIGHT
 10
0.0
 20
0.0
 30
0.0
  9
$PUCSORGFRONT
 10
0.0
 20
0.0
 30
0.0
  9
$PUCSORGBACK
 10
0.0
 20
0.0
 30
0.0
  9
$USERI1
 70
     0
  9
$USERI2
 70
     0
  9
$USERI3
 70
     0
  9
$USERI4
 70
     0
  9
$USERI5
 70
     0
  9
$USERR1
 40
0.0
  9
$USERR2
 40
0.0
  9
$USERR3
 40
0.0
  9
$USERR4
 40
0.0
  9
$USERR5
 40
0.0
  9
$WORLDVIEW
 70
     1
  9
$SHADEDGE
 70
     3
  9
$SHADEDIF
 70
    70
  9
$TILEMODE
 70
     1
  9
$MAXACTVP
 70
    64
  9
$PINSBASE
 10
0.0
 20
0.0
 30
0.0
  9
$PLIMCHECK
 70
     0
  9
$PEXTMIN
 10
1.000000000000000E+20
 20
1.000000000000000E+20
 30
1.000000000000000E+20
  9
$PEXTMAX
 10
-1.000000000000000E+20
 20
-1.000000000000000E+20
 30
-1.000000000000000E+20
  9
$PLIMMIN
 10
0.0
 20
0.0
  9
$PLIMMAX
 10
0.0
 20
0.0
  9
$UNITMODE
 70
     0
  9
$VISRETAIN
 70
     1
  9
$PLINEGEN
 70
     0
  9
$PSLTSCALE
 70
     1
  9
$TREEDEPTH
 70
  3020
  9
$CMLSTYLE
  2
Standard
  9
$CMLJUST
 70
     0
  9
$CMLSCALE
 40
20.0
  9
$PROXYGRAPHICS
 70
     1
  9
$MEASUREMENT
 70
     1
  9
$CELWEIGHT
370
    -1
  9
$ENDCAPS
280
     0
  9
$JOINSTYLE
280
     0
  9
$LWDISPLAY
290
     1
  9
$INSUNITS
 70
     4
  9
$HYPERLINKBASE
  1

  9
$STYLESHEET
  1

  9
$XEDIT
290
     1
  9
$CEPSNTYPE
380
     0
  9
$PSTYLEMODE
290
     1
  9
$FINGERPRINTGUID
  2
{281D0B54-C67F-42C9-A2B6-4232DAF3E78E}
  9
$VERSIONGUID
  2
{FAEB1C32-E019-11D5-929B-00C0DF256EC4}
  9
$EXTNAMES
290
     1
  9
$PSVPSCALE
 40
0.0
  9
$OLESTARTUP
290
     0
  0
ENDSEC
  0
SECTION
  2
CLASSES
  0
CLASS
  1
ACDBDICTIONARYWDFLT
  2
AcDbDictionaryWithDefault
  3
ObjectDBX Classes
 90
        0
280
     0
281
     0
  0
CLASS
  1
VISUALSTYLE
  2
AcDbVisualStyle
  3
ObjectDBX Classes
 90
     4095
280
     0
281
     0
  0
CLASS
  1
MATERIAL
  2
AcDbMaterial
  3
ObjectDBX Classes
 90
     1153
280
     0
281
     0
  0
CLASS
  1
SCALE
  2
AcDbScale
  3
ObjectDBX Classes
 90
     1153
280
     0
281
     0
  0
CLASS
  1
SUN
  2
AcDbSun
  3
SCENEOE
 90
     1153
280
     0
281
     0
  0
CLASS
  1
ACDBPLACEHOLDER
  2
AcDbPlaceHolder
  3
ObjectDBX Classes
 90
        0
280
     0
281
     0
  0
CLASS
  1
LAYOUT
  2
AcDbLayout
  3
ObjectDBX Classes
 90
        0
280
     0
281
     0
  0
CLASS
  1
TABLESTYLE
  2
AcDbTableStyle
  3
ObjectDBX Classes
 90
     4095
280
     0
281
     0
  0
CLASS
  1
MLEADERSTYLE
  2
AcDbMLeaderStyle
  3
ACDB_MLEADERSTYLE_CLASS
 90
     4095
280
     0
281
     0
  0
CLASS
  1
RASTERVARIABLES
  2
AcDbRasterVariables
  3
ISM
 90
        0
280
     0
281
     0
  0
ENDSEC
  0
SECTION
  2
TABLES
  0
TABLE
  2
VPORT
  5
8
330
0
100
AcDbSymbolTable
 70
     1
  0
VPORT
  5
29
330
8
100
AcDbSymbolTableRecord
100
AcDbViewportTableRecord
  2
*Active
 70
     0
 10
0.0
 20
0.0
 11
1.0
 21
1.0
 12
2.564326696985148
 22
-7.40366100992258
 13
0.0
 23
0.0
 14
10.0
 24
10.0
 15
10.0
 25
10.0
 16
0.0
 26
0.0
 36
1.0
 17
0.0
 27
0.0
 37
0.0
 40
207.6532136704949
 41
1.152454780361757
 42
50.0
 43
0.0
 44
0.0
 50
0.0
 51
0.0
 71
    16
 72
  2000
 73
     1
 74
     3
 75
     0
 76
     0
 77
     0
 78
     0
281
     0
 65
     1
110
0.0
120
0.0
130
0.0
111
1.0
121
0.0
131
0.0
112
0.0
122
1.0
132
0.0
 79
     0
146
0.0
  0
ENDTAB
  0
TABLE
  2
LTYPE
  5
5
330
0
100
AcDbSymbolTable
 70
     6
  0
LTYPE
  5
14
330
5
100
AcDbSymbolTableRecord
100
AcDbLinetypeTableRecord
  2
ByBlock
 70
     0
  3

 72
    65
 73
     0
 40
0.0
  0
LTYPE
  5
15
330
5
100
AcDbSymbolTableRecord
100
AcDbLinetypeTableRecord
  2
ByLayer
 70
     0
  3

 72
    65
 73
     0
 40
0.0
  0
LTYPE
  5
16
330
5
100
AcDbSymbolTableRecord
100
AcDbLinetypeTableRecord
  2
Continuous
 70
     0
  3
Solid line
 72
    65
 73
     0
 40
0.0
  0
LTYPE
  5
6A
330
5
100
AcDbSymbolTableRecord
100
AcDbLinetypeTableRecord
  2
HIDDEN
 70
     0
  3
Hidden __ __ __ __ __ __ __ __ __ __ __ __ __ __
 72
    65
 73
     2
 40
1.905
 49
1.27
 74
     0
 49
-0.635
 74
     0
  0
LTYPE
  5
6B
330
5
100
AcDbSymbolTableRecord
100
AcDbLinetypeTableRecord
  2
PHANTOM
 70
     0
  3
Phantom ______  __  __  ______  __  __  ______
 72
    65
 73
     6
 40
12.7
 49
6.35
 74
     0
 49
-1.27
 74
     0
 49
1.27
 74
     0
 49
-1.27
 74
     0
 49
1.27
 74
     0
 49
-1.27
 74
     0
  0
LTYPE
  5
6C
330
5
100
AcDbSymbolTableRecord
100
AcDbLinetypeTableRecord
  2
CENTER
 70
     0
  3
Center ____ _ ____ _ ____ _ ____ _ ____ _ ____
 72
    65
 73
     4
 40
10.16
 49
6.35
 74
     0
 49
-1.27
 74
     0
 49
1.27
 74
     0
 49
-1.27
 74
     0
  0
LTYPE
  5
6D
330
5
100
AcDbSymbolTableRecord
100
AcDbLinetypeTableRecord
  2
CENTERX2
 70
     0
  3
Center (2x) ________  __  ________  __  _____
 72
    65
 73
     4
 40
20.32
 49
12.7
 74
     0
 49
-2.54
 74
     0
 49
2.54
 74
     0
 49
-2.54
 74
     0
  0
LTYPE
  5
6E
330
5
100
AcDbSymbolTableRecord
100
AcDbLinetypeTableRecord
  2
DOT2
 70
     0
  3
Dot (.5x) ........................................
 72
    65
 73
     2
 40
0.635
 49
0.0
 74
     0
 49
-0.635
 74
     0
  0
ENDTAB
  0
TABLE
  2
LAYER
  5
2
330
0
100
AcDbSymbolTable
 70
    17
  0
LAYER
  5
10
330
2
100
AcDbSymbolTableRecord
100
AcDbLayerTableRecord
  2
0
 70
     0
 62
     7
  6
Continuous
370
    -3
390
F
  0
LAYER
  5
6F
330
2
100
AcDbSymbolTableRecord
100
AcDbLayerTableRecord
  2
FORMAT
 70
     0
 62
     2
  6
Continuous
370
    -3
390
F
  0
LAYER
  5
70
330
2
100
AcDbSymbolTableRecord
100
AcDbLayerTableRecord
  2
외형선
 70
     0
 62
   100
  6
Continuous
370
    30
390
F
  0
LAYER
  5
71
330
2
100
AcDbSymbolTableRecord
100
AcDbLayerTableRecord
  2
숨은선
 70
     0
 62
     2
  6
HIDDEN
370
    15
390
F
  0
LAYER
  5
72
330
2
100
AcDbSymbolTableRecord
100
AcDbLayerTableRecord
  2
중심선
 70
     0
 62
     1
  6
CENTERX2
370
    -3
390
F
  0
LAYER
  5
73
330
2
100
AcDbSymbolTableRecord
100
AcDbLayerTableRecord
  2
파단선
 70
     0
 62
     4
  6
Continuous
370
    -3
390
F
  0
LAYER
  5
74
330
2
100
AcDbSymbolTableRecord
100
AcDbLayerTableRecord
  2
해칭선
 70
     0
 62
     4
  6
Continuous
370
    -3
390
F
  0
LAYER
  5
75
330
2
100
AcDbSymbolTableRecord
100
AcDbLayerTableRecord
  2
가는실선
 70
     0
 62
     4
  6
Continuous
370
    -3
390
F
  0
LAYER
  5
76
330
2
100
AcDbSymbolTableRecord
100
AcDbLayerTableRecord
  2
치수_보조선
 70
     0
 62
     4
  6
Continuous
370
    -3
390
F
  0
LAYER
  5
77
330
2
100
AcDbSymbolTableRecord
100
AcDbLayerTableRecord
  2
치수문자_일반주서
 70
     0
 62
     7
  6
Continuous
370
    15
390
F
  0
LAYER
  5
78
330
2
100
AcDbSymbolTableRecord
100
AcDbLayerTableRecord
  2
개별주서
 70
     0
 62
   100
  6
Continuous
370
    30
390
F
  0
LAYER
  5
79
330
2
100
AcDbSymbolTableRecord
100
AcDbLayerTableRecord
  2
중간선
 70
     0
 62
     2
  6
Continuous
370
    15
390
F
  0
LAYER
  5
7A
330
2
100
AcDbSymbolTableRecord
100
AcDbLayerTableRecord
  2
윤곽선
 70
     0
 62
     3
  6
Continuous
370
    40
390
F
  0
LAYER
  5
7B
330
2
100
AcDbSymbolTableRecord
100
AcDbLayerTableRecord
  2
중심마크
 70
     0
 62
   100
  6
Continuous
370
    30
390
F
  0
LAYER
  5
7C
330
2
100
AcDbSymbolTableRecord
100
AcDbLayerTableRecord
  2
가상선
 70
     0
 62
     4
  6
PHANTOM
370
    -3
390
F
  0
LAYER
  5
7D
330
2
100
AcDbSymbolTableRecord
100
AcDbLayerTableRecord
  2
특수지정선
 70
     0
 62
     5
  6
CENTERX2
370
    60
390
F
  0
LAYER
  5
137
330
2
100
AcDbSymbolTableRecord
100
AcDbLayerTableRecord
  2
Defpoints
 70
     0
 62
     7
  6
Continuous
290
     0
370
    -3
390
F
  0
ENDTAB
  0
TABLE
  2
STYLE
  5
3
330
0
100
AcDbSymbolTable
 70
     2
  0
STYLE
  5
11
330
3
100
AcDbSymbolTableRecord
100
AcDbTextStyleTableRecord
  2
Standard
 70
     0
 40
0.0
 41
1.0
 50
0.0
 71
     0
 42
3.5
  3
txt
  4

  0
STYLE
  5
93
330
3
100
AcDbSymbolTableRecord
100
AcDbTextStyleTableRecord
  2
SLDTEXTSTYLE0
 70
     0
 40
0.0
 41
0.75
 50
0.0
 71
     0
 42
3.5
  3
TXT
  4

  0
ENDTAB
  0
TABLE
  2
VIEW
  5
6
330
0
100
AcDbSymbolTable
 70
     0
  0
ENDTAB
  0
TABLE
  2
UCS
  5
7
330
0
100
AcDbSymbolTable
 70
     0
  0
ENDTAB
  0
TABLE
  2
APPID
  5
9
330
0
100
AcDbSymbolTable
 70
     1
  0
APPID
  5
12
330
9
100
AcDbSymbolTableRecord
100
AcDbRegAppTableRecord
  2
ACAD
 70
     0
  0
ENDTAB
  0
TABLE
  2
DIMSTYLE
  5
A
330
0
100
AcDbSymbolTable
 70
     3
100
AcDbDimStyleTable
  0
DIMSTYLE
105
27
330
A
100
AcDbSymbolTableRecord
100
AcDbDimStyleTableRecord
  2
ISO-25
 70
     0
 41
2.5
 42
0.625
 43
3.75
 44
1.25
 73
     0
 74
     0
 77
     1
 78
     8
140
2.5
141
2.5
143
0.03937007874016
147
0.625
171
     3
172
     1
178
     0
271
     2
272
     2
274
     3
278
    44
283
     0
284
     8
340
11
  0
DIMSTYLE
105
DD
102
{ACAD_REACTORS
330
DC
330
FF
102
}
330
A
100
AcDbSymbolTableRecord
100
AcDbDimStyleTableRecord
  2
SLDDIMSTYLE0
 70
     0
 41
3.302
 44
0.0
 45
0.000000001
 73
     0
 74
     0
 77
     1
 78
    12
 79
     3
140
3.5
147
0.875
172
     1
173
     1
178
     0
271
     2
272
     2
276
     2
284
    12
289
     0
340
93
  0
DIMSTYLE
105
EB
102
{ACAD_REACTORS
330
EA
330
F5
102
}
330
A
100
AcDbSymbolTableRecord
100
AcDbDimStyleTableRecord
  2
SLDDIMSTYLE1
 70
     0
 41
3.302
 44
0.0
 45
0.000000001
 73
     0
 74
     0
 77
     1
 78
    12
 79
     3
140
3.5
147
0.875
173
     1
178
     0
271
     2
272
     2
276
     2
284
    12
340
93
  0
ENDTAB
  0
TABLE
  2
BLOCK_RECORD
  5
1
330
0
100
AcDbSymbolTable
 70
     7
  0
BLOCK_RECORD
  5
1F
330
1
100
AcDbSymbolTableRecord
100
AcDbBlockTableRecord
  2
*Model_Space
340
22
  0
BLOCK_RECORD
  5
1B
330
1
100
AcDbSymbolTableRecord
100
AcDbBlockTableRecord
  2
*Paper_Space
340
1E
  0
BLOCK_RECORD
  5
23
330
1
100
AcDbSymbolTableRecord
100
AcDbBlockTableRecord
  2
*Paper_Space0
340
26
  0
BLOCK_RECORD
  5
7E
330
1
100
AcDbSymbolTableRecord
100
AcDbBlockTableRecord
  2
블럭10
340
0
102
{BLKREFS
331
D5
102
}
  0
BLOCK_RECORD
  5
DE
330
1
100
AcDbSymbolTableRecord
100
AcDbBlockTableRecord
  2
_D
340
0
  0
BLOCK_RECORD
  5
EC
330
1
100
AcDbSymbolTableRecord
100
AcDbBlockTableRecord
  2
_D_1
340
0
  0
BLOCK_RECORD
  5
F6
330
1
100
AcDbSymbolTableRecord
100
AcDbBlockTableRecord
  2
_D_2
340
0
  0
BLOCK_RECORD
  5
100
330
1
100
AcDbSymbolTableRecord
100
AcDbBlockTableRecord
  2
_D_3
340
0
  0
BLOCK_RECORD
  5
10C
330
1
100
AcDbSymbolTableRecord
100
AcDbBlockTableRecord
  2
SW_DOWELSYMBOL_0
340
0
102
{BLKREFS
331
112
102
}
  0
ENDTAB
  0
ENDSEC
  0
SECTION
  2
BLOCKS
  0
BLOCK
  5
20
330
1F
100
AcDbEntity
  8
0
100
AcDbBlockBegin
  2
*Model_Space
 70
     0
 10
0.0
 20
0.0
 30
0.0
  3
*Model_Space
  1

  0
ENDBLK
  5
21
330
1F
100
AcDbEntity
  8
0
100
AcDbBlockEnd
  0
BLOCK
  5
1C
330
1B
100
AcDbEntity
 67
     1
  8
0
100
AcDbBlockBegin
  2
*Paper_Space
 70
     0
 10
0.0
 20
0.0
 30
0.0
  3
*Paper_Space
  1

  0
ENDBLK
  5
1D
330
1B
100
AcDbEntity
 67
     1
  8
0
100
AcDbBlockEnd
  0
BLOCK
  5
24
330
23
100
AcDbEntity
  8
0
100
AcDbBlockBegin
  2
*Paper_Space0
 70
     0
 10
0.0
 20
0.0
 30
0.0
  3
*Paper_Space0
  1

  0
ENDBLK
  5
25
330
23
100
AcDbEntity
  8
0
100
AcDbBlockEnd
  0
BLOCK
  5
7F
330
7E
100
AcDbEntity
  8
0
100
AcDbBlockBegin
  2
블럭10
 70
     2
 10
0.0
 20
0.0
 30
0.0
  3
블럭10
  1

  0
ELLIPSE
  5
81
330
7E
100
AcDbEntity
  8
중심선
100
AcDbEllipse
 10
20.54032771741204
 20
12.0471743016438
 30
0.0
 11
6.600054785286829
 21
-1.261213355974178E-13
 31
0.0
210
0.0
220
0.0
230
1.0
 40
0.636358354079598
 41
0.9219305317359503
 42
6.513795318482858
  0
ELLIPSE
  5
82
330
7E
100
AcDbEntity
  8
중심선
100
AcDbEllipse
 10
20.54032771746488
 20
12.04717430159265
 30
0.0
 11
3.960054785062283
 21
1.540847449632565E-10
 31
0.0
210
0.0
220
0.0
230
1.0
 40
0.3939339440162632
 41
1.131841032648279
 42
5.62031148352944
  0
LINE
  5
83
330
7E
100
AcDbEntity
  8
중심선
100
AcDbLine
 10
2.268634060543552
 20
16.24717430164393
 30
0.0
 11
5.714909304380834
 21
16.24717430164393
 31
0.0
  0
LINE
  5
84
330
7E
100
AcDbEntity
  8
중심선
100
AcDbLine
 10
5.245725140726316
 20
7.84717430164391
 30
0.0
 11
8.692000384563599
 21
7.84717430164391
 31
0.0
  0
LINE
  5
85
330
7E
100
AcDbEntity
  8
중심선
100
AcDbLine
 10
15.74043728645272
 20
16.24717430164393
 30
0.0
 11
8.692000384563599
 21
7.84717430164391
 31
0.0
  0
LINE
  5
86
330
7E
100
AcDbEntity
  8
중심선
100
AcDbLine
 10
0.1404042013395286
 20
13.71084872107135
 30
0.0
 11
3.58671253028996
 21
13.71088815037384
 31
0.0
  0
LINE
  5
87
330
7E
100
AcDbEntity
  8
중심선
100
AcDbLine
 10
2.750260043222114
 20
10.84717430164391
 30
0.0
 11
6.196535287059397
 21
10.84717430164391
 31
0.0
  0
LINE
  5
88
330
7E
100
AcDbEntity
  8
중심선
100
AcDbLine
 10
12.29416204261559
 20
16.24717430164393
 30
0.0
 11
5.245725140726316
 21
7.84717430164391
 31
0.0
  0
LINE
  5
89
330
7E
100
AcDbEntity
  8
중심선
100
AcDbLine
 10
10.72767329541681
 20
16.24717430164393
 30
0.0
 11
6.196535287059397
 21
10.84717430164391
 31
0.0
  0
LINE
  5
8A
330
7E
100
AcDbEntity
  8
중심선
100
AcDbLine
 10
7.28139805157953
 20
16.24717430164393
 30
0.0
 11
2.750260043222114
 21
10.84717430164391
 31
0.0
  0
LINE
  5
8B
330
7E
100
AcDbEntity
  8
중심선
100
AcDbLine
 10
5.714909304380834
 20
16.24717430164393
 30
0.0
 11
3.58671253028996
 21
13.71088815037384
 31
0.0
  0
LINE
  5
8C
330
7E
100
AcDbEntity
  8
중심선
100
AcDbLine
 10
2.268634060543552
 20
16.24717430164393
 30
0.0
 11
0.1404042013395286
 21
13.71084872107135
 31
0.0
  0
LINE
  5
8D
330
7E
100
AcDbEntity
  8
중심선
100
AcDbLine
 10
7.28139805157953
 20
16.24717430164393
 30
0.0
 11
10.72767329541681
 21
16.24717430164393
 31
0.0
  0
LINE
  5
8E
330
7E
100
AcDbEntity
  8
중심선
100
AcDbLine
 10
12.29416204261559
 20
16.24717430164393
 30
0.0
 11
15.74043728645272
 21
16.24717430164393
 31
0.0
  0
LINE
  5
8F
330
7E
100
AcDbEntity
  8
중심선
100
AcDbLine
 10
19.22036997980202
 20
11.08717430171403
 30
0.0
 11
23.66174974927406
 21
11.08717430171406
 31
0.0
  0
LINE
  5
90
330
7E
100
AcDbEntity
  8
중심선
100
AcDbLine
 10
19.22039502424796
 20
13.00717430171391
 30
0.0
 11
19.22036997980202
 21
11.08717430171403
 31
0.0
  0
LINE
  5
91
330
7E
100
AcDbEntity
  8
중심선
100
AcDbLine
 10
19.22039502424796
 20
13.00717430171391
 30
0.0
 11
26.96566020931264
 21
13.00717430171391
 31
0.0
  0
LINE
  5
92
330
7E
100
AcDbEntity
  8
중심선
100
AcDbLine
 10
22.22332737316547
 20
13.45928029700563
 30
0.0
 11
24.52862924686651
 21
15.39360700705356
 31
0.0
  0
ATTDEF
  5
94
330
7E
100
AcDbEntity
  8
FORMAT
 62
     2
100
AcDbText
 10
-20.85824753159254
 20
2.075366912832191
 30
0.0
 40
4.233333333333333
  1
SEME7020090200E [ 2 FLUTE ]
 41
0.75
  7
SLDTEXTSTYLE0
 11
-20.85824753159254
 21
-0.0412997538344756
 31
0.0
100
AcDbAttributeDefinition
  3

  2
AUTOATTR0
 70
     0
 74
     1
  0
ENDBLK
  5
80
330
7E
100
AcDbEntity
  8
0
100
AcDbBlockEnd
  0
BLOCK
  5
DF
330
DE
100
AcDbEntity
  8
0
100
AcDbBlockBegin
  2
_D
 70
     0
 10
0.0
 20
0.0
 30
0.0
  3
_D
  1

  0
LINE
  5
E1
330
DE
100
AcDbEntity
  8
치수문자_일반주서
 62
     0
370
    -2
100
AcDbLine
 10
102.0625
 20
-9.999999999999664
 30
0.0
 11
119.3232770656338
 21
-9.999999999999602
 31
0.0
  0
LINE
  5
E2
330
DE
100
AcDbEntity
  8
치수문자_일반주서
 62
     0
370
    -2
100
AcDbLine
 10
102.0625
 20
10.00000000000033
 30
0.0
 11
119.3232770656337
 21
10.00000000000039
 31
0.0
  0
LINE
  5
E3
330
DE
100
AcDbEntity
  8
치수문자_일반주서
 62
     0
370
    -2
100
AcDbLine
 10
119.3232770656338
 20
-9.999999999999602
 30
0.0
 11
119.3232770656336
 21
24.9165000000004
 31
0.0
  0
LINE
  5
E4
330
DE
100
AcDbEntity
  8
치수문자_일반주서
 62
     0
370
    -2
100
AcDbLine
 10
119.3232770656338
 20
-9.999999999999602
 30
0.0
 11
119.3232770656337
 21
10.00000000000039
 31
0.0
  0
LINE
  5
E5
330
DE
100
AcDbEntity
  8
치수문자_일반주서
 62
     0
370
    -2
100
AcDbLine
 10
119.3232770656338
 20
-13.3019999999996
 30
0.0
 11
119.3232770656338
 21
-16.6039999999996
 31
0.0
  0
LINE
  5
E6
330
DE
100
AcDbEntity
  8
치수문자_일반주서
 62
     0
370
    -2
100
AcDbLine
 10
119.3232770656337
 20
13.30200000000039
 30
0.0
 11
119.3232770656337
 21
16.60400000000039
 31
0.0
  0
SOLID
  5
E7
330
DE
100
AcDbEntity
  8
치수문자_일반주서
 62
     0
100
AcDbTrace
 10
119.8736103989671
 20
-13.3019999999996
 30
0.0
 11
118.7729437323004
 21
-13.3019999999996
 31
0.0
 12
119.3232770656338
 22
-9.999999999999602
 32
0.0
 13
119.3232770656338
 23
-9.999999999999602
 33
0.0
  0
SOLID
  5
E8
330
DE
100
AcDbEntity
  8
치수문자_일반주서
 62
     0
100
AcDbTrace
 10
118.7729437323003
 20
13.30200000000039
 30
0.0
 11
119.873610398967
 21
13.30200000000039
 31
0.0
 12
119.3232770656337
 22
10.00000000000039
 32
0.0
 13
119.3232770656337
 23
10.00000000000039
 33
0.0
  0
MTEXT
  5
E9
330
DE
100
AcDbEntity
  8
치수문자_일반주서
 62
     0
100
AcDbMText
 10
114.9482770656336
 20
20.76025000000039
 30
0.0
 40
3.5
 41
0.0
 71
     2
 72
     1
  1
\A1;%%c20
  7
SLDTEXTSTYLE0
 11
-3.552713678800503E-15
 21
1.0
 31
0.0
 73
     1
 44
1.0
  0
POINT
  5
141
330
DE
100
AcDbEntity
  8
Defpoints
 62
     0
100
AcDbPoint
 10
102.0
 20
-9.999999999999664
 30
0.0
  0
POINT
  5
142
330
DE
100
AcDbEntity
  8
Defpoints
 62
     0
100
AcDbPoint
 10
102.0
 20
10.00000000000033
 30
0.0
  0
POINT
  5
143
330
DE
100
AcDbEntity
  8
Defpoints
 62
     0
100
AcDbPoint
 10
119.3232770656337
 20
10.00000000000039
 30
0.0
  0
ENDBLK
  5
E0
330
DE
100
AcDbEntity
  8
0
100
AcDbBlockEnd
  0
BLOCK
  5
ED
330
EC
100
AcDbEntity
  8
0
100
AcDbBlockBegin
  2
_D_1
 70
     0
 10
0.0
 20
0.0
 30
0.0
  3
_D_1
  1

  0
LINE
  5
EF
330
EC
100
AcDbEntity
  8
치수문자_일반주서
 62
     0
370
    -2
100
AcDbLine
 10
-97.99999999999997
 20
9.062499999999988
 30
0.0
 11
-97.99999999999997
 21
30.78841044024269
 31
0.0
  0
LINE
  5
F0
330
EC
100
AcDbEntity
  8
치수문자_일반주서
 62
     0
370
    -2
100
AcDbLine
 10
102.0
 20
10.06250000000034
 30
0.0
 11
102.0
 21
30.78841044024269
 31
0.0
  0
LINE
  5
F1
330
EC
100
AcDbEntity
  8
치수문자_일반주서
 62
     0
370
    -2
100
AcDbLine
 10
-94.69799999999998
 20
30.78841044024269
 30
0.0
 11
98.69800000000004
 21
30.78841044024269
 31
0.0
  0
SOLID
  5
F2
330
EC
100
AcDbEntity
  8
치수문자_일반주서
 62
     0
100
AcDbTrace
 10
-94.69799999999998
 20
31.33874377357602
 30
0.0
 11
-94.69799999999998
 21
30.23807710690935
 31
0.0
 12
-97.99999999999997
 22
30.78841044024269
 32
0.0
 13
-97.99999999999997
 23
30.78841044024269
 33
0.0
  0
SOLID
  5
F3
330
EC
100
AcDbEntity
  8
치수문자_일반주서
 62
     0
100
AcDbTrace
 10
98.69800000000004
 20
30.23807710690935
 30
0.0
 11
98.69800000000004
 21
31.33874377357602
 31
0.0
 12
102.0
 22
30.78841044024269
 32
0.0
 13
102.0
 23
30.78841044024269
 33
0.0
  0
MTEXT
  5
F4
330
EC
100
AcDbEntity
  8
치수문자_일반주서
 62
     0
100
AcDbMText
 10
2.000000000000033
 20
35.16341044024269
 30
0.0
 40
3.5
 41
0.0
 71
     2
 72
     1
  1
\A1;200
  7
SLDTEXTSTYLE0
 73
     1
 44
1.0
  0
POINT
  5
138
330
EC
100
AcDbEntity
  8
Defpoints
 62
     0
100
AcDbPoint
 10
-97.99999999999997
 20
8.999999999999988
 30
0.0
  0
POINT
  5
139
330
EC
100
AcDbEntity
  8
Defpoints
 62
     0
100
AcDbPoint
 10
102.0
 20
10.00000000000034
 30
0.0
  0
POINT
  5
13A
330
EC
100
AcDbEntity
  8
Defpoints
 62
     0
100
AcDbPoint
 10
102.0
 20
30.78841044024269
 30
0.0
  0
ENDBLK
  5
EE
330
EC
100
AcDbEntity
  8
0
100
AcDbBlockEnd
  0
BLOCK
  5
F7
330
F6
100
AcDbEntity
  8
0
100
AcDbBlockBegin
  2
_D_2
 70
     0
 10
0.0
 20
0.0
 30
0.0
  3
_D_2
  1

  0
LINE
  5
F9
330
F6
100
AcDbEntity
  8
치수문자_일반주서
 62
     0
370
    -2
100
AcDbLine
 10
12.00000000000004
 20
7.880697003221725
 30
0.0
 11
12.00000000000004
 21
21.16519480938925
 31
0.0
  0
LINE
  5
FA
330
F6
100
AcDbEntity
  8
치수문자_일반주서
 62
     0
370
    -2
100
AcDbLine
 10
102.0
 20
10.06250000000034
 30
0.0
 11
102.0
 21
21.16519480938925
 31
0.0
  0
LINE
  5
FB
330
F6
100
AcDbEntity
  8
치수문자_일반주서
 62
     0
370
    -2
100
AcDbLine
 10
15.30200000000004
 20
21.16519480938925
 30
0.0
 11
98.69800000000004
 21
21.16519480938925
 31
0.0
  0
SOLID
  5
FC
330
F6
100
AcDbEntity
  8
치수문자_일반주서
 62
     0
100
AcDbTrace
 10
15.30200000000004
 20
21.71552814272258
 30
0.0
 11
15.30200000000004
 21
20.61486147605591
 31
0.0
 12
12.00000000000004
 22
21.16519480938925
 32
0.0
 13
12.00000000000004
 23
21.16519480938925
 33
0.0
  0
SOLID
  5
FD
330
F6
100
AcDbEntity
  8
치수문자_일반주서
 62
     0
100
AcDbTrace
 10
98.69800000000004
 20
20.61486147605591
 30
0.0
 11
98.69800000000004
 21
21.71552814272258
 31
0.0
 12
102.0
 22
21.16519480938925
 32
0.0
 13
102.0
 23
21.16519480938925
 33
0.0
  0
MTEXT
  5
FE
330
F6
100
AcDbEntity
  8
치수문자_일반주서
 62
     0
100
AcDbMText
 10
57.00000000000004
 20
25.54019480938925
 30
0.0
 40
3.5
 41
0.0
 71
     2
 72
     1
  1
\A1;90
  7
SLDTEXTSTYLE0
 73
     1
 44
1.0
  0
POINT
  5
13B
330
F6
100
AcDbEntity
  8
Defpoints
 62
     0
100
AcDbPoint
 10
12.00000000000004
 20
7.818197003221725
 30
0.0
  0
POINT
  5
13C
330
F6
100
AcDbEntity
  8
Defpoints
 62
     0
100
AcDbPoint
 10
102.0
 20
10.00000000000034
 30
0.0
  0
POINT
  5
13D
330
F6
100
AcDbEntity
  8
Defpoints
 62
     0
100
AcDbPoint
 10
102.0
 20
21.16519480938925
 30
0.0
  0
ENDBLK
  5
F8
330
F6
100
AcDbEntity
  8
0
100
AcDbBlockEnd
  0
BLOCK
  5
101
330
100
100
AcDbEntity
  8
0
100
AcDbBlockBegin
  2
_D_3
 70
     0
 10
0.0
 20
0.0
 30
0.0
  3
_D_3
  1

  0
LINE
  5
103
330
100
100
AcDbEntity
  8
치수문자_일반주서
 62
     0
370
    -2
100
AcDbLine
 10
-97.06249999999997
 20
9.999999999999991
 30
0.0
 11
-110.3699570049968
 21
9.999999999999941
 31
0.0
  0
LINE
  5
104
330
100
100
AcDbEntity
  8
치수문자_일반주서
 62
     0
370
    -2
100
AcDbLine
 10
-97.06249999999997
 20
-9.999999999999998
 30
0.0
 11
-110.3699570049967
 21
-10.00000000000005
 31
0.0
  0
LINE
  5
105
330
100
100
AcDbEntity
  8
치수문자_일반주서
 62
     0
370
    -2
100
AcDbLine
 10
-110.3699570049968
 20
9.999999999999941
 30
0.0
 11
-110.3699570049968
 21
24.91649999999994
 31
0.0
  0
LINE
  5
106
330
100
100
AcDbEntity
  8
치수문자_일반주서
 62
     0
370
    -2
100
AcDbLine
 10
-110.3699570049968
 20
9.999999999999941
 30
0.0
 11
-110.3699570049967
 21
-10.00000000000005
 31
0.0
  0
LINE
  5
107
330
100
100
AcDbEntity
  8
치수문자_일반주서
 62
     0
370
    -2
100
AcDbLine
 10
-110.3699570049968
 20
13.30199999999994
 30
0.0
 11
-110.3699570049968
 21
16.60399999999994
 31
0.0
  0
LINE
  5
108
330
100
100
AcDbEntity
  8
치수문자_일반주서
 62
     0
370
    -2
100
AcDbLine
 10
-110.3699570049967
 20
-13.30200000000005
 30
0.0
 11
-110.3699570049967
 21
-16.60400000000005
 31
0.0
  0
SOLID
  5
109
330
100
100
AcDbEntity
  8
치수문자_일반주서
 62
     0
100
AcDbTrace
 10
-110.9202903383301
 20
13.30199999999994
 30
0.0
 11
-109.8196236716635
 21
13.30199999999994
 31
0.0
 12
-110.3699570049968
 22
9.999999999999941
 32
0.0
 13
-110.3699570049968
 23
9.999999999999941
 33
0.0
  0
SOLID
  5
10A
330
100
100
AcDbEntity
  8
치수문자_일반주서
 62
     0
100
AcDbTrace
 10
-109.8196236716634
 20
-13.30200000000005
 30
0.0
 11
-110.92029033833
 21
-13.30200000000005
 31
0.0
 12
-110.3699570049967
 22
-10.00000000000005
 32
0.0
 13
-110.3699570049967
 23
-10.00000000000005
 33
0.0
  0
MTEXT
  5
10B
330
100
100
AcDbEntity
  8
치수문자_일반주서
 62
     0
100
AcDbMText
 10
-114.7449570049968
 20
20.76024999999992
 30
0.0
 40
3.5
 41
0.0
 71
     2
 72
     1
  1
\A1;%%c20
  7
SLDTEXTSTYLE0
 11
-3.552713678800503E-15
 21
1.0
 31
0.0
 73
     1
 44
1.0
  0
POINT
  5
13E
330
100
100
AcDbEntity
  8
Defpoints
 62
     0
100
AcDbPoint
 10
-96.99999999999997
 20
9.999999999999991
 30
0.0
  0
POINT
  5
13F
330
100
100
AcDbEntity
  8
Defpoints
 62
     0
100
AcDbPoint
 10
-96.99999999999997
 20
-9.999999999999998
 30
0.0
  0
POINT
  5
140
330
100
100
AcDbEntity
  8
Defpoints
 62
     0
100
AcDbPoint
 10
-110.3699570049967
 20
-10.00000000000005
 30
0.0
  0
ENDBLK
  5
102
330
100
100
AcDbEntity
  8
0
100
AcDbBlockEnd
  0
BLOCK
  5
10D
330
10C
100
AcDbEntity
  8
0
100
AcDbBlockBegin
  2
SW_DOWELSYMBOL_0
 70
     0
 10
0.0
 20
0.0
 30
0.0
  3
SW_DOWELSYMBOL_0
  1

  0
CIRCLE
  5
10F
330
10C
100
AcDbEntity
  8
외형선
 62
     0
100
AcDbCircle
 10
0.0
 20
0.0
 30
0.0
 40
3.000000000000004
  0
HATCH
  5
110
330
10C
100
AcDbEntity
  8
0
  6
Continuous
 62
     0
370
    30
100
AcDbHatch
 10
0.0
 20
0.0
 30
0.0
210
0.0
220
0.0
230
1.0
  2
SOLID
 70
     1
 71
     0
 91
        1
 92
        0
 93
        3
 72
     2
 10
0.0000000000000104
 20
0.0
 40
3.000000000000004
 50
0.0
 51
90.0
 73
     1
 72
     1
 10
0.0000000000000104
 20
3.000000000000004
 11
0.0000000000000104
 21
0.0
 72
     1
 10
0.0000000000000104
 20
0.0
 11
3.000000000000015
 21
0.0
 97
        0
 75
     0
 76
     1
 98
        1
 10
0.0
 20
0.0
  0
HATCH
  5
111
330
10C
100
AcDbEntity
  8
0
  6
Continuous
 62
     0
370
    30
100
AcDbHatch
 10
0.0
 20
0.0
 30
0.0
210
0.0
220
0.0
230
1.0
  2
SOLID
 70
     1
 71
     0
 91
        1
 92
        0
 93
        3
 72
     2
 10
0.0000000000000104
 20
0.0
 40
3.000000000000004
 50
180.0
 51
270.0000000000008
 73
     1
 72
     1
 10
0.0000000000000104
 20
-3.000000000000004
 11
0.0000000000000104
 21
0.0
 72
     1
 10
0.0000000000000104
 20
0.0
 11
-2.999999999999994
 21
0.0
 97
        0
 75
     0
 76
     1
 98
        1
 10
0.0
 20
0.0
  0
ENDBLK
  5
10E
330
10C
100
AcDbEntity
  8
0
100
AcDbBlockEnd
  0
ENDSEC
  0
SECTION
  2
ENTITIES
  0
LINE
  5
95
330
1F
100
AcDbEntity
  8
0
  6
Continuous
 62
     1
370
    15
100
AcDbLine
 10
16.85523061689575
 20
2.427121702206549
 30
0.0
 11
16.03941902833208
 21
2.875024983304614
 31
0.0
  0
LINE
  5
96
330
1F
100
AcDbEntity
  8
0
  6
Continuous
 62
     1
370
    15
100
AcDbLine
 10
48.29633153670163
 20
-10.00000000000001
 30
0.0
 11
53.14341686955677
 21
-10.00000000000001
 31
0.0
  0
LINE
  5
97
330
1F
100
AcDbEntity
  8
0
  6
Continuous
 62
     1
370
    15
100
AcDbLine
 10
53.14341686955687
 20
10.00000000000001
 30
0.0
 11
48.2963315367016
 21
10.00000000000001
 31
0.0
  0
SPLINE
  5
98
330
1F
100
AcDbEntity
  8
0
  6
Continuous
 62
     1
370
    15
100
AcDbSpline
210
0.0
220
0.0
230
1.0
 70
     8
 71
     3
 72
     9
 73
     5
 74
     0
 42
0.000000001
 43
0.00000001
 40
0.0
 40
0.0
 40
0.0
 40
0.0
 40
0.4370446579388217
 40
0.9999999999999999
 40
0.9999999999999999
 40
0.9999999999999999
 40
0.9999999999999999
 10
21.67902320279672
 20
2.562419766314705
 30
0.0
 10
21.27477340778601
 20
2.754631040456905
 30
0.0
 10
20.34981119244349
 20
3.194428829197077
 30
0.0
 10
19.42494750237295
 20
3.677811785548724
 30
0.0
 10
18.90429054736933
 20
3.949934803088209
 30
0.0
  0
LINE
  5
99
330
1F
100
AcDbEntity
  8
0
  6
Continuous
 62
     1
370
    15
100
AcDbLine
 10
73.41099518318092
 20
3.902296285452433
 30
0.0
 11
73.3180814640453
 21
3.950035807235269
 31
0.0
  0
SPLINE
  5
9A
330
1F
100
AcDbEntity
  8
0
  6
Continuous
 62
     1
370
    15
100
AcDbSpline
210
0.0
220
0.0
230
1.0
 70
     8
 71
     3
 72
     9
 73
     5
 74
     0
 42
0.000000001
 43
0.00000001
 40
0.0
 40
0.0
 40
0.0
 40
0.0
 40
0.4522844690305133
 40
1.0
 40
1.0
 40
1.0
 40
1.0
 10
76.09323832535215
 20
2.562310029084902
 30
0.0
 10
75.68881245534783
 20
2.754508116354799
 30
0.0
 10
74.79462771610348
 20
3.179457678920766
 30
0.0
 10
73.9006439669995
 20
3.646493508223895
 30
0.0
 10
73.41099518318092
 20
3.902296285452433
 30
0.0
  0
SPLINE
  5
9B
330
1F
100
AcDbEntity
  8
0
  6
Continuous
 62
     1
370
    15
100
AcDbSpline
210
0.0
220
0.0
230
1.0
 70
     8
 71
     3
 72
    11
 73
     7
 74
     0
 42
0.000000001
 43
0.00000001
 40
0.0
 40
0.0
 40
0.0
 40
0.0
 40
0.215133469675361
 40
0.4829937153107969
 40
0.6807408260639108
 40
1.0
 40
1.0
 40
1.0
 40
1.0
 10
57.74508361772223
 20
-8.321430164466049
 30
0.0
 10
58.82519211171531
 20
-8.222390911571203
 30
0.0
 10
61.25013145397429
 20
-8.000039007009487
 30
0.0
 10
64.65809578225584
 20
-7.839651294485594
 30
0.0
 10
68.59358535509014
 20
-7.779836517817831
 30
0.0
 10
71.18642797886059
 20
-7.88280811709734
 30
0.0
 10
72.78754738248422
 20
-7.946394631804059
 30
0.0
  0
SPLINE
  5
9C
330
1F
100
AcDbEntity
  8
0
  6
Continuous
 62
     1
370
    15
100
AcDbSpline
210
0.0
220
0.0
230
1.0
 70
     8
 71
     3
 72
     9
 73
     5
 74
     0
 42
0.000000001
 43
0.00000001
 40
0.0
 40
0.0
 40
0.0
 40
0.0
 40
0.366050364938173
 40
1.0
 40
1.0
 40
1.0
 40
1.0
 10
18.3738416535715
 20
7.946409334819029
 30
0.0
 10
17.59969759908263
 20
7.909546188041715
 30
0.0
 10
15.48484093278856
 20
7.80884106571916
 30
0.0
 10
13.3520696049522
 20
7.814567030153597
 30
0.0
 10
12.00000000000001
 20
7.818197003217183
 30
0.0
  0
SPLINE
  5
9D
330
1F
100
AcDbEntity
  8
0
  6
Continuous
 62
     1
370
    15
100
AcDbSpline
210
0.0
220
0.0
230
1.0
 70
     8
 71
     3
 72
     9
 73
     5
 74
     0
 42
0.000000001
 43
0.00000001
 40
0.0
 40
0.0
 40
0.0
 40
0.0
 40
0.4585344332763481
 40
0.9999999999999999
 40
0.9999999999999999
 40
0.9999999999999999
 40
0.9999999999999999
 10
12.00000000000001
 20
-7.818197003217175
 30
0.0
 10
12.97398936129642
 20
-7.812551401599358
 30
0.0
 10
15.09812506542883
 20
-7.800239127518927
 30
0.0
 10
17.22319140415031
 20
-7.89506460429605
 30
0.0
 10
18.37384165357149
 20
-7.946409334819017
 30
0.0
  0
SPLINE
  5
9E
330
1F
100
AcDbEntity
  8
0
  6
Continuous
 62
     1
370
    15
100
AcDbSpline
210
0.0
220
0.0
230
1.0
 70
     8
 71
     3
 72
    15
 73
    11
 74
     0
 42
0.000000001
 43
0.00000001
 40
0.0
 40
0.0
 40
0.0
 40
0.0
 40
0.1925364936065698
 40
0.3285148689368182
 40
0.4114695675401099
 40
0.4846314813205461
 40
0.5606189071341364
 40
0.7048206766608157
 40
0.8499621336865447
 40
1.0
 40
1.0
 40
1.0
 40
1.0
 10
72.78754738248422
 20
7.946394631804074
 30
0.0
 10
72.2561970348452
 20
7.920446705640683
 30
0.0
 10
71.34958194830033
 20
7.876173127146166
 30
0.0
 10
70.21669323464074
 20
7.841780123654958
 30
0.0
 10
69.42141334810421
 20
7.824550293743325
 30
0.0
 10
68.78831169360488
 20
7.815187605207438
 30
0.0
 10
67.98285586230266
 20
7.808362740725898
 30
0.0
 10
66.9807593048907
 20
7.810074113764613
 30
0.0
 10
65.7758893226768
 20
7.824897214691187
 30
0.0
 10
64.96417110298674
 20
7.85156354871696
 30
0.0
 10
64.5515796370523
 20
7.865117885160208
 30
0.0
  0
SPLINE
  5
9F
330
1F
100
AcDbEntity
  8
0
  6
Continuous
 62
     1
370
    15
100
AcDbSpline
210
0.0
220
0.0
230
1.0
 70
     8
 71
     3
 72
    16
 73
    12
 74
     0
 42
0.000000001
 43
0.00000001
 40
0.0
 40
0.0
 40
0.0
 40
0.0
 40
0.1698800147644894
 40
0.2973486584148964
 40
0.3829613085665807
 40
0.4472655421691375
 40
0.5172082794452947
 40
0.5928203690548168
 40
0.6740985418474729
 40
0.8388177540028684
 40
1.0
 40
1.0
 40
1.0
 40
1.0
 10
80.81429666928713
 20
-7.521356588625435
 30
0.0
 10
81.24031550057657
 20
-7.456214934655618
 30
0.0
 10
81.98599549194584
 20
-7.34219455714561
 30
0.0
 10
82.94370545537303
 20
-7.212042137320734
 30
0.0
 10
83.63651320135465
 20
-7.124505383926065
 30
0.0
 10
84.18544265257154
 20
-7.059338860403283
 30
0.0
 10
84.71004511902251
 20
-7.000512794113952
 30
0.0
 10
85.27736778886158
 20
-6.940961720312088
 30
0.0
 10
86.08169240734256
 20
-6.862927865763136
 30
0.0
 10
87.09978701108336
 20
-6.775675659033292
 30
0.0
 10
87.91475794382879
 20
-6.72437764071338
 30
0.0
 10
88.3178210234079
 20
-6.699006996915474
 30
0.0
  0
SPLINE
  5
A0
330
1F
100
AcDbEntity
  8
0
  6
Continuous
 62
     1
370
    15
100
AcDbSpline
210
0.0
220
0.0
230
1.0
 70
     8
 71
     3
 72
    22
 73
    18
 74
     0
 42
0.000000001
 43
0.00000001
 40
0.0
 40
0.0
 40
0.0
 40
0.0
 40
0.0836577977113835
 40
0.1429685242092369
 40
0.1974458234969463
 40
0.2654667312304378
 40
0.3325007194851849
 40
0.3930339973369776
 40
0.447195219180955
 40
0.4966481473506318
 40
0.5722653629946329
 40
0.6655778730401202
 40
0.7694051985899552
 40
0.8231736842215422
 40
0.8656211741272136
 40
0.9213626465782124
 40
1.0
 40
1.0
 40
1.0
 40
1.0
 10
43.87123294082103
 20
6.839548635792122
 30
0.0
 10
43.39162942559216
 20
6.800881728435289
 30
0.0
 10
42.57200222222741
 20
6.73480120956228
 30
0.0
 10
41.41596617167406
 20
6.668414482601256
 30
0.0
 10
40.34209053094978
 20
6.621150014669689
 30
0.0
 10
39.23927076202091
 20
6.590279054706405
 30
0.0
 10
38.09894165102453
 20
6.577837822103865
 30
0.0
 10
37.03568674921115
 20
6.583838697730679
 30
0.0
 10
36.08063628431289
 20
6.603360639445738
 30
0.0
 10
35.04351801766492
 20
6.638199266513254
 30
0.0
 10
33.77102467914959
 20
6.701306009666905
 30
0.0
 10
32.1826358450337
 20
6.813201643144949
 30
0.0
 10
30.72321575809527
 20
6.951759987951879
 30
0.0
 10
29.55532278686429
 20
7.083544244133551
 30
0.0
 10
28.65946582220416
 20
7.194704079335231
 30
0.0
 10
27.63192683853757
 20
7.333278496806635
 30
0.0
 10
26.85510936022151
 20
7.451904929642806
 30
0.0
 10
26.40052233589082
 20
7.521324115764694
 30
0.0
  0
SPLINE
  5
A1
330
1F
100
AcDbEntity
  8
0
  6
Continuous
 62
     1
370
    15
100
AcDbSpline
210
0.0
220
0.0
230
1.0
 70
     8
 71
     3
 72
    15
 73
    11
 74
     0
 42
0.000000001
 43
0.00000001
 40
0.0
 40
0.0
 40
0.0
 40
0.0
 40
0.1587442396899165
 40
0.2790936576916617
 40
0.3644784302397062
 40
0.4574494177412847
 40
0.5715729836886372
 40
0.694059973708441
 40
0.8767004483459906
 40
1.0
 40
1.0
 40
1.0
 40
1.0
 10
26.40052233589082
 20
-7.52132411576468
 30
0.0
 10
26.79485102297118
 20
-7.460890306902009
 30
0.0
 10
27.48813372617341
 20
-7.354639567998548
 30
0.0
 10
28.39549361635246
 20
-7.229813023602356
 30
0.0
 10
29.15010730711989
 20
-7.133096353193489
 30
0.0
 10
29.8870524399896
 20
-7.045322385418356
 30
0.0
 10
30.71286377588764
 20
-6.955308385807648
 30
0.0
 10
31.76080605311465
 20
-6.853718176310431
 30
0.0
 10
32.83235952551148
 20
-6.764621990726956
 30
0.0
 10
33.59761337195047
 20
-6.718716445259364
 30
0.0
 10
33.90602498226234
 20
-6.700215652005221
 30
0.0
  0
SPLINE
  5
A2
330
1F
100
AcDbEntity
  8
0
  6
Continuous
 62
     1
370
    15
100
AcDbSpline
210
0.0
220
0.0
230
1.0
 70
     8
 71
     3
 72
    26
 73
    22
 74
     0
 42
0.000000001
 43
0.00000001
 40
0.0
 40
0.0
 40
0.0
 40
0.0
 40
0.0686766596942636
 40
0.1238901852084223
 40
0.1755218722279769
 40
0.2072790903059216
 40
0.2363264251091953
 40
0.2653149143115488
 40
0.2958041937589282
 40
0.3298977509593442
 40
0.4209869290276647
 40
0.5093977913646022
 40
0.5769448487077632
 40
0.6366138055734081
 40
0.6964786256973297
 40
0.726214298074218
 40
0.7559316210259395
 40
0.792825217506022
 40
0.8458679515098113
 40
0.914810448140383
 40
1.0
 40
1.0
 40
1.0
 40
1.0
 10
98.28525580419523
 20
6.839552245696813
 30
0.0
 10
97.8821169376068
 20
6.806794296231133
 30
0.0
 10
97.15486914965815
 20
6.747700152100964
 30
0.0
 10
96.12881290136113
 20
6.684729333307501
 30
0.0
 10
95.320648316129
 20
6.645041407365448
 30
0.0
 10
94.67441462161376
 20
6.620505742470609
 30
0.0
 10
94.15554640476662
 20
6.604659708799095
 30
0.0
 10
93.64086864015873
 20
6.592741350824118
 30
0.0
 10
93.09516645769065
 20
6.584252582099511
 30
0.0
 10
92.18852859959767
 20
6.577665090126061
 30
0.0
 10
90.94452500859344
 20
6.588735248881409
 30
0.0
 10
89.50554979933935
 20
6.634591803062118
 30
0.0
 10
88.25015009898142
 20
6.699599083815373
 30
0.0
 10
87.15909821778814
 20
6.773427670169419
 30
0.0
 10
86.31159557337419
 20
6.842674694641233
 30
0.0
 10
85.61887539032023
 20
6.906989554431647
 30
0.0
 10
85.05242309955925
 20
6.963812030431103
 30
0.0
 10
84.34880623164706
 20
7.039750520933277
 30
0.0
 10
83.42073376164966
 20
7.149565589613749
 30
0.0
 10
82.21194791165647
 20
7.308619800706069
 30
0.0
 10
81.31180831395042
 20
7.445630237136841
 30
0.0
 10
80.81429666928713
 20
7.521356588625454
 30
0.0
  0
LINE
  5
A3
330
1F
100
AcDbEntity
  8
0
  6
Continuous
 62
   131
370
    15
100
AcDbLine
 10
8.950072375424543
 20
10.00000000000001
 30
0.0
 11
-96.99999999999997
 21
9.999999999999998
 31
0.0
  0
LINE
  5
A4
330
1F
100
AcDbEntity
  8
0
  6
Continuous
 62
   131
370
    15
100
AcDbLine
 10
-96.99999999999997
 20
-10.0
 30
0.0
 11
8.950072375424543
 21
-9.999999999999995
 31
0.0
  0
LINE
  5
A5
330
1F
100
AcDbEntity
  8
0
  6
Continuous
 62
   131
370
    15
100
AcDbLine
 10
-96.99999999999997
 20
9.999999999999991
 30
0.0
 11
-97.99999999999997
 21
8.999999999999988
 31
0.0
  0
LINE
  5
A6
330
1F
100
AcDbEntity
  8
0
  6
Continuous
 62
   131
370
    15
100
AcDbLine
 10
-97.99999999999997
 20
-8.999999999999995
 30
0.0
 11
-96.99999999999997
 21
-9.999999999999998
 31
0.0
  0
SPLINE
  5
A7
330
1F
100
AcDbEntity
  8
0
  6
Continuous
 62
   131
370
    15
100
AcDbSpline
210
0.0
220
0.0
230
1.0
 70
     8
 71
     3
 72
     9
 73
     5
 74
     0
 42
0.000000001
 43
0.00000001
 40
0.0
 40
0.0
 40
0.0
 40
0.0
 40
0.735232030191824
 40
1.0
 40
1.0
 40
1.0
 40
1.0
 10
12.00000000000004
 20
7.818197003217183
 30
0.0
 10
11.5548252904299
 20
7.82476947172978
 30
0.0
 10
10.94933655858834
 20
7.833708783732928
 30
0.0
 10
10.3438583045898
 20
7.857208162534782
 30
0.0
 10
10.18354705651561
 20
7.863430045351905
 30
0.0
  0
SPLINE
  5
A8
330
1F
100
AcDbEntity
  8
0
  6
Continuous
 62
   131
370
    15
100
AcDbSpline
210
0.0
220
0.0
230
1.0
 70
     8
 71
     3
 72
     9
 73
     5
 74
     0
 42
0.000000001
 43
0.00000001
 40
0.0
 40
0.0
 40
0.0
 40
0.0
 40
0.4392303434884786
 40
1.0
 40
1.0
 40
1.0
 40
1.0
 10
8.950100032218627
 20
-7.908683861210775
 30
0.0
 10
9.393323707208719
 20
-7.889919159997447
 30
0.0
 10
10.40241536392327
 20
-7.84719738202488
 30
0.0
 10
11.42600307234114
 20
-7.828616562820255
 30
0.0
 10
12.00000000000004
 20
-7.818197003217175
 30
0.0
  0
SPLINE
  5
A9
330
1F
100
AcDbEntity
  8
0
  6
Continuous
 62
     1
370
    15
100
AcDbSpline
210
0.0
220
0.0
230
1.0
 70
     8
 71
     3
 72
    10
 73
     6
 74
     0
 42
0.000000001
 43
0.00000001
 40
0.0
 40
0.0
 40
0.0
 40
0.0
 40
0.5
 40
0.5
 40
1.0
 40
1.0
 40
1.0
 40
1.0
 10
102.0
 20
-2.672429460296433
 30
0.0
 10
101.1432431594078
 20
-1.998877176673848
 30
0.0
 10
100.2980363641846
 20
-1.303046910902127
 30
0.0
 10
98.63067637845722
 20
0.1330799216817089
 30
0.0
 10
97.80798421885817
 20
0.8737316691697754
 30
0.0
 10
97.0000000000023
 20
1.639931148972228
 30
0.0
  0
LINE
  5
AA
330
1F
100
AcDbEntity
  8
0
  6
Continuous
 62
     1
370
    15
100
AcDbLine
 10
97.00000000000003
 20
2.937719435296606
 30
0.0
 11
102.0
 21
0.0000000000000159
 31
0.0
  0
LINE
  5
AB
330
1F
100
AcDbEntity
  8
0
  6
Continuous
 62
     1
370
    15
100
AcDbLine
 10
102.0
 20
0.0000000000000159
 30
0.0
 11
102.0
 21
-2.672429460296432
 31
0.0
  0
SPLINE
  5
AC
330
1F
100
AcDbEntity
  8
0
  6
Continuous
 62
     1
370
    15
100
AcDbSpline
210
0.0
220
0.0
230
1.0
 70
     8
 71
     3
 72
    25
 73
    21
 74
     0
 42
0.000000001
 43
0.00000001
 40
0.0
 40
0.0
 40
0.0
 40
0.0
 40
0.0320949048454959
 40
0.0890469223617476
 40
0.1459882145440622
 40
0.2029016467118281
 40
0.2598273423015598
 40
0.3167751681165457
 40
0.3737261777153667
 40
0.4306614009841084
 40
0.4875716707452296
 40
0.5445051246313314
 40
0.601455658695161
 40
0.6584043063592949
 40
0.7153321150726912
 40
0.7722442585640715
 40
0.8291841260422631
 40
0.8861360145902717
 40
0.9430809475568791
 40
1.0
 40
1.0
 40
1.0
 40
1.0
 10
33.90284817336955
 20
6.698881554482352
 30
0.0
 10
34.63138772456422
 20
7.015526418858846
 30
0.0
 10
36.65271183083584
 20
7.894053736204572
 30
0.0
 10
39.96674861458658
 20
8.929495072353077
 30
0.0
 10
43.84405423091378
 20
9.754742340571605
 30
0.0
 10
47.72014829379512
 20
10.0775513867967
 30
0.0
 10
51.59670203134354
 20
9.901616475260806
 30
0.0
 10
55.47447852800161
 20
9.230568251396564
 30
0.0
 10
59.35248724844166
 20
8.099217421093462
 30
0.0
 10
63.22946969725803
 20
6.563835546091155
 30
0.0
 10
67.10544437742537
 20
4.700287411180589
 30
0.0
 10
70.98234023169834
 20
2.602839079206371
 30
0.0
 10
74.86031475062521
 20
0.3753987498131656
 30
0.0
 10
78.7381515013052
 20
-1.870669699817326
 30
0.0
 10
82.61479386805155
 20
-4.023653079589608
 30
0.0
 10
86.49083735577734
 20
-5.975641813969042
 30
0.0
 10
90.36806977852778
 20
-7.631377556824675
 30
0.0
 10
94.24614003741196
 20
-8.896953317288032
 30
0.0
 10
98.1237023498937
 20
-9.754356253834983
 30
0.0
 10
100.7080965884818
 20
-9.91249616752472
 30
0.0
 10
102.0000000000001
 20
-9.999999999999657
 30
0.0
  0
SPLINE
  5
AD
330
1F
100
AcDbEntity
  8
0
  6
Continuous
 62
     1
370
    15
100
AcDbSpline
210
0.0
220
0.0
230
1.0
 70
     8
 71
     3
 72
    16
 73
    12
 74
     0
 42
0.000000001
 43
0.00000001
 40
0.0
 40
0.0
 40
0.0
 40
0.0
 40
0.0690008890653296
 40
0.1855127712052186
 40
0.3019866484266931
 40
0.4184089391827549
 40
0.5348867521999675
 40
0.6513996921502202
 40
0.7679055483079664
 40
0.8843621633073406
 40
1.0
 40
1.0
 40
1.0
 40
1.0
 10
77.15720734391765
 20
-0.9471233079544632
 30
0.0
 10
76.39159334756641
 20
-0.6410382526355013
 30
0.0
 10
74.33319705643825
 20
0.1818886343349226
 30
0.0
 10
70.98239264607258
 20
1.541338605366087
 30
0.0
 10
67.10554002657274
 20
3.030333081914969
 30
0.0
 10
63.22938300801258
 20
4.370735441335166
 30
0.0
 10
59.35245128982835
 20
5.491483268780492
 30
0.0
 10
55.4744962767259
 20
6.340288431901091
 30
0.0
 10
51.59677889102051
 20
6.866000173876956
 30
0.0
 10
47.72900315159313
 20
7.07364846885324
 30
0.0
 10
45.15393318101223
 20
6.91659991410566
 30
0.0
 10
43.87094033667952
 20
6.838352653155122
 30
0.0
  0
SPLINE
  5
AE
330
1F
100
AcDbEntity
  8
0
  6
Continuous
 62
     1
370
    15
100
AcDbSpline
210
0.0
220
0.0
230
1.0
 70
     8
 71
     3
 72
    18
 73
    14
 74
     0
 42
0.000000001
 43
0.00000001
 40
0.0
 40
0.0
 40
0.0
 40
0.0
 40
0.0928112590789444
 40
0.1856180193557284
 40
0.2784226513211954
 40
0.3712317276198273
 40
0.4640450335319071
 40
0.5568620291242713
 40
0.6636880539013886
 40
0.7705295598799676
 40
0.877350945222265
 40
0.9841200654115302
 40
1.0
 40
1.0
 40
1.0
 40
1.0
 10
11.99999999999915
 20
5.011457606066537
 30
0.0
 10
13.12283050354201
 20
4.432142783264633
 30
0.0
 10
15.36843708412448
 20
3.273541218551036
 30
0.0
 10
18.73675011434289
 20
1.361525329789943
 30
0.0
 10
22.10501655333747
 20
-0.5882773248719645
 30
0.0
 10
25.47339422482967
 20
-2.519549345858704
 30
0.0
 10
28.8420068000967
 20
-4.354679892526881
 30
0.0
 10
32.38000020008324
 20
-6.110720265390691
 30
0.0
 10
36.08868555522065
 20
-7.67859348758096
 30
0.0
 10
39.96672739435523
 20
-8.947396367492987
 30
0.0
 10
43.84407849775189
 20
-9.722362935796019
 30
0.0
 10
46.62021538515049
 20
-10.05667792701109
 30
0.0
 10
48.10419402836429
 20
-9.978494337460727
 30
0.0
 10
48.29633153670162
 20
-9.968371550210543
 30
0.0
  0
SPLINE
  5
AF
330
1F
100
AcDbEntity
  8
0
  6
Continuous
 62
     1
370
    15
100
AcDbSpline
210
0.0
220
0.0
230
1.0
 70
     8
 71
     3
 72
    11
 73
     7
 74
     0
 42
0.000000001
 43
0.00000001
 40
0.0
 40
0.0
 40
0.0
 40
0.0
 40
0.1497741220595784
 40
0.4332487682922588
 40
0.716688793531197
 40
1.0
 40
1.0
 40
1.0
 40
1.0
 10
88.3187002382147
 20
6.699378922526216
 30
0.0
 10
89.00173213987364
 20
6.998070765175754
 30
0.0
 10
90.97752559490283
 20
7.862091005437157
 30
0.0
 10
94.24615168008881
 20
8.886362194726743
 30
0.0
 10
98.12369944091587
 20
9.757002495902563
 30
0.0
 10
100.7080956189694
 20
9.913378114543098
 30
0.0
 10
102.0
 20
10.00000000000034
 30
0.0
  0
SPLINE
  5
B0
330
1F
100
AcDbEntity
  8
0
  6
Continuous
 62
     1
370
    15
100
AcDbSpline
210
0.0
220
0.0
230
1.0
 70
    24
 71
     3
 72
    10
 73
     6
 74
     0
 42
0.000000001
 43
0.00000001
 40
0.0
 40
0.0
 40
0.0
 40
0.0
 40
0.5
 40
0.5
 40
1.0
 40
1.0
 40
1.0
 40
1.0
 10
102.0
 20
7.000000000000016
 30
0.0
 10
102.0
 20
7.424322568073156
 30
0.0
 10
102.0
 20
7.91742468867119
 30
0.0
 10
102.0
 20
8.951951609608575
 30
0.0
 10
102.0
 20
9.490734358014747
 30
0.0
 10
102.0
 20
10.00000000000035
 30
0.0
  0
LINE
  5
B1
330
1F
100
AcDbEntity
  8
0
  6
Continuous
 62
     1
370
    15
100
AcDbLine
 10
102.0
 20
7.000000000000016
 30
0.0
 11
98.28316634359557
 21
6.832558294706371
 31
0.0
  0
SPLINE
  5
B2
330
1F
100
AcDbEntity
  8
0
  6
Continuous
 62
     1
370
    15
100
AcDbSpline
210
0.0
220
0.0
230
1.0
 70
     8
 71
     3
 72
    10
 73
     6
 74
     0
 42
0.000000001
 43
0.00000001
 40
0.0
 40
0.0
 40
0.0
 40
0.0
 40
0.2004332516463337
 40
0.6003913612399291
 40
0.9999999999999999
 40
0.9999999999999999
 40
0.9999999999999999
 40
0.9999999999999999
 10
22.7320796749046
 20
-0.9422969288620564
 30
0.0
 10
22.01509273529333
 20
-0.6561759663428312
 30
0.0
 10
19.86738140931018
 20
0.2008901778981049
 30
0.0
 10
16.28958308926634
 20
1.66416525652197
 30
0.0
 10
13.42944433113802
 20
2.72558151853268
 30
0.0
 10
12.00000000000004
 20
3.256057690150927
 30
0.0
  0
SPLINE
  5
B3
330
1F
100
AcDbEntity
  8
0
  6
Continuous
 62
   131
370
    15
100
AcDbSpline
210
0.0
220
0.0
230
1.0
 70
    24
 71
     3
 72
    10
 73
     6
 74
     0
 42
0.000000001
 43
0.00000001
 40
0.0
 40
0.0
 40
0.0
 40
0.0
 40
0.5
 40
0.5
 40
1.0
 40
1.0
 40
1.0
 40
1.0
 10
12.00000000000004
 20
5.011457606066086
 30
0.0
 10
12.00000000000004
 20
4.891941291647952
 30
0.0
 10
12.00000000000004
 20
4.66823317831589
 30
0.0
 10
12.00000000000004
 20
4.056282059148022
 30
0.0
 10
12.00000000000004
 20
3.670298196269829
 30
0.0
 10
12.00000000000004
 20
3.256057690150928
 30
0.0
  0
SPLINE
  5
B4
330
1F
100
AcDbEntity
  8
0
  6
Continuous
 62
     1
370
    15
100
AcDbSpline
210
0.0
220
0.0
230
1.0
 70
     8
 71
     3
 72
    22
 73
    18
 74
     0
 42
0.000000001
 43
0.00000001
 40
0.0
 40
0.0
 40
0.0
 40
0.0
 40
0.0248504106665084
 40
0.098646579195507
 40
0.1724632101477975
 40
0.2462757158779637
 40
0.3200595394127047
 40
0.3938274633703202
 40
0.4676314977554417
 40
0.5414494354233553
 40
0.615256679009767
 40
0.679385166184411
 40
0.7435111039350688
 40
0.807634119152336
 40
0.8717540632189873
 40
0.9358754772869823
 40
0.9999999999999999
 40
0.9999999999999999
 40
0.9999999999999999
 40
0.9999999999999999
 10
64.53544653008508
 20
-7.871066157238245
 30
0.0
 10
64.10029084528024
 20
-8.036534403463115
 30
0.0
 10
62.37289002685714
 20
-8.693379743953278
 30
0.0
 10
59.35251773982809
 20
-9.426446541890735
 30
0.0
 10
55.47451761888138
 20
-9.997278530990782
 30
0.0
 10
51.5967431383725
 20
-10.04245294944934
 30
0.0
 10
47.7201914359716
 20
-9.593769487898145
 30
0.0
 10
43.84410586527012
 20
-8.664200858285831
 30
0.0
 10
39.96678343294289
 20
-7.303146234475547
 30
0.0
 10
36.08873794443352
 20
-5.577500035786817
 30
0.0
 10
32.38005325271902
 20
-3.660804744134878
 30
0.0
 10
28.84205410596469
 20
-1.679877873129779
 30
0.0
 10
25.47343212103869
 20
0.2691479909267748
 30
0.0
 10
22.1050449246772
 20
2.209380749245665
 30
0.0
 10
18.73676902367888
 20
4.061110524441226
 30
0.0
 10
15.36844654064542
 20
5.779184854723081
 30
0.0
 10
13.12283365788511
 20
6.730724885414547
 30
0.0
 10
11.99999999999625
 20
7.2065064332901
 30
0.0
  0
LINE
  5
B5
330
1F
100
AcDbEntity
  8
0
  6
Continuous
 62
   131
370
    15
100
AcDbLine
 10
12.00000000000004
 20
5.011457606066089
 30
0.0
 11
12.00000000000004
 21
7.206506433282005
 31
0.0
  0
SPLINE
  5
B6
330
1F
100
AcDbEntity
  8
0
  6
Continuous
 62
     1
370
    15
100
AcDbSpline
210
0.0
220
0.0
230
1.0
 70
     8
 71
     3
 72
    20
 73
    16
 74
     0
 42
0.000000001
 43
0.00000001
 40
0.0
 40
0.0
 40
0.0
 40
0.0
 40
0.0793347352114317
 40
0.1587055429480929
 40
0.2380860456560496
 40
0.3174497937077623
 40
0.3967748996832489
 40
0.4761218385144469
 40
0.5554978235179004
 40
0.6348764386607462
 40
0.7142312483538258
 40
0.7935537420554941
 40
0.8729110147367523
 40
0.952290291840967
 40
1.0
 40
1.0
 40
1.0
 40
1.0
 10
102.0
 20
-9.489408692318989
 30
0.0
 10
100.7080976424757
 20
-9.208096121265438
 30
0.0
 10
98.12370551536537
 20
-8.645343069803257
 30
0.0
 10
94.24614637283135
 20
-7.243235429721742
 30
0.0
 10
90.36807927463896
 20
-5.51362071419811
 30
0.0
 10
86.4908499932639
 20
-3.500026886174285
 30
0.0
 10
82.61480965861399
 20
-1.313496172939595
 30
0.0
 10
78.73817047758972
 20
0.938719181865554
 30
0.0
 10
74.86033695263328
 20
3.143754946759722
 30
0.0
 10
70.98236543489095
 20
5.192445958286518
 30
0.0
 10
67.1054732230271
 20
6.980401666465372
 30
0.0
 10
63.2294997331575
 20
8.426385040668414
 30
0.0
 10
59.35252789037591
 20
9.42958557251682
 30
0.0
 10
55.99021323252889
 20
9.962162082914814
 30
0.0
 10
53.92042395700386
 20
9.946038437276727
 30
0.0
 10
53.14341686955684
 20
9.93998555687754
 30
0.0
  0
LINE
  5
B7
330
1F
100
AcDbEntity
  8
0
  6
Continuous
 62
     1
370
    15
100
AcDbLine
 10
102.0
 20
-9.999999999999664
 30
0.0
 11
102.0
 21
-9.489408692319005
 31
0.0
  0
SPLINE
  5
B8
330
1F
100
AcDbEntity
  8
0
  6
Continuous
 62
     1
370
    15
100
AcDbSpline
210
0.0
220
0.0
230
1.0
 70
     8
 71
     3
 72
    17
 73
    13
 74
     0
 42
0.000000001
 43
0.00000001
 40
0.0
 40
0.0
 40
0.0
 40
0.0
 40
0.0632545903205044
 40
0.1706002509299958
 40
0.2779023340191736
 40
0.3851802608534431
 40
0.4925130506585182
 40
0.5998669642386033
 40
0.7072046298836889
 40
0.8144892071074936
 40
0.9217828617996275
 40
1.0
 40
1.0
 40
1.0
 40
1.0
 10
57.75970528508248
 20
-8.269539173564104
 30
0.0
 10
56.99795308745067
 20
-8.351823120507692
 30
0.0
 10
54.94347584866063
 20
-8.57374633469592
 30
0.0
 10
51.5967776299443
 20
-8.46386878497529
 30
0.0
 10
47.72021654467372
 20
-7.983578492322882
 30
0.0
 10
43.84405227897253
 20
-7.08611876350288
 30
0.0
 10
39.96677628141603
 20
-5.840322324281422
 30
0.0
 10
36.08872402074751
 20
-4.301961705526564
 30
0.0
 10
32.21128799125961
 20
-2.548374378370682
 30
0.0
 10
28.33501449750502
 20
-0.6712352202679505
 30
0.0
 10
24.80932067450558
 20
1.080666053959635
 30
0.0
 10
22.57527982887284
 20
2.129899420648175
 30
0.0
 10
21.63333850651869
 20
2.572288944012853
 30
0.0
  0
SPLINE
  5
B9
330
1F
100
AcDbEntity
  8
0
  6
Continuous
 62
     1
370
    15
100
AcDbSpline
210
0.0
220
0.0
230
1.0
 70
     8
 71
     3
 72
    14
 73
    10
 74
     0
 42
0.000000001
 43
0.00000001
 40
0.0
 40
0.0
 40
0.0
 40
0.0
 40
0.1493655606421259
 40
0.298802073682448
 40
0.4482576564196931
 40
0.597680283365276
 40
0.7470269040835649
 40
0.8964164682871923
 40
0.9999999999999999
 40
0.9999999999999999
 40
0.9999999999999999
 40
0.9999999999999999
 10
102.0
 20
-7.889722643682147
 30
0.0
 10
100.7080911841363
 20
-7.615554578476086
 30
0.0
 10
98.12365986322672
 20
-7.067088211337026
 30
0.0
 10
94.24613803277938
 20
-5.786477418696088
 30
0.0
 10
90.36809480085354
 20
-4.24564559297847
 30
0.0
 10
86.49090271319622
 20
-2.484404069760087
 30
0.0
 10
82.61477654520353
 20
-0.6050483140314351
 30
0.0
 10
79.13484680102472
 20
1.124273156871775
 30
0.0
 10
76.94657043540201
 20
2.14974058579382
 30
0.0
 10
76.05054869248218
 20
2.569633213345353
 30
0.0
  0
LINE
  5
BA
330
1F
100
AcDbEntity
  8
0
  6
Continuous
 62
     1
370
    15
100
AcDbLine
 10
102.0
 20
-9.489408692318996
 30
0.0
 11
102.0
 21
-7.889722643682147
 31
0.0
  0
SPLINE
  5
BB
330
1F
100
AcDbEntity
  8
0
  6
Continuous
 62
     1
370
    15
100
AcDbSpline
210
0.0
220
0.0
230
1.0
 70
     8
 71
     3
 72
    24
 73
    20
 74
     0
 42
0.000000001
 43
0.00000001
 40
0.0
 40
0.0
 40
0.0
 40
0.0
 40
0.0336216472529318
 40
0.0956969460321124
 40
0.1577744232740121
 40
0.2198321787435564
 40
0.2818631640606827
 40
0.3439229616105338
 40
0.4060009876924184
 40
0.4680753379516349
 40
0.530124135618802
 40
0.592158771867116
 40
0.654225576931016
 40
0.7163047669492598
 40
0.7783744288295901
 40
0.8404129615147157
 40
0.9024568209430379
 40
0.9645290761658337
 40
1.0
 40
1.0
 40
1.0
 40
1.0
 10
80.83901417646858
 20
-7.470829584687959
 30
0.0
 10
80.13887519984905
 20
-7.588933143711512
 30
0.0
 10
78.1460768887938
 20
-7.925090079421784
 30
0.0
 10
74.86031207347489
 20
-8.055577534261646
 30
0.0
 10
70.98238482786729
 20
-7.875788482984473
 30
0.0
 10
67.10551381097213
 20
-7.284860323076398
 30
0.0
 10
63.22941763767948
 20
-6.334947826380268
 30
0.0
 10
59.35247007877147
 20
-5.068002217142627
 30
0.0
 10
55.47449746467839
 20
-3.548471036813015
 30
0.0
 10
51.59676527823869
 20
-1.851859896736707
 30
0.0
 10
47.72019587249815
 20
-0.0627512572825635
 30
0.0
 10
43.84400548036183
 20
1.729922362598553
 30
0.0
 10
39.96673943151572
 20
3.435524018142889
 30
0.0
 10
36.08869395696496
 20
4.970336036664197
 30
0.0
 10
32.211264701578
 20
6.255482476031982
 30
0.0
 10
28.33498482488667
 20
7.2345585543166
 30
0.0
 10
24.45851634249115
 20
7.831045409721932
 30
0.0
 10
21.13516950131995
 20
8.075897527693561
 30
0.0
 10
19.10357018480911
 20
7.936003728706173
 30
0.0
 10
18.36479269863123
 20
7.88513228554913
 30
0.0
  0
SPLINE
  5
BC
330
1F
100
AcDbEntity
  8
0
  6
Continuous
 62
   131
370
    15
100
AcDbSpline
210
0.0
220
0.0
230
1.0
 70
    24
 71
     3
 72
    10
 73
     6
 74
     0
 42
0.000000001
 43
0.00000001
 40
0.0
 40
0.0
 40
0.0
 40
0.0
 40
0.0922818302257884
 40
0.6895662209770311
 40
1.0
 40
1.0
 40
1.0
 40
1.0
 10
12.00000000000004
 20
7.797890159784389
 30
0.0
 10
12.00000000000004
 20
7.804356674348409
 30
0.0
 10
12.00000000000004
 20
7.852677020833681
 30
0.0
 10
12.00000000000003
 20
7.708786589815137
 30
0.0
 10
12.00000000000004
 20
7.437256613852734
 30
0.0
 10
12.00000000000004
 20
7.344395107536307
 30
0.0
  0
SPLINE
  5
BD
330
1F
100
AcDbEntity
  8
0
  6
Continuous
 62
     1
370
    15
100
AcDbSpline
210
0.0
220
0.0
230
1.0
 70
     8
 71
     3
 72
    14
 73
    10
 74
     0
 42
0.000000001
 43
0.00000001
 40
0.0
 40
0.0
 40
0.0
 40
0.0
 40
0.1369180512613431
 40
0.2738353439420465
 40
0.4339163741522615
 40
0.5939148383759218
 40
0.7539599543829991
 40
0.9140671329961294
 40
0.9999999999999999
 40
0.9999999999999999
 40
0.9999999999999999
 40
0.9999999999999999
 10
97.00000000000001
 20
2.277336188987601
 30
0.0
 10
95.89462331444314
 20
2.758654403218179
 30
0.0
 10
93.68387606755729
 20
3.721288164984365
 30
0.0
 10
90.18092622733285
 20
5.079917343803682
 30
0.0
 10
86.49086873703612
 20
6.295217912263906
 30
0.0
 10
82.61476958147632
 20
7.26172553543905
 30
0.0
 10
78.73811350911751
 20
7.846671006528802
 30
0.0
 10
75.4592630230871
 20
8.07146693917626
 30
0.0
 10
73.47267820489861
 20
7.941789573349668
 30
0.0
 10
72.77883615757985
 20
7.896497971313734
 30
0.0
  0
SPLINE
  5
BE
330
1F
100
AcDbEntity
  8
0
  6
Continuous
 62
     1
370
    15
100
AcDbSpline
210
0.0
220
0.0
230
1.0
 70
     8
 71
     3
 72
    11
 73
     7
 74
     0
 42
0.000000001
 43
0.00000001
 40
0.0
 40
0.0
 40
0.0
 40
0.0
 40
0.136197385734498
 40
0.4050720570841236
 40
0.7026626586208108
 40
1.0
 40
1.0
 40
1.0
 40
1.0
 10
26.42334957937688
 20
-7.470846568070523
 30
0.0
 10
25.76859778892181
 20
-7.583192702554322
 30
0.0
 10
23.82126485584946
 20
-7.91732745525446
 30
0.0
 10
20.44315110128723
 20
-8.056188471699098
 30
0.0
 10
16.28953451567721
 20
-7.881322219041357
 30
0.0
 10
13.42943899207444
 20
-7.348265368725766
 30
0.0
 10
12.00000000000004
 20
-7.081850404419385
 30
0.0
  0
SPLINE
  5
BF
330
1F
100
AcDbEntity
  8
0
  6
Continuous
 62
     1
370
    15
100
AcDbSpline
210
0.0
220
0.0
230
1.0
 70
    24
 71
     3
 72
     8
 73
     4
 74
     0
 42
0.000000001
 43
0.00000001
 40
0.0
 40
0.0
 40
0.0
 40
0.0
 40
1.0
 40
1.0
 40
1.0
 40
1.0
 10
97.00000000000003
 20
1.639931148963764
 30
0.0
 10
97.00000000000003
 20
1.854493127011678
 30
0.0
 10
97.00000000000003
 20
2.067125113709725
 30
0.0
 10
97.00000000000003
 20
2.277336188987592
 30
0.0
  0
SPLINE
  5
C0
330
1F
100
AcDbEntity
  8
0
  6
Continuous
 62
     1
370
    15
100
AcDbSpline
210
0.0
220
0.0
230
1.0
 70
    24
 71
     3
 72
    10
 73
     6
 74
     0
 42
0.000000001
 43
0.00000001
 40
0.0
 40
0.0
 40
0.0
 40
0.0
 40
0.5
 40
0.5
 40
1.0
 40
1.0
 40
1.0
 40
1.0
 10
102.0
 20
-7.889722643682143
 30
0.0
 10
102.0
 20
-7.284913890038032
 30
0.0
 10
102.0000000000001
 20
-6.520714839064669
 30
0.0
 10
102.0
 20
-4.744025591506783
 30
0.0
 10
102.0
 20
-3.733074430513082
 30
0.0
 10
102.0
 20
-2.672429460296752
 30
0.0
  0
SPLINE
  5
C1
330
1F
100
AcDbEntity
  8
0
  6
Continuous
 62
   131
370
    15
100
AcDbSpline
210
0.0
220
0.0
230
1.0
 70
    24
 71
     3
 72
    10
 73
     6
 74
     0
 42
0.000000001
 43
0.00000001
 40
0.0
 40
0.0
 40
0.0
 40
0.0
 40
0.3076006226546349
 40
0.6192018623505274
 40
1.0
 40
1.0
 40
1.0
 40
1.0
 10
12.00000000000004
 20
-7.081850404419387
 30
0.0
 10
12.00000000000004
 20
-7.217142409156532
 30
0.0
 10
12.00000000000004
 20
-7.489486010321587
 30
0.0
 10
12.00000000000004
 20
-7.761445367226728
 30
0.0
 10
12.00000000000004
 20
-7.784925519762199
 30
0.0
 10
12.00000000000004
 20
-7.797838873889574
 30
0.0
  0
SPLINE
  5
C2
330
1F
100
AcDbEntity
  8
0
  6
Continuous
 62
     1
370
    15
100
AcDbSpline
210
0.0
220
0.0
230
1.0
 70
    24
 71
     3
 72
    10
 73
     6
 74
     0
 42
0.000000001
 43
0.00000001
 40
0.0
 40
0.0
 40
0.0
 40
0.0
 40
0.4999999999999999
 40
0.4999999999999999
 40
1.0
 40
1.0
 40
1.0
 40
1.0
 10
97.00000000000003
 20
2.277336188987582
 30
0.0
 10
97.00000000000001
 20
2.878840455911244
 30
0.0
 10
97.00000000000003
 20
3.450743803947677
 30
0.0
 10
96.99999999999999
 20
4.486413301752649
 30
0.0
 10
97.00000000000003
 20
4.949784524560216
 30
0.0
 10
97.00000000000004
 20
5.338750903172985
 30
0.0
  0
SPLINE
  5
C3
330
1F
100
AcDbEntity
  8
0
  6
Continuous
 62
     1
370
    15
100
AcDbSpline
210
0.0
220
0.0
230
1.0
 70
     8
 71
     3
 72
    10
 73
     6
 74
     0
 42
0.000000001
 43
0.00000001
 40
0.0
 40
0.0
 40
0.0
 40
0.0
 40
0.5
 40
0.5
 40
1.0
 40
1.0
 40
1.0
 40
1.0
 10
102.0
 20
7.000000000000016
 30
0.0
 10
101.15771059585
 20
6.771619550379109
 30
0.0
 10
100.3192522174754
 20
6.519974797585372
 30
0.0
 10
98.65165776358471
 20
5.967893441178426
 30
0.0
 10
97.82249864322523
 20
5.667920129140795
 30
0.0
 10
96.99999999999999
 20
5.338750903173018
 30
0.0
  0
SPLINE
  5
C4
330
1F
100
AcDbEntity
  8
0
  6
Continuous
 62
   131
370
    15
100
AcDbSpline
210
0.0
220
0.0
230
1.0
 70
    24
 71
     3
 72
    14
 73
    10
 74
     0
 42
0.000000001
 43
0.00000001
 40
0.0
 40
0.0
 40
0.0
 40
0.0
 40
0.25
 40
0.25
 40
0.4999999999999999
 40
0.4999999999999999
 40
0.75
 40
0.75
 40
1.0
 40
1.0
 40
1.0
 40
1.0
 10
12.0
 20
3.25605769015094
 30
0.0
 10
12.0
 20
2.402132898517708
 30
0.0
 10
12.0
 20
1.491900958994375
 30
0.0
 10
12.0
 20
-0.3661274083865375
 30
0.0
 10
12.0
 20
-1.313093622932704
 30
0.0
 10
12.0
 20
-3.150437944704181
 30
0.0
 10
12.0
 20
-4.039837038058755
 30
0.0
 10
12.0
 20
-5.678516073390854
 30
0.0
 10
12.0
 20
-6.427273890029367
 30
0.0
 10
12.0
 20
-7.081850404419378
 30
0.0
  0
LINE
  5
C5
330
1F
100
AcDbEntity
  8
0
  6
Continuous
 62
     1
370
    15
100
AcDbLine
 10
102.0
 20
0.0000000000000159
 30
0.0
 11
102.0
 21
7.000000000000015
 31
0.0
  0
LINE
  5
C6
330
1F
100
AcDbEntity
  8
0
  6
Continuous
 62
   131
370
    15
100
AcDbLine
 10
10.19143068058489
 20
-7.860578917928906
 30
0.0
 11
8.950148081208352
 21
-8.309491096853582
 31
0.0
  0
LINE
  5
C7
330
1F
100
AcDbEntity
  8
0
  6
Continuous
 62
   131
370
    15
100
AcDbLine
 10
8.95007237542454
 20
8.309729524509056
 30
0.0
 11
8.950072375424543
 21
10.00000000000001
 31
0.0
  0
SPLINE
  5
C8
330
1F
100
AcDbEntity
  8
0
  6
Continuous
 62
   131
370
    15
100
AcDbSpline
210
0.0
220
0.0
230
1.0
 70
     8
 71
     3
 72
    10
 73
     6
 74
     0
 42
0.000000001
 43
0.00000001
 40
0.0
 40
0.0
 40
0.0
 40
0.0
 40
0.4999999999999999
 40
0.4999999999999999
 40
1.0
 40
1.0
 40
1.0
 40
1.0
 10
11.99999999999915
 20
7.20650643328894
 30
0.0
 10
11.49255885377694
 20
7.409840488279506
 30
0.0
 10
10.98274705787702
 20
7.604174537585884
 30
0.0
 10
9.964295311581187
 20
7.972519107113195
 30
0.0
 10
9.457090769879507
 20
8.146375810363951
 30
0.0
 10
8.950148081208352
 20
8.309491096853593
 30
0.0
  0
SPLINE
  5
C9
330
1F
100
AcDbEntity
  8
0
  6
Continuous
 62
   131
370
    15
100
AcDbSpline
210
0.0
220
0.0
230
1.0
 70
     8
 71
     3
 72
    10
 73
     6
 74
     0
 42
0.000000001
 43
0.00000001
 40
0.0
 40
0.0
 40
0.0
 40
0.0
 40
0.5
 40
0.5
 40
1.0
 40
1.0
 40
1.0
 40
1.0
 10
11.99999999999915
 20
5.011457606066533
 30
0.0
 10
11.49254622374316
 20
5.265261925108792
 30
0.0
 10
10.98272167970269
 20
5.512982045622042
 30
0.0
 10
9.96424464302764
 20
5.993329741046529
 30
0.0
 10
9.45702794623412
 20
6.225744944197721
 30
0.0
 10
8.950072375424533
 20
6.4498053631611
 30
0.0
  0
LINE
  5
CA
330
1F
100
AcDbEntity
  8
0
  6
Continuous
 62
   131
370
    15
100
AcDbLine
 10
8.950072375424543
 20
-9.999999999999995
 30
0.0
 11
8.950072375424533
 21
6.449805959808963
 31
0.0
  0
LINE
  5
CB
330
1F
100
AcDbEntity
  8
0
  6
Continuous
 62
   131
370
    15
100
AcDbLine
 10
-96.99999999999997
 20
9.999999999999991
 30
0.0
 11
-96.99999999999997
 21
-10.0
 31
0.0
  0
LINE
  5
CC
330
1F
100
AcDbEntity
  8
0
  6
Continuous
 62
   131
370
    15
100
AcDbLine
 10
-97.99999999999997
 20
8.999999999999988
 30
0.0
 11
-97.99999999999997
 21
-8.999999999999988
 31
0.0
  0
SPLINE
  5
CD
330
1F
100
AcDbEntity
  8
0
  6
Continuous
 62
   131
370
    15
100
AcDbSpline
210
0.0
220
0.0
230
1.0
 70
    24
 71
     3
 72
    10
 73
     6
 74
     0
 42
0.000000001
 43
0.00000001
 40
0.0
 40
0.0
 40
0.0
 40
0.0
 40
0.5
 40
0.5
 40
1.0
 40
1.0
 40
1.0
 40
1.0
 10
12.00000000000004
 20
5.011457606066089
 30
0.0
 10
12.00000000000004
 20
4.891941291647952
 30
0.0
 10
12.00000000000004
 20
4.66823317831589
 30
0.0
 10
12.00000000000004
 20
4.05628205914802
 30
0.0
 10
12.00000000000004
 20
3.670298196269828
 30
0.0
 10
12.00000000000004
 20
3.256057690150928
 30
0.0
  0
SPLINE
  5
CE
330
1F
100
AcDbEntity
  8
0
  6
Continuous
 62
   131
370
    15
100
AcDbSpline
210
0.0
220
0.0
230
1.0
 70
     8
 71
     3
 72
    10
 73
     6
 74
     0
 42
0.000000001
 43
0.00000001
 40
0.0
 40
0.0
 40
0.0
 40
0.0
 40
0.5000000000000001
 40
0.5000000000000001
 40
1.0
 40
1.0
 40
1.0
 40
1.0
 10
11.99999999999776
 20
3.256057690151744
 30
0.0
 10
11.49254926814175
 20
3.437798700752597
 30
0.0
 10
10.98272779697051
 20
3.615612902559713
 30
0.0
 10
9.964256856400945
 20
3.96129184192207
 30
0.0
 10
9.457043089529693
 20
4.129002818759654
 30
0.0
 10
8.950090623888405
 20
4.2911530007893
 30
0.0
  0
SPLINE
  5
CF
330
1F
100
AcDbEntity
  8
0
  6
Continuous
 62
   131
370
    15
100
AcDbSpline
210
0.0
220
0.0
230
1.0
 70
     8
 71
     3
 72
    10
 73
     6
 74
     0
 42
0.000000001
 43
0.00000001
 40
0.0
 40
0.0
 40
0.0
 40
0.0
 40
0.5
 40
0.5
 40
1.0
 40
1.0
 40
1.0
 40
1.0
 10
11.99999999999833
 20
-7.081850404419018
 30
0.0
 10
11.49255083773851
 20
-6.972711187898692
 30
0.0
 10
10.98273095084123
 20
-6.854246936254255
 30
0.0
 10
9.96426315323076
 20
-6.599980863338669
 30
0.0
 10
9.457050896933486
 20
-6.464317493604179
 30
0.0
 10
8.950100032218627
 20
-6.320530254209714
 30
0.0
  0
SPLINE
  5
D0
330
1F
100
AcDbEntity
  8
0
  6
Continuous
 62
   131
370
    15
100
AcDbSpline
210
0.0
220
0.0
230
1.0
 70
    24
 71
     3
 72
    14
 73
    10
 74
     0
 42
0.000000001
 43
0.00000001
 40
0.0
 40
0.0
 40
0.0
 40
0.0
 40
0.25
 40
0.25
 40
0.4999999999999999
 40
0.4999999999999999
 40
0.75
 40
0.75
 40
1.0
 40
1.0
 40
1.0
 40
1.0
 10
12.0
 20
3.25605769015094
 30
0.0
 10
12.0
 20
2.402132898517708
 30
0.0
 10
12.0
 20
1.491900958994375
 30
0.0
 10
12.0
 20
-0.3661274083865375
 30
0.0
 10
12.0
 20
-1.313093622932704
 30
0.0
 10
12.0
 20
-3.150437944704181
 30
0.0
 10
12.0
 20
-4.039837038058755
 30
0.0
 10
12.0
 20
-5.678516073390854
 30
0.0
 10
12.0
 20
-6.427273890029367
 30
0.0
 10
12.0
 20
-7.081850404419378
 30
0.0
  0
SPLINE
  5
D1
330
1F
100
AcDbEntity
  8
0
  6
Continuous
 62
   131
370
    15
100
AcDbSpline
210
0.0
220
0.0
230
1.0
 70
    24
 71
     3
 72
    10
 73
     6
 74
     0
 42
0.000000001
 43
0.00000001
 40
0.0
 40
0.0
 40
0.0
 40
0.0
 40
0.0868881757111823
 40
0.6877137861901991
 40
0.9999999999999999
 40
0.9999999999999999
 40
0.9999999999999999
 40
0.9999999999999999
 10
12.00000000000004
 20
7.79896256845552
 30
0.0
 10
12.00000000000004
 20
7.804970271670919
 30
0.0
 10
12.00000000000004
 20
7.852520819150507
 30
0.0
 10
12.00000000000004
 20
7.708654346793821
 30
0.0
 10
12.00000000000004
 20
7.437217198006775
 30
0.0
 10
12.00000000000004
 20
7.344385107536307
 30
0.0
  0
SPLINE
  5
D2
330
1F
100
AcDbEntity
  8
0
  6
Continuous
 62
   131
370
    15
100
AcDbSpline
210
0.0
220
0.0
230
1.0
 70
    24
 71
     3
 72
    10
 73
     6
 74
     0
 42
0.000000001
 43
0.00000001
 40
0.0
 40
0.0
 40
0.0
 40
0.0
 40
0.3060951892328184
 40
0.6161714160192139
 40
1.0
 40
1.0
 40
1.0
 40
1.0
 10
12.00000000000004
 20
-7.081850404419387
 30
0.0
 10
12.00000000000004
 20
-7.217162798387906
 30
0.0
 10
12.00000000000004
 20
-7.489547443195624
 30
0.0
 10
12.00000000000004
 20
-7.762508694346196
 30
0.0
 10
12.00000000000004
 20
-7.785992951869808
 30
0.0
 10
12.00000000000004
 20
-7.798983104368051
 30
0.0
  0
LINE
  5
D3
330
1F
100
AcDbEntity
  8
중심선
100
AcDbLine
 10
-101.0
 20
0.0000000000000005
 30
0.0
 11
109.0
 21
0.0000000000000165
 31
0.0
  0
CIRCLE
  5
D4
330
1F
100
AcDbEntity
  8
외형선
100
AcDbCircle
 10
0.0000000000000104
 20
0.0
 30
0.0
 40
3.000000000000005
  0
INSERT
  5
D5
330
1F
100
AcDbEntity
  8
0
  6
Continuous
 62
     7
100
AcDbBlockReference
 66
     1
  2
블럭10
 10
-22.93944368806589
 20
-52.04609937292004
 30
0.0
  0
ATTRIB
  5
D6
330
D5
100
AcDbEntity
  8
FORMAT
 62
     2
100
AcDbText
 10
-43.79769121965843
 20
-49.97073246008785
 30
0.0
 40
4.233333333333333
  1
SEME7020090200E [ 2 FLUTE ]
 41
0.75
  7
SLDTEXTSTYLE0
 11
-43.79769121965843
 21
-52.08739912675452
 31
0.0
100
AcDbAttribute
  2
AUTOATTR0
 70
     0
 74
     1
  0
SEQEND
  5
D7
330
D5
100
AcDbEntity
  8
0
  6
Continuous
 62
     7
  0
HATCH
  5
D8
330
1F
100
AcDbEntity
  8
중심선
100
AcDbHatch
 10
0.0
 20
0.0
 30
0.0
210
0.0
220
0.0
230
1.0
  2
SOLID
 70
     1
 71
     0
 91
        1
 92
        0
 93
        4
 72
     1
 10
-17.22453438368504
 20
-35.7989250712761
 11
-20.67080962752232
 21
-35.7989250712761
 72
     1
 10
-20.67080962752232
 20
-35.7989250712761
 11
-22.79903948672635
 21
-38.3352506518487
 72
     1
 10
-22.79903948672635
 20
-38.3352506518487
 11
-19.35273115777591
 21
-38.33521122254621
 72
     1
 10
-19.35273115777591
 20
-38.33521122254621
 11
-17.22453438368504
 21
-35.7989250712761
 97
        0
 75
     0
 76
     1
 98
        1
 10
0.0
 20
0.0
  0
HATCH
  5
D9
330
1F
100
AcDbEntity
  8
중심선
100
AcDbHatch
 10
0.0
 20
0.0
 30
0.0
210
0.0
220
0.0
230
1.0
  2
SOLID
 70
     1
 71
     0
 91
        1
 92
        0
 93
        4
 72
     1
 10
-12.21177039264909
 20
-35.7989250712761
 11
-15.65804563648637
 21
-35.7989250712761
 72
     1
 10
-15.65804563648637
 20
-35.7989250712761
 11
-20.18918364484376
 21
-41.19892507127612
 72
     1
 10
-20.18918364484376
 20
-41.19892507127612
 11
-16.74290840100648
 21
-41.19892507127612
 72
     1
 10
-16.74290840100648
 20
-41.19892507127612
 11
-12.21177039264909
 21
-35.7989250712761
 97
        0
 75
     0
 76
     1
 98
        1
 10
0.0
 20
0.0
  0
HATCH
  5
DA
330
1F
100
AcDbEntity
  8
중심선
100
AcDbHatch
 10
0.0
 20
0.0
 30
0.0
210
0.0
220
0.0
230
1.0
  2
SOLID
 70
     1
 71
     0
 91
        1
 92
        0
 93
        4
 72
     1
 10
-7.199006401613195
 20
-35.79892507127613
 11
-10.64528164545031
 21
-35.7989250712761
 72
     1
 10
-10.64528164545031
 20
-35.7989250712761
 11
-17.69371854733956
 21
-44.19892507127612
 72
     1
 10
-17.69371854733956
 20
-44.19892507127612
 11
-14.24744330350228
 21
-44.19892507127612
 72
     1
 10
-14.24744330350228
 20
-44.19892507127612
 11
-7.199006401613195
 21
-35.79892507127613
 97
        0
 75
     0
 76
     1
 98
        1
 10
0.0
 20
0.0
  0
HATCH
  5
DB
330
1F
100
AcDbEntity
  8
중심선
100
AcDbHatch
 10
0.0
 20
0.0
 30
0.0
210
0.0
220
0.0
230
1.0
  2
SOLID
 70
     1
 71
     0
 91
        1
 92
        0
 93
        6
 72
     3
 10
-2.399115970600996
 20
-39.99892507132738
 11
3.960054785062284
 21
1.540850780301639E-10
 40
0.3939339440162633
 50
17.09539180608433
 51
320.0019657685079
 73
     0
 72
     1
 10
-0.7161163149004002
 20
-38.58681907591441
 11
1.589185558800638
 21
-36.65249236586649
 72
     3
 10
-2.399115970653842
 20
-39.99892507127625
 11
6.600054785286829
 21
-1.249000902703301E-13
 40
0.6363583540795982
 50
39.99873849337408
 51
368.4976242363725
 73
     1
 72
     1
 10
4.026216521246767
 20
-39.03892507120613
 11
-3.71904866381792
 21
-39.0389250712061
 72
     1
 10
-3.71904866381792
 20
-39.0389250712061
 11
-3.719073708263854
 21
-40.95892507120602
 72
     1
 10
-3.719073708263854
 20
-40.95892507120602
 11
0.7223060612081831
 21
-40.95892507120599
 97
        0
 75
     0
 76
     1
 98
        1
 10
0.0
 20
0.0
  0
DIMENSION
  5
DC
330
1F
100
AcDbEntity
  8
치수문자_일반주서
100
AcDbDimension
  2
_D
 10
119.3232770656337
 20
10.00000000000039
 30
0.0
 11
119.3232770656336
 21
20.7602500000004
 31
0.0
 70
   160
  1
%%c<>
 71
     2
 42
19.99999999999999
 52
-270.0
  3
SLDDIMSTYLE0
100
AcDbAlignedDimension
 13
102.0
 23
-9.999999999999664
 33
0.0
 14
102.0
 24
10.00000000000033
 34
0.0
 50
90.0000000000002
100
AcDbRotatedDimension
  0
DIMENSION
  5
EA
330
1F
100
AcDbEntity
  8
치수문자_일반주서
100
AcDbDimension
  2
_D_1
 10
102.0
 20
30.78841044024269
 30
0.0
 11
2.000000000000033
 21
30.78841044024269
 31
0.0
 70
   160
  1
<>
 71
     2
 42
200.0
  3
SLDDIMSTYLE1
100
AcDbAlignedDimension
 13
-97.99999999999997
 23
8.999999999999988
 33
0.0
 14
102.0
 24
10.00000000000034
 34
0.0
 50
-0.0000000000000041
100
AcDbRotatedDimension
  0
DIMENSION
  5
F5
330
1F
100
AcDbEntity
  8
치수문자_일반주서
100
AcDbDimension
  2
_D_2
 10
102.0
 20
21.16519480938925
 30
0.0
 11
57.00000000000004
 21
21.16519480938925
 31
0.0
 70
   160
  1
<>
 71
     2
 42
89.99999999999999
  3
SLDDIMSTYLE1
100
AcDbAlignedDimension
 13
12.00000000000004
 23
7.818197003221725
 33
0.0
 14
102.0
 24
10.00000000000034
 34
0.0
 50
-0.0000000000000045
100
AcDbRotatedDimension
  0
DIMENSION
  5
FF
330
1F
100
AcDbEntity
  8
치수문자_일반주서
100
AcDbDimension
  2
_D_3
 10
-110.3699570049967
 20
-10.00000000000005
 30
0.0
 11
-110.3699570049968
 21
20.76024999999994
 31
0.0
 70
   160
  1
%%c<>
 71
     2
 42
19.99999999999999
 52
-270.0
  3
SLDDIMSTYLE0
100
AcDbAlignedDimension
 13
-96.99999999999997
 23
9.999999999999991
 33
0.0
 14
-96.99999999999997
 24
-9.999999999999998
 34
0.0
 50
90.0000000000002
100
AcDbRotatedDimension
  0
INSERT
  5
112
330
1F
100
AcDbEntity
  8
외형선
100
AcDbBlockReference
  2
SW_DOWELSYMBOL_0
 10
0.0000000000000104
 20
0.0
 30
0.0
  0
ENDSEC
  0
SECTION
  2
OBJECTS
  0
DICTIONARY
  5
C
330
0
100
AcDbDictionary
281
     1
  3
ACAD_GROUP
350
D
  3
ACAD_IMAGE_VARS
350
136
  3
ACAD_LAYOUT
350
1A
  3
ACAD_MLINESTYLE
350
17
  3
ACAD_PLOTSETTINGS
350
19
  3
ACAD_PLOTSTYLENAME
350
E
  3
ACAD_SCALELIST
350
47
  3
APPDATA
350
134
  3
DWGPROPS
350
147
  0
DICTIONARY
  5
D
102
{ACAD_REACTORS
330
C
102
}
330
C
100
AcDbDictionary
281
     1
  0
RASTERVARIABLES
  5
136
102
{ACAD_REACTORS
330
C
102
}
330
C
100
AcDbRasterVariables
 90
        0
 70
     1
 71
     1
 72
     1
  0
DICTIONARY
  5
1A
102
{ACAD_REACTORS
330
C
102
}
330
C
100
AcDbDictionary
281
     1
  3
Layout1
350
1E
  3
Layout2
350
26
  3
Model
350
22
  0
DICTIONARY
  5
17
102
{ACAD_REACTORS
330
C
102
}
330
C
100
AcDbDictionary
281
     1
  3
Standard
350
18
  0
DICTIONARY
  5
19
102
{ACAD_REACTORS
330
C
102
}
330
C
100
AcDbDictionary
281
     1
  0
ACDBDICTIONARYWDFLT
  5
E
102
{ACAD_REACTORS
330
C
102
}
330
C
100
AcDbDictionary
281
     1
  3
Normal
350
F
100
AcDbDictionaryWithDefault
340
F
  0
DICTIONARY
  5
47
102
{ACAD_REACTORS
330
C
102
}
330
C
100
AcDbDictionary
281
     1
  3
A0
350
48
  3
A1
350
49
  3
A2
350
4A
  3
A3
350
4B
  3
A4
350
4C
  3
A5
350
4D
  3
A6
350
4E
  3
A7
350
4F
  3
A8
350
50
  3
A9
350
51
  3
B0
350
52
  3
B1
350
53
  3
B2
350
54
  3
B3
350
55
  3
B4
350
56
  3
B5
350
57
  3
B6
350
58
  3
B7
350
59
  3
B8
350
5A
  3
B9
350
5B
  3
C0
350
5C
  3
C1
350
5D
  3
C2
350
5E
  3
C3
350
5F
  3
C4
350
60
  3
C5
350
61
  3
C6
350
62
  3
C7
350
63
  3
C8
350
64
  3
C9
350
65
  3
D0
350
66
  3
D1
350
67
  3
D2
350
68
  0
DICTIONARY
  5
134
102
{ACAD_REACTORS
330
C
102
}
330
C
100
AcDbDictionary
281
     1
  0
XRECORD
  5
147
102
{ACAD_REACTORS
330
C
102
}
330
C
100
AcDbXrecord
280
     1
  1
DWGPROPS COOKIE
  2

  3

  4

  6

  7

  8
12014102
  9

300
=
301
=
302
=
303
=
304
=
305
=
306
=
307
=
308
=
309
=
 40
0.0
 41
2458262.178932257
 42
2458266.319614931
  1

 90
        0
  0
LAYOUT
  5
1E
102
{ACAD_REACTORS
330
1A
102
}
330
1A
100
AcDbPlotSettings
  1

  2
none_device
  4

  6

 40
0.0
 41
0.0
 42
0.0
 43
0.0
 44
0.0
 45
0.0
 46
0.0
 47
0.0
 48
0.0
 49
0.0
140
0.0
141
0.0
142
1.0
143
1.0
 70
   688
 72
     1
 73
     0
 74
     5
  7

 75
    16
147
1.0
148
0.0
149
0.0
100
AcDbLayout
  1
Layout1
 70
     1
 71
     1
 10
0.0
 20
0.0
 11
420.0
 21
297.0
 12
0.0
 22
0.0
 32
0.0
 14
1.000000000000000E+20
 24
1.000000000000000E+20
 34
1.000000000000000E+20
 15
-1.000000000000000E+20
 25
-1.000000000000000E+20
 35
-1.000000000000000E+20
146
0.0
 13
0.0
 23
0.0
 33
0.0
 16
1.0
 26
0.0
 36
0.0
 17
0.0
 27
1.0
 37
0.0
 76
     0
330
1B
  0
LAYOUT
  5
26
102
{ACAD_REACTORS
330
1A
102
}
330
1A
100
AcDbPlotSettings
  1

  2
none_device
  4

  6

 40
0.0
 41
0.0
 42
0.0
 43
0.0
 44
0.0
 45
0.0
 46
0.0
 47
0.0
 48
0.0
 49
0.0
140
0.0
141
0.0
142
1.0
143
1.0
 70
   688
 72
     1
 73
     0
 74
     5
  7

 75
    16
147
1.0
148
0.0
149
0.0
100
AcDbLayout
  1
Layout2
 70
     1
 71
     2
 10
0.0
 20
0.0
 11
0.0
 21
0.0
 12
0.0
 22
0.0
 32
0.0
 14
0.0
 24
0.0
 34
0.0
 15
0.0
 25
0.0
 35
0.0
146
0.0
 13
0.0
 23
0.0
 33
0.0
 16
1.0
 26
0.0
 36
0.0
 17
0.0
 27
1.0
 37
0.0
 76
     0
330
23
  0
LAYOUT
  5
22
102
{ACAD_REACTORS
330
1A
102
}
330
1A
100
AcDbPlotSettings
  1

  2
none_device
  4
ANSI_A_(11.00_x_8.50_Inches)
  6

 40
6.35
 41
19.05
 42
6.35000508
 43
19.05000254
 44
279.4
 45
215.9
 46
137.231725228055
 47
98.76630211529803
 48
0.0
 49
0.0
140
0.0
141
0.0
142
0.0504022769828517
143
1.0
 70
  1696
 72
     0
 73
     0
 74
     0
  7

 75
     0
147
0.0235690232323232
148
0.0
149
0.0
100
AcDbLayout
  1
Model
 70
     1
 71
     0
 10
0.0
 20
0.0
 11
420.0
 21
297.0
 12
0.0
 22
0.0
 32
0.0
 14
-114.7449570049968
 24
-49.97073246008785
 34
0.0
 15
119.8736103989671
 25
35.16341044024269
 35
0.0
146
0.0
 13
0.0
 23
0.0
 33
0.0
 16
1.0
 26
0.0
 36
0.0
 17
0.0
 27
1.0
 37
0.0
 76
     0
330
1F
331
29
  0
MLINESTYLE
  5
18
102
{ACAD_REACTORS
330
17
102
}
330
17
100
AcDbMlineStyle
  2
Standard
 70
     0
  3

 62
   256
 51
90.0
 52
90.0
 71
     2
 49
0.5
 62
   256
  6
BYLAYER
 49
-0.5
 62
   256
  6
BYLAYER
  0
ACDBPLACEHOLDER
  5
F
102
{ACAD_REACTORS
330
E
102
}
330
E
  0
SCALE
  5
48
102
{ACAD_REACTORS
330
47
102
}
330
47
100
AcDbScale
 70
     0
300
1:1
140
1.0
141
1.0
290
     1
  0
SCALE
  5
49
102
{ACAD_REACTORS
330
47
102
}
330
47
100
AcDbScale
 70
     0
300
1:2
140
1.0
141
2.0
290
     0
  0
SCALE
  5
4A
102
{ACAD_REACTORS
330
47
102
}
330
47
100
AcDbScale
 70
     0
300
1:4
140
1.0
141
4.0
290
     0
  0
SCALE
  5
4B
102
{ACAD_REACTORS
330
47
102
}
330
47
100
AcDbScale
 70
     0
300
1:5
140
1.0
141
5.0
290
     0
  0
SCALE
  5
4C
102
{ACAD_REACTORS
330
47
102
}
330
47
100
AcDbScale
 70
     0
300
1:8
140
1.0
141
8.0
290
     0
  0
SCALE
  5
4D
102
{ACAD_REACTORS
330
47
102
}
330
47
100
AcDbScale
 70
     0
300
1:10
140
1.0
141
10.0
290
     0
  0
SCALE
  5
4E
102
{ACAD_REACTORS
330
47
102
}
330
47
100
AcDbScale
 70
     0
300
1:16
140
1.0
141
16.0
290
     0
  0
SCALE
  5
4F
102
{ACAD_REACTORS
330
47
102
}
330
47
100
AcDbScale
 70
     0
300
1:20
140
1.0
141
20.0
290
     0
  0
SCALE
  5
50
102
{ACAD_REACTORS
330
47
102
}
330
47
100
AcDbScale
 70
     0
300
1:30
140
1.0
141
30.0
290
     0
  0
SCALE
  5
51
102
{ACAD_REACTORS
330
47
102
}
330
47
100
AcDbScale
 70
     0
300
1:40
140
1.0
141
40.0
290
     0
  0
SCALE
  5
52
102
{ACAD_REACTORS
330
47
102
}
330
47
100
AcDbScale
 70
     0
300
1:50
140
1.0
141
50.0
290
     0
  0
SCALE
  5
53
102
{ACAD_REACTORS
330
47
102
}
330
47
100
AcDbScale
 70
     0
300
1:100
140
1.0
141
100.0
290
     0
  0
SCALE
  5
54
102
{ACAD_REACTORS
330
47
102
}
330
47
100
AcDbScale
 70
     0
300
2:1
140
2.0
141
1.0
290
     0
  0
SCALE
  5
55
102
{ACAD_REACTORS
330
47
102
}
330
47
100
AcDbScale
 70
     0
300
4:1
140
4.0
141
1.0
290
     0
  0
SCALE
  5
56
102
{ACAD_REACTORS
330
47
102
}
330
47
100
AcDbScale
 70
     0
300
8:1
140
8.0
141
1.0
290
     0
  0
SCALE
  5
57
102
{ACAD_REACTORS
330
47
102
}
330
47
100
AcDbScale
 70
     0
300
10:1
140
10.0
141
1.0
290
     0
  0
SCALE
  5
58
102
{ACAD_REACTORS
330
47
102
}
330
47
100
AcDbScale
 70
     0
300
100:1
140
100.0
141
1.0
290
     0
  0
SCALE
  5
59
102
{ACAD_REACTORS
330
47
102
}
330
47
100
AcDbScale
 70
     0
300
1/128" = 1'-0"
140
0.0078125
141
12.0
290
     0
  0
SCALE
  5
5A
102
{ACAD_REACTORS
330
47
102
}
330
47
100
AcDbScale
 70
     0
300
1/64" = 1'-0"
140
0.015625
141
12.0
290
     0
  0
SCALE
  5
5B
102
{ACAD_REACTORS
330
47
102
}
330
47
100
AcDbScale
 70
     0
300
1/32" = 1'-0"
140
0.03125
141
12.0
290
     0
  0
SCALE
  5
5C
102
{ACAD_REACTORS
330
47
102
}
330
47
100
AcDbScale
 70
     0
300
1/16" = 1'-0"
140
0.0625
141
12.0
290
     0
  0
SCALE
  5
5D
102
{ACAD_REACTORS
330
47
102
}
330
47
100
AcDbScale
 70
     0
300
3/32" = 1'-0"
140
0.09375
141
12.0
290
     0
  0
SCALE
  5
5E
102
{ACAD_REACTORS
330
47
102
}
330
47
100
AcDbScale
 70
     0
300
1/8" = 1'-0"
140
0.125
141
12.0
290
     0
  0
SCALE
  5
5F
102
{ACAD_REACTORS
330
47
102
}
330
47
100
AcDbScale
 70
     0
300
3/16" = 1'-0"
140
0.1875
141
12.0
290
     0
  0
SCALE
  5
60
102
{ACAD_REACTORS
330
47
102
}
330
47
100
AcDbScale
 70
     0
300
1/4" = 1'-0"
140
0.25
141
12.0
290
     0
  0
SCALE
  5
61
102
{ACAD_REACTORS
330
47
102
}
330
47
100
AcDbScale
 70
     0
300
3/8" = 1'-0"
140
0.375
141
12.0
290
     0
  0
SCALE
  5
62
102
{ACAD_REACTORS
330
47
102
}
330
47
100
AcDbScale
 70
     0
300
1/2" = 1'-0"
140
0.5
141
12.0
290
     0
  0
SCALE
  5
63
102
{ACAD_REACTORS
330
47
102
}
330
47
100
AcDbScale
 70
     0
300
3/4" = 1'-0"
140
0.75
141
12.0
290
     0
  0
SCALE
  5
64
102
{ACAD_REACTORS
330
47
102
}
330
47
100
AcDbScale
 70
     0
300
1" = 1'-0"
140
1.0
141
12.0
290
     0
  0
SCALE
  5
65
102
{ACAD_REACTORS
330
47
102
}
330
47
100
AcDbScale
 70
     0
300
1-1/2" = 1'-0"
140
1.5
141
12.0
290
     0
  0
SCALE
  5
66
102
{ACAD_REACTORS
330
47
102
}
330
47
100
AcDbScale
 70
     0
300
3" = 1'-0"
140
3.0
141
12.0
290
     0
  0
SCALE
  5
67
102
{ACAD_REACTORS
330
47
102
}
330
47
100
AcDbScale
 70
     0
300
6" = 1'-0"
140
6.0
141
12.0
290
     0
  0
SCALE
  5
68
102
{ACAD_REACTORS
330
47
102
}
330
47
100
AcDbScale
 70
     0
300
1'-0" = 1'-0"
140
12.0
141
12.0
290
     0
  0
ENDSEC
  0
EOF
