  0
SECTION
  2
HEADER
  9
$ACADVER
  1
AC1015
  9
$ACADMAINTVER
 70
     6
  9
$DWGCODEPAGE
  3
ANSI_949
  9
$INSBASE
 10
0.0
 20
0.0
 30
0.0
  9
$EXTMIN
 10
-98.18189305085664
 20
-49.97073246008785
 30
0.0
  9
$EXTMAX
 10
141.5233452872687
 20
36.51644145862323
 30
0.0
  9
$LIMMIN
 10
0.0
 20
0.0
  9
$LIMMAX
 10
420.0
 20
297.0
  9
$ORTHOMODE
 70
     0
  9
$REGENMODE
 70
     1
  9
$FILLMODE
 70
     1
  9
$QTEXTMODE
 70
     0
  9
$MIRRTEXT
 70
     1
  9
$LTSCALE
 40
1.0
  9
$ATTMODE
 70
     1
  9
$TEXTSIZE
 40
3.5
  9
$TRACEWID
 40
1.0
  9
$TEXTSTYLE
  7
Standard
  9
$CLAYER
  8
0
  9
$CELTYPE
  6
ByLayer
  9
$CECOLOR
 62
   256
  9
$CELTSCALE
 40
1.0
  9
$DISPSILH
 70
     0
  9
$DIMSCALE
 40
1.0
  9
$DIMASZ
 40
3.302
  9
$DIMEXO
 40
1.0
  9
$DIMDLI
 40
3.75
  9
$DIMRND
 40
0.0
  9
$DIMDLE
 40
0.0
  9
$DIMEXE
 40
1.0
  9
$DIMTP
 40
0.0
  9
$DIMTM
 40
0.0
  9
$DIMTXT
 40
3.5
  9
$DIMCEN
 40
2.5
  9
$DIMTSZ
 40
0.0
  9
$DIMTOL
 70
     0
  9
$DIMLIM
 70
     0
  9
$DIMTIH
 70
     1
  9
$DIMTOH
 70
     1
  9
$DIMSE1
 70
     0
  9
$DIMSE2
 70
     0
  9
$DIMTAD
 70
     1
  9
$DIMZIN
 70
     0
  9
$DIMBLK
  1

  9
$DIMASO
 70
     1
  9
$DIMSHO
 70
     1
  9
$DIMPOST
  1

  9
$DIMAPOST
  1

  9
$DIMALT
 70
     0
  9
$DIMALTD
 70
     3
  9
$DIMALTF
 40
0.0393700787401575
  9
$DIMLFAC
 40
1.0
  9
$DIMTOFL
 70
     1
  9
$DIMTVP
 40
0.0
  9
$DIMTIX
 70
     0
  9
$DIMSOXD
 70
     0
  9
$DIMSAH
 70
     0
  9
$DIMBLK1
  1

  9
$DIMBLK2
  1

  9
$DIMSTYLE
  2
ISO-25
  9
$DIMCLRD
 70
     0
  9
$DIMCLRE
 70
     0
  9
$DIMCLRT
 70
     0
  9
$DIMTFAC
 40
1.0
  9
$DIMGAP
 40
1.524
  9
$DIMJUST
 70
     0
  9
$DIMSD1
 70
     0
  9
$DIMSD2
 70
     0
  9
$DIMTOLJ
 70
     0
  9
$DIMTZIN
 70
     0
  9
$DIMALTZ
 70
     0
  9
$DIMALTTZ
 70
     0
  9
$DIMUPT
 70
     0
  9
$DIMDEC
 70
     2
  9
$DIMTDEC
 70
     2
  9
$DIMALTU
 70
     2
  9
$DIMALTTD
 70
     3
  9
$DIMTXSTY
  7
Standard
  9
$DIMAUNIT
 70
     0
  9
$DIMADEC
 70
     2
  9
$DIMALTRND
 40
0.0
  9
$DIMAZIN
 70
     0
  9
$DIMDSEP
 70
    44
  9
$DIMATFIT
 70
     3
  9
$DIMFRAC
 70
     0
  9
$DIMLDRBLK
  1

  9
$DIMLUNIT
 70
     2
  9
$DIMLWD
 70
    -2
  9
$DIMLWE
 70
    -2
  9
$DIMTMOVE
 70
     0
  9
$LUNITS
 70
     2
  9
$LUPREC
 70
     2
  9
$SKETCHINC
 40
1.0
  9
$FILLETRAD
 40
10.0
  9
$AUNITS
 70
     0
  9
$AUPREC
 70
     2
  9
$MENU
  1
.
  9
$ELEVATION
 40
0.0
  9
$PELEVATION
 40
0.0
  9
$THICKNESS
 40
0.0
  9
$LIMCHECK
 70
     0
  9
$CHAMFERA
 40
0.0
  9
$CHAMFERB
 40
0.0
  9
$CHAMFERC
 40
0.0
  9
$CHAMFERD
 40
0.0
  9
$SKPOLY
 70
     0
  9
$TDCREATE
 40
2458262.55430772
  9
$TDUCREATE
 40
2458262.17930772
  9
$TDUPDATE
 40
2458266.633741042
  9
$TDUUPDATE
 40
2458266.258741042
  9
$TDINDWG
 40
0.004319456
  9
$TDUSRTIMER
 40
2458266.25442162
  9
$USRTIMER
 70
     1
  9
$ANGBASE
 50
0.0
  9
$ANGDIR
 70
     0
  9
$PDMODE
 70
     0
  9
$PDSIZE
 40
-1.0
  9
$PLINEWID
 40
0.0
  9
$SPLFRAME
 70
     0
  9
$SPLINETYPE
 70
     6
  9
$SPLINESEGS
 70
     8
  9
$HANDSEED
  5
144
  9
$SURFTAB1
 70
     6
  9
$SURFTAB2
 70
     6
  9
$SURFTYPE
 70
     6
  9
$SURFU
 70
     6
  9
$SURFV
 70
     6
  9
$UCSBASE
  2

  9
$UCSNAME
  2

  9
$UCSORG
 10
0.0
 20
0.0
 30
0.0
  9
$UCSXDIR
 10
1.0
 20
0.0
 30
0.0
  9
$UCSYDIR
 10
0.0
 20
1.0
 30
0.0
  9
$UCSORTHOREF
  2

  9
$UCSORTHOVIEW
 70
     0
  9
$UCSORGTOP
 10
0.0
 20
0.0
 30
0.0
  9
$UCSORGBOTTOM
 10
0.0
 20
0.0
 30
0.0
  9
$UCSORGLEFT
 10
0.0
 20
0.0
 30
0.0
  9
$UCSORGRIGHT
 10
0.0
 20
0.0
 30
0.0
  9
$UCSORGFRONT
 10
0.0
 20
0.0
 30
0.0
  9
$UCSORGBACK
 10
0.0
 20
0.0
 30
0.0
  9
$PUCSBASE
  2

  9
$PUCSNAME
  2

  9
$PUCSORG
 10
0.0
 20
0.0
 30
0.0
  9
$PUCSXDIR
 10
1.0
 20
0.0
 30
0.0
  9
$PUCSYDIR
 10
0.0
 20
1.0
 30
0.0
  9
$PUCSORTHOREF
  2

  9
$PUCSORTHOVIEW
 70
     0
  9
$PUCSORGTOP
 10
0.0
 20
0.0
 30
0.0
  9
$PUCSORGBOTTOM
 10
0.0
 20
0.0
 30
0.0
  9
$PUCSORGLEFT
 10
0.0
 20
0.0
 30
0.0
  9
$PUCSORGRIGHT
 10
0.0
 20
0.0
 30
0.0
  9
$PUCSORGFRONT
 10
0.0
 20
0.0
 30
0.0
  9
$PUCSORGBACK
 10
0.0
 20
0.0
 30
0.0
  9
$USERI1
 70
     0
  9
$USERI2
 70
     0
  9
$USERI3
 70
     0
  9
$USERI4
 70
     0
  9
$USERI5
 70
     0
  9
$USERR1
 40
0.0
  9
$USERR2
 40
0.0
  9
$USERR3
 40
0.0
  9
$USERR4
 40
0.0
  9
$USERR5
 40
0.0
  9
$WORLDVIEW
 70
     1
  9
$SHADEDGE
 70
     3
  9
$SHADEDIF
 70
    70
  9
$TILEMODE
 70
     1
  9
$MAXACTVP
 70
    64
  9
$PINSBASE
 10
0.0
 20
0.0
 30
0.0
  9
$PLIMCHECK
 70
     0
  9
$PEXTMIN
 10
1.000000000000000E+20
 20
1.000000000000000E+20
 30
1.000000000000000E+20
  9
$PEXTMAX
 10
-1.000000000000000E+20
 20
-1.000000000000000E+20
 30
-1.000000000000000E+20
  9
$PLIMMIN
 10
0.0
 20
0.0
  9
$PLIMMAX
 10
0.0
 20
0.0
  9
$UNITMODE
 70
     0
  9
$VISRETAIN
 70
     1
  9
$PLINEGEN
 70
     0
  9
$PSLTSCALE
 70
     1
  9
$TREEDEPTH
 70
  3020
  9
$CMLSTYLE
  2
Standard
  9
$CMLJUST
 70
     0
  9
$CMLSCALE
 40
20.0
  9
$PROXYGRAPHICS
 70
     1
  9
$MEASUREMENT
 70
     1
  9
$CELWEIGHT
370
    -1
  9
$ENDCAPS
280
     0
  9
$JOINSTYLE
280
     0
  9
$LWDISPLAY
290
     1
  9
$INSUNITS
 70
     4
  9
$HYPERLINKBASE
  1

  9
$STYLESHEET
  1

  9
$XEDIT
290
     1
  9
$CEPSNTYPE
380
     0
  9
$PSTYLEMODE
290
     1
  9
$FINGERPRINTGUID
  2
{3CC4F105-1782-4FB0-9573-CC09055F30BD}
  9
$VERSIONGUID
  2
{FAEB1C32-E019-11D5-929B-00C0DF256EC4}
  9
$EXTNAMES
290
     1
  9
$PSVPSCALE
 40
0.0
  9
$OLESTARTUP
290
     0
  0
ENDSEC
  0
SECTION
  2
CLASSES
  0
CLASS
  1
ACDBDICTIONARYWDFLT
  2
AcDbDictionaryWithDefault
  3
ObjectDBX Classes
 90
        0
280
     0
281
     0
  0
CLASS
  1
VISUALSTYLE
  2
AcDbVisualStyle
  3
ObjectDBX Classes
 90
     4095
280
     0
281
     0
  0
CLASS
  1
MATERIAL
  2
AcDbMaterial
  3
ObjectDBX Classes
 90
     1153
280
     0
281
     0
  0
CLASS
  1
SCALE
  2
AcDbScale
  3
ObjectDBX Classes
 90
     1153
280
     0
281
     0
  0
CLASS
  1
SUN
  2
AcDbSun
  3
SCENEOE
 90
     1153
280
     0
281
     0
  0
CLASS
  1
ACDBPLACEHOLDER
  2
AcDbPlaceHolder
  3
ObjectDBX Classes
 90
        0
280
     0
281
     0
  0
CLASS
  1
LAYOUT
  2
AcDbLayout
  3
ObjectDBX Classes
 90
        0
280
     0
281
     0
  0
CLASS
  1
TABLESTYLE
  2
AcDbTableStyle
  3
ObjectDBX Classes
 90
     4095
280
     0
281
     0
  0
CLASS
  1
MLEADERSTYLE
  2
AcDbMLeaderStyle
  3
ACDB_MLEADERSTYLE_CLASS
 90
     4095
280
     0
281
     0
  0
CLASS
  1
RASTERVARIABLES
  2
AcDbRasterVariables
  3
ISM
 90
        0
280
     0
281
     0
  0
ENDSEC
  0
SECTION
  2
TABLES
  0
TABLE
  2
VPORT
  5
8
330
0
100
AcDbSymbolTable
 70
     1
  0
VPORT
  5
29
330
8
100
AcDbSymbolTableRecord
100
AcDbViewportTableRecord
  2
*Active
 70
     0
 10
0.0
 20
0.0
 11
1.0
 21
1.0
 12
21.67072611820605
 22
-6.727145500732313
 13
0.0
 23
0.0
 14
10.0
 24
10.0
 15
10.0
 25
10.0
 16
0.0
 26
0.0
 36
1.0
 17
0.0
 27
0.0
 37
0.0
 40
212.1552595999812
 41
1.152454780361757
 42
50.0
 43
0.0
 44
0.0
 50
0.0
 51
0.0
 71
    16
 72
  2000
 73
     1
 74
     3
 75
     0
 76
     0
 77
     0
 78
     0
281
     0
 65
     1
110
0.0
120
0.0
130
0.0
111
1.0
121
0.0
131
0.0
112
0.0
122
1.0
132
0.0
 79
     0
146
0.0
  0
ENDTAB
  0
TABLE
  2
LTYPE
  5
5
330
0
100
AcDbSymbolTable
 70
     6
  0
LTYPE
  5
14
330
5
100
AcDbSymbolTableRecord
100
AcDbLinetypeTableRecord
  2
ByBlock
 70
     0
  3

 72
    65
 73
     0
 40
0.0
  0
LTYPE
  5
15
330
5
100
AcDbSymbolTableRecord
100
AcDbLinetypeTableRecord
  2
ByLayer
 70
     0
  3

 72
    65
 73
     0
 40
0.0
  0
LTYPE
  5
16
330
5
100
AcDbSymbolTableRecord
100
AcDbLinetypeTableRecord
  2
Continuous
 70
     0
  3
Solid line
 72
    65
 73
     0
 40
0.0
  0
LTYPE
  5
6A
330
5
100
AcDbSymbolTableRecord
100
AcDbLinetypeTableRecord
  2
HIDDEN
 70
     0
  3
Hidden __ __ __ __ __ __ __ __ __ __ __ __ __ __
 72
    65
 73
     2
 40
1.905
 49
1.27
 74
     0
 49
-0.635
 74
     0
  0
LTYPE
  5
6B
330
5
100
AcDbSymbolTableRecord
100
AcDbLinetypeTableRecord
  2
PHANTOM
 70
     0
  3
Phantom ______  __  __  ______  __  __  ______
 72
    65
 73
     6
 40
12.7
 49
6.35
 74
     0
 49
-1.27
 74
     0
 49
1.27
 74
     0
 49
-1.27
 74
     0
 49
1.27
 74
     0
 49
-1.27
 74
     0
  0
LTYPE
  5
6C
330
5
100
AcDbSymbolTableRecord
100
AcDbLinetypeTableRecord
  2
CENTER
 70
     0
  3
Center ____ _ ____ _ ____ _ ____ _ ____ _ ____
 72
    65
 73
     4
 40
10.16
 49
6.35
 74
     0
 49
-1.27
 74
     0
 49
1.27
 74
     0
 49
-1.27
 74
     0
  0
LTYPE
  5
6D
330
5
100
AcDbSymbolTableRecord
100
AcDbLinetypeTableRecord
  2
CENTERX2
 70
     0
  3
Center (2x) ________  __  ________  __  _____
 72
    65
 73
     4
 40
20.32
 49
12.7
 74
     0
 49
-2.54
 74
     0
 49
2.54
 74
     0
 49
-2.54
 74
     0
  0
LTYPE
  5
6E
330
5
100
AcDbSymbolTableRecord
100
AcDbLinetypeTableRecord
  2
DOT2
 70
     0
  3
Dot (.5x) ........................................
 72
    65
 73
     2
 40
0.635
 49
0.0
 74
     0
 49
-0.635
 74
     0
  0
ENDTAB
  0
TABLE
  2
LAYER
  5
2
330
0
100
AcDbSymbolTable
 70
    17
  0
LAYER
  5
10
330
2
100
AcDbSymbolTableRecord
100
AcDbLayerTableRecord
  2
0
 70
     0
 62
     7
  6
Continuous
370
    -3
390
F
  0
LAYER
  5
6F
330
2
100
AcDbSymbolTableRecord
100
AcDbLayerTableRecord
  2
FORMAT
 70
     0
 62
     2
  6
Continuous
370
    -3
390
F
  0
LAYER
  5
70
330
2
100
AcDbSymbolTableRecord
100
AcDbLayerTableRecord
  2
외형선
 70
     0
 62
   100
  6
Continuous
370
    30
390
F
  0
LAYER
  5
71
330
2
100
AcDbSymbolTableRecord
100
AcDbLayerTableRecord
  2
숨은선
 70
     0
 62
     2
  6
HIDDEN
370
    15
390
F
  0
LAYER
  5
72
330
2
100
AcDbSymbolTableRecord
100
AcDbLayerTableRecord
  2
중심선
 70
     0
 62
     1
  6
CENTERX2
370
    -3
390
F
  0
LAYER
  5
73
330
2
100
AcDbSymbolTableRecord
100
AcDbLayerTableRecord
  2
파단선
 70
     0
 62
     4
  6
Continuous
370
    -3
390
F
  0
LAYER
  5
74
330
2
100
AcDbSymbolTableRecord
100
AcDbLayerTableRecord
  2
해칭선
 70
     0
 62
     4
  6
Continuous
370
    -3
390
F
  0
LAYER
  5
75
330
2
100
AcDbSymbolTableRecord
100
AcDbLayerTableRecord
  2
가는실선
 70
     0
 62
     4
  6
Continuous
370
    -3
390
F
  0
LAYER
  5
76
330
2
100
AcDbSymbolTableRecord
100
AcDbLayerTableRecord
  2
치수_보조선
 70
     0
 62
     4
  6
Continuous
370
    -3
390
F
  0
LAYER
  5
77
330
2
100
AcDbSymbolTableRecord
100
AcDbLayerTableRecord
  2
치수문자_일반주서
 70
     0
 62
     7
  6
Continuous
370
    15
390
F
  0
LAYER
  5
78
330
2
100
AcDbSymbolTableRecord
100
AcDbLayerTableRecord
  2
개별주서
 70
     0
 62
   100
  6
Continuous
370
    30
390
F
  0
LAYER
  5
79
330
2
100
AcDbSymbolTableRecord
100
AcDbLayerTableRecord
  2
중간선
 70
     0
 62
     2
  6
Continuous
370
    15
390
F
  0
LAYER
  5
7A
330
2
100
AcDbSymbolTableRecord
100
AcDbLayerTableRecord
  2
윤곽선
 70
     0
 62
     3
  6
Continuous
370
    40
390
F
  0
LAYER
  5
7B
330
2
100
AcDbSymbolTableRecord
100
AcDbLayerTableRecord
  2
중심마크
 70
     0
 62
   100
  6
Continuous
370
    30
390
F
  0
LAYER
  5
7C
330
2
100
AcDbSymbolTableRecord
100
AcDbLayerTableRecord
  2
가상선
 70
     0
 62
     4
  6
PHANTOM
370
    -3
390
F
  0
LAYER
  5
7D
330
2
100
AcDbSymbolTableRecord
100
AcDbLayerTableRecord
  2
특수지정선
 70
     0
 62
     5
  6
CENTERX2
370
    60
390
F
  0
LAYER
  5
132
330
2
100
AcDbSymbolTableRecord
100
AcDbLayerTableRecord
  2
Defpoints
 70
     0
 62
     7
  6
Continuous
290
     0
370
    -3
390
F
  0
ENDTAB
  0
TABLE
  2
STYLE
  5
3
330
0
100
AcDbSymbolTable
 70
     2
  0
STYLE
  5
11
330
3
100
AcDbSymbolTableRecord
100
AcDbTextStyleTableRecord
  2
Standard
 70
     0
 40
0.0
 41
1.0
 50
0.0
 71
     0
 42
3.5
  3
txt
  4

  0
STYLE
  5
93
330
3
100
AcDbSymbolTableRecord
100
AcDbTextStyleTableRecord
  2
SLDTEXTSTYLE0
 70
     0
 40
0.0
 41
0.75
 50
0.0
 71
     0
 42
3.5
  3
TXT
  4

  0
ENDTAB
  0
TABLE
  2
VIEW
  5
6
330
0
100
AcDbSymbolTable
 70
     0
  0
ENDTAB
  0
TABLE
  2
UCS
  5
7
330
0
100
AcDbSymbolTable
 70
     0
  0
ENDTAB
  0
TABLE
  2
APPID
  5
9
330
0
100
AcDbSymbolTable
 70
     1
  0
APPID
  5
12
330
9
100
AcDbSymbolTableRecord
100
AcDbRegAppTableRecord
  2
ACAD
 70
     0
  0
ENDTAB
  0
TABLE
  2
DIMSTYLE
  5
A
330
0
100
AcDbSymbolTable
 70
     3
100
AcDbDimStyleTable
  0
DIMSTYLE
105
27
330
A
100
AcDbSymbolTableRecord
100
AcDbDimStyleTableRecord
  2
ISO-25
 70
     0
 41
2.5
 42
0.625
 43
3.75
 44
1.25
 73
     0
 74
     0
 77
     1
 78
     8
140
2.5
141
2.5
143
0.03937007874016
147
0.625
171
     3
172
     1
178
     0
271
     2
272
     2
274
     3
278
    44
283
     0
284
     8
340
11
  0
DIMSTYLE
105
D8
102
{ACAD_REACTORS
330
D7
330
FA
102
}
330
A
100
AcDbSymbolTableRecord
100
AcDbDimStyleTableRecord
  2
SLDDIMSTYLE0
 70
     0
 41
3.302
 44
0.0
 45
0.000000001
 73
     0
 74
     0
 77
     1
 78
    12
 79
     3
140
3.5
147
0.875
172
     1
173
     1
178
     0
271
     2
272
     2
276
     2
284
    12
289
     0
340
93
  0
DIMSTYLE
105
E6
102
{ACAD_REACTORS
330
E5
330
F0
102
}
330
A
100
AcDbSymbolTableRecord
100
AcDbDimStyleTableRecord
  2
SLDDIMSTYLE1
 70
     0
 41
3.302
 44
0.0
 45
0.000000001
 73
     0
 74
     0
 77
     1
 78
    12
 79
     3
140
3.5
147
0.875
173
     1
178
     0
271
     2
272
     2
276
     2
284
    12
340
93
  0
ENDTAB
  0
TABLE
  2
BLOCK_RECORD
  5
1
330
0
100
AcDbSymbolTable
 70
     7
  0
BLOCK_RECORD
  5
1F
330
1
100
AcDbSymbolTableRecord
100
AcDbBlockTableRecord
  2
*Model_Space
340
22
  0
BLOCK_RECORD
  5
1B
330
1
100
AcDbSymbolTableRecord
100
AcDbBlockTableRecord
  2
*Paper_Space
340
1E
  0
BLOCK_RECORD
  5
23
330
1
100
AcDbSymbolTableRecord
100
AcDbBlockTableRecord
  2
*Paper_Space0
340
26
  0
BLOCK_RECORD
  5
7E
330
1
100
AcDbSymbolTableRecord
100
AcDbBlockTableRecord
  2
블럭10
340
0
102
{BLKREFS
331
D0
102
}
  0
BLOCK_RECORD
  5
D9
330
1
100
AcDbSymbolTableRecord
100
AcDbBlockTableRecord
  2
_D
340
0
  0
BLOCK_RECORD
  5
E7
330
1
100
AcDbSymbolTableRecord
100
AcDbBlockTableRecord
  2
_D_1
340
0
  0
BLOCK_RECORD
  5
F1
330
1
100
AcDbSymbolTableRecord
100
AcDbBlockTableRecord
  2
_D_2
340
0
  0
BLOCK_RECORD
  5
FB
330
1
100
AcDbSymbolTableRecord
100
AcDbBlockTableRecord
  2
_D_3
340
0
  0
BLOCK_RECORD
  5
107
330
1
100
AcDbSymbolTableRecord
100
AcDbBlockTableRecord
  2
SW_DOWELSYMBOL_0
340
0
102
{BLKREFS
331
10D
102
}
  0
ENDTAB
  0
ENDSEC
  0
SECTION
  2
BLOCKS
  0
BLOCK
  5
20
330
1F
100
AcDbEntity
  8
0
100
AcDbBlockBegin
  2
*Model_Space
 70
     0
 10
0.0
 20
0.0
 30
0.0
  3
*Model_Space
  1

  0
ENDBLK
  5
21
330
1F
100
AcDbEntity
  8
0
100
AcDbBlockEnd
  0
BLOCK
  5
1C
330
1B
100
AcDbEntity
 67
     1
  8
0
100
AcDbBlockBegin
  2
*Paper_Space
 70
     0
 10
0.0
 20
0.0
 30
0.0
  3
*Paper_Space
  1

  0
ENDBLK
  5
1D
330
1B
100
AcDbEntity
 67
     1
  8
0
100
AcDbBlockEnd
  0
BLOCK
  5
24
330
23
100
AcDbEntity
  8
0
100
AcDbBlockBegin
  2
*Paper_Space0
 70
     0
 10
0.0
 20
0.0
 30
0.0
  3
*Paper_Space0
  1

  0
ENDBLK
  5
25
330
23
100
AcDbEntity
  8
0
100
AcDbBlockEnd
  0
BLOCK
  5
7F
330
7E
100
AcDbEntity
  8
0
100
AcDbBlockBegin
  2
블럭10
 70
     2
 10
0.0
 20
0.0
 30
0.0
  3
블럭10
  1

  0
ELLIPSE
  5
81
330
7E
100
AcDbEntity
  8
중심선
100
AcDbEllipse
 10
20.54032771741204
 20
12.0471743016438
 30
0.0
 11
6.600054785286829
 21
-1.261213355974178E-13
 31
0.0
210
0.0
220
0.0
230
1.0
 40
0.636358354079598
 41
0.9219305317359503
 42
6.513795318482858
  0
ELLIPSE
  5
82
330
7E
100
AcDbEntity
  8
중심선
100
AcDbEllipse
 10
20.54032771746488
 20
12.04717430159265
 30
0.0
 11
3.960054785062283
 21
1.540847449632565E-10
 31
0.0
210
0.0
220
0.0
230
1.0
 40
0.3939339440162632
 41
1.131841032648279
 42
5.62031148352944
  0
LINE
  5
83
330
7E
100
AcDbEntity
  8
중심선
100
AcDbLine
 10
2.268634060543552
 20
16.24717430164393
 30
0.0
 11
5.714909304380834
 21
16.24717430164393
 31
0.0
  0
LINE
  5
84
330
7E
100
AcDbEntity
  8
중심선
100
AcDbLine
 10
5.245725140726316
 20
7.84717430164391
 30
0.0
 11
8.692000384563599
 21
7.84717430164391
 31
0.0
  0
LINE
  5
85
330
7E
100
AcDbEntity
  8
중심선
100
AcDbLine
 10
15.74043728645272
 20
16.24717430164393
 30
0.0
 11
8.692000384563599
 21
7.84717430164391
 31
0.0
  0
LINE
  5
86
330
7E
100
AcDbEntity
  8
중심선
100
AcDbLine
 10
0.1404042013395286
 20
13.71084872107135
 30
0.0
 11
3.58671253028996
 21
13.71088815037384
 31
0.0
  0
LINE
  5
87
330
7E
100
AcDbEntity
  8
중심선
100
AcDbLine
 10
2.750260043222114
 20
10.84717430164391
 30
0.0
 11
6.196535287059397
 21
10.84717430164391
 31
0.0
  0
LINE
  5
88
330
7E
100
AcDbEntity
  8
중심선
100
AcDbLine
 10
12.29416204261559
 20
16.24717430164393
 30
0.0
 11
5.245725140726316
 21
7.84717430164391
 31
0.0
  0
LINE
  5
89
330
7E
100
AcDbEntity
  8
중심선
100
AcDbLine
 10
10.72767329541681
 20
16.24717430164393
 30
0.0
 11
6.196535287059397
 21
10.84717430164391
 31
0.0
  0
LINE
  5
8A
330
7E
100
AcDbEntity
  8
중심선
100
AcDbLine
 10
7.28139805157953
 20
16.24717430164393
 30
0.0
 11
2.750260043222114
 21
10.84717430164391
 31
0.0
  0
LINE
  5
8B
330
7E
100
AcDbEntity
  8
중심선
100
AcDbLine
 10
5.714909304380834
 20
16.24717430164393
 30
0.0
 11
3.58671253028996
 21
13.71088815037384
 31
0.0
  0
LINE
  5
8C
330
7E
100
AcDbEntity
  8
중심선
100
AcDbLine
 10
2.268634060543552
 20
16.24717430164393
 30
0.0
 11
0.1404042013395286
 21
13.71084872107135
 31
0.0
  0
LINE
  5
8D
330
7E
100
AcDbEntity
  8
중심선
100
AcDbLine
 10
7.28139805157953
 20
16.24717430164393
 30
0.0
 11
10.72767329541681
 21
16.24717430164393
 31
0.0
  0
LINE
  5
8E
330
7E
100
AcDbEntity
  8
중심선
100
AcDbLine
 10
12.29416204261559
 20
16.24717430164393
 30
0.0
 11
15.74043728645272
 21
16.24717430164393
 31
0.0
  0
LINE
  5
8F
330
7E
100
AcDbEntity
  8
중심선
100
AcDbLine
 10
19.22036997980202
 20
11.08717430171403
 30
0.0
 11
23.66174974927406
 21
11.08717430171406
 31
0.0
  0
LINE
  5
90
330
7E
100
AcDbEntity
  8
중심선
100
AcDbLine
 10
19.22039502424796
 20
13.00717430171391
 30
0.0
 11
19.22036997980202
 21
11.08717430171403
 31
0.0
  0
LINE
  5
91
330
7E
100
AcDbEntity
  8
중심선
100
AcDbLine
 10
19.22039502424796
 20
13.00717430171391
 30
0.0
 11
26.96566020931264
 21
13.00717430171391
 31
0.0
  0
LINE
  5
92
330
7E
100
AcDbEntity
  8
중심선
100
AcDbLine
 10
22.22332737316547
 20
13.45928029700563
 30
0.0
 11
24.52862924686651
 21
15.39360700705356
 31
0.0
  0
ATTDEF
  5
94
330
7E
100
AcDbEntity
  8
FORMAT
 62
     2
100
AcDbText
 10
-17.69892196172445
 20
2.075366912832191
 30
0.0
 40
4.233333333333333
  1
SEME70220110E [ 2 FLUTE ]
 41
0.75
  7
SLDTEXTSTYLE0
 11
-17.69892196172445
 21
-0.0412997538344756
 31
0.0
100
AcDbAttributeDefinition
  3

  2
AUTOATTR0
 70
     0
 74
     1
  0
ENDBLK
  5
80
330
7E
100
AcDbEntity
  8
0
100
AcDbBlockEnd
  0
BLOCK
  5
DA
330
D9
100
AcDbEntity
  8
0
100
AcDbBlockBegin
  2
_D
 70
     0
 10
0.0
 20
0.0
 30
0.0
  3
_D
  1

  0
LINE
  5
DC
330
D9
100
AcDbEntity
  8
치수문자_일반주서
 62
     0
370
    -2
100
AcDbLine
 10
122.0625
 20
-10.99999999999962
 30
0.0
 11
140.9730119539354
 21
-10.99999999999955
 31
0.0
  0
LINE
  5
DD
330
D9
100
AcDbEntity
  8
치수문자_일반주서
 62
     0
370
    -2
100
AcDbLine
 10
122.0624999999994
 20
11.0000000000004
 30
0.0
 11
140.9730119539353
 21
11.00000000000047
 31
0.0
  0
LINE
  5
DE
330
D9
100
AcDbEntity
  8
치수문자_일반주서
 62
     0
370
    -2
100
AcDbLine
 10
140.9730119539354
 20
-10.99999999999955
 30
0.0
 11
140.9730119539353
 21
26.35400000000048
 31
0.0
  0
LINE
  5
DF
330
D9
100
AcDbEntity
  8
치수문자_일반주서
 62
     0
370
    -2
100
AcDbLine
 10
140.9730119539354
 20
-10.99999999999955
 30
0.0
 11
140.9730119539353
 21
11.00000000000047
 31
0.0
  0
LINE
  5
E0
330
D9
100
AcDbEntity
  8
치수문자_일반주서
 62
     0
370
    -2
100
AcDbLine
 10
140.9730119539354
 20
-14.30199999999954
 30
0.0
 11
140.9730119539354
 21
-17.60399999999954
 31
0.0
  0
LINE
  5
E1
330
D9
100
AcDbEntity
  8
치수문자_일반주서
 62
     0
370
    -2
100
AcDbLine
 10
140.9730119539353
 20
14.30200000000047
 30
0.0
 11
140.9730119539353
 21
17.60400000000048
 31
0.0
  0
SOLID
  5
E2
330
D9
100
AcDbEntity
  8
치수문자_일반주서
 62
     0
100
AcDbTrace
 10
141.5233452872687
 20
-14.30199999999954
 30
0.0
 11
140.4226786206021
 21
-14.30199999999955
 31
0.0
 12
140.9730119539354
 22
-10.99999999999955
 32
0.0
 13
140.9730119539354
 23
-10.99999999999955
 33
0.0
  0
SOLID
  5
E3
330
D9
100
AcDbEntity
  8
치수문자_일반주서
 62
     0
100
AcDbTrace
 10
140.422678620602
 20
14.30200000000047
 30
0.0
 11
141.5233452872687
 21
14.30200000000048
 31
0.0
 12
140.9730119539353
 22
11.00000000000047
 32
0.0
 13
140.9730119539353
 23
11.00000000000047
 33
0.0
  0
MTEXT
  5
E4
330
D9
100
AcDbEntity
  8
치수문자_일반주서
 62
     0
100
AcDbMText
 10
136.5980119539353
 20
21.97900000000046
 30
0.0
 40
3.5
 41
0.0
 71
     2
 72
     1
  1
\A1;%%c22
  7
SLDTEXTSTYLE0
 11
-3.875687649600543E-15
 21
1.0
 31
0.0
 73
     1
 44
1.0
  0
POINT
  5
13C
330
D9
100
AcDbEntity
  8
Defpoints
 62
     0
100
AcDbPoint
 10
122.0
 20
-10.99999999999962
 30
0.0
  0
POINT
  5
13D
330
D9
100
AcDbEntity
  8
Defpoints
 62
     0
100
AcDbPoint
 10
121.9999999999994
 20
11.0000000000004
 30
0.0
  0
POINT
  5
13E
330
D9
100
AcDbEntity
  8
Defpoints
 62
     0
100
AcDbPoint
 10
140.9730119539353
 20
11.00000000000047
 30
0.0
  0
ENDBLK
  5
DB
330
D9
100
AcDbEntity
  8
0
100
AcDbBlockEnd
  0
BLOCK
  5
E8
330
E7
100
AcDbEntity
  8
0
100
AcDbBlockBegin
  2
_D_1
 70
     0
 10
0.0
 20
0.0
 30
0.0
  3
_D_1
  1

  0
LINE
  5
EA
330
E7
100
AcDbEntity
  8
치수문자_일반주서
 62
     0
370
    -2
100
AcDbLine
 10
-78.0
 20
9.512499999999998
 30
0.0
 11
-78.0
 21
32.14144145862323
 31
0.0
  0
LINE
  5
EB
330
E7
100
AcDbEntity
  8
치수문자_일반주서
 62
     0
370
    -2
100
AcDbLine
 10
121.9999999999994
 20
11.0625000000004
 30
0.0
 11
121.9999999999994
 21
32.14144145862323
 31
0.0
  0
LINE
  5
EC
330
E7
100
AcDbEntity
  8
치수문자_일반주서
 62
     0
370
    -2
100
AcDbLine
 10
-74.69800000000001
 20
32.14144145862323
 30
0.0
 11
118.6979999999994
 21
32.14144145862323
 31
0.0
  0
SOLID
  5
ED
330
E7
100
AcDbEntity
  8
치수문자_일반주서
 62
     0
100
AcDbTrace
 10
-74.69800000000001
 20
32.69177479195657
 30
0.0
 11
-74.69800000000001
 21
31.5911081252899
 31
0.0
 12
-78.0
 22
32.14144145862323
 32
0.0
 13
-78.0
 23
32.14144145862323
 33
0.0
  0
SOLID
  5
EE
330
E7
100
AcDbEntity
  8
치수문자_일반주서
 62
     0
100
AcDbTrace
 10
118.6979999999994
 20
31.5911081252899
 30
0.0
 11
118.6979999999994
 21
32.69177479195657
 31
0.0
 12
121.9999999999994
 22
32.14144145862323
 32
0.0
 13
121.9999999999994
 23
32.14144145862323
 33
0.0
  0
MTEXT
  5
EF
330
E7
100
AcDbEntity
  8
치수문자_일반주서
 62
     0
100
AcDbMText
 10
41.58433264446914
 20
36.51644145862323
 30
0.0
 40
3.5
 41
0.0
 71
     2
 72
     1
  1
\A1;200
  7
SLDTEXTSTYLE0
 73
     1
 44
1.0
  0
POINT
  5
136
330
E7
100
AcDbEntity
  8
Defpoints
 62
     0
100
AcDbPoint
 10
-78.0
 20
9.449999999999998
 30
0.0
  0
POINT
  5
137
330
E7
100
AcDbEntity
  8
Defpoints
 62
     0
100
AcDbPoint
 10
121.9999999999994
 20
11.0000000000004
 30
0.0
  0
POINT
  5
138
330
E7
100
AcDbEntity
  8
Defpoints
 62
     0
100
AcDbPoint
 10
121.9999999999994
 20
32.14144145862323
 30
0.0
  0
ENDBLK
  5
E9
330
E7
100
AcDbEntity
  8
0
100
AcDbBlockEnd
  0
BLOCK
  5
F2
330
F1
100
AcDbEntity
  8
0
100
AcDbBlockBegin
  2
_D_2
 70
     0
 10
0.0
 20
0.0
 30
0.0
  3
_D_2
  1

  0
LINE
  5
F4
330
F1
100
AcDbEntity
  8
치수문자_일반주서
 62
     0
370
    -2
100
AcDbLine
 10
12.00000000000001
 20
7.880697003221706
 30
0.0
 11
12.00000000000001
 21
21.16519480938923
 31
0.0
  0
LINE
  5
F5
330
F1
100
AcDbEntity
  8
치수문자_일반주서
 62
     0
370
    -2
100
AcDbLine
 10
121.9999999999994
 20
11.0625000000004
 30
0.0
 11
121.9999999999994
 21
21.16519480938923
 31
0.0
  0
LINE
  5
F6
330
F1
100
AcDbEntity
  8
치수문자_일반주서
 62
     0
370
    -2
100
AcDbLine
 10
15.30200000000001
 20
21.16519480938923
 30
0.0
 11
118.6979999999994
 21
21.16519480938923
 31
0.0
  0
SOLID
  5
F7
330
F1
100
AcDbEntity
  8
치수문자_일반주서
 62
     0
100
AcDbTrace
 10
15.30200000000001
 20
21.71552814272256
 30
0.0
 11
15.30200000000001
 21
20.61486147605589
 31
0.0
 12
12.00000000000001
 22
21.16519480938923
 32
0.0
 13
12.00000000000001
 23
21.16519480938923
 33
0.0
  0
SOLID
  5
F8
330
F1
100
AcDbEntity
  8
치수문자_일반주서
 62
     0
100
AcDbTrace
 10
118.6979999999994
 20
20.61486147605589
 30
0.0
 11
118.6979999999994
 21
21.71552814272256
 31
0.0
 12
121.9999999999994
 22
21.16519480938923
 32
0.0
 13
121.9999999999994
 23
21.16519480938923
 33
0.0
  0
MTEXT
  5
F9
330
F1
100
AcDbEntity
  8
치수문자_일반주서
 62
     0
100
AcDbMText
 10
57.00000000000001
 20
25.54019480938923
 30
0.0
 40
3.5
 41
0.0
 71
     2
 72
     1
  1
\A1;110
  7
SLDTEXTSTYLE0
 73
     1
 44
1.0
  0
POINT
  5
139
330
F1
100
AcDbEntity
  8
Defpoints
 62
     0
100
AcDbPoint
 10
12.00000000000001
 20
7.818197003221706
 30
0.0
  0
POINT
  5
13A
330
F1
100
AcDbEntity
  8
Defpoints
 62
     0
100
AcDbPoint
 10
121.9999999999994
 20
11.0000000000004
 30
0.0
  0
POINT
  5
13B
330
F1
100
AcDbEntity
  8
Defpoints
 62
     0
100
AcDbPoint
 10
121.9999999999994
 20
21.16519480938923
 30
0.0
  0
ENDBLK
  5
F3
330
F1
100
AcDbEntity
  8
0
100
AcDbBlockEnd
  0
BLOCK
  5
FC
330
FB
100
AcDbEntity
  8
0
100
AcDbBlockBegin
  2
_D_3
 70
     0
 10
0.0
 20
0.0
 30
0.0
  3
_D_3
  1

  0
LINE
  5
FE
330
FB
100
AcDbEntity
  8
치수문자_일반주서
 62
     0
370
    -2
100
AcDbLine
 10
-77.5125
 20
10.0
 30
0.0
 11
-93.80689305085657
 21
9.99999999999994
 31
0.0
  0
LINE
  5
FF
330
FB
100
AcDbEntity
  8
치수문자_일반주서
 62
     0
370
    -2
100
AcDbLine
 10
-77.5125
 20
-10.0
 30
0.0
 11
-93.8068930508565
 21
-10.00000000000006
 31
0.0
  0
LINE
  5
100
330
FB
100
AcDbEntity
  8
치수문자_일반주서
 62
     0
370
    -2
100
AcDbLine
 10
-93.80689305085657
 20
9.99999999999994
 30
0.0
 11
-93.80689305085663
 21
24.91649999999994
 31
0.0
  0
LINE
  5
101
330
FB
100
AcDbEntity
  8
치수문자_일반주서
 62
     0
370
    -2
100
AcDbLine
 10
-93.80689305085657
 20
9.99999999999994
 30
0.0
 11
-93.8068930508565
 21
-10.00000000000006
 31
0.0
  0
LINE
  5
102
330
FB
100
AcDbEntity
  8
치수문자_일반주서
 62
     0
370
    -2
100
AcDbLine
 10
-93.80689305085659
 20
13.30199999999994
 30
0.0
 11
-93.8068930508566
 21
16.60399999999994
 31
0.0
  0
LINE
  5
103
330
FB
100
AcDbEntity
  8
치수문자_일반주서
 62
     0
370
    -2
100
AcDbLine
 10
-93.80689305085649
 20
-13.30200000000006
 30
0.0
 11
-93.80689305085647
 21
-16.60400000000006
 31
0.0
  0
SOLID
  5
104
330
FB
100
AcDbEntity
  8
치수문자_일반주서
 62
     0
100
AcDbTrace
 10
-94.35722638418991
 20
13.30199999999994
 30
0.0
 11
-93.25655971752326
 21
13.30199999999994
 31
0.0
 12
-93.80689305085657
 22
9.99999999999994
 32
0.0
 13
-93.80689305085657
 23
9.99999999999994
 33
0.0
  0
SOLID
  5
105
330
FB
100
AcDbEntity
  8
치수문자_일반주서
 62
     0
100
AcDbTrace
 10
-93.25655971752316
 20
-13.30200000000006
 30
0.0
 11
-94.35722638418981
 21
-13.30200000000006
 31
0.0
 12
-93.8068930508565
 22
-10.00000000000006
 32
0.0
 13
-93.8068930508565
 23
-10.00000000000006
 33
0.0
  0
MTEXT
  5
106
330
FB
100
AcDbEntity
  8
치수문자_일반주서
 62
     0
100
AcDbMText
 10
-98.18189305085662
 20
20.76024999999992
 30
0.0
 40
3.5
 41
0.0
 71
     2
 72
     1
  1
\A1;%%c20
  7
SLDTEXTSTYLE0
 11
-3.552713678800501E-15
 21
1.0
 31
0.0
 73
     1
 44
1.0
  0
POINT
  5
13F
330
FB
100
AcDbEntity
  8
Defpoints
 62
     0
100
AcDbPoint
 10
-77.45
 20
10.0
 30
0.0
  0
POINT
  5
140
330
FB
100
AcDbEntity
  8
Defpoints
 62
     0
100
AcDbPoint
 10
-77.45
 20
-10.0
 30
0.0
  0
POINT
  5
141
330
FB
100
AcDbEntity
  8
Defpoints
 62
     0
100
AcDbPoint
 10
-93.8068930508565
 20
-10.00000000000006
 30
0.0
  0
ENDBLK
  5
FD
330
FB
100
AcDbEntity
  8
0
100
AcDbBlockEnd
  0
BLOCK
  5
108
330
107
100
AcDbEntity
  8
0
100
AcDbBlockBegin
  2
SW_DOWELSYMBOL_0
 70
     0
 10
0.0
 20
0.0
 30
0.0
  3
SW_DOWELSYMBOL_0
  1

  0
CIRCLE
  5
10A
330
107
100
AcDbEntity
  8
외형선
 62
     0
100
AcDbCircle
 10
0.0
 20
0.0
 30
0.0
 40
3.000000000000004
  0
HATCH
  5
10B
330
107
100
AcDbEntity
  8
0
  6
Continuous
 62
     0
370
    30
100
AcDbHatch
 10
0.0
 20
0.0
 30
0.0
210
0.0
220
0.0
230
1.0
  2
SOLID
 70
     1
 71
     0
 91
        1
 92
        0
 93
        3
 72
     2
 10
0.0000000000000104
 20
0.0
 40
3.000000000000004
 50
0.0
 51
90.0
 73
     1
 72
     1
 10
0.0000000000000104
 20
3.000000000000004
 11
0.0000000000000104
 21
0.0
 72
     1
 10
0.0000000000000104
 20
0.0
 11
3.000000000000015
 21
0.0
 97
        0
 75
     0
 76
     1
 98
        1
 10
0.0
 20
0.0
  0
HATCH
  5
10C
330
107
100
AcDbEntity
  8
0
  6
Continuous
 62
     0
370
    30
100
AcDbHatch
 10
0.0
 20
0.0
 30
0.0
210
0.0
220
0.0
230
1.0
  2
SOLID
 70
     1
 71
     0
 91
        1
 92
        0
 93
        3
 72
     2
 10
0.0000000000000104
 20
0.0
 40
3.000000000000004
 50
180.0
 51
270.0000000000008
 73
     1
 72
     1
 10
0.0000000000000104
 20
-3.000000000000004
 11
0.0000000000000104
 21
0.0
 72
     1
 10
0.0000000000000104
 20
0.0
 11
-2.999999999999994
 21
0.0
 97
        0
 75
     0
 76
     1
 98
        1
 10
0.0
 20
0.0
  0
ENDBLK
  5
109
330
107
100
AcDbEntity
  8
0
100
AcDbBlockEnd
  0
ENDSEC
  0
SECTION
  2
ENTITIES
  0
LINE
  5
95
330
1F
100
AcDbEntity
  8
0
  6
Continuous
 62
   131
370
    15
100
AcDbLine
 10
12.00000000000001
 20
10.00000000000001
 30
0.0
 11
-77.45
 21
10.0
 31
0.0
  0
LINE
  5
96
330
1F
100
AcDbEntity
  8
0
  6
Continuous
 62
   131
370
    15
100
AcDbLine
 10
-89.94645802161206
 20
-10.0
 30
0.0
 11
12.00000000000001
 21
-9.999999999999995
 31
0.0
  0
LINE
  5
99
330
1F
100
AcDbEntity
  8
0
  6
Continuous
 62
   131
370
    15
100
AcDbLine
 10
-77.45
 20
10.0
 30
0.0
 11
-78.0
 21
9.45
 31
0.0
  0
LINE
  5
9A
330
1F
100
AcDbEntity
  8
0
  6
Continuous
 62
   131
370
    15
100
AcDbLine
 10
-78.0
 20
-9.45
 30
0.0
 11
-77.45
 21
-10.0
 31
0.0
  0
LINE
  5
9D
330
1F
100
AcDbEntity
  8
0
  6
Continuous
 62
     1
370
    15
100
AcDbLine
 10
87.40369054544777
 20
3.105494501953619
 30
0.0
 11
87.29990253975379
 21
3.162520635655121
 31
0.0
  0
LINE
  5
9E
330
1F
100
AcDbEntity
  8
0
  6
Continuous
 62
   131
370
    15
100
AcDbLine
 10
27.61908429340199
 20
3.066478774115062
 30
0.0
 11
27.44454107550019
 21
3.162510939619757
 31
0.0
  0
SPLINE
  5
9F
330
1F
100
AcDbEntity
  8
0
  6
Continuous
 62
     1
370
    15
100
AcDbSpline
210
0.0
220
0.0
230
1.0
 70
     8
 71
     3
 72
    10
 73
     6
 74
     0
 42
0.000000001
 43
0.00000001
 40
0.0
 40
0.0
 40
0.0
 40
0.0
 40
0.498944328195402
 40
0.6864341019431804
 40
1.0
 40
1.0
 40
1.0
 40
1.0
 10
33.64581244869526
 20
2.818721936094036
 30
0.0
 10
33.13843130381178
 20
3.060941406691837
 30
0.0
 10
32.44039005782611
 20
3.394180398252913
 30
0.0
 10
31.42386226319677
 20
3.91024525479841
 30
0.0
 10
30.91399279413967
 20
4.177677423864004
 30
0.0
 10
30.59491112926035
 20
4.345039281999082
 30
0.0
  0
SPLINE
  5
A0
330
1F
100
AcDbEntity
  8
0
  6
Continuous
 62
     1
370
    15
100
AcDbSpline
210
0.0
220
0.0
230
1.0
 70
     8
 71
     3
 72
     9
 73
     5
 74
     0
 42
0.000000001
 43
0.00000001
 40
0.0
 40
0.0
 40
0.0
 40
0.0
 40
0.5257430447894547
 40
1.0
 40
1.0
 40
1.0
 40
1.0
 10
93.50106589950803
 20
2.818780621649102
 30
0.0
 10
92.96659924214322
 20
3.073994741056766
 30
0.0
 10
91.95000632158664
 20
3.559429825623354
 30
0.0
 10
90.93284960360347
 20
4.092255274419637
 30
0.0
 10
90.45045595556081
 20
4.344951449424453
 30
0.0
  0
LINE
  5
A1
330
1F
100
AcDbEntity
  8
0
  6
Continuous
 62
     1
370
    15
100
AcDbLine
 10
68.25987946111212
 20
10.99999999999999
 30
0.0
 11
62.92740640803266
 21
10.99999999999999
 31
0.0
  0
LINE
  5
A2
330
1F
100
AcDbEntity
  8
0
  6
Continuous
 62
     1
370
    15
100
AcDbLine
 10
62.92740640803267
 20
-11.00000000000002
 30
0.0
 11
68.25987946111206
 21
-11.00000000000002
 31
0.0
  0
SPLINE
  5
A3
330
1F
100
AcDbEntity
  8
0
  6
Continuous
 62
     1
370
    15
100
AcDbSpline
210
0.0
220
0.0
230
1.0
 70
     8
 71
     3
 72
    29
 73
    25
 74
     0
 42
0.000000001
 43
0.00000001
 40
0.0
 40
0.0
 40
0.0
 40
0.0
 40
0.0772541256940284
 40
0.1326015495727668
 40
0.1688346996757099
 40
0.1905568724339675
 40
0.2192329194078921
 40
0.2550541879029206
 40
0.2892781914794435
 40
0.3170874339787517
 40
0.3399633088321428
 40
0.3811541972169296
 40
0.4317269435511541
 40
0.4783168998547735
 40
0.5189314208325639
 40
0.5643067804223821
 40
0.6339773815552682
 40
0.6986413133514356
 40
0.7444986215520333
 40
0.7810681374219267
 40
0.8135955768571319
 40
0.8600614682338449
 40
0.922290450250134
 40
1.0
 40
1.0
 40
1.0
 40
1.0
 10
13.46497058632514
 20
-9.153537204691338
 30
0.0
 10
13.89319674729221
 20
-9.111991422893228
 30
0.0
 10
14.62821836590097
 20
-9.040680861869468
 30
0.0
 10
15.56149690603822
 20
-8.9611331884684
 30
0.0
 10
16.1860492455574
 20
-8.911727329337598
 30
0.0
 10
16.65703975766397
 20
-8.876585803966636
 30
0.0
 10
17.13223600085687
 20
-8.842801626235255
 30
0.0
 10
17.67732877350613
 20
-8.8066943605805
 30
0.0
 10
18.21797534707925
 20
-8.773688329427289
 30
0.0
 10
18.68674107820861
 20
-8.747245001929063
 30
0.0
 10
19.19366191811346
 20
-8.720565091798646
 30
0.0
 10
19.82642651099824
 20
-8.690470499624372
 30
0.0
 10
20.59011653452178
 20
-8.659640311753511
 30
0.0
 10
21.35052492957681
 20
-8.634723213101665
 30
0.0
 10
22.08215953622867
 20
-8.6157450952318
 30
0.0
 10
22.94106237570019
 20
-8.599320931029032
 30
0.0
 10
23.93288692520712
 20
-8.589533791691515
 30
0.0
 10
24.92722500630522
 20
-8.590351474067456
 30
0.0
 10
25.73993934945722
 20
-8.598245032257715
 30
0.0
 10
26.37085752811766
 20
-8.608542499568568
 30
0.0
 10
27.00049860662421
 20
-8.622043608655549
 30
0.0
 10
27.79549806341192
 20
-8.64455094499524
 30
0.0
 10
28.84176449382156
 20
-8.681461330185524
 30
0.0
 10
29.59247346025376
 20
-8.719759782201729
 30
0.0
 10
30.00935117819437
 20
-8.741027373227112
 30
0.0
  0
SPLINE
  5
A4
330
1F
100
AcDbEntity
  8
0
  6
Continuous
 62
     1
370
    15
100
AcDbSpline
210
0.0
220
0.0
230
1.0
 70
     8
 71
     3
 72
    20
 73
    16
 74
     0
 42
0.000000001
 43
0.00000001
 40
0.0
 40
0.0
 40
0.0
 40
0.0
 40
0.1246939419658881
 40
0.2406601863879012
 40
0.3399969900429646
 40
0.4172448604559797
 40
0.4789924127314212
 40
0.5308941727494962
 40
0.5812174940386224
 40
0.6526208021751214
 40
0.736057440295331
 40
0.8027932586901582
 40
0.8576394516987419
 40
0.9397905379416971
 40
1.0
 40
1.0
 40
1.0
 40
1.0
 10
89.86466323812402
 20
8.741023801764957
 30
0.0
 10
89.51176272547892
 20
8.722334406247263
 30
0.0
 10
88.83066225010222
 20
8.686263741242573
 30
0.0
 10
87.78123822633214
 20
8.647922248251712
 30
0.0
 10
86.8894503251638
 20
8.622723350721833
 30
0.0
 10
86.16595931768077
 20
8.607275066265546
 30
0.0
 10
85.59308395720765
 20
8.59855328853675
 30
0.0
 10
85.10210469012952
 20
8.593469365842175
 30
0.0
 10
84.5821606118989
 20
8.590390000400262
 30
0.0
 10
83.96300618099957
 20
8.59005024177302
 30
0.0
 10
83.29381641117476
 20
8.594227339469834
 30
0.0
 10
82.67534460710903
 20
8.602083556384827
 30
0.0
 10
82.06217756142243
 20
8.613294006584198
 30
0.0
 10
81.46874621915629
 20
8.627002860574137
 30
0.0
 10
81.04023236568588
 20
8.641134260373544
 30
0.0
 10
80.85899824633293
 20
8.647110944154306
 30
0.0
  0
SPLINE
  5
A5
330
1F
100
AcDbEntity
  8
0
  6
Continuous
 62
     1
370
    15
100
AcDbSpline
210
0.0
220
0.0
230
1.0
 70
     8
 71
     3
 72
    29
 73
    25
 74
     0
 42
0.000000001
 43
0.00000001
 40
0.0
 40
0.0
 40
0.0
 40
0.0
 40
0.0690559852075038
 40
0.1318834993144259
 40
0.1855670680151583
 40
0.22816085924323
 40
0.2625067782584991
 40
0.2910605460014998
 40
0.3183290483539478
 40
0.3570644808187418
 40
0.4026010483772309
 40
0.4391436224583438
 40
0.4690377933346573
 40
0.5131154780251412
 40
0.5636804836026997
 40
0.6067604557094716
 40
0.6442217962162953
 40
0.6802492534603353
 40
0.7294065942668886
 40
0.7844318676994677
 40
0.829714833919639
 40
0.867239779838594
 40
0.9224128961904305
 40
1.0
 40
1.0
 40
1.0
 40
1.0
 10
73.32045200999423
 20
-9.153526966742726
 30
0.0
 10
73.68209258477665
 20
-9.117526291903145
 30
0.0
 10
74.37275573805829
 20
-9.048772005634424
 30
0.0
 10
75.41978158187027
 20
-8.959875745739161
 30
0.0
 10
76.30802219134279
 20
-8.8909638197191
 30
0.0
 10
77.03470363163493
 20
-8.839399179115363
 30
0.0
 10
77.61591268163875
 20
-8.801526239977848
 30
0.0
 10
78.11337666485477
 20
-8.771419950863287
 30
0.0
 10
78.63492666963984
 20
-8.742025480450941
 30
0.0
 10
79.25111512799907
 20
-8.710363483472168
 30
0.0
 10
79.91879726199645
 20
-8.680528965347456
 30
0.0
 10
80.53742814179984
 20
-8.656854238155002
 30
0.0
 10
81.14772702103676
 20
-8.636675316059655
 30
0.0
 10
81.83537070446769
 20
-8.61792237843446
 30
0.0
 10
82.59562439579292
 20
-8.602874758360183
 30
0.0
 10
83.31965541868072
 20
-8.594009631462725
 30
0.0
 10
83.96336574687027
 20
-8.590264961161898
 30
0.0
 10
84.6404223904618
 20
-8.590299212558273
 30
0.0
 10
85.41422249254495
 20
-8.595615941001306
 30
0.0
 10
86.23941724164885
 20
-8.608195004831291
 30
0.0
 10
87.00241767169149
 20
-8.625855017613885
 30
0.0
 10
87.76926318279817
 20
-8.648702964055614
 30
0.0
 10
88.70733904945016
 20
-8.68304552030208
 30
0.0
 10
89.43778149666502
 20
-8.719638376661191
 30
0.0
 10
89.864663238124
 20
-8.741023801764971
 30
0.0
  0
SPLINE
  5
A6
330
1F
100
AcDbEntity
  8
0
  6
Continuous
 62
     1
370
    15
100
AcDbSpline
210
0.0
220
0.0
230
1.0
 70
     8
 71
     3
 72
    19
 73
    15
 74
     0
 42
0.000000001
 43
0.00000001
 40
0.0
 40
0.0
 40
0.0
 40
0.0
 40
0.1447465015769864
 40
0.2601307950030869
 40
0.3454319663458073
 40
0.4056612640472053
 40
0.4735831695624882
 40
0.538394278217356
 40
0.6244142642201049
 40
0.7308189239666525
 40
0.8195987518546946
 40
0.8817684468839228
 40
0.9593634805717912
 40
1.0
 40
1.0
 40
1.0
 40
1.0
 10
30.00935117819439
 20
8.741027373227086
 30
0.0
 10
29.58561360578003
 20
8.719429770331896
 30
0.0
 10
28.82409474084084
 20
8.680615695034202
 30
0.0
 10
27.76567441783019
 20
8.643591232411758
 30
0.0
 10
26.96452730854828
 20
8.62113531130738
 30
0.0
 10
26.33123737291246
 20
8.607796432228138
 30
0.0
 10
25.75268305438079
 20
8.598580206211691
 30
0.0
 10
25.09359017667379
 20
8.59193391047065
 30
0.0
 10
24.3190382655491
 20
8.589239419088873
 30
0.0
 10
23.47222800660777
 20
8.593420862892359
 30
0.0
 10
22.69747602273422
 20
8.60373744185619
 30
0.0
 10
22.00943966426586
 20
8.617716504797253
 30
0.0
 10
21.46631853978595
 20
8.631200253486504
 30
0.0
 10
21.11030411889781
 20
8.643406207754344
 30
0.0
 10
20.98794095483668
 20
8.647601428781826
 30
0.0
  0
SPLINE
  5
A7
330
1F
100
AcDbEntity
  8
0
  6
Continuous
 62
     1
370
    15
100
AcDbSpline
210
0.0
220
0.0
230
1.0
 70
     8
 71
     3
 72
    17
 73
    13
 74
     0
 42
0.000000001
 43
0.00000001
 40
0.0
 40
0.0
 40
0.0
 40
0.0
 40
0.1689921077870943
 40
0.3047687017503271
 40
0.4133247054607649
 40
0.4981459820306642
 40
0.5680358948783405
 40
0.6371090810650804
 40
0.7248204652231195
 40
0.8342838515311243
 40
0.9403040133553483
 40
1.0
 40
1.0
 40
1.0
 40
1.0
 10
98.69651507508001
 20
-8.273466828518766
 30
0.0
 10
99.14314819108193
 20
-8.20436608218694
 30
0.0
 10
99.94862838009823
 20
-8.079746388253886
 30
0.0
 10
101.0988531942073
 20
-7.924389599238861
 30
0.0
 10
102.0196774463752
 20
-7.809947086084524
 30
0.0
 10
102.7499481467254
 20
-7.725709310844639
 30
0.0
 10
103.3626352258384
 20
-7.659959163455159
 30
0.0
 10
103.985604337564
 20
-7.597460777593999
 30
0.0
 10
104.716798677939
 20
-7.529861198765416
 30
0.0
 10
105.5505914090749
 20
-7.461454539289335
 30
0.0
 10
106.2982850877847
 20
-7.407426029815074
 30
0.0
 10
106.745140323839
 20
-7.381184965835886
 30
0.0
 10
106.9061111432194
 20
-7.371732138098117
 30
0.0
  0
SPLINE
  5
A8
330
1F
100
AcDbEntity
  8
0
  6
Continuous
 62
     1
370
    15
100
AcDbSpline
210
0.0
220
0.0
230
1.0
 70
     8
 71
     3
 72
    32
 73
    28
 74
     0
 42
0.000000001
 43
0.00000001
 40
0.0
 40
0.0
 40
0.0
 40
0.0
 40
0.0381026022651197
 40
0.0789238679531922
 40
0.1164638148085967
 40
0.146881020144721
 40
0.1709088145264697
 40
0.2037520920574758
 40
0.2496521450072681
 40
0.2936420489795372
 40
0.3416404439529526
 40
0.3898298596746879
 40
0.4398350407448792
 40
0.4808680984966706
 40
0.5075043284027924
 40
0.5341666318858982
 40
0.566037526244297
 40
0.6065526619714237
 40
0.6520427025330638
 40
0.6864632472422307
 40
0.7111032494637125
 40
0.7430659407194516
 40
0.7930034216447237
 40
0.8363001089533837
 40
0.8752641660311302
 40
0.9291069234999563
 40
0.9999999999999999
 40
0.9999999999999999
 40
0.9999999999999999
 40
0.9999999999999999
 10
58.0580288879649
 20
7.523484780908396
 30
0.0
 10
57.84352494158308
 20
7.504871215765051
 30
0.0
 10
57.39921195157039
 20
7.466315986720855
 30
0.0
 10
56.64693347798475
 20
7.410025279142748
 30
0.0
 10
55.92416870479111
 20
7.368300531673307
 30
0.0
 10
55.31210211439279
 20
7.334805795478
 30
0.0
 10
54.75486798719276
 20
7.308633323032759
 30
0.0
 10
54.09250126648207
 20
7.282198671746435
 30
0.0
 10
53.29339992216232
 20
7.258236878219315
 30
0.0
 10
52.39940291200092
 20
7.241891810747197
 30
0.0
 10
51.51841840998292
 20
7.236920637561718
 30
0.0
 10
50.59053917568406
 20
7.242343336848161
 30
0.0
 10
49.69356369016192
 20
7.258917544934976
 30
0.0
 10
48.93821308818674
 20
7.281786721815878
 30
0.0
 10
48.33238561134289
 20
7.305394676350216
 30
0.0
 10
47.78536168260371
 20
7.330373483567939
 30
0.0
 10
47.14917251386948
 20
7.36410624818871
 30
0.0
 10
46.39197873462675
 20
7.411113448170195
 30
0.0
 10
45.61845610742862
 20
7.467540247906101
 30
0.0
 10
44.94671442663105
 20
7.523211464286228
 30
0.0
 10
44.3616115993668
 20
7.575769603247614
 30
0.0
 10
43.67758225427628
 20
7.64182648141203
 30
0.0
 10
42.87380970615948
 20
7.72718879930595
 30
0.0
 10
42.02035007722171
 20
7.827426873194393
 30
0.0
 10
41.13629261538438
 20
7.939402304877805
 30
0.0
 10
40.08839038512267
 20
8.082007229184878
 30
0.0
 10
39.29302895296934
 20
8.204099472057147
 30
0.0
 10
38.84098869267894
 20
8.273490074890379
 30
0.0
  0
SPLINE
  5
A9
330
1F
100
AcDbEntity
  8
0
  6
Continuous
 62
     1
370
    15
100
AcDbSpline
210
0.0
220
0.0
230
1.0
 70
     8
 71
     3
 72
    16
 73
    12
 74
     0
 42
0.000000001
 43
0.00000001
 40
0.0
 40
0.0
 40
0.0
 40
0.0
 40
0.1361428900459562
 40
0.2634062621498074
 40
0.3796146891661509
 40
0.4778998943034015
 40
0.5754763363114673
 40
0.6901290484474439
 40
0.8121404962148056
 40
0.9205725187498579
 40
1.0
 40
1.0
 40
1.0
 40
1.0
 10
38.84098869267897
 20
-8.273490074890402
 30
0.0
 10
39.18997663085845
 20
-8.218740504063662
 30
0.0
 10
39.86519079959098
 20
-8.112812241479334
 30
0.0
 10
40.93377599073703
 20
-7.965327865236739
 30
0.0
 10
41.89431553092549
 20
-7.842754483728346
 30
0.0
 10
42.75721855223681
 20
-7.740498620588636
 30
0.0
 10
43.5946249788766
 20
-7.650126889157826
 30
0.0
 10
44.51500142484566
 20
-7.560171807479017
 30
0.0
 10
45.46041162866529
 20
-7.479644154104207
 30
0.0
 10
46.31038139186533
 20
-7.416041280087822
 30
0.0
 10
46.8259594025454
 20
-7.38546395867368
 30
0.0
 10
47.04394711118486
 20
-7.372535788555236
 30
0.0
  0
SPLINE
  5
AA
330
1F
100
AcDbEntity
  8
0
  6
Continuous
 62
     1
370
    15
100
AcDbSpline
210
0.0
220
0.0
230
1.0
 70
     8
 71
     3
 72
    30
 73
    26
 74
     0
 42
0.000000001
 43
0.00000001
 40
0.0
 40
0.0
 40
0.0
 40
0.0
 40
0.0758126077658529
 40
0.1329613458540935
 40
0.1781818710418056
 40
0.2160150218514116
 40
0.2479336766366519
 40
0.2770042032886438
 40
0.3064153730817662
 40
0.3475725813378432
 40
0.3890075337749947
 40
0.4177428924321667
 40
0.4521615478704752
 40
0.4999153780880618
 40
0.5543561902766555
 40
0.5973880829897166
 40
0.6427829552730693
 40
0.6896521201154496
 40
0.7272076851432766
 40
0.7567828943412228
 40
0.7867078030852328
 40
0.8230259047608856
 40
0.8695065537170431
 40
0.9276422991825961
 40
1.0
 40
1.0
 40
1.0
 40
1.0
 10
117.9133967592077
 20
7.5234838218496
 30
0.0
 10
117.4436182343217
 20
7.485043342962714
 30
0.0
 10
116.61971325647
 20
7.417625825498314
 30
0.0
 10
115.4640504750953
 20
7.348545719013659
 30
0.0
 10
114.5460045282138
 20
7.305105531009441
 30
0.0
 10
113.8019174280971
 20
7.277631353273887
 30
0.0
 10
113.1698572368597
 20
7.259932586061432
 30
0.0
 10
112.5898469982533
 20
7.248186738505209
 30
0.0
 10
111.9506096008883
 20
7.240039399114871
 30
0.0
 10
111.2326666875396
 20
7.237441096516257
 30
0.0
 10
110.5186814171142
 20
7.242453885226533
 30
0.0
 10
109.8488157303184
 20
7.253169824973784
 30
0.0
 10
109.1312444795455
 20
7.270478214213576
 30
0.0
 10
108.2440917404033
 20
7.301193541261557
 30
0.0
 10
107.3036821300708
 20
7.346134458988061
 30
0.0
 10
106.41005915031
 20
7.400326012595188
 30
0.0
 10
105.5503335975229
 20
7.461193721624055
 30
0.0
 10
104.716853902097
 20
7.529917066843645
 30
0.0
 10
103.9855941048553
 20
7.597450425570556
 30
0.0
 10
103.3626377026367
 20
7.659961669133168
 30
0.0
 10
102.7499473258434
 20
7.725708480390955
 30
0.0
 10
102.0196777562332
 20
7.809947399555512
 30
0.0
 10
101.0988530783568
 20
7.924389482037514
 30
0.0
 10
99.94862842077981
 20
8.07974642940986
 30
0.0
 10
99.1431482055932
 20
8.204366096867403
 30
0.0
 10
98.69651507507999
 20
8.273466828518746
 30
0.0
  0
LINE
  5
AC
330
1F
100
AcDbEntity
  8
0
  6
Continuous
 62
   131
370
    15
100
AcDbLine
 10
-77.45
 20
10.0
 30
0.0
 11
-77.45
 21
-10.0
 31
0.0
  0
LINE
  5
AE
330
1F
100
AcDbEntity
  8
0
  6
Continuous
 62
   131
370
    15
100
AcDbLine
 10
-78.0
 20
9.449999999999998
 30
0.0
 11
-78.0
 21
-9.449999999999998
 31
0.0
  0
SPLINE
  5
AF
330
1F
100
AcDbEntity
  8
0
  6
Continuous
 62
     1
370
    15
100
AcDbSpline
210
0.0
220
0.0
230
1.0
 70
     8
 71
     3
 72
    29
 73
    25
 74
     0
 42
0.000000001
 43
0.00000001
 40
0.0
 40
0.0
 40
0.0
 40
0.0
 40
0.010261334348648
 40
0.0573940983445505
 40
0.1045252025285511
 40
0.1516542375293078
 40
0.1987807951584904
 40
0.2459044706214515
 40
0.293028295282502
 40
0.3401549841403371
 40
0.3872841303463901
 40
0.434415325648786
 40
0.4815481606240564
 40
0.5286822249103026
 40
0.5758171074415133
 40
0.6229523966827526
 40
0.6700876808659287
 40
0.7172225482258502
 40
0.7643565872362774
 40
0.8114893868456807
 40
0.8586205367124105
 40
0.9057496274389922
 40
0.9528762508052522
 40
0.9999999999999999
 40
0.9999999999999999
 40
0.9999999999999999
 40
0.9999999999999999
 10
47.04281646037133
 20
7.372030872271572
 30
0.0
 10
47.29920734276103
 20
7.487990894300617
 30
0.0
 10
48.73326289718893
 20
8.136583044428553
 30
0.0
 10
51.34492447755944
 20
9.067686585462068
 30
0.0
 10
54.87774120564013
 20
10.0935256099388
 30
0.0
 10
58.41036945086466
 20
10.75263520867309
 30
0.0
 10
61.94277915587727
 20
11.04865583356525
 30
0.0
 10
65.47500117083973
 20
10.96443330005414
 30
0.0
 10
69.0072304562101
 20
10.50473011082252
 30
0.0
 10
72.53965137591746
 20
9.684812191874801
 30
0.0
 10
76.07229003740883
 20
8.532887750738238
 30
0.0
 10
79.60511383055402
 20
7.088398568565932
 30
0.0
 10
83.13808484510395
 20
5.400868910116948
 30
0.0
 10
86.67116647440832
 20
3.528150944310279
 30
0.0
 10
90.20432167364902
 20
1.534453825610092
 30
0.0
 10
93.73751345365815
 20
-0.5118580102664457
 30
0.0
 10
97.27070477888904
 20
-2.540630126109052
 30
0.0
 10
100.8038586134046
 20
-4.482249683576319
 30
0.0
 10
104.3369379708278
 20
-6.270318604966196
 30
0.0
 10
107.8699058004262
 20
-7.842870873537297
 30
0.0
 10
111.4027255245043
 20
-9.14845868599509
 30
0.0
 10
114.9353591342267
 20
-10.13313876380127
 30
0.0
 10
118.4677743993465
 20
-10.7974724119882
 30
0.0
 10
120.8226154034609
 20
-10.92629409182209
 30
0.0
 10
122.0
 20
-10.99999999999962
 30
0.0
  0
SPLINE
  5
B0
330
1F
100
AcDbEntity
  8
0
  6
Continuous
 62
     1
370
    15
100
AcDbSpline
210
0.0
220
0.0
230
1.0
 70
     8
 71
     3
 72
    16
 73
    12
 74
     0
 42
0.000000001
 43
0.00000001
 40
0.0
 40
0.0
 40
0.0
 40
0.0
 40
0.0925967784504433
 40
0.1961690028947615
 40
0.3194908651599183
 40
0.4427159252080439
 40
0.5660040194188225
 40
0.6893166257849689
 40
0.8125324628856563
 40
0.9358401237736266
 40
1.0
 40
1.0
 40
1.0
 40
1.0
 10
94.69237378946991
 20
-1.054084631128346
 30
0.0
 10
93.56142808621226
 20
-0.5985552702432488
 30
0.0
 10
91.16548629807653
 20
0.3664970999311887
 30
0.0
 10
87.26343795655868
 20
1.938549293299984
 30
0.0
 10
82.98625173824107
 20
3.566871731301783
 30
0.0
 10
78.46920204700902
 20
5.090466213706133
 30
0.0
 10
73.95171003441607
 20
6.326253856676648
 30
0.0
 10
69.4341304326762
 20
7.213841870725003
 30
0.0
 10
64.9171126617783
 20
7.677139641568894
 30
0.0
 10
61.12188063758237
 20
7.771626480126156
 30
0.0
 10
58.83196015693733
 20
7.546900758780065
 30
0.0
 10
58.04824572366554
 20
7.469989445555452
 30
0.0
  0
SPLINE
  5
B1
330
1F
100
AcDbEntity
  8
0
  6
Continuous
 62
     1
370
    15
100
AcDbSpline
210
0.0
220
0.0
230
1.0
 70
     8
 71
     3
 72
    22
 73
    18
 74
     0
 42
0.000000001
 43
0.00000001
 40
0.0
 40
0.0
 40
0.0
 40
0.0
 40
0.0707121406476533
 40
0.1414248763358157
 40
0.2121447194328238
 40
0.2828702491897358
 40
0.3536000390737301
 40
0.42433265821309
 40
0.4950666728517186
 40
0.5644429969057219
 40
0.6338186925710876
 40
0.7031931541536265
 40
0.7725657766663677
 40
0.8419359561756706
 40
0.9113030901460337
 40
0.9806665777831782
 40
1.0
 40
1.0
 40
1.0
 40
1.0
 10
11.99999999998938
 20
9.814522840354051
 30
0.0
 10
13.2003603688075
 20
9.467670779787086
 30
0.0
 10
15.60109120743967
 20
8.773963739903637
 30
0.0
 10
19.20229725086465
 20
7.327027665782461
 30
0.0
 10
22.80383057707459
 20
5.64415626166174
 30
0.0
 10
26.40570329031741
 20
3.753377448678977
 30
0.0
 10
30.0078406425632
 20
1.730608570560164
 30
0.0
 10
33.61014134301305
 20
-0.354352629029054
 30
0.0
 10
37.18951279868656
 20
-2.413299416570899
 30
0.0
 10
40.74572583245058
 20
-4.374537948043288
 30
0.0
 10
44.27888508947058
 20
-6.172914116631545
 30
0.0
 10
47.81196036290229
 20
-7.760192063664079
 30
0.0
 10
51.34492533508774
 20
-9.079330168746639
 30
0.0
 10
54.87774135837129
 20
-10.09488048734667
 30
0.0
 10
58.4103679825674
 20
-10.73557402952427
 30
0.0
 10
61.09357455277458
 20
-11.02419448055845
 30
0.0
 10
62.59921852919573
 20
-10.97315485685385
 30
0.0
 10
62.92740640803267
 20
-10.96202965986004
 30
0.0
  0
SPLINE
  5
B2
330
1F
100
AcDbEntity
  8
0
  6
Continuous
 62
     1
370
    15
100
AcDbSpline
210
0.0
220
0.0
230
1.0
 70
     8
 71
     3
 72
    12
 73
     8
 74
     0
 42
0.000000001
 43
0.00000001
 40
0.0
 40
0.0
 40
0.0
 40
0.0
 40
0.0638544591539309
 40
0.2979082084065943
 40
0.5319517319492282
 40
0.7659830025564752
 40
1.0
 40
1.0
 40
1.0
 40
1.0
 10
106.9061111432194
 20
7.371732138098102
 30
0.0
 10
107.2273886093233
 20
7.516154903341204
 30
0.0
 10
108.7262846237381
 20
8.189948524284434
 30
0.0
 10
111.4027244617332
 20
9.13662800397003
 30
0.0
 10
114.9353594176111
 20
10.13629337612446
 30
0.0
 10
118.4677743285069
 20
10.79668383222513
 30
0.0
 10
120.8226153798482
 20
10.92603123724506
 30
0.0
 10
121.9999999999994
 20
11.0000000000004
 30
0.0
  0
LINE
  5
B3
330
1F
100
AcDbEntity
  8
0
  6
Continuous
 62
     1
370
    15
100
AcDbLine
 10
122.0
 20
7.699999999999998
 30
0.0
 11
121.9999999999994
 21
11.0000000000004
 31
0.0
  0
SPLINE
  5
B4
330
1F
100
AcDbEntity
  8
0
  6
Continuous
 62
     1
370
    15
100
AcDbSpline
210
0.0
220
0.0
230
1.0
 70
     8
 71
     3
 72
     9
 73
     5
 74
     0
 42
0.000000001
 43
0.00000001
 40
0.0
 40
0.0
 40
0.0
 40
0.0
 40
0.944638290807425
 40
1.0
 40
1.0
 40
1.0
 40
1.0
 10
122.0
 20
7.699999999999998
 30
0.0
 10
120.7125473693965
 20
7.69605943835173
 30
0.0
 10
119.3496419662045
 20
7.69188793515668
 30
0.0
 10
117.9866699530841
 20
7.524186794659043
 30
0.0
 10
117.9112134928561
 20
7.514902572887549
 30
0.0
  0
SPLINE
  5
B5
330
1F
100
AcDbEntity
  8
0
  6
Continuous
 62
     1
370
    15
100
AcDbSpline
210
0.0
220
0.0
230
1.0
 70
     8
 71
     3
 72
    13
 73
     9
 74
     0
 42
0.000000001
 43
0.00000001
 40
0.0
 40
0.0
 40
0.0
 40
0.0
 40
0.0661403445642541
 40
0.2529065582942512
 40
0.4396254737294651
 40
0.626463878542005
 40
0.8132935660077334
 40
1.0
 40
1.0
 40
1.0
 40
1.0
 10
34.80269065014685
 20
-1.03414575868248
 30
0.0
 10
34.29991917899756
 20
-0.8351721632083025
 30
0.0
 10
32.37742840253399
 20
-0.0743396100316212
 30
0.0
 10
29.03600464454153
 20
1.292524065882195
 30
0.0
 10
24.77728001611545
 20
2.956252724458491
 30
0.0
 10
20.51762260847948
 20
4.469837560594154
 30
0.0
 10
16.25809700564493
 20
5.784035277032157
 30
0.0
 10
13.41905340781936
 20
6.409032682065742
 30
0.0
 10
12.00000000000001
 20
6.721428271260087
 30
0.0
  0
SPLINE
  5
B6
330
1F
100
AcDbEntity
  8
0
  6
Continuous
 62
   131
370
    15
100
AcDbSpline
210
0.0
220
0.0
230
1.0
 70
    24
 71
     3
 72
    10
 73
     6
 74
     0
 42
0.000000001
 43
0.00000001
 40
0.0
 40
0.0
 40
0.0
 40
0.0
 40
0.4999999999999999
 40
0.4999999999999999
 40
1.0
 40
1.0
 40
1.0
 40
1.0
 10
12.00000000000001
 20
9.814522840351263
 30
0.0
 10
12.00000000000001
 20
9.402410098435658
 30
0.0
 10
12.00000000000001
 20
8.901381033754273
 30
0.0
 10
12.00000000000001
 20
7.828764221499403
 30
0.0
 10
12.00000000000001
 20
7.260337926557883
 30
0.0
 10
12.00000000000001
 20
6.721428271260087
 30
0.0
  0
SPLINE
  5
B7
330
1F
100
AcDbEntity
  8
0
  6
Continuous
 62
     1
370
    15
100
AcDbSpline
210
0.0
220
0.0
230
1.0
 70
     8
 71
     3
 72
    27
 73
    23
 74
     0
 42
0.000000001
 43
0.00000001
 40
0.0
 40
0.0
 40
0.0
 40
0.0
 40
0.0182313773371996
 40
0.0695355501623314
 40
0.1208374924591707
 40
0.1721367598286477
 40
0.2234329093992547
 40
0.2747288966212196
 40
0.3260280211960639
 40
0.3773298424864224
 40
0.4286339161623709
 40
0.4799397966062296
 40
0.531247037166298
 40
0.582555190411866
 40
0.6338638083891878
 40
0.6861765253535275
 40
0.7384882102428051
 40
0.7907978026993547
 40
0.843104244498705
 40
0.8954064806252867
 40
0.9477034603410912
 40
1.0
 40
1.0
 40
1.0
 40
1.0
 10
80.86050667846752
 20
-8.64655856968332
 30
0.0
 10
80.44202930463425
 20
-8.8039399443347
 30
0.0
 10
78.84593187975062
 20
-9.404201804383973
 30
0.0
 10
76.07228941244946
 20
-10.13344470762805
 30
0.0
 10
72.53964947905988
 20
-10.78839456794879
 30
0.0
 10
69.00722875122403
 20
-11.05378927875083
 30
0.0
 10
65.47499927257368
 20
-10.94552734511533
 30
0.0
 10
61.94277713694297
 20
-10.46061961371582
 30
0.0
 10
58.410367393793
 20
-9.61749691978392
 30
0.0
 10
54.87773870104139
 20
-8.44454524158967
 30
0.0
 10
51.34492307974651
 20
-6.982092196621535
 30
0.0
 10
47.81195784783116
 20
-5.280234085599727
 30
0.0
 10
44.27888249234932
 20
-3.397324708482801
 30
0.0
 10
40.74572310619416
 20
-1.39792503166058
 30
0.0
 10
37.18951013094703
 20
0.6627800669430715
 30
0.0
 10
33.6101389065302
 20
2.71400316069881
 30
0.0
 10
30.00783861315876
 20
4.681846657779763
 30
0.0
 10
26.40570166794091
 20
6.48228627573742
 30
0.0
 10
22.80382936152623
 20
8.053680199717736
 30
0.0
 10
19.20229644148996
 20
9.330646618425648
 30
0.0
 10
15.60109080324498
 20
10.30281066262779
 30
0.0
 10
13.20036023420556
 20
10.63740167626234
 30
0.0
 10
11.99999999998938
 20
10.80469647921629
 30
0.0
  0
SPLINE
  5
B8
330
1F
100
AcDbEntity
  8
0
  6
Continuous
 62
     1
370
    15
100
AcDbSpline
210
0.0
220
0.0
230
1.0
 70
     8
 71
     3
 72
    17
 73
    13
 74
     0
 42
0.000000001
 43
0.00000001
 40
0.0
 40
0.0
 40
0.0
 40
0.0
 40
0.0960187483515712
 40
0.1977050060122277
 40
0.2993904088422806
 40
0.401119762382162
 40
0.5028603312753495
 40
0.6045792992819989
 40
0.7062519875631624
 40
0.807955543802731
 40
0.9096922420320315
 40
1.0
 40
1.0
 40
1.0
 40
1.0
 10
73.32287286144256
 20
-9.142307344605243
 30
0.0
 10
72.05232760624801
 20
-9.238633098945716
 30
0.0
 10
69.43624312660751
 20
-9.436970237972838
 30
0.0
 10
65.47500670599484
 20
-9.214569332262606
 30
0.0
 10
61.43821820059137
 20
-8.609242436880203
 30
0.0
 10
57.40032717953439
 20
-7.609910026542657
 30
0.0
 10
53.36196853960038
 20
-6.272427189283878
 30
0.0
 10
49.32444111221383
 20
-4.654032580283069
 30
0.0
 10
45.28786477478068
 20
-2.826329588226363
 30
0.0
 10
41.2507635652639
 20
-0.874950284571208
 30
0.0
 10
37.36366015271569
 20
1.049309452437329
 30
0.0
 10
34.82278529982677
 20
2.258325948308185
 30
0.0
 10
33.62795408321572
 20
2.826858731031331
 30
0.0
  0
SPLINE
  5
B9
330
1F
100
AcDbEntity
  8
0
  6
Continuous
 62
     1
370
    15
100
AcDbSpline
210
0.0
220
0.0
230
1.0
 70
     8
 71
     3
 72
    23
 73
    19
 74
     0
 42
0.000000001
 43
0.00000001
 40
0.0
 40
0.0
 40
0.0
 40
0.0
 40
0.0657288623707769
 40
0.1314617336801623
 40
0.1971980465012832
 40
0.262937231441993
 40
0.3286787174680262
 40
0.3944219322281669
 40
0.4601663023810478
 40
0.5259112539231688
 40
0.5916562125177365
 40
0.6574006038239133
 40
0.723143853826075
 40
0.7888853891626608
 40
0.8546246374542223
 40
0.9203610276302513
 40
0.9860939902543998
 40
1.0
 40
1.0
 40
1.0
 40
1.0
 10
122.0
 20
-10.4383495615509
 30
0.0
 10
120.8226153641506
 20
-10.18925756253791
 30
0.0
 10
118.4677742813395
 20
-9.691058371878201
 30
0.0
 10
114.9353588980179
 20
-8.515672061337007
 30
0.0
 10
111.402725169885
 20
-7.074017442687508
 30
0.0
 10
107.869905327253
 20
-5.382930867060423
 30
0.0
 10
104.3369373789945
 20
-3.509114117413
 30
0.0
 10
100.8038579029696
 20
-1.514473122525086
 30
0.0
 10
97.27070394959446
 20
0.5319776552876571
 30
0.0
 10
93.73751250672672
 20
2.560219877803771
 30
0.0
 10
90.20432060507733
 20
4.500717125723664
 30
0.0
 10
86.67116529999646
 20
6.28673256946283
 30
0.0
 10
83.13808350704554
 20
7.85781075289682
 30
0.0
 10
79.60511254603409
 20
9.15715435056807
 30
0.0
 10
76.07228799767702
 20
10.15117106924137
 30
0.0
 10
72.5396516011287
 20
10.76493333701102
 30
0.0
 10
69.93553063453717
 20
11.03399028349923
 30
0.0
 10
68.50897482700935
 20
10.97824018318528
 30
0.0
 10
68.25987946111212
 20
10.96850548401457
 30
0.0
  0
SPLINE
  5
BA
330
1F
100
AcDbEntity
  8
0
  6
Continuous
 62
     1
370
    15
100
AcDbSpline
210
0.0
220
0.0
230
1.0
 70
     8
 71
     3
 72
    10
 73
     6
 74
     0
 42
0.000000001
 43
0.00000001
 40
0.0
 40
0.0
 40
0.0
 40
0.0
 40
0.1986958475068585
 40
0.5993496094191375
 40
1.0
 40
1.0
 40
1.0
 40
1.0
 10
20.98812563910892
 20
-8.647536036076945
 30
0.0
 10
20.39281246098478
 20
-8.865483568850104
 30
0.0
 10
18.59709943895771
 20
-9.52290429646218
 30
0.0
 10
15.60109309316037
 20
-10.29367003564639
 30
0.0
 10
13.20036099750855
 20
-10.63435480914799
 30
0.0
 10
11.99999999998938
 20
-10.80469647921632
 30
0.0
  0
SPLINE
  5
BB
330
1F
100
AcDbEntity
  8
0
  6
Continuous
 62
   131
370
    15
100
AcDbSpline
210
0.0
220
0.0
230
1.0
 70
    24
 71
     3
 72
     8
 73
     4
 74
     0
 42
0.000000001
 43
0.00000001
 40
0.0
 40
0.0
 40
0.0
 40
0.0
 40
1.0
 40
1.0
 40
1.0
 40
1.0
 10
12.00000000000001
 20
-9.273017161095938
 30
0.0
 10
12.00000000000001
 20
-9.803860937752464
 30
0.0
 10
12.00000000000001
 20
-10.31779210043238
 30
0.0
 10
12.00000000000001
 20
-10.80469647921269
 30
0.0
  0
SPLINE
  5
BC
330
1F
100
AcDbEntity
  8
0
  6
Continuous
 62
     1
370
    15
100
AcDbSpline
210
0.0
220
0.0
230
1.0
 70
     8
 71
     3
 72
    15
 73
    11
 74
     0
 42
0.000000001
 43
0.00000001
 40
0.0
 40
0.0
 40
0.0
 40
0.0
 40
0.1412416613180202
 40
0.2825440513594184
 40
0.4238616934057109
 40
0.5651490060481487
 40
0.7063722087705532
 40
0.8476389836356122
 40
0.9889514676209689
 40
1.0
 40
1.0
 40
1.0
 40
1.0
 10
122.0
 20
-8.678694908050376
 30
0.0
 10
120.6545945257888
 20
-8.395311077843706
 30
0.0
 10
117.9632051024595
 20
-7.82842157279845
 30
0.0
 10
113.9253053890781
 20
-6.524155612289134
 30
0.0
 10
109.8869489250317
 20
-4.95550294115687
 30
0.0
 10
105.8494271883109
 20
-3.159033638572586
 30
0.0
 10
101.8128622351263
 20
-1.218211486823068
 30
0.0
 10
97.77572039637883
 20
0.7609215663396444
 30
0.0
 10
94.97846084032267
 20
2.150008532876665
 30
0.0
 10
93.52700672505165
 20
2.803148764092652
 30
0.0
 10
93.42175383181228
 20
2.85051154208423
 30
0.0
  0
LINE
  5
BD
330
1F
100
AcDbEntity
  8
0
  6
Continuous
 62
     1
370
    15
100
AcDbLine
 10
13.47761747297209
 20
-9.112912235790969
 30
0.0
 11
11.99999999998688
 21
-9.27301716109676
 31
0.0
  0
LINE
  5
BE
330
1F
100
AcDbEntity
  8
0
  6
Continuous
 62
     1
370
    15
100
AcDbLine
 10
122.000000000001
 20
-10.43834956155089
 30
0.0
 11
122.0
 21
-8.678694908050376
 31
0.0
  0
LINE
  5
BF
330
1F
100
AcDbEntity
  8
0
  6
Continuous
 62
     1
370
    15
100
AcDbLine
 10
122.0
 20
-10.99999999999962
 30
0.0
 11
122.000000000001
 21
-10.43834956155089
 31
0.0
  0
LINE
  5
C0
330
1F
100
AcDbEntity
  8
0
  6
Continuous
 62
   131
370
    15
100
AcDbLine
 10
12.00000000000001
 20
9.81452284035127
 30
0.0
 11
12.00000000000001
 21
10.80469647921514
 31
0.0
  0
SPLINE
  5
C1
330
1F
100
AcDbEntity
  8
0
  6
Continuous
 62
     1
370
    15
100
AcDbSpline
210
0.0
220
0.0
230
1.0
 70
     8
 71
     3
 72
    10
 73
     6
 74
     0
 42
0.000000001
 43
0.00000001
 40
0.0
 40
0.0
 40
0.0
 40
0.0
 40
0.5
 40
0.5
 40
1.0
 40
1.0
 40
1.0
 40
1.0
 10
122.0
 20
-2.939672406326104
 30
0.0
 10
121.1439825808247
 20
-2.266702150175901
 30
0.0
 10
120.2992810999143
 20
-1.574094824119249
 30
0.0
 10
118.6321745502819
 20
-0.1501881789452574
 30
0.0
 10
117.8097481332244
 20
0.5810740934196583
 30
0.0
 10
117.0
 20
1.334337576828731
 30
0.0
  0
LINE
  5
C2
330
1F
100
AcDbEntity
  8
0
  6
Continuous
 62
     1
370
    15
100
AcDbLine
 10
117.0
 20
2.93771943529659
 30
0.0
 11
122.0
 21
0.0000000000000001
 31
0.0
  0
LINE
  5
C3
330
1F
100
AcDbEntity
  8
0
  6
Continuous
 62
   131
370
    15
100
AcDbLine
 10
122.0
 20
0.0000000000000001
 30
0.0
 11
122.0
 21
-2.939672406326093
 31
0.0
  0
SPLINE
  5
C4
330
1F
100
AcDbEntity
  8
0
  6
Continuous
 62
   131
370
    15
100
AcDbSpline
210
0.0
220
0.0
230
1.0
 70
    24
 71
     3
 72
    14
 73
    10
 74
     0
 42
0.000000001
 43
0.00000001
 40
0.0
 40
0.0
 40
0.0
 40
0.0
 40
0.25
 40
0.25
 40
0.5
 40
0.5
 40
0.75
 40
0.75
 40
1.0
 40
1.0
 40
1.0
 40
1.0
 10
12.00000000000001
 20
-4.293311665112006
 30
0.0
 10
12.00000000000001
 20
-4.981040059806028
 30
0.0
 10
12.00000000000001
 20
-5.632279198070101
 30
0.0
 10
12.00000000000001
 20
-6.805584460134899
 30
0.0
 10
12.00000000000001
 20
-7.327194952757567
 30
0.0
 10
12.00000000000001
 20
-8.197521866704443
 30
0.0
 10
12.00000000000001
 20
-8.545986964035635
 30
0.0
 10
12.00000000000001
 20
-9.051090965686353
 30
0.0
 10
12.00000000000001
 20
-9.20780040841945
 30
0.0
 10
12.00000000000001
 20
-9.273017161095938
 30
0.0
  0
SPLINE
  5
C5
330
1F
100
AcDbEntity
  8
0
  6
Continuous
 62
     1
370
    15
100
AcDbSpline
210
0.0
220
0.0
230
1.0
 70
     8
 71
     3
 72
    14
 73
    10
 74
     0
 42
0.000000001
 43
0.00000001
 40
0.0
 40
0.0
 40
0.0
 40
0.0
 40
0.1429062395165298
 40
0.2857893515825239
 40
0.4286268028033235
 40
0.5714652229856853
 40
0.714348923105537
 40
0.8572553623402971
 40
0.9999999999999999
 40
0.9999999999999999
 40
0.9999999999999999
 40
0.9999999999999999
 10
117.0000000000001
 20
2.28297711201977
 30
0.0
 10
115.7073249924149
 20
2.850351651832728
 30
0.0
 10
113.1221841792877
 20
3.98500890952946
 30
0.0
 10
109.2450577924224
 20
5.497370044552755
 30
0.0
 10
105.3687753936112
 20
6.789250132367751
 30
0.0
 10
101.4924843712442
 20
7.801195512583848
 30
0.0
 10
97.61533107895019
 20
8.483790440513214
 30
0.0
 10
93.73900458192966
 20
8.845275268453593
 30
0.0
 10
91.15502666339958
 20
8.77058555602998
 30
0.0
 10
89.86376952650625
 20
8.733261853095877
 30
0.0
  0
SPLINE
  5
C6
330
1F
100
AcDbEntity
  8
0
  6
Continuous
 62
     1
370
    15
100
AcDbSpline
210
0.0
220
0.0
230
1.0
 70
     8
 71
     3
 72
    14
 73
    10
 74
     0
 42
0.000000001
 43
0.00000001
 40
0.0
 40
0.0
 40
0.0
 40
0.0
 40
0.0612414945673634
 40
0.2177454963870572
 40
0.3741602123620746
 40
0.5305977060805891
 40
0.6871086367650667
 40
0.8436012742218675
 40
1.0
 40
1.0
 40
1.0
 40
1.0
 10
38.85733559864767
 20
-8.226372724325003
 30
0.0
 10
38.30907454024887
 20
-8.32369844021504
 30
0.0
 10
36.35972014982935
 20
-8.669742188288351
 30
0.0
 10
33.00979457107598
 20
-8.84907006039424
 30
0.0
 10
28.80821208148067
 20
-8.733831517713588
 30
0.0
 10
24.60637332856241
 20
-8.17261766757043
 30
0.0
 10
20.40347664079982
 20
-7.218038845616525
 30
0.0
 10
16.20099350889169
 20
-5.927134270594836
 30
0.0
 10
13.40005094326674
 20
-4.837810216489113
 30
0.0
 10
11.99999999998597
 20
-4.293311665106335
 30
0.0
  0
SPLINE
  5
C7
330
1F
100
AcDbEntity
  8
0
  6
Continuous
 62
     1
370
    15
100
AcDbSpline
210
0.0
220
0.0
230
1.0
 70
    24
 71
     3
 72
     8
 73
     4
 74
     0
 42
0.000000001
 43
0.00000001
 40
0.0
 40
0.0
 40
0.0
 40
0.0
 40
1.0
 40
1.0
 40
1.0
 40
1.0
 10
117.0
 20
1.334337576822858
 30
0.0
 10
117.0
 20
1.654158604074234
 30
0.0
 10
117.0
 20
1.97082268981892
 30
0.0
 10
117.0
 20
2.282977112019825
 30
0.0
  0
LINE
  5
C8
330
1F
100
AcDbEntity
  8
0
  6
Continuous
 62
     1
370
    15
100
AcDbLine
 10
122.0
 20
-8.678694908050376
 30
0.0
 11
122.0
 21
-2.939672406326103
 31
0.0
  0
SPLINE
  5
C9
330
1F
100
AcDbEntity
  8
0
  6
Continuous
 62
     1
370
    15
100
AcDbSpline
210
0.0
220
0.0
230
1.0
 70
     8
 71
     3
 72
    25
 73
    21
 74
     0
 42
0.000000001
 43
0.00000001
 40
0.0
 40
0.0
 40
0.0
 40
0.0
 40
0.0159444612519314
 40
0.0723873336778961
 40
0.1311657804358767
 40
0.1899250860501871
 40
0.2486657254995574
 40
0.3074333264782168
 40
0.3662138566258425
 40
0.424988091647432
 40
0.4837368505483106
 40
0.5424851085528798
 40
0.6012591139743806
 40
0.6600396896832187
 40
0.7188076110708684
 40
0.7775484206892763
 40
0.836307313371721
 40
0.8950856215116005
 40
0.9562611958340733
 40
1.0
 40
1.0
 40
1.0
 40
1.0
 10
98.71100602024123
 20
-8.23698136592957
 30
0.0
 10
98.34584891538384
 20
-8.304546458203042
 30
0.0
 10
96.68804757757033
 20
-8.611289771890425
 30
0.0
 10
93.68405610000246
 20
-8.81506421905258
 30
0.0
 10
89.69930205846572
 20
-8.802038578812365
 30
0.0
 10
85.66216074301926
 20
-8.367928864680204
 30
0.0
 10
81.62556939507576
 20
-7.566444832197783
 30
0.0
 10
77.58806682535777
 20
-6.424802979918362
 30
0.0
 10
73.54971956098888
 20
-4.996168255026332
 30
0.0
 10
69.51182337781384
 20
-3.344012302667858
 30
0.0
 10
65.4750074120968
 20
-1.541927613940749
 30
0.0
 10
61.43820557944641
 20
0.3291828110030729
 30
0.0
 10
57.40032584618503
 20
2.18517201576655
 30
0.0
 10
53.36197607953208
 20
3.943485541977826
 30
0.0
 10
49.32445549503066
 20
5.525506910046452
 30
0.0
 10
45.28786717203779
 20
6.859806190539411
 30
0.0
 10
41.25071179775409
 20
7.890573436565025
 30
0.0
 10
37.15768572486062
 20
8.563234560323203
 30
0.0
 10
33.40837662638516
 20
8.866890541413706
 30
0.0
 10
31.00567825173153
 20
8.747229840316436
 30
0.0
 10
30.0039933045116
 20
8.697343294286618
 30
0.0
  0
SPLINE
  5
CA
330
1F
100
AcDbEntity
  8
0
  6
Continuous
 62
     1
370
    15
100
AcDbSpline
210
0.0
220
0.0
230
1.0
 70
    24
 71
     3
 72
    10
 73
     6
 74
     0
 42
0.000000001
 43
0.00000001
 40
0.0
 40
0.0
 40
0.0
 40
0.0
 40
0.5
 40
0.5
 40
1.0
 40
1.0
 40
1.0
 40
1.0
 10
117.0
 20
2.28297711201983
 30
0.0
 10
117.0
 20
3.041227678271546
 30
0.0
 10
117.0
 20
3.760945801936472
 30
0.0
 10
117.0
 20
5.046477921679501
 30
0.0
 10
117.0
 20
5.611518999820869
 30
0.0
 10
117.0
 20
6.069159746183458
 30
0.0
  0
SPLINE
  5
CB
330
1F
100
AcDbEntity
  8
0
  6
Continuous
 62
   131
370
    15
100
AcDbSpline
210
0.0
220
0.0
230
1.0
 70
    24
 71
     3
 72
    14
 73
    10
 74
     0
 42
0.000000001
 43
0.00000001
 40
0.0
 40
0.0
 40
0.0
 40
0.0
 40
0.25
 40
0.25
 40
0.5
 40
0.5
 40
0.75
 40
0.75
 40
1.0
 40
1.0
 40
1.0
 40
1.0
 10
11.99999999999999
 20
6.721428271260089
 30
0.0
 10
11.99999999999999
 20
6.075838439029665
 30
0.0
 10
11.99999999999999
 20
5.320051646086916
 30
0.0
 10
11.99999999999999
 20
3.631130704839548
 30
0.0
 10
11.99999999999999
 20
2.698472744727443
 30
0.0
 10
11.99999999999999
 20
0.7408358908544518
 30
0.0
 10
11.99999999999999
 20
-0.2830998921453791
 30
0.0
 10
11.99999999999999
 20
-2.31981883104939
 30
0.0
 10
11.99999999999999
 20
-3.331637297707041
 30
0.0
 10
11.99999999999999
 20
-4.293311665111998
 30
0.0
  0
SPLINE
  5
CC
330
1F
100
AcDbEntity
  8
0
  6
Continuous
 62
     1
370
    15
100
AcDbSpline
210
0.0
220
0.0
230
1.0
 70
     8
 71
     3
 72
     8
 73
     4
 74
     0
 42
0.000000001
 43
0.00000001
 40
0.0
 40
0.0
 40
0.0
 40
0.0
 40
1.0
 40
1.0
 40
1.0
 40
1.0
 10
122.0
 20
7.699999999999998
 30
0.0
 10
120.3172926306788
 20
7.243792377298353
 30
0.0
 10
118.6480748428883
 20
6.705571988037698
 30
0.0
 10
117.0
 20
6.069159746181312
 30
0.0
  0
LINE
  5
CD
330
1F
100
AcDbEntity
  8
0
  6
Continuous
 62
     1
370
    15
100
AcDbLine
 10
122.0
 20
0.0000000000000001
 30
0.0
 11
122.0
 21
7.699999999999998
 31
0.0
  0
LINE
  5
CE
330
1F
100
AcDbEntity
  8
중심선
100
AcDbLine
 10
-81.0
 20
-0.0000000000000001
 30
0.0
 11
129.0
 21
0.0000000000000001
 31
0.0
  0
CIRCLE
  5
CF
330
1F
100
AcDbEntity
  8
외형선
100
AcDbCircle
 10
0.0000000000000104
 20
0.0
 30
0.0
 40
3.000000000000005
  0
INSERT
  5
D0
330
1F
100
AcDbEntity
  8
0
  6
Continuous
 62
     7
100
AcDbBlockReference
 66
     1
  2
블럭10
 10
-22.93944368806589
 20
-52.04609937292004
 30
0.0
  0
ATTRIB
  5
D1
330
D0
100
AcDbEntity
  8
FORMAT
 62
     2
100
AcDbText
 10
-40.63836564979034
 20
-49.97073246008785
 30
0.0
 40
4.233333333333333
  1
SEME70220110E [ 2 FLUTE ]
 41
0.75
  7
SLDTEXTSTYLE0
 11
-40.63836564979034
 21
-52.08739912675452
 31
0.0
100
AcDbAttribute
  2
AUTOATTR0
 70
     0
 74
     1
  0
SEQEND
  5
D2
330
D0
100
AcDbEntity
  8
0
  6
Continuous
 62
     7
  0
HATCH
  5
D3
330
1F
100
AcDbEntity
  8
중심선
100
AcDbHatch
 10
0.0
 20
0.0
 30
0.0
210
0.0
220
0.0
230
1.0
  2
SOLID
 70
     1
 71
     0
 91
        1
 92
        0
 93
        4
 72
     1
 10
-17.22453438368504
 20
-35.7989250712761
 11
-20.67080962752232
 21
-35.7989250712761
 72
     1
 10
-20.67080962752232
 20
-35.7989250712761
 11
-22.79903948672635
 21
-38.3352506518487
 72
     1
 10
-22.79903948672635
 20
-38.3352506518487
 11
-19.35273115777591
 21
-38.33521122254621
 72
     1
 10
-19.35273115777591
 20
-38.33521122254621
 11
-17.22453438368504
 21
-35.7989250712761
 97
        0
 75
     0
 76
     1
 98
        1
 10
0.0
 20
0.0
  0
HATCH
  5
D4
330
1F
100
AcDbEntity
  8
중심선
100
AcDbHatch
 10
0.0
 20
0.0
 30
0.0
210
0.0
220
0.0
230
1.0
  2
SOLID
 70
     1
 71
     0
 91
        1
 92
        0
 93
        4
 72
     1
 10
-12.21177039264909
 20
-35.7989250712761
 11
-15.65804563648637
 21
-35.7989250712761
 72
     1
 10
-15.65804563648637
 20
-35.7989250712761
 11
-20.18918364484376
 21
-41.19892507127612
 72
     1
 10
-20.18918364484376
 20
-41.19892507127612
 11
-16.74290840100648
 21
-41.19892507127612
 72
     1
 10
-16.74290840100648
 20
-41.19892507127612
 11
-12.21177039264909
 21
-35.7989250712761
 97
        0
 75
     0
 76
     1
 98
        1
 10
0.0
 20
0.0
  0
HATCH
  5
D5
330
1F
100
AcDbEntity
  8
중심선
100
AcDbHatch
 10
0.0
 20
0.0
 30
0.0
210
0.0
220
0.0
230
1.0
  2
SOLID
 70
     1
 71
     0
 91
        1
 92
        0
 93
        4
 72
     1
 10
-7.199006401613195
 20
-35.79892507127613
 11
-10.64528164545031
 21
-35.7989250712761
 72
     1
 10
-10.64528164545031
 20
-35.7989250712761
 11
-17.69371854733956
 21
-44.19892507127612
 72
     1
 10
-17.69371854733956
 20
-44.19892507127612
 11
-14.24744330350228
 21
-44.19892507127612
 72
     1
 10
-14.24744330350228
 20
-44.19892507127612
 11
-7.199006401613195
 21
-35.79892507127613
 97
        0
 75
     0
 76
     1
 98
        1
 10
0.0
 20
0.0
  0
HATCH
  5
D6
330
1F
100
AcDbEntity
  8
중심선
100
AcDbHatch
 10
0.0
 20
0.0
 30
0.0
210
0.0
220
0.0
230
1.0
  2
SOLID
 70
     1
 71
     0
 91
        1
 92
        0
 93
        6
 72
     3
 10
-2.399115970600996
 20
-39.99892507132738
 11
3.960054785062284
 21
1.540850780301639E-10
 40
0.3939339440162633
 50
17.09539180608433
 51
320.0019657685079
 73
     0
 72
     1
 10
-0.7161163149004002
 20
-38.58681907591441
 11
1.589185558800638
 21
-36.65249236586649
 72
     3
 10
-2.399115970653842
 20
-39.99892507127625
 11
6.600054785286829
 21
-1.249000902703301E-13
 40
0.6363583540795982
 50
39.99873849337408
 51
368.4976242363725
 73
     1
 72
     1
 10
4.026216521246767
 20
-39.03892507120613
 11
-3.71904866381792
 21
-39.0389250712061
 72
     1
 10
-3.71904866381792
 20
-39.0389250712061
 11
-3.719073708263854
 21
-40.95892507120602
 72
     1
 10
-3.719073708263854
 20
-40.95892507120602
 11
0.7223060612081831
 21
-40.95892507120599
 97
        0
 75
     0
 76
     1
 98
        1
 10
0.0
 20
0.0
  0
DIMENSION
  5
D7
330
1F
100
AcDbEntity
  8
치수문자_일반주서
100
AcDbDimension
  2
_D
 10
140.9730119539353
 20
11.00000000000047
 30
0.0
 11
140.9730119539353
 21
21.97900000000048
 31
0.0
 70
   160
  1
%%c<>
 71
     2
 42
22.00000000000002
 52
-270.0
  3
SLDDIMSTYLE0
100
AcDbAlignedDimension
 13
122.0
 23
-10.99999999999962
 33
0.0
 14
121.9999999999994
 24
11.0000000000004
 34
0.0
 50
90.0000000000002
100
AcDbRotatedDimension
  0
DIMENSION
  5
E5
330
1F
100
AcDbEntity
  8
치수문자_일반주서
100
AcDbDimension
  2
_D_1
 10
121.9999999999994
 20
32.14144145862323
 30
0.0
 11
41.58433264446914
 21
32.14144145862323
 31
0.0
 70
   160
  1
<>
 71
     2
 42
199.9999999999994
  3
SLDDIMSTYLE1
100
AcDbAlignedDimension
 13
-78.0
 23
9.449999999999998
 33
0.0
 14
121.9999999999994
 24
11.0000000000004
 34
0.0
 50
-0.0000000000000037
100
AcDbRotatedDimension
  0
DIMENSION
  5
F0
330
1F
100
AcDbEntity
  8
치수문자_일반주서
100
AcDbDimension
  2
_D_2
 10
121.9999999999994
 20
21.16519480938923
 30
0.0
 11
57.00000000000001
 21
21.16519480938923
 31
0.0
 70
   160
  1
<>
 71
     2
 42
109.9999999999994
  3
SLDDIMSTYLE1
100
AcDbAlignedDimension
 13
12.00000000000001
 23
7.818197003221706
 33
0.0
 14
121.9999999999994
 24
11.0000000000004
 34
0.0
 50
-0.0000000000000045
100
AcDbRotatedDimension
  0
DIMENSION
  5
FA
330
1F
100
AcDbEntity
  8
치수문자_일반주서
100
AcDbDimension
  2
_D_3
 10
-93.8068930508565
 20
-10.00000000000006
 30
0.0
 11
-93.80689305085662
 21
20.76024999999994
 31
0.0
 70
   160
  1
%%c<>
 71
     2
 42
20.0
 52
-270.0
  3
SLDDIMSTYLE0
100
AcDbAlignedDimension
 13
-77.45
 23
10.0
 33
0.0
 14
-77.45
 24
-10.0
 34
0.0
 50
90.0000000000002
100
AcDbRotatedDimension
  0
INSERT
  5
10D
330
1F
100
AcDbEntity
  8
외형선
100
AcDbBlockReference
  2
SW_DOWELSYMBOL_0
 10
0.0000000000000104
 20
0.0
 30
0.0
  0
LINE
  5
135
330
1F
100
AcDbEntity
  8
0
  6
Continuous
 62
     1
370
    15
100
AcDbLine
 10
122.0
 20
9.449999999999998
 30
0.0
 11
122.0
 21
-9.449999999999998
 31
0.0
  0
ENDSEC
  0
SECTION
  2
OBJECTS
  0
DICTIONARY
  5
C
330
0
100
AcDbDictionary
281
     1
  3
ACAD_GROUP
350
D
  3
ACAD_IMAGE_VARS
350
131
  3
ACAD_LAYOUT
350
1A
  3
ACAD_MLINESTYLE
350
17
  3
ACAD_PLOTSETTINGS
350
19
  3
ACAD_PLOTSTYLENAME
350
E
  3
ACAD_SCALELIST
350
47
  3
APPDATA
350
12F
  3
DWGPROPS
350
143
  0
DICTIONARY
  5
D
102
{ACAD_REACTORS
330
C
102
}
330
C
100
AcDbDictionary
281
     1
  0
RASTERVARIABLES
  5
131
102
{ACAD_REACTORS
330
C
102
}
330
C
100
AcDbRasterVariables
 90
        0
 70
     1
 71
     1
 72
     1
  0
DICTIONARY
  5
1A
102
{ACAD_REACTORS
330
C
102
}
330
C
100
AcDbDictionary
281
     1
  3
Layout1
350
1E
  3
Layout2
350
26
  3
Model
350
22
  0
DICTIONARY
  5
17
102
{ACAD_REACTORS
330
C
102
}
330
C
100
AcDbDictionary
281
     1
  3
Standard
350
18
  0
DICTIONARY
  5
19
102
{ACAD_REACTORS
330
C
102
}
330
C
100
AcDbDictionary
281
     1
  0
ACDBDICTIONARYWDFLT
  5
E
102
{ACAD_REACTORS
330
C
102
}
330
C
100
AcDbDictionary
281
     1
  3
Normal
350
F
100
AcDbDictionaryWithDefault
340
F
  0
DICTIONARY
  5
47
102
{ACAD_REACTORS
330
C
102
}
330
C
100
AcDbDictionary
281
     1
  3
A0
350
48
  3
A1
350
49
  3
A2
350
4A
  3
A3
350
4B
  3
A4
350
4C
  3
A5
350
4D
  3
A6
350
4E
  3
A7
350
4F
  3
A8
350
50
  3
A9
350
51
  3
B0
350
52
  3
B1
350
53
  3
B2
350
54
  3
B3
350
55
  3
B4
350
56
  3
B5
350
57
  3
B6
350
58
  3
B7
350
59
  3
B8
350
5A
  3
B9
350
5B
  3
C0
350
5C
  3
C1
350
5D
  3
C2
350
5E
  3
C3
350
5F
  3
C4
350
60
  3
C5
350
61
  3
C6
350
62
  3
C7
350
63
  3
C8
350
64
  3
C9
350
65
  3
D0
350
66
  3
D1
350
67
  3
D2
350
68
  0
DICTIONARY
  5
12F
102
{ACAD_REACTORS
330
C
102
}
330
C
100
AcDbDictionary
281
     1
  0
XRECORD
  5
143
102
{ACAD_REACTORS
330
C
102
}
330
C
100
AcDbXrecord
280
     1
  1
DWGPROPS COOKIE
  2

  3

  4

  6

  7

  8
12014102
  9

300
=
301
=
302
=
303
=
304
=
305
=
306
=
307
=
308
=
309
=
 40
0.0
 41
2458262.17930772
 42
2458266.258741042
  1

 90
        0
  0
LAYOUT
  5
1E
102
{ACAD_REACTORS
330
1A
102
}
330
1A
100
AcDbPlotSettings
  1

  2
none_device
  4

  6

 40
0.0
 41
0.0
 42
0.0
 43
0.0
 44
0.0
 45
0.0
 46
0.0
 47
0.0
 48
0.0
 49
0.0
140
0.0
141
0.0
142
1.0
143
1.0
 70
   688
 72
     1
 73
     0
 74
     5
  7

 75
    16
147
1.0
148
0.0
149
0.0
100
AcDbLayout
  1
Layout1
 70
     1
 71
     1
 10
0.0
 20
0.0
 11
420.0
 21
297.0
 12
0.0
 22
0.0
 32
0.0
 14
1.000000000000000E+20
 24
1.000000000000000E+20
 34
1.000000000000000E+20
 15
-1.000000000000000E+20
 25
-1.000000000000000E+20
 35
-1.000000000000000E+20
146
0.0
 13
0.0
 23
0.0
 33
0.0
 16
1.0
 26
0.0
 36
0.0
 17
0.0
 27
1.0
 37
0.0
 76
     0
330
1B
  0
LAYOUT
  5
26
102
{ACAD_REACTORS
330
1A
102
}
330
1A
100
AcDbPlotSettings
  1

  2
none_device
  4

  6

 40
0.0
 41
0.0
 42
0.0
 43
0.0
 44
0.0
 45
0.0
 46
0.0
 47
0.0
 48
0.0
 49
0.0
140
0.0
141
0.0
142
1.0
143
1.0
 70
   688
 72
     1
 73
     0
 74
     5
  7

 75
    16
147
1.0
148
0.0
149
0.0
100
AcDbLayout
  1
Layout2
 70
     1
 71
     2
 10
0.0
 20
0.0
 11
0.0
 21
0.0
 12
0.0
 22
0.0
 32
0.0
 14
0.0
 24
0.0
 34
0.0
 15
0.0
 25
0.0
 35
0.0
146
0.0
 13
0.0
 23
0.0
 33
0.0
 16
1.0
 26
0.0
 36
0.0
 17
0.0
 27
1.0
 37
0.0
 76
     0
330
23
  0
LAYOUT
  5
22
102
{ACAD_REACTORS
330
1A
102
}
330
1A
100
AcDbPlotSettings
  1

  2
none_device
  4
ANSI_A_(11.00_x_8.50_Inches)
  6

 40
6.35
 41
19.05
 42
6.35000508
 43
19.05000254
 44
279.4
 45
215.9
 46
80.11189257244462
 47
105.7278008052751
 48
0.0
 49
0.0
140
0.0
141
0.0
142
0.0603285104151028
143
1.0
 70
  1696
 72
     0
 73
     0
 74
     0
  7

 75
     0
147
0.0235690232323232
148
0.0
149
0.0
100
AcDbLayout
  1
Model
 70
     1
 71
     0
 10
0.0
 20
0.0
 11
420.0
 21
297.0
 12
0.0
 22
0.0
 32
0.0
 14
-98.18189305085664
 24
-49.97073246008785
 34
0.0
 15
141.5233452872687
 25
36.51644145862323
 35
0.0
146
0.0
 13
0.0
 23
0.0
 33
0.0
 16
1.0
 26
0.0
 36
0.0
 17
0.0
 27
1.0
 37
0.0
 76
     0
330
1F
331
29
  0
MLINESTYLE
  5
18
102
{ACAD_REACTORS
330
17
102
}
330
17
100
AcDbMlineStyle
  2
Standard
 70
     0
  3

 62
   256
 51
90.0
 52
90.0
 71
     2
 49
0.5
 62
   256
  6
BYLAYER
 49
-0.5
 62
   256
  6
BYLAYER
  0
ACDBPLACEHOLDER
  5
F
102
{ACAD_REACTORS
330
E
102
}
330
E
  0
SCALE
  5
48
102
{ACAD_REACTORS
330
47
102
}
330
47
100
AcDbScale
 70
     0
300
1:1
140
1.0
141
1.0
290
     1
  0
SCALE
  5
49
102
{ACAD_REACTORS
330
47
102
}
330
47
100
AcDbScale
 70
     0
300
1:2
140
1.0
141
2.0
290
     0
  0
SCALE
  5
4A
102
{ACAD_REACTORS
330
47
102
}
330
47
100
AcDbScale
 70
     0
300
1:4
140
1.0
141
4.0
290
     0
  0
SCALE
  5
4B
102
{ACAD_REACTORS
330
47
102
}
330
47
100
AcDbScale
 70
     0
300
1:5
140
1.0
141
5.0
290
     0
  0
SCALE
  5
4C
102
{ACAD_REACTORS
330
47
102
}
330
47
100
AcDbScale
 70
     0
300
1:8
140
1.0
141
8.0
290
     0
  0
SCALE
  5
4D
102
{ACAD_REACTORS
330
47
102
}
330
47
100
AcDbScale
 70
     0
300
1:10
140
1.0
141
10.0
290
     0
  0
SCALE
  5
4E
102
{ACAD_REACTORS
330
47
102
}
330
47
100
AcDbScale
 70
     0
300
1:16
140
1.0
141
16.0
290
     0
  0
SCALE
  5
4F
102
{ACAD_REACTORS
330
47
102
}
330
47
100
AcDbScale
 70
     0
300
1:20
140
1.0
141
20.0
290
     0
  0
SCALE
  5
50
102
{ACAD_REACTORS
330
47
102
}
330
47
100
AcDbScale
 70
     0
300
1:30
140
1.0
141
30.0
290
     0
  0
SCALE
  5
51
102
{ACAD_REACTORS
330
47
102
}
330
47
100
AcDbScale
 70
     0
300
1:40
140
1.0
141
40.0
290
     0
  0
SCALE
  5
52
102
{ACAD_REACTORS
330
47
102
}
330
47
100
AcDbScale
 70
     0
300
1:50
140
1.0
141
50.0
290
     0
  0
SCALE
  5
53
102
{ACAD_REACTORS
330
47
102
}
330
47
100
AcDbScale
 70
     0
300
1:100
140
1.0
141
100.0
290
     0
  0
SCALE
  5
54
102
{ACAD_REACTORS
330
47
102
}
330
47
100
AcDbScale
 70
     0
300
2:1
140
2.0
141
1.0
290
     0
  0
SCALE
  5
55
102
{ACAD_REACTORS
330
47
102
}
330
47
100
AcDbScale
 70
     0
300
4:1
140
4.0
141
1.0
290
     0
  0
SCALE
  5
56
102
{ACAD_REACTORS
330
47
102
}
330
47
100
AcDbScale
 70
     0
300
8:1
140
8.0
141
1.0
290
     0
  0
SCALE
  5
57
102
{ACAD_REACTORS
330
47
102
}
330
47
100
AcDbScale
 70
     0
300
10:1
140
10.0
141
1.0
290
     0
  0
SCALE
  5
58
102
{ACAD_REACTORS
330
47
102
}
330
47
100
AcDbScale
 70
     0
300
100:1
140
100.0
141
1.0
290
     0
  0
SCALE
  5
59
102
{ACAD_REACTORS
330
47
102
}
330
47
100
AcDbScale
 70
     0
300
1/128" = 1'-0"
140
0.0078125
141
12.0
290
     0
  0
SCALE
  5
5A
102
{ACAD_REACTORS
330
47
102
}
330
47
100
AcDbScale
 70
     0
300
1/64" = 1'-0"
140
0.015625
141
12.0
290
     0
  0
SCALE
  5
5B
102
{ACAD_REACTORS
330
47
102
}
330
47
100
AcDbScale
 70
     0
300
1/32" = 1'-0"
140
0.03125
141
12.0
290
     0
  0
SCALE
  5
5C
102
{ACAD_REACTORS
330
47
102
}
330
47
100
AcDbScale
 70
     0
300
1/16" = 1'-0"
140
0.0625
141
12.0
290
     0
  0
SCALE
  5
5D
102
{ACAD_REACTORS
330
47
102
}
330
47
100
AcDbScale
 70
     0
300
3/32" = 1'-0"
140
0.09375
141
12.0
290
     0
  0
SCALE
  5
5E
102
{ACAD_REACTORS
330
47
102
}
330
47
100
AcDbScale
 70
     0
300
1/8" = 1'-0"
140
0.125
141
12.0
290
     0
  0
SCALE
  5
5F
102
{ACAD_REACTORS
330
47
102
}
330
47
100
AcDbScale
 70
     0
300
3/16" = 1'-0"
140
0.1875
141
12.0
290
     0
  0
SCALE
  5
60
102
{ACAD_REACTORS
330
47
102
}
330
47
100
AcDbScale
 70
     0
300
1/4" = 1'-0"
140
0.25
141
12.0
290
     0
  0
SCALE
  5
61
102
{ACAD_REACTORS
330
47
102
}
330
47
100
AcDbScale
 70
     0
300
3/8" = 1'-0"
140
0.375
141
12.0
290
     0
  0
SCALE
  5
62
102
{ACAD_REACTORS
330
47
102
}
330
47
100
AcDbScale
 70
     0
300
1/2" = 1'-0"
140
0.5
141
12.0
290
     0
  0
SCALE
  5
63
102
{ACAD_REACTORS
330
47
102
}
330
47
100
AcDbScale
 70
     0
300
3/4" = 1'-0"
140
0.75
141
12.0
290
     0
  0
SCALE
  5
64
102
{ACAD_REACTORS
330
47
102
}
330
47
100
AcDbScale
 70
     0
300
1" = 1'-0"
140
1.0
141
12.0
290
     0
  0
SCALE
  5
65
102
{ACAD_REACTORS
330
47
102
}
330
47
100
AcDbScale
 70
     0
300
1-1/2" = 1'-0"
140
1.5
141
12.0
290
     0
  0
SCALE
  5
66
102
{ACAD_REACTORS
330
47
102
}
330
47
100
AcDbScale
 70
     0
300
3" = 1'-0"
140
3.0
141
12.0
290
     0
  0
SCALE
  5
67
102
{ACAD_REACTORS
330
47
102
}
330
47
100
AcDbScale
 70
     0
300
6" = 1'-0"
140
6.0
141
12.0
290
     0
  0
SCALE
  5
68
102
{ACAD_REACTORS
330
47
102
}
330
47
100
AcDbScale
 70
     0
300
1'-0" = 1'-0"
140
12.0
141
12.0
290
     0
  0
ENDSEC
  0
EOF
