  0
SECTION
  2
HEADER
  9
$ACADVER
  1
AC1015
  9
$ACADMAINTVER
 70
     6
  9
$DWGCODEPAGE
  3
ANSI_949
  9
$INSBASE
 10
0.0
 20
0.0
 30
0.0
  9
$EXTMIN
 10
-79.08759473467325
 20
-49.97073246008785
 30
0.0
  9
$EXTMAX
 10
103.7478235417485
 20
38.03918227566014
 30
0.0
  9
$LIMMIN
 10
0.0
 20
0.0
  9
$LIMMAX
 10
420.0
 20
297.0
  9
$ORTHOMODE
 70
     0
  9
$REGENMODE
 70
     1
  9
$FILLMODE
 70
     1
  9
$QTEXTMODE
 70
     0
  9
$MIRRTEXT
 70
     1
  9
$LTSCALE
 40
1.0
  9
$ATTMODE
 70
     1
  9
$TEXTSIZE
 40
3.5
  9
$TRACEWID
 40
1.0
  9
$TEXTSTYLE
  7
Standard
  9
$CLAYER
  8
0
  9
$CELTYPE
  6
ByLayer
  9
$CECOLOR
 62
   256
  9
$CELTSCALE
 40
1.0
  9
$DISPSILH
 70
     0
  9
$DIMSCALE
 40
1.0
  9
$DIMASZ
 40
3.302
  9
$DIMEXO
 40
1.0
  9
$DIMDLI
 40
3.75
  9
$DIMRND
 40
0.0
  9
$DIMDLE
 40
0.0
  9
$DIMEXE
 40
1.0
  9
$DIMTP
 40
0.0
  9
$DIMTM
 40
0.0
  9
$DIMTXT
 40
3.5
  9
$DIMCEN
 40
2.5
  9
$DIMTSZ
 40
0.0
  9
$DIMTOL
 70
     0
  9
$DIMLIM
 70
     0
  9
$DIMTIH
 70
     1
  9
$DIMTOH
 70
     1
  9
$DIMSE1
 70
     0
  9
$DIMSE2
 70
     0
  9
$DIMTAD
 70
     1
  9
$DIMZIN
 70
     0
  9
$DIMBLK
  1

  9
$DIMASO
 70
     1
  9
$DIMSHO
 70
     1
  9
$DIMPOST
  1

  9
$DIMAPOST
  1

  9
$DIMALT
 70
     0
  9
$DIMALTD
 70
     3
  9
$DIMALTF
 40
0.0393700787401575
  9
$DIMLFAC
 40
1.0
  9
$DIMTOFL
 70
     1
  9
$DIMTVP
 40
0.0
  9
$DIMTIX
 70
     0
  9
$DIMSOXD
 70
     0
  9
$DIMSAH
 70
     0
  9
$DIMBLK1
  1

  9
$DIMBLK2
  1

  9
$DIMSTYLE
  2
ISO-25
  9
$DIMCLRD
 70
     0
  9
$DIMCLRE
 70
     0
  9
$DIMCLRT
 70
     0
  9
$DIMTFAC
 40
1.0
  9
$DIMGAP
 40
1.524
  9
$DIMJUST
 70
     0
  9
$DIMSD1
 70
     0
  9
$DIMSD2
 70
     0
  9
$DIMTOLJ
 70
     0
  9
$DIMTZIN
 70
     0
  9
$DIMALTZ
 70
     0
  9
$DIMALTTZ
 70
     0
  9
$DIMUPT
 70
     0
  9
$DIMDEC
 70
     2
  9
$DIMTDEC
 70
     2
  9
$DIMALTU
 70
     2
  9
$DIMALTTD
 70
     3
  9
$DIMTXSTY
  7
Standard
  9
$DIMAUNIT
 70
     0
  9
$DIMADEC
 70
     2
  9
$DIMALTRND
 40
0.0
  9
$DIMAZIN
 70
     0
  9
$DIMDSEP
 70
    44
  9
$DIMATFIT
 70
     3
  9
$DIMFRAC
 70
     0
  9
$DIMLDRBLK
  1

  9
$DIMLUNIT
 70
     2
  9
$DIMLWD
 70
    -2
  9
$DIMLWE
 70
    -2
  9
$DIMTMOVE
 70
     0
  9
$LUNITS
 70
     2
  9
$LUPREC
 70
     2
  9
$SKETCHINC
 40
1.0
  9
$FILLETRAD
 40
10.0
  9
$AUNITS
 70
     0
  9
$AUPREC
 70
     2
  9
$MENU
  1
.
  9
$ELEVATION
 40
0.0
  9
$PELEVATION
 40
0.0
  9
$THICKNESS
 40
0.0
  9
$LIMCHECK
 70
     0
  9
$CHAMFERA
 40
0.0
  9
$CHAMFERB
 40
0.0
  9
$CHAMFERC
 40
0.0
  9
$CHAMFERD
 40
0.0
  9
$SKPOLY
 70
     0
  9
$TDCREATE
 40
2458262.554495266
  9
$TDUCREATE
 40
2458262.179495266
  9
$TDUPDATE
 40
2458266.609085
  9
$TDUUPDATE
 40
2458266.234085
  9
$TDINDWG
 40
0.0174310185
  9
$TDUSRTIMER
 40
2458266.216654016
  9
$USRTIMER
 70
     1
  9
$ANGBASE
 50
0.0
  9
$ANGDIR
 70
     0
  9
$PDMODE
 70
     0
  9
$PDSIZE
 40
-1.0
  9
$PLINEWID
 40
0.0
  9
$SPLFRAME
 70
     0
  9
$SPLINETYPE
 70
     6
  9
$SPLINESEGS
 70
     8
  9
$HANDSEED
  5
13A
  9
$SURFTAB1
 70
     6
  9
$SURFTAB2
 70
     6
  9
$SURFTYPE
 70
     6
  9
$SURFU
 70
     6
  9
$SURFV
 70
     6
  9
$UCSBASE
  2

  9
$UCSNAME
  2

  9
$UCSORG
 10
0.0
 20
0.0
 30
0.0
  9
$UCSXDIR
 10
1.0
 20
0.0
 30
0.0
  9
$UCSYDIR
 10
0.0
 20
1.0
 30
0.0
  9
$UCSORTHOREF
  2

  9
$UCSORTHOVIEW
 70
     0
  9
$UCSORGTOP
 10
0.0
 20
0.0
 30
0.0
  9
$UCSORGBOTTOM
 10
0.0
 20
0.0
 30
0.0
  9
$UCSORGLEFT
 10
0.0
 20
0.0
 30
0.0
  9
$UCSORGRIGHT
 10
0.0
 20
0.0
 30
0.0
  9
$UCSORGFRONT
 10
0.0
 20
0.0
 30
0.0
  9
$UCSORGBACK
 10
0.0
 20
0.0
 30
0.0
  9
$PUCSBASE
  2

  9
$PUCSNAME
  2

  9
$PUCSORG
 10
0.0
 20
0.0
 30
0.0
  9
$PUCSXDIR
 10
1.0
 20
0.0
 30
0.0
  9
$PUCSYDIR
 10
0.0
 20
1.0
 30
0.0
  9
$PUCSORTHOREF
  2

  9
$PUCSORTHOVIEW
 70
     0
  9
$PUCSORGTOP
 10
0.0
 20
0.0
 30
0.0
  9
$PUCSORGBOTTOM
 10
0.0
 20
0.0
 30
0.0
  9
$PUCSORGLEFT
 10
0.0
 20
0.0
 30
0.0
  9
$PUCSORGRIGHT
 10
0.0
 20
0.0
 30
0.0
  9
$PUCSORGFRONT
 10
0.0
 20
0.0
 30
0.0
  9
$PUCSORGBACK
 10
0.0
 20
0.0
 30
0.0
  9
$USERI1
 70
     0
  9
$USERI2
 70
     0
  9
$USERI3
 70
     0
  9
$USERI4
 70
     0
  9
$USERI5
 70
     0
  9
$USERR1
 40
0.0
  9
$USERR2
 40
0.0
  9
$USERR3
 40
0.0
  9
$USERR4
 40
0.0
  9
$USERR5
 40
0.0
  9
$WORLDVIEW
 70
     1
  9
$SHADEDGE
 70
     3
  9
$SHADEDIF
 70
    70
  9
$TILEMODE
 70
     1
  9
$MAXACTVP
 70
    64
  9
$PINSBASE
 10
0.0
 20
0.0
 30
0.0
  9
$PLIMCHECK
 70
     0
  9
$PEXTMIN
 10
1.000000000000000E+20
 20
1.000000000000000E+20
 30
1.000000000000000E+20
  9
$PEXTMAX
 10
-1.000000000000000E+20
 20
-1.000000000000000E+20
 30
-1.000000000000000E+20
  9
$PLIMMIN
 10
0.0
 20
0.0
  9
$PLIMMAX
 10
0.0
 20
0.0
  9
$UNITMODE
 70
     0
  9
$VISRETAIN
 70
     1
  9
$PLINEGEN
 70
     0
  9
$PSLTSCALE
 70
     1
  9
$TREEDEPTH
 70
  3020
  9
$CMLSTYLE
  2
Standard
  9
$CMLJUST
 70
     0
  9
$CMLSCALE
 40
20.0
  9
$PROXYGRAPHICS
 70
     1
  9
$MEASUREMENT
 70
     1
  9
$CELWEIGHT
370
    -1
  9
$ENDCAPS
280
     0
  9
$JOINSTYLE
280
     0
  9
$LWDISPLAY
290
     1
  9
$INSUNITS
 70
     4
  9
$HYPERLINKBASE
  1

  9
$STYLESHEET
  1

  9
$XEDIT
290
     1
  9
$CEPSNTYPE
380
     0
  9
$PSTYLEMODE
290
     1
  9
$FINGERPRINTGUID
  2
{8AEE13F1-D22C-4F65-ABC3-259043A8ADFC}
  9
$VERSIONGUID
  2
{FAEB1C32-E019-11D5-929B-00C0DF256EC4}
  9
$EXTNAMES
290
     1
  9
$PSVPSCALE
 40
0.0
  9
$OLESTARTUP
290
     0
  0
ENDSEC
  0
SECTION
  2
CLASSES
  0
CLASS
  1
ACDBDICTIONARYWDFLT
  2
AcDbDictionaryWithDefault
  3
ObjectDBX Classes
 90
        0
280
     0
281
     0
  0
CLASS
  1
VISUALSTYLE
  2
AcDbVisualStyle
  3
ObjectDBX Classes
 90
     4095
280
     0
281
     0
  0
CLASS
  1
MATERIAL
  2
AcDbMaterial
  3
ObjectDBX Classes
 90
     1153
280
     0
281
     0
  0
CLASS
  1
SCALE
  2
AcDbScale
  3
ObjectDBX Classes
 90
     1153
280
     0
281
     0
  0
CLASS
  1
SUN
  2
AcDbSun
  3
SCENEOE
 90
     1153
280
     0
281
     0
  0
CLASS
  1
ACDBPLACEHOLDER
  2
AcDbPlaceHolder
  3
ObjectDBX Classes
 90
        0
280
     0
281
     0
  0
CLASS
  1
LAYOUT
  2
AcDbLayout
  3
ObjectDBX Classes
 90
        0
280
     0
281
     0
  0
CLASS
  1
TABLESTYLE
  2
AcDbTableStyle
  3
ObjectDBX Classes
 90
     4095
280
     0
281
     0
  0
CLASS
  1
MLEADERSTYLE
  2
AcDbMLeaderStyle
  3
ACDB_MLEADERSTYLE_CLASS
 90
     4095
280
     0
281
     0
  0
CLASS
  1
RASTERVARIABLES
  2
AcDbRasterVariables
  3
ISM
 90
        0
280
     0
281
     0
  0
ENDSEC
  0
SECTION
  2
TABLES
  0
TABLE
  2
VPORT
  5
8
330
0
100
AcDbSymbolTable
 70
     1
  0
VPORT
  5
29
330
8
100
AcDbSymbolTableRecord
100
AcDbViewportTableRecord
  2
*Active
 70
     0
 10
0.0
 20
0.0
 11
1.0
 21
1.0
 12
12.33011440353765
 22
-5.965775092213853
 13
0.0
 23
0.0
 14
10.0
 24
10.0
 15
10.0
 25
10.0
 16
0.0
 26
0.0
 36
1.0
 17
0.0
 27
0.0
 37
0.0
 40
161.8216435211541
 41
1.152454780361757
 42
50.0
 43
0.0
 44
0.0
 50
0.0
 51
0.0
 71
    16
 72
  2000
 73
     1
 74
     3
 75
     0
 76
     0
 77
     0
 78
     0
281
     0
 65
     1
110
0.0
120
0.0
130
0.0
111
1.0
121
0.0
131
0.0
112
0.0
122
1.0
132
0.0
 79
     0
146
0.0
  0
ENDTAB
  0
TABLE
  2
LTYPE
  5
5
330
0
100
AcDbSymbolTable
 70
     6
  0
LTYPE
  5
14
330
5
100
AcDbSymbolTableRecord
100
AcDbLinetypeTableRecord
  2
ByBlock
 70
     0
  3

 72
    65
 73
     0
 40
0.0
  0
LTYPE
  5
15
330
5
100
AcDbSymbolTableRecord
100
AcDbLinetypeTableRecord
  2
ByLayer
 70
     0
  3

 72
    65
 73
     0
 40
0.0
  0
LTYPE
  5
16
330
5
100
AcDbSymbolTableRecord
100
AcDbLinetypeTableRecord
  2
Continuous
 70
     0
  3
Solid line
 72
    65
 73
     0
 40
0.0
  0
LTYPE
  5
6A
330
5
100
AcDbSymbolTableRecord
100
AcDbLinetypeTableRecord
  2
HIDDEN
 70
     0
  3
Hidden __ __ __ __ __ __ __ __ __ __ __ __ __ __
 72
    65
 73
     2
 40
1.905
 49
1.27
 74
     0
 49
-0.635
 74
     0
  0
LTYPE
  5
6B
330
5
100
AcDbSymbolTableRecord
100
AcDbLinetypeTableRecord
  2
PHANTOM
 70
     0
  3
Phantom ______  __  __  ______  __  __  ______
 72
    65
 73
     6
 40
12.7
 49
6.35
 74
     0
 49
-1.27
 74
     0
 49
1.27
 74
     0
 49
-1.27
 74
     0
 49
1.27
 74
     0
 49
-1.27
 74
     0
  0
LTYPE
  5
6C
330
5
100
AcDbSymbolTableRecord
100
AcDbLinetypeTableRecord
  2
CENTER
 70
     0
  3
Center ____ _ ____ _ ____ _ ____ _ ____ _ ____
 72
    65
 73
     4
 40
10.16
 49
6.35
 74
     0
 49
-1.27
 74
     0
 49
1.27
 74
     0
 49
-1.27
 74
     0
  0
LTYPE
  5
6D
330
5
100
AcDbSymbolTableRecord
100
AcDbLinetypeTableRecord
  2
CENTERX2
 70
     0
  3
Center (2x) ________  __  ________  __  _____
 72
    65
 73
     4
 40
20.32
 49
12.7
 74
     0
 49
-2.54
 74
     0
 49
2.54
 74
     0
 49
-2.54
 74
     0
  0
LTYPE
  5
6E
330
5
100
AcDbSymbolTableRecord
100
AcDbLinetypeTableRecord
  2
DOT2
 70
     0
  3
Dot (.5x) ........................................
 72
    65
 73
     2
 40
0.635
 49
0.0
 74
     0
 49
-0.635
 74
     0
  0
ENDTAB
  0
TABLE
  2
LAYER
  5
2
330
0
100
AcDbSymbolTable
 70
    17
  0
LAYER
  5
10
330
2
100
AcDbSymbolTableRecord
100
AcDbLayerTableRecord
  2
0
 70
     0
 62
     7
  6
Continuous
370
    -3
390
F
  0
LAYER
  5
6F
330
2
100
AcDbSymbolTableRecord
100
AcDbLayerTableRecord
  2
FORMAT
 70
     0
 62
     2
  6
Continuous
370
    -3
390
F
  0
LAYER
  5
70
330
2
100
AcDbSymbolTableRecord
100
AcDbLayerTableRecord
  2
외형선
 70
     0
 62
   100
  6
Continuous
370
    30
390
F
  0
LAYER
  5
71
330
2
100
AcDbSymbolTableRecord
100
AcDbLayerTableRecord
  2
숨은선
 70
     0
 62
     2
  6
HIDDEN
370
    15
390
F
  0
LAYER
  5
72
330
2
100
AcDbSymbolTableRecord
100
AcDbLayerTableRecord
  2
중심선
 70
     0
 62
     1
  6
CENTERX2
370
    -3
390
F
  0
LAYER
  5
73
330
2
100
AcDbSymbolTableRecord
100
AcDbLayerTableRecord
  2
파단선
 70
     0
 62
     4
  6
Continuous
370
    -3
390
F
  0
LAYER
  5
74
330
2
100
AcDbSymbolTableRecord
100
AcDbLayerTableRecord
  2
해칭선
 70
     0
 62
     4
  6
Continuous
370
    -3
390
F
  0
LAYER
  5
75
330
2
100
AcDbSymbolTableRecord
100
AcDbLayerTableRecord
  2
가는실선
 70
     0
 62
     4
  6
Continuous
370
    -3
390
F
  0
LAYER
  5
76
330
2
100
AcDbSymbolTableRecord
100
AcDbLayerTableRecord
  2
치수_보조선
 70
     0
 62
     4
  6
Continuous
370
    -3
390
F
  0
LAYER
  5
77
330
2
100
AcDbSymbolTableRecord
100
AcDbLayerTableRecord
  2
치수문자_일반주서
 70
     0
 62
     7
  6
Continuous
370
    15
390
F
  0
LAYER
  5
78
330
2
100
AcDbSymbolTableRecord
100
AcDbLayerTableRecord
  2
개별주서
 70
     0
 62
   100
  6
Continuous
370
    30
390
F
  0
LAYER
  5
79
330
2
100
AcDbSymbolTableRecord
100
AcDbLayerTableRecord
  2
중간선
 70
     0
 62
     2
  6
Continuous
370
    15
390
F
  0
LAYER
  5
7A
330
2
100
AcDbSymbolTableRecord
100
AcDbLayerTableRecord
  2
윤곽선
 70
     0
 62
     3
  6
Continuous
370
    40
390
F
  0
LAYER
  5
7B
330
2
100
AcDbSymbolTableRecord
100
AcDbLayerTableRecord
  2
중심마크
 70
     0
 62
   100
  6
Continuous
370
    30
390
F
  0
LAYER
  5
7C
330
2
100
AcDbSymbolTableRecord
100
AcDbLayerTableRecord
  2
가상선
 70
     0
 62
     4
  6
PHANTOM
370
    -3
390
F
  0
LAYER
  5
7D
330
2
100
AcDbSymbolTableRecord
100
AcDbLayerTableRecord
  2
특수지정선
 70
     0
 62
     5
  6
CENTERX2
370
    60
390
F
  0
LAYER
  5
128
330
2
100
AcDbSymbolTableRecord
100
AcDbLayerTableRecord
  2
Defpoints
 70
     0
 62
     7
  6
Continuous
290
     0
370
    -3
390
F
  0
ENDTAB
  0
TABLE
  2
STYLE
  5
3
330
0
100
AcDbSymbolTable
 70
     2
  0
STYLE
  5
11
330
3
100
AcDbSymbolTableRecord
100
AcDbTextStyleTableRecord
  2
Standard
 70
     0
 40
0.0
 41
1.0
 50
0.0
 71
     0
 42
3.5
  3
txt
  4

  0
STYLE
  5
93
330
3
100
AcDbSymbolTableRecord
100
AcDbTextStyleTableRecord
  2
SLDTEXTSTYLE0
 70
     0
 40
0.0
 41
0.75
 50
0.0
 71
     0
 42
3.5
  3
TXT
  4

  0
ENDTAB
  0
TABLE
  2
VIEW
  5
6
330
0
100
AcDbSymbolTable
 70
     0
  0
ENDTAB
  0
TABLE
  2
UCS
  5
7
330
0
100
AcDbSymbolTable
 70
     0
  0
ENDTAB
  0
TABLE
  2
APPID
  5
9
330
0
100
AcDbSymbolTable
 70
     1
  0
APPID
  5
12
330
9
100
AcDbSymbolTableRecord
100
AcDbRegAppTableRecord
  2
ACAD
 70
     0
  0
ENDTAB
  0
TABLE
  2
DIMSTYLE
  5
A
330
0
100
AcDbSymbolTable
 70
     3
100
AcDbDimStyleTable
  0
DIMSTYLE
105
27
330
A
100
AcDbSymbolTableRecord
100
AcDbDimStyleTableRecord
  2
ISO-25
 70
     0
 41
2.5
 42
0.625
 43
3.75
 44
1.25
 73
     0
 74
     0
 77
     1
 78
     8
140
2.5
141
2.5
143
0.03937007874016
147
0.625
171
     3
172
     1
178
     0
271
     2
272
     2
274
     3
278
    44
283
     0
284
     8
340
11
  0
DIMSTYLE
105
CE
102
{ACAD_REACTORS
330
CD
330
F0
102
}
330
A
100
AcDbSymbolTableRecord
100
AcDbDimStyleTableRecord
  2
SLDDIMSTYLE0
 70
     0
 41
3.302
 44
0.0
 45
0.000000001
 73
     0
 74
     0
 77
     1
 78
    12
 79
     3
140
3.5
147
0.875
172
     1
173
     1
178
     0
271
     2
272
     2
276
     2
284
    12
289
     0
340
93
  0
DIMSTYLE
105
DC
102
{ACAD_REACTORS
330
DB
330
E6
102
}
330
A
100
AcDbSymbolTableRecord
100
AcDbDimStyleTableRecord
  2
SLDDIMSTYLE1
 70
     0
 41
3.302
 44
0.0
 45
0.000000001
 73
     0
 74
     0
 77
     1
 78
    12
 79
     3
140
3.5
147
0.875
173
     1
178
     0
271
     2
272
     2
276
     2
284
    12
340
93
  0
ENDTAB
  0
TABLE
  2
BLOCK_RECORD
  5
1
330
0
100
AcDbSymbolTable
 70
     7
  0
BLOCK_RECORD
  5
1F
330
1
100
AcDbSymbolTableRecord
100
AcDbBlockTableRecord
  2
*Model_Space
340
22
  0
BLOCK_RECORD
  5
1B
330
1
100
AcDbSymbolTableRecord
100
AcDbBlockTableRecord
  2
*Paper_Space
340
1E
  0
BLOCK_RECORD
  5
23
330
1
100
AcDbSymbolTableRecord
100
AcDbBlockTableRecord
  2
*Paper_Space0
340
26
  0
BLOCK_RECORD
  5
7E
330
1
100
AcDbSymbolTableRecord
100
AcDbBlockTableRecord
  2
블럭10
340
0
102
{BLKREFS
331
C6
102
}
  0
BLOCK_RECORD
  5
CF
330
1
100
AcDbSymbolTableRecord
100
AcDbBlockTableRecord
  2
_D
340
0
  0
BLOCK_RECORD
  5
DD
330
1
100
AcDbSymbolTableRecord
100
AcDbBlockTableRecord
  2
_D_1
340
0
  0
BLOCK_RECORD
  5
E7
330
1
100
AcDbSymbolTableRecord
100
AcDbBlockTableRecord
  2
_D_2
340
0
  0
BLOCK_RECORD
  5
F1
330
1
100
AcDbSymbolTableRecord
100
AcDbBlockTableRecord
  2
_D_3
340
0
  0
BLOCK_RECORD
  5
FD
330
1
100
AcDbSymbolTableRecord
100
AcDbBlockTableRecord
  2
SW_DOWELSYMBOL_0
340
0
102
{BLKREFS
331
103
102
}
  0
ENDTAB
  0
ENDSEC
  0
SECTION
  2
BLOCKS
  0
BLOCK
  5
20
330
1F
100
AcDbEntity
  8
0
100
AcDbBlockBegin
  2
*Model_Space
 70
     0
 10
0.0
 20
0.0
 30
0.0
  3
*Model_Space
  1

  0
ENDBLK
  5
21
330
1F
100
AcDbEntity
  8
0
100
AcDbBlockEnd
  0
BLOCK
  5
1C
330
1B
100
AcDbEntity
 67
     1
  8
0
100
AcDbBlockBegin
  2
*Paper_Space
 70
     0
 10
0.0
 20
0.0
 30
0.0
  3
*Paper_Space
  1

  0
ENDBLK
  5
1D
330
1B
100
AcDbEntity
 67
     1
  8
0
100
AcDbBlockEnd
  0
BLOCK
  5
24
330
23
100
AcDbEntity
  8
0
100
AcDbBlockBegin
  2
*Paper_Space0
 70
     0
 10
0.0
 20
0.0
 30
0.0
  3
*Paper_Space0
  1

  0
ENDBLK
  5
25
330
23
100
AcDbEntity
  8
0
100
AcDbBlockEnd
  0
BLOCK
  5
7F
330
7E
100
AcDbEntity
  8
0
100
AcDbBlockBegin
  2
블럭10
 70
     2
 10
0.0
 20
0.0
 30
0.0
  3
블럭10
  1

  0
ELLIPSE
  5
81
330
7E
100
AcDbEntity
  8
중심선
100
AcDbEllipse
 10
20.54032771741204
 20
12.0471743016438
 30
0.0
 11
6.600054785286829
 21
-1.261213355974178E-13
 31
0.0
210
0.0
220
0.0
230
1.0
 40
0.636358354079598
 41
0.9219305317359503
 42
6.513795318482858
  0
ELLIPSE
  5
82
330
7E
100
AcDbEntity
  8
중심선
100
AcDbEllipse
 10
20.54032771746488
 20
12.04717430159265
 30
0.0
 11
3.960054785062283
 21
1.540847449632565E-10
 31
0.0
210
0.0
220
0.0
230
1.0
 40
0.3939339440162632
 41
1.131841032648279
 42
5.62031148352944
  0
LINE
  5
83
330
7E
100
AcDbEntity
  8
중심선
100
AcDbLine
 10
2.268634060543552
 20
16.24717430164393
 30
0.0
 11
5.714909304380834
 21
16.24717430164393
 31
0.0
  0
LINE
  5
84
330
7E
100
AcDbEntity
  8
중심선
100
AcDbLine
 10
5.245725140726316
 20
7.84717430164391
 30
0.0
 11
8.692000384563599
 21
7.84717430164391
 31
0.0
  0
LINE
  5
85
330
7E
100
AcDbEntity
  8
중심선
100
AcDbLine
 10
15.74043728645272
 20
16.24717430164393
 30
0.0
 11
8.692000384563599
 21
7.84717430164391
 31
0.0
  0
LINE
  5
86
330
7E
100
AcDbEntity
  8
중심선
100
AcDbLine
 10
0.1404042013395286
 20
13.71084872107135
 30
0.0
 11
3.58671253028996
 21
13.71088815037384
 31
0.0
  0
LINE
  5
87
330
7E
100
AcDbEntity
  8
중심선
100
AcDbLine
 10
2.750260043222114
 20
10.84717430164391
 30
0.0
 11
6.196535287059397
 21
10.84717430164391
 31
0.0
  0
LINE
  5
88
330
7E
100
AcDbEntity
  8
중심선
100
AcDbLine
 10
12.29416204261559
 20
16.24717430164393
 30
0.0
 11
5.245725140726316
 21
7.84717430164391
 31
0.0
  0
LINE
  5
89
330
7E
100
AcDbEntity
  8
중심선
100
AcDbLine
 10
10.72767329541681
 20
16.24717430164393
 30
0.0
 11
6.196535287059397
 21
10.84717430164391
 31
0.0
  0
LINE
  5
8A
330
7E
100
AcDbEntity
  8
중심선
100
AcDbLine
 10
7.28139805157953
 20
16.24717430164393
 30
0.0
 11
2.750260043222114
 21
10.84717430164391
 31
0.0
  0
LINE
  5
8B
330
7E
100
AcDbEntity
  8
중심선
100
AcDbLine
 10
5.714909304380834
 20
16.24717430164393
 30
0.0
 11
3.58671253028996
 21
13.71088815037384
 31
0.0
  0
LINE
  5
8C
330
7E
100
AcDbEntity
  8
중심선
100
AcDbLine
 10
2.268634060543552
 20
16.24717430164393
 30
0.0
 11
0.1404042013395286
 21
13.71084872107135
 31
0.0
  0
LINE
  5
8D
330
7E
100
AcDbEntity
  8
중심선
100
AcDbLine
 10
7.28139805157953
 20
16.24717430164393
 30
0.0
 11
10.72767329541681
 21
16.24717430164393
 31
0.0
  0
LINE
  5
8E
330
7E
100
AcDbEntity
  8
중심선
100
AcDbLine
 10
12.29416204261559
 20
16.24717430164393
 30
0.0
 11
15.74043728645272
 21
16.24717430164393
 31
0.0
  0
LINE
  5
8F
330
7E
100
AcDbEntity
  8
중심선
100
AcDbLine
 10
19.22036997980202
 20
11.08717430171403
 30
0.0
 11
23.66174974927406
 21
11.08717430171406
 31
0.0
  0
LINE
  5
90
330
7E
100
AcDbEntity
  8
중심선
100
AcDbLine
 10
19.22039502424796
 20
13.00717430171391
 30
0.0
 11
19.22036997980202
 21
11.08717430171403
 31
0.0
  0
LINE
  5
91
330
7E
100
AcDbEntity
  8
중심선
100
AcDbLine
 10
19.22039502424796
 20
13.00717430171391
 30
0.0
 11
26.96566020931264
 21
13.00717430171391
 31
0.0
  0
LINE
  5
92
330
7E
100
AcDbEntity
  8
중심선
100
AcDbLine
 10
22.22332737316547
 20
13.45928029700563
 30
0.0
 11
24.52862924686651
 21
15.39360700705356
 31
0.0
  0
ATTDEF
  5
94
330
7E
100
AcDbEntity
  8
FORMAT
 62
     2
100
AcDbText
 10
-16.11926103943555
 20
2.075366912832191
 30
0.0
 40
4.233333333333333
  1
SEME7022075E [ 2 FLUTE ]
 41
0.75
  7
SLDTEXTSTYLE0
 11
-16.11926103943555
 21
-0.0412997538344756
 31
0.0
100
AcDbAttributeDefinition
  3

  2
AUTOATTR0
 70
     0
 74
     1
  0
ENDBLK
  5
80
330
7E
100
AcDbEntity
  8
0
100
AcDbBlockEnd
  0
BLOCK
  5
D0
330
CF
100
AcDbEntity
  8
0
100
AcDbBlockBegin
  2
_D
 70
     0
 10
0.0
 20
0.0
 30
0.0
  3
_D
  1

  0
LINE
  5
D2
330
CF
100
AcDbEntity
  8
치수문자_일반주서
 62
     0
370
    -2
100
AcDbLine
 10
87.06249999999999
 20
-10.99999999999972
 30
0.0
 11
103.1974902084152
 21
-10.99999999999967
 31
0.0
  0
LINE
  5
D3
330
CF
100
AcDbEntity
  8
치수문자_일반주서
 62
     0
370
    -2
100
AcDbLine
 10
87.06250000000001
 20
11.00000000000029
 30
0.0
 11
103.1974902084151
 21
11.00000000000035
 31
0.0
  0
LINE
  5
D4
330
CF
100
AcDbEntity
  8
치수문자_일반주서
 62
     0
370
    -2
100
AcDbLine
 10
103.1974902084152
 20
-10.99999999999967
 30
0.0
 11
103.1974902084151
 21
26.35400000000035
 31
0.0
  0
LINE
  5
D5
330
CF
100
AcDbEntity
  8
치수문자_일반주서
 62
     0
370
    -2
100
AcDbLine
 10
103.1974902084152
 20
-10.99999999999967
 30
0.0
 11
103.1974902084151
 21
11.00000000000035
 31
0.0
  0
LINE
  5
D6
330
CF
100
AcDbEntity
  8
치수문자_일반주서
 62
     0
370
    -2
100
AcDbLine
 10
103.1974902084152
 20
-14.30199999999967
 30
0.0
 11
103.1974902084152
 21
-17.60399999999967
 31
0.0
  0
LINE
  5
D7
330
CF
100
AcDbEntity
  8
치수문자_일반주서
 62
     0
370
    -2
100
AcDbLine
 10
103.1974902084151
 20
14.30200000000035
 30
0.0
 11
103.1974902084151
 21
17.60400000000035
 31
0.0
  0
SOLID
  5
D8
330
CF
100
AcDbEntity
  8
치수문자_일반주서
 62
     0
100
AcDbTrace
 10
103.7478235417486
 20
-14.30199999999967
 30
0.0
 11
102.6471568750819
 21
-14.30199999999967
 31
0.0
 12
103.1974902084152
 22
-10.99999999999967
 32
0.0
 13
103.1974902084152
 23
-10.99999999999967
 33
0.0
  0
SOLID
  5
D9
330
CF
100
AcDbEntity
  8
치수문자_일반주서
 62
     0
100
AcDbTrace
 10
102.6471568750818
 20
14.30200000000035
 30
0.0
 11
103.7478235417485
 21
14.30200000000035
 31
0.0
 12
103.1974902084151
 22
11.00000000000035
 32
0.0
 13
103.1974902084151
 23
11.00000000000035
 33
0.0
  0
MTEXT
  5
DA
330
CF
100
AcDbEntity
  8
치수문자_일반주서
 62
     0
100
AcDbMText
 10
98.82249020841512
 20
21.97900000000034
 30
0.0
 40
3.5
 41
0.0
 71
     2
 72
     1
  1
\A1;%%c22
  7
SLDTEXTSTYLE0
 11
-3.229739708000453E-15
 21
1.0
 31
0.0
 73
     1
 44
1.0
  0
POINT
  5
132
330
CF
100
AcDbEntity
  8
Defpoints
 62
     0
100
AcDbPoint
 10
86.99999999999999
 20
-10.99999999999972
 30
0.0
  0
POINT
  5
133
330
CF
100
AcDbEntity
  8
Defpoints
 62
     0
100
AcDbPoint
 10
87.00000000000001
 20
11.00000000000029
 30
0.0
  0
POINT
  5
134
330
CF
100
AcDbEntity
  8
Defpoints
 62
     0
100
AcDbPoint
 10
103.1974902084151
 20
11.00000000000035
 30
0.0
  0
ENDBLK
  5
D1
330
CF
100
AcDbEntity
  8
0
100
AcDbBlockEnd
  0
BLOCK
  5
DE
330
DD
100
AcDbEntity
  8
0
100
AcDbBlockBegin
  2
_D_1
 70
     0
 10
0.0
 20
0.0
 30
0.0
  3
_D_1
  1

  0
LINE
  5
E0
330
DD
100
AcDbEntity
  8
치수문자_일반주서
 62
     0
370
    -2
100
AcDbLine
 10
-63.0
 20
9.512500000000015
 30
0.0
 11
-62.99999999999999
 21
33.66418227566014
 31
0.0
  0
LINE
  5
E1
330
DD
100
AcDbEntity
  8
치수문자_일반주서
 62
     0
370
    -2
100
AcDbLine
 10
87.00000000000001
 20
11.06250000000029
 30
0.0
 11
87.00000000000003
 21
33.66418227566014
 31
0.0
  0
LINE
  5
E2
330
DD
100
AcDbEntity
  8
치수문자_일반주서
 62
     0
370
    -2
100
AcDbLine
 10
-59.69799999999999
 20
33.66418227566014
 30
0.0
 11
83.69800000000004
 21
33.66418227566014
 31
0.0
  0
SOLID
  5
E3
330
DD
100
AcDbEntity
  8
치수문자_일반주서
 62
     0
100
AcDbTrace
 10
-59.69799999999999
 20
34.21451560899347
 30
0.0
 11
-59.69799999999999
 21
33.1138489423268
 31
0.0
 12
-62.99999999999999
 22
33.66418227566014
 32
0.0
 13
-62.99999999999999
 23
33.66418227566014
 33
0.0
  0
SOLID
  5
E4
330
DD
100
AcDbEntity
  8
치수문자_일반주서
 62
     0
100
AcDbTrace
 10
83.69800000000004
 20
33.1138489423268
 30
0.0
 11
83.69800000000004
 21
34.21451560899347
 31
0.0
 12
87.00000000000003
 22
33.66418227566014
 32
0.0
 13
87.00000000000003
 23
33.66418227566014
 33
0.0
  0
MTEXT
  5
E5
330
DD
100
AcDbEntity
  8
치수문자_일반주서
 62
     0
100
AcDbMText
 10
23.88236986130919
 20
38.03918227566014
 30
0.0
 40
3.5
 41
0.0
 71
     2
 72
     1
  1
\A1;150
  7
SLDTEXTSTYLE0
 73
     1
 44
1.0
  0
POINT
  5
12B
330
DD
100
AcDbEntity
  8
Defpoints
 62
     0
100
AcDbPoint
 10
-63.0
 20
9.450000000000015
 30
0.0
  0
POINT
  5
12C
330
DD
100
AcDbEntity
  8
Defpoints
 62
     0
100
AcDbPoint
 10
87.00000000000001
 20
11.00000000000029
 30
0.0
  0
POINT
  5
12D
330
DD
100
AcDbEntity
  8
Defpoints
 62
     0
100
AcDbPoint
 10
87.00000000000001
 20
33.66418227566014
 30
0.0
  0
ENDBLK
  5
DF
330
DD
100
AcDbEntity
  8
0
100
AcDbBlockEnd
  0
BLOCK
  5
E8
330
E7
100
AcDbEntity
  8
0
100
AcDbBlockBegin
  2
_D_2
 70
     0
 10
0.0
 20
0.0
 30
0.0
  3
_D_2
  1

  0
LINE
  5
EA
330
E7
100
AcDbEntity
  8
치수문자_일반주서
 62
     0
370
    -2
100
AcDbLine
 10
12.00000000000001
 20
11.06250000000001
 30
0.0
 11
12.00000000000001
 21
21.16519480938925
 31
0.0
  0
LINE
  5
EB
330
E7
100
AcDbEntity
  8
치수문자_일반주서
 62
     0
370
    -2
100
AcDbLine
 10
87.00000000000001
 20
11.06250000000029
 30
0.0
 11
87.00000000000001
 21
21.16519480938925
 31
0.0
  0
LINE
  5
EC
330
E7
100
AcDbEntity
  8
치수문자_일반주서
 62
     0
370
    -2
100
AcDbLine
 10
15.30200000000001
 20
21.16519480938925
 30
0.0
 11
83.69800000000001
 21
21.16519480938925
 31
0.0
  0
SOLID
  5
ED
330
E7
100
AcDbEntity
  8
치수문자_일반주서
 62
     0
100
AcDbTrace
 10
15.30200000000001
 20
21.71552814272258
 30
0.0
 11
15.30200000000001
 21
20.61486147605591
 31
0.0
 12
12.00000000000001
 22
21.16519480938925
 32
0.0
 13
12.00000000000001
 23
21.16519480938925
 33
0.0
  0
SOLID
  5
EE
330
E7
100
AcDbEntity
  8
치수문자_일반주서
 62
     0
100
AcDbTrace
 10
83.69800000000001
 20
20.61486147605591
 30
0.0
 11
83.69800000000001
 21
21.71552814272258
 31
0.0
 12
87.00000000000001
 22
21.16519480938925
 32
0.0
 13
87.00000000000001
 23
21.16519480938925
 33
0.0
  0
MTEXT
  5
EF
330
E7
100
AcDbEntity
  8
치수문자_일반주서
 62
     0
100
AcDbMText
 10
57.00000000000001
 20
25.54019480938925
 30
0.0
 40
3.5
 41
0.0
 71
     2
 72
     1
  1
\A1;75
  7
SLDTEXTSTYLE0
 73
     1
 44
1.0
  0
POINT
  5
12E
330
E7
100
AcDbEntity
  8
Defpoints
 62
     0
100
AcDbPoint
 10
12.00000000000001
 20
11.00000000000001
 30
0.0
  0
POINT
  5
12F
330
E7
100
AcDbEntity
  8
Defpoints
 62
     0
100
AcDbPoint
 10
87.00000000000001
 20
11.00000000000029
 30
0.0
  0
POINT
  5
130
330
E7
100
AcDbEntity
  8
Defpoints
 62
     0
100
AcDbPoint
 10
87.00000000000001
 20
21.16519480938925
 30
0.0
  0
ENDBLK
  5
E9
330
E7
100
AcDbEntity
  8
0
100
AcDbBlockEnd
  0
BLOCK
  5
F2
330
F1
100
AcDbEntity
  8
0
100
AcDbBlockBegin
  2
_D_3
 70
     0
 10
0.0
 20
0.0
 30
0.0
  3
_D_3
  1

  0
LINE
  5
F4
330
F1
100
AcDbEntity
  8
치수문자_일반주서
 62
     0
370
    -2
100
AcDbLine
 10
-62.51249999999999
 20
10.00000000000001
 30
0.0
 11
-74.71259473467317
 21
9.999999999999966
 31
0.0
  0
LINE
  5
F5
330
F1
100
AcDbEntity
  8
치수문자_일반주서
 62
     0
370
    -2
100
AcDbLine
 10
-62.51249999999999
 20
-9.99999999999998
 30
0.0
 11
-74.7125947346731
 21
-10.00000000000003
 31
0.0
  0
LINE
  5
F6
330
F1
100
AcDbEntity
  8
치수문자_일반주서
 62
     0
370
    -2
100
AcDbLine
 10
-74.71259473467317
 20
9.999999999999966
 30
0.0
 11
-74.71259473467323
 21
27.3853317166863
 31
0.0
  0
LINE
  5
F7
330
F1
100
AcDbEntity
  8
치수문자_일반주서
 62
     0
370
    -2
100
AcDbLine
 10
-74.71259473467317
 20
9.999999999999966
 30
0.0
 11
-74.7125947346731
 21
-10.00000000000003
 31
0.0
  0
LINE
  5
F8
330
F1
100
AcDbEntity
  8
치수문자_일반주서
 62
     0
370
    -2
100
AcDbLine
 10
-74.71259473467319
 20
13.30199999999997
 30
0.0
 11
-74.7125947346732
 21
16.60399999999996
 31
0.0
  0
LINE
  5
F9
330
F1
100
AcDbEntity
  8
치수문자_일반주서
 62
     0
370
    -2
100
AcDbLine
 10
-74.71259473467309
 20
-13.30200000000003
 30
0.0
 11
-74.71259473467308
 21
-16.60400000000003
 31
0.0
  0
SOLID
  5
FA
330
F1
100
AcDbEntity
  8
치수문자_일반주서
 62
     0
100
AcDbTrace
 10
-75.26292806800652
 20
13.30199999999996
 30
0.0
 11
-74.16226140133986
 21
13.30199999999997
 31
0.0
 12
-74.71259473467317
 22
9.999999999999966
 32
0.0
 13
-74.71259473467317
 23
9.999999999999966
 33
0.0
  0
SOLID
  5
FB
330
F1
100
AcDbEntity
  8
치수문자_일반주서
 62
     0
100
AcDbTrace
 10
-74.16226140133976
 20
-13.30200000000003
 30
0.0
 11
-75.26292806800642
 21
-13.30200000000003
 31
0.0
 12
-74.7125947346731
 22
-10.00000000000003
 32
0.0
 13
-74.7125947346731
 23
-10.00000000000003
 33
0.0
  0
MTEXT
  5
FC
330
F1
100
AcDbEntity
  8
치수문자_일반주서
 62
     0
100
AcDbMText
 10
-79.08759473467322
 20
23.22908171668628
 30
0.0
 40
3.5
 41
0.0
 71
     2
 72
     1
  1
\A1;%%c20
  7
SLDTEXTSTYLE0
 11
-3.552713678800503E-15
 21
1.0
 31
0.0
 73
     1
 44
1.0
  0
POINT
  5
136
330
F1
100
AcDbEntity
  8
Defpoints
 62
     0
100
AcDbPoint
 10
-62.44999999999999
 20
10.00000000000001
 30
0.0
  0
POINT
  5
137
330
F1
100
AcDbEntity
  8
Defpoints
 62
     0
100
AcDbPoint
 10
-62.44999999999999
 20
-9.99999999999998
 30
0.0
  0
POINT
  5
138
330
F1
100
AcDbEntity
  8
Defpoints
 62
     0
100
AcDbPoint
 10
-74.7125947346731
 20
-10.00000000000003
 30
0.0
  0
ENDBLK
  5
F3
330
F1
100
AcDbEntity
  8
0
100
AcDbBlockEnd
  0
BLOCK
  5
FE
330
FD
100
AcDbEntity
  8
0
100
AcDbBlockBegin
  2
SW_DOWELSYMBOL_0
 70
     0
 10
0.0
 20
0.0
 30
0.0
  3
SW_DOWELSYMBOL_0
  1

  0
CIRCLE
  5
100
330
FD
100
AcDbEntity
  8
외형선
 62
     0
100
AcDbCircle
 10
0.0
 20
0.0
 30
0.0
 40
3.000000000000004
  0
HATCH
  5
101
330
FD
100
AcDbEntity
  8
0
  6
Continuous
 62
     0
370
    30
100
AcDbHatch
 10
0.0
 20
0.0
 30
0.0
210
0.0
220
0.0
230
1.0
  2
SOLID
 70
     1
 71
     0
 91
        1
 92
        0
 93
        3
 72
     2
 10
0.0000000000000104
 20
0.0
 40
3.000000000000004
 50
0.0
 51
90.0
 73
     1
 72
     1
 10
0.0000000000000104
 20
3.000000000000004
 11
0.0000000000000104
 21
0.0
 72
     1
 10
0.0000000000000104
 20
0.0
 11
3.000000000000015
 21
0.0
 97
        0
 75
     0
 76
     1
 98
        1
 10
0.0
 20
0.0
  0
HATCH
  5
102
330
FD
100
AcDbEntity
  8
0
  6
Continuous
 62
     0
370
    30
100
AcDbHatch
 10
0.0
 20
0.0
 30
0.0
210
0.0
220
0.0
230
1.0
  2
SOLID
 70
     1
 71
     0
 91
        1
 92
        0
 93
        3
 72
     2
 10
0.0000000000000104
 20
0.0
 40
3.000000000000004
 50
180.0
 51
270.0000000000008
 73
     1
 72
     1
 10
0.0000000000000104
 20
-3.000000000000004
 11
0.0000000000000104
 21
0.0
 72
     1
 10
0.0000000000000104
 20
0.0
 11
-2.999999999999994
 21
0.0
 97
        0
 75
     0
 76
     1
 98
        1
 10
0.0
 20
0.0
  0
ENDBLK
  5
FF
330
FD
100
AcDbEntity
  8
0
100
AcDbBlockEnd
  0
ENDSEC
  0
SECTION
  2
ENTITIES
  0
LINE
  5
95
330
1F
100
AcDbEntity
  8
0
  6
Continuous
 62
   131
370
    15
100
AcDbLine
 10
12.0
 20
10.00000000000002
 30
0.0
 11
-62.44999999999999
 21
10.00000000000002
 31
0.0
  0
LINE
  5
96
330
1F
100
AcDbEntity
  8
0
  6
Continuous
 62
   131
370
    15
100
AcDbLine
 10
-62.44999999999999
 20
-9.999999999999982
 30
0.0
 11
12.00000000000001
 21
-9.999999999999979
 31
0.0
  0
LINE
  5
99
330
1F
100
AcDbEntity
  8
0
  6
Continuous
 62
   131
370
    15
100
AcDbLine
 10
-62.44999999999999
 20
10.00000000000002
 30
0.0
 11
-63.0
 21
9.450000000000015
 31
0.0
  0
LINE
  5
9A
330
1F
100
AcDbEntity
  8
0
  6
Continuous
 62
   131
370
    15
100
AcDbLine
 10
-63.0
 20
-9.449999999999982
 30
0.0
 11
-62.44999999999999
 21
-9.999999999999982
 31
0.0
  0
LINE
  5
9D
330
1F
100
AcDbEntity
  8
0
  6
Continuous
 62
   131
370
    15
100
AcDbLine
 10
52.38908687203535
 20
3.113174260577811
 30
0.0
 11
52.29991790491859
 21
3.162512149346806
 31
0.0
  0
SPLINE
  5
9E
330
1F
100
AcDbEntity
  8
0
  6
Continuous
 62
     1
370
    15
100
AcDbSpline
210
0.0
220
0.0
230
1.0
 70
     8
 71
     3
 72
    10
 73
     6
 74
     0
 42
0.000000001
 43
0.00000001
 40
0.0
 40
0.0
 40
0.0
 40
0.0
 40
0.3777750086671026
 40
0.5493654806895079
 40
0.9999999999999999
 40
0.9999999999999999
 40
0.9999999999999999
 40
0.9999999999999999
 10
58.50114158922018
 20
2.818745247520452
 30
0.0
 10
58.11118616220109
 20
3.003943903122953
 30
0.0
 10
57.54410775389745
 20
3.273262270203648
 30
0.0
 10
56.54735860263283
 20
3.771878323613818
 30
0.0
 10
55.91115730274274
 20
4.104259802058249
 30
0.0
 10
55.45040070994413
 20
4.34498071467486
 30
0.0
  0
LINE
  5
9F
330
1F
100
AcDbEntity
  8
0
  6
Continuous
 62
     1
370
    15
100
AcDbLine
 10
33.2591894060525
 20
11.00000000000001
 30
0.0
 11
27.92879013736334
 21
11.00000000000001
 31
0.0
  0
LINE
  5
A0
330
1F
100
AcDbEntity
  8
0
  6
Continuous
 62
     1
370
    15
100
AcDbLine
 10
27.92879013736334
 20
-11.0
 30
0.0
 11
33.25918940605251
 21
-11.0
 31
0.0
  0
SPLINE
  5
A1
330
1F
100
AcDbEntity
  8
0
  6
Continuous
 62
     1
370
    15
100
AcDbSpline
210
0.0
220
0.0
230
1.0
 70
     8
 71
     3
 72
    18
 73
    14
 74
     0
 42
0.000000001
 43
0.00000001
 40
0.0
 40
0.0
 40
0.0
 40
0.0
 40
0.1475780622410326
 40
0.2671782448306965
 40
0.3637604034575936
 40
0.4494669044036021
 40
0.5283706959367952
 40
0.6087728801205239
 40
0.6943009599334115
 40
0.7740407504508751
 40
0.8658451353741564
 40
0.9700787693256053
 40
1.0
 40
1.0
 40
1.0
 40
1.0
 10
54.86474665102061
 20
8.741028250776106
 30
0.0
 10
54.45454081511697
 20
8.719241621479274
 30
0.0
 10
53.71189605076817
 20
8.679798676586845
 30
0.0
 10
52.62828377765804
 20
8.63536312840726
 30
0.0
 10
51.69792632193129
 20
8.616306186037017
 30
0.0
 10
50.89851657086233
 20
8.602497310706363
 30
0.0
 10
50.1504955966535
 20
8.593348398972505
 30
0.0
 10
49.41268028892124
 20
8.589629740538035
 30
0.0
 10
48.67257715227394
 20
8.591233055304102
 30
0.0
 10
47.8979513737326
 20
8.598381302451621
 30
0.0
 10
47.06719827953707
 20
8.61278978189109
 30
0.0
 10
46.38663437354975
 20
8.628751113401352
 30
0.0
 10
45.98259732374646
 20
8.642902386844016
 30
0.0
 10
45.89248291901067
 20
8.646058616162987
 30
0.0
  0
SPLINE
  5
A2
330
1F
100
AcDbEntity
  8
0
  6
Continuous
 62
     1
370
    15
100
AcDbSpline
210
0.0
220
0.0
230
1.0
 70
     8
 71
     3
 72
    30
 73
    26
 74
     0
 42
0.000000001
 43
0.00000001
 40
0.0
 40
0.0
 40
0.0
 40
0.0
 40
0.0483442650716832
 40
0.0888904328145473
 40
0.1222597555056597
 40
0.1529485707174482
 40
0.1741105969298341
 40
0.1941373524449701
 40
0.2242899575383362
 40
0.2645881427033189
 40
0.3671139089159671
 40
0.4598115929784964
 40
0.5024145944068945
 40
0.5387950993058399
 40
0.5754897587608502
 40
0.6244496935107641
 40
0.6689931969472849
 40
0.6906160374909187
 40
0.7118193331994279
 40
0.7343751644190603
 40
0.7607096374443414
 40
0.7998834621718702
 40
0.852916872085405
 40
0.9196459469574638
 40
1.0
 40
1.0
 40
1.0
 40
1.0
 10
38.32043646048263
 20
-9.153528521339462
 30
0.0
 10
38.57680536393894
 20
-9.128163765724326
 30
0.0
 10
39.04818997914887
 20
-9.08152567739013
 30
0.0
 10
39.71967897469504
 20
-9.019965831254384
 30
0.0
 10
40.30760591107011
 20
-8.970577811785834
 30
0.0
 10
40.78326383701365
 20
-8.932076370278256
 30
0.0
 10
41.18797033592072
 20
-8.900592459916222
 30
0.0
 10
41.57087566004563
 20
-8.872371307484382
 30
0.0
 10
42.07070268694439
 20
-8.837034862262692
 30
0.0
 10
43.02533335532382
 20
-8.774723550752737
 30
0.0
 10
44.32670088114311
 20
-8.703390358527702
 30
0.0
 10
45.64094002550411
 20
-8.6516141756839
 30
0.0
 10
46.58894405484169
 20
-8.624291427295265
 30
0.0
 10
47.22779122938512
 20
-8.609840426506302
 30
0.0
 10
47.90198260449633
 20
-8.598555304557141
 30
0.0
 10
48.62126465436162
 20
-8.591443780822695
 30
0.0
 10
49.25700316798815
 20
-8.58994436741285
 30
0.0
 10
49.73355185985564
 20
-8.591242808565756
 30
0.0
 10
50.09558698806573
 20
-8.593506228934782
 30
0.0
 10
50.48793673219497
 20
-8.597434846365031
 30
0.0
 10
50.98240701704835
 20
-8.604054441712725
 30
0.0
 10
51.64015051692245
 20
-8.616451543028925
 30
0.0
 10
52.5171863266241
 20
-8.639761517599071
 30
0.0
 10
53.61688566094234
 20
-8.678650633711497
 30
0.0
 10
54.42387463631972
 20
-8.718990102355582
 30
0.0
 10
54.86474665102061
 20
-8.741028250776093
 30
0.0
  0
SPLINE
  5
A3
330
1F
100
AcDbEntity
  8
0
  6
Continuous
 62
     1
370
    15
100
AcDbSpline
210
0.0
220
0.0
230
1.0
 70
     8
 71
     3
 72
    15
 73
    11
 74
     0
 42
0.000000001
 43
0.00000001
 40
0.0
 40
0.0
 40
0.0
 40
0.0
 40
0.0799041896613881
 40
0.1576668636211537
 40
0.3092820011105569
 40
0.4324425106125248
 40
0.5800339431878103
 40
0.7167573964957816
 40
0.8683178666175838
 40
1.0
 40
1.0
 40
1.0
 40
1.0
 10
63.69643903258509
 20
-8.273478824239996
 30
0.0
 10
63.88256938362515
 20
-8.243605945110263
 30
0.0
 10
64.2498415979803
 20
-8.184660811198286
 30
0.0
 10
65.10728404799184
 20
-8.056240523465402
 30
0.0
 10
66.11054437427832
 20
-7.923944451488157
 30
0.0
 10
67.2731135686998
 20
-7.778292560279057
 30
0.0
 10
68.39062264543273
 20
-7.654886061451348
 30
0.0
 10
69.59096495320179
 20
-7.539716533780546
 30
0.0
 10
70.74448911145066
 20
-7.444158616574645
 30
0.0
 10
71.52368724962373
 20
-7.395674034785191
 30
0.0
 10
71.88594374597287
 20
-7.373133099603828
 30
0.0
  0
SPLINE
  5
A4
330
1F
100
AcDbEntity
  8
0
  6
Continuous
 62
     1
370
    15
100
AcDbSpline
210
0.0
220
0.0
230
1.0
 70
     8
 71
     3
 72
    21
 73
    17
 74
     0
 42
0.000000001
 43
0.00000001
 40
0.0
 40
0.0
 40
0.0
 40
0.0
 40
0.0765040566753187
 40
0.1385420741059915
 40
0.1893228584722404
 40
0.2342825801045825
 40
0.2749028500170283
 40
0.3314391914039249
 40
0.4047918124171237
 40
0.4739163536312755
 40
0.5996978036296551
 40
0.7306674837896743
 40
0.7792664289723407
 40
0.8296500131496328
 40
0.901309595225741
 40
1.0
 40
1.0
 40
1.0
 40
1.0
 10
23.05794275500875
 20
7.523477371175298
 30
0.0
 10
22.80183011573672
 20
7.501588599655335
 30
0.0
 10
22.33803279842462
 20
7.461949972139436
 30
0.0
 10
21.64256412233556
 20
7.410574078305605
 30
0.0
 10
21.03678230635505
 20
7.374912397391501
 30
0.0
 10
20.51676959961308
 20
7.345694020506049
 30
0.0
 10
19.98205984755559
 20
7.31877873372258
 30
0.0
 10
19.36039418420117
 20
7.292140901809498
 30
0.0
 10
18.62238937934375
 20
7.267373994086363
 30
0.0
 10
17.63056471709257
 20
7.244587524269956
 30
0.0
 10
16.42426717197363
 20
7.234233273404505
 30
0.0
 10
15.29463258788391
 20
7.246175993710805
 30
0.0
 10
14.4435586893941
 20
7.266421816260144
 30
0.0
 10
13.81224278073348
 20
7.286219930840479
 30
0.0
 10
12.99573736950174
 20
7.318501921521249
 30
0.0
 10
12.36526011373821
 20
7.353592667135817
 30
0.0
 10
12.00000000000001
 20
7.373922107440234
 30
0.0
  0
SPLINE
  5
A5
330
1F
100
AcDbEntity
  8
0
  6
Continuous
 62
     1
370
    15
100
AcDbSpline
210
0.0
220
0.0
230
1.0
 70
     8
 71
     3
 72
    31
 73
    27
 74
     0
 42
0.000000001
 43
0.00000001
 40
0.0
 40
0.0
 40
0.0
 40
0.0
 40
0.0477032816008002
 40
0.0857241093631516
 40
0.115793517667752
 40
0.1415381122718598
 40
0.1638664540774993
 40
0.1886084396248007
 40
0.2218541765550005
 40
0.256254054215263
 40
0.2840228026344248
 40
0.3241138668638383
 40
0.3726090759968027
 40
0.4141896391869151
 40
0.4565317861634137
 40
0.5026250816242638
 40
0.5839529676816869
 40
0.6682032228661426
 40
0.7483329390942189
 40
0.7923210574008556
 40
0.8312901273776799
 40
0.8666793168680752
 40
0.8981875866302931
 40
0.9326316791381677
 40
0.9658583232793437
 40
1.0
 40
1.0
 40
1.0
 40
1.0
 10
82.91332855279309
 20
7.523477954274471
 30
0.0
 10
82.62736013024274
 20
7.499339788786045
 30
0.0
 10
82.11346700787311
 20
7.455962841357741
 30
0.0
 10
81.36962015856446
 20
7.40305817800207
 30
0.0
 10
80.74426117323334
 20
7.366411880827989
 30
0.0
 10
80.22630651555595
 20
7.33798991131578
 30
0.0
 10
79.75539342027247
 20
7.315239017903949
 30
0.0
 10
79.24622138882117
 20
7.293743469305569
 30
0.0
 10
78.65121677041662
 20
7.272925024863593
 30
0.0
 10
78.03779311378874
 20
7.256813179955039
 30
0.0
 10
77.37951464254144
 20
7.244751281389934
 30
0.0
 10
76.63051732723576
 20
7.237587439800076
 30
0.0
 10
75.79330246488843
 20
7.239206235337469
 30
0.0
 10
74.94095780205727
 20
7.250735381928552
 30
0.0
 10
74.10402563616532
 20
7.271098423592744
 30
0.0
 10
73.01203123284571
 20
7.310235203637066
 30
0.0
 10
71.64938984048722
 20
7.380890703810028
 30
0.0
 10
70.06882862251565
 20
7.496081949551849
 30
0.0
 10
68.72744457771945
 20
7.620539262286829
 30
0.0
 10
67.67710108600305
 20
7.733390436114753
 30
0.0
 10
66.9206474068942
 20
7.822177187486191
 30
0.0
 10
66.23417212143012
 20
7.908545419561483
 30
0.0
 10
65.56498765606678
 20
7.997243798257942
 30
0.0
 10
64.91063147138193
 20
8.085324945158488
 30
0.0
 10
64.24979225476808
 20
8.184761864490207
 30
0.0
 10
63.88255278762436
 20
8.243639933179493
 30
0.0
 10
63.69643903258509
 20
8.273478824240014
 30
0.0
  0
LINE
  5
A7
330
1F
100
AcDbEntity
  8
0
  6
Continuous
 62
   131
370
    15
100
AcDbLine
 10
-62.44999999999999
 20
10.00000000000001
 30
0.0
 11
-62.44999999999999
 21
-9.99999999999998
 31
0.0
  0
LINE
  5
A9
330
1F
100
AcDbEntity
  8
0
  6
Continuous
 62
   131
370
    15
100
AcDbLine
 10
-63.0
 20
9.450000000000015
 30
0.0
 11
-63.0
 21
-9.449999999999987
 31
0.0
  0
SPLINE
  5
AA
330
1F
100
AcDbEntity
  8
0
  6
Continuous
 62
     1
370
    15
100
AcDbSpline
210
0.0
220
0.0
230
1.0
 70
     8
 71
     3
 72
    92
 73
    88
 74
     0
 42
0.000000001
 43
0.00000001
 40
0.0
 40
0.0
 40
0.0
 40
0.0
 40
0.0312499999999994
 40
0.0312499999999994
 40
0.0624999999999988
 40
0.0624999999999988
 40
0.0781249999999985
 40
0.0781249999999985
 40
0.0937499999999982
 40
0.0937499999999982
 40
0.1249999999999976
 40
0.1249999999999976
 40
0.1406249999999974
 40
0.1406249999999974
 40
0.1562499999999973
 40
0.1562499999999973
 40
0.1718749999999972
 40
0.1718749999999972
 40
0.1874999999999971
 40
0.1874999999999971
 40
0.2187499999999971
 40
0.2187499999999971
 40
0.2499999999999971
 40
0.2499999999999971
 40
0.281249999999997
 40
0.281249999999997
 40
0.3124999999999969
 40
0.3124999999999969
 40
0.3437499999999969
 40
0.3437499999999969
 40
0.3593749999999968
 40
0.3593749999999968
 40
0.3749999999999968
 40
0.3749999999999968
 40
0.3906249999999968
 40
0.3906249999999968
 40
0.4062499999999968
 40
0.4062499999999968
 40
0.437499999999997
 40
0.437499999999997
 40
0.4531249999999971
 40
0.4531249999999971
 40
0.4687499999999972
 40
0.4687499999999972
 40
0.4999999999999973
 40
0.4999999999999973
 40
0.5312499999999974
 40
0.5312499999999974
 40
0.5624999999999977
 40
0.5624999999999977
 40
0.5937499999999978
 40
0.5937499999999978
 40
0.6093749999999979
 40
0.6093749999999979
 40
0.624999999999998
 40
0.624999999999998
 40
0.656249999999998
 40
0.656249999999998
 40
0.6718749999999982
 40
0.6718749999999982
 40
0.6874999999999983
 40
0.6874999999999983
 40
0.7031249999999984
 40
0.7031249999999984
 40
0.7187499999999986
 40
0.7187499999999986
 40
0.7499999999999988
 40
0.7499999999999988
 40
0.7812499999999989
 40
0.7812499999999989
 40
0.8124999999999991
 40
0.8124999999999991
 40
0.8437499999999992
 40
0.8437499999999992
 40
0.8749999999999994
 40
0.8749999999999994
 40
0.9062499999999996
 40
0.9062499999999996
 40
0.9218749999999997
 40
0.9218749999999997
 40
0.9374999999999997
 40
0.9374999999999997
 40
0.9687499999999998
 40
0.9687499999999998
 40
0.9843749999999999
 40
0.9843749999999999
 40
1.0
 40
1.0
 40
1.0
 40
1.0
 10
86.99999999999999
 20
-10.99999999999972
 30
0.0
 10
86.22172641930091
 20
-10.97218577610088
 30
0.0
 10
85.4371654675345
 20
-10.92586483045176
 30
0.0
 10
83.87319551478004
 20
-10.77840156915835
 30
0.0
 10
83.09566483753201
 20
-10.67746198631691
 30
0.0
 10
81.92178050364632
 20
-10.48574038895052
 30
0.0
 10
81.53020095379406
 20
-10.41515202975589
 30
0.0
 10
80.74869372866573
 20
-10.26103175409408
 30
0.0
 10
80.35981126012462
 20
-10.17758398695877
 30
0.0
 10
79.18969229490725
 20
-9.907938765377056
 30
0.0
 10
78.40475758494337
 20
-9.702291141827915
 30
0.0
 10
77.23338838819437
 20
-9.358442915087071
 30
0.0
 10
76.84475990713334
 20
-9.23804469390253
 30
0.0
 10
76.06395146976891
 20
-8.985399357009378
 30
0.0
 10
75.67251334048294
 20
-8.853216803115929
 30
0.0
 10
74.88978801070316
 20
-8.577854136893427
 30
0.0
 10
74.49850221131094
 20
-8.434674522873605
 30
0.0
 10
73.71830022063497
 20
-8.138165153990997
 30
0.0
 10
73.32948693796698
 20
-7.984861034315801
 30
0.0
 10
72.15735508292556
 20
-7.509394685750597
 30
0.0
 10
71.37252009328458
 20
-7.172143059002553
 30
0.0
 10
69.81376977834297
 20
-6.464815877649402
 30
0.0
 10
69.03166622212527
 20
-6.093537445326392
 30
0.0
 10
67.4668821685358
 20
-5.322002682446891
 30
0.0
 10
66.68953748347509
 20
-4.922678020754389
 30
0.0
 10
65.12494410667802
 20
-4.099553007226791
 30
0.0
 10
64.3422214228062
 20
-3.676505282891101
 30
0.0
 10
62.78404061201806
 20
-2.8153622830112
 30
0.0
 10
61.99926456174728
 20
-2.375544970372968
 30
0.0
 10
60.82687909300211
 20
-1.709379020641727
 30
0.0
 10
60.43791653155391
 20
-1.486454394978826
 30
0.0
 10
59.65796278532567
 20
-1.038629426749861
 30
0.0
 10
59.26674471896253
 20
-0.8136836105658404
 30
0.0
 10
58.48404079986783
 20
-0.3629964319971491
 30
0.0
 10
58.09255634796999
 20
-0.1372558756754978
 30
0.0
 10
57.31154208336994
 20
0.313737893286687
 30
0.0
 10
56.92290269213484
 20
0.5388198564152094
 30
0.0
 10
55.75185091540318
 20
1.213609508443848
 30
0.0
 10
54.96690048015712
 20
1.66234786440543
 30
0.0
 10
53.79641780070138
 20
2.32616291634342
 30
0.0
 10
53.40766279601706
 20
2.545845135220243
 30
0.0
 10
52.62633044775659
 20
2.982441118692136
 30
0.0
 10
52.2347816221271
 20
3.199158760640718
 30
0.0
 10
51.06081844855855
 20
3.842716433014394
 30
0.0
 10
50.28314851129853
 20
4.262237164581359
 30
0.0
 10
48.71945466499646
 20
5.079191477864522
 30
0.0
 10
47.93480335502367
 20
5.476321085092756
 30
0.0
 10
46.3776254053664
 20
6.239015830697339
 30
0.0
 10
45.59378413101363
 20
6.606430074282058
 30
0.0
 10
44.02956132765267
 20
7.305525205544296
 30
0.0
 10
43.25213198015199
 20
7.636845759749447
 30
0.0
 10
42.07834397285237
 20
8.104784216489133
 30
0.0
 10
41.68673954187473
 20
8.255786867534184
 30
0.0
 10
40.90506904410502
 20
8.546992889530005
 30
0.0
 10
40.51601548370577
 20
8.687081617882662
 30
0.0
 10
39.34627753298777
 20
9.090996825931354
 30
0.0
 10
38.56137032246298
 20
9.338549506947627
 30
0.0
 10
37.38970106784802
 20
9.673035575572898
 30
0.0
 10
37.00103985639964
 20
9.778332740046798
 30
0.0
 10
36.2204488158692
 20
9.976775790050684
 30
0.0
 10
35.82906284525201
 20
10.06985922376788
 30
0.0
 10
35.04632776946663
 20
10.24318735725088
 30
0.0
 10
34.65498006552204
 20
10.32343174830659
 30
0.0
 10
33.87454136997549
 20
10.47066417863377
 30
0.0
 10
33.48583373466502
 20
10.53764507950786
 30
0.0
 10
32.31397289327231
 20
10.71886944964269
 30
0.0
 10
31.52909073341418
 20
10.81304181090665
 30
0.0
 10
29.96979391170244
 20
10.94607887706396
 30
0.0
 10
29.18827177946276
 20
10.9852069860017
 30
0.0
 10
27.62332034533422
 20
11.00786177366907
 30
0.0
 10
26.84593772078233
 20
10.99144433107014
 30
0.0
 10
25.28155830756454
 20
10.90324975930034
 30
0.0
 10
24.49817882300245
 20
10.83141823630849
 30
0.0
 10
22.94059048561462
 20
10.63396007438772
 30
0.0
 10
22.15588514091002
 20
10.5078675500172
 30
0.0
 10
20.59238958100411
 20
10.20360635755709
 30
0.0
 10
19.81460494639709
 20
10.02563598759502
 30
0.0
 10
18.64059867920655
 20
9.720887317952183
 30
0.0
 10
18.24907374305944
 20
9.613081451199642
 30
0.0
 10
17.46786523101801
 20
9.385658176631377
 30
0.0
 10
17.07917128958693
 20
9.266152412324637
 30
0.0
 10
15.90845427930304
 20
8.889888621542442
 30
0.0
 10
15.12349989372077
 20
8.615443369727958
 30
0.0
 10
13.95267081828442
 20
8.173024330243045
 30
0.0
 10
13.56399964315235
 20
8.020518951975877
 30
0.0
 10
12.78285376731672
 20
7.705098469056096
 30
0.0
 10
12.39134150747747
 20
7.542299931629997
 30
0.0
 10
12.00000000000005
 20
7.374865455826374
 30
0.0
  0
SPLINE
  5
AB
330
1F
100
AcDbEntity
  8
0
  6
Continuous
 62
     1
370
    15
100
AcDbSpline
210
0.0
220
0.0
230
1.0
 70
     8
 71
     3
 72
    17
 73
    13
 74
     0
 42
0.000000001
 43
0.00000001
 40
0.0
 40
0.0
 40
0.0
 40
0.0
 40
0.0979980172534251
 40
0.198935315418656
 40
0.2998769515518754
 40
0.4008177011522212
 40
0.5017523413725451
 40
0.6026756607565997
 40
0.7035824689309663
 40
0.8044785141829596
 40
0.9053920109317659
 40
1.0
 40
1.0
 40
1.0
 40
1.0
 10
59.67803557426772
 20
-1.049182259326894
 30
0.0
 10
58.48176568132332
 20
-0.5667623533847971
 30
0.0
 10
56.05334585050869
 20
0.4125468086021013
 30
0.0
 10
52.39267251472334
 20
1.884719460876239
 30
0.0
 10
48.69606434066102
 20
3.297682602053303
 30
0.0
 10
44.99949079241624
 20
4.587672889224095
 30
0.0
 10
41.30316438469336
 20
5.705432498876203
 30
0.0
 10
37.60729444327629
 20
6.608741071199704
 30
0.0
 10
33.91196013926383
 20
7.265738738378325
 30
0.0
 10
30.2168197846895
 20
7.644201520675523
 30
0.0
 10
26.59845232068597
 20
7.755959095297071
 30
0.0
 10
24.21172086869727
 20
7.595184181290189
 30
0.0
 10
23.05684081970945
 20
7.517389195009028
 30
0.0
  0
SPLINE
  5
AC
330
1F
100
AcDbEntity
  8
0
  6
Continuous
 62
     1
370
    15
100
AcDbSpline
210
0.0
220
0.0
230
1.0
 70
     8
 71
     3
 72
    24
 73
    20
 74
     0
 42
0.000000001
 43
0.00000001
 40
0.0
 40
0.0
 40
0.0
 40
0.0
 40
0.062518066489398
 40
0.1250362581419594
 40
0.1875545723211091
 40
0.2500730063883283
 40
0.312591557703199
 40
0.3751102236234438
 40
0.4376290015049684
 40
0.4949535057949389
 40
0.5522778894275483
 40
0.6095968244748944
 40
0.6669112494003079
 40
0.7242221062216071
 40
0.7815303397722609
 40
0.8388368969578232
 40
0.8961427260088801
 40
0.9534487757317672
 40
1.0
 40
1.0
 40
1.0
 40
1.0
 10
87.0
 20
-10.43834956155088
 30
0.0
 10
85.88004780288213
 20
-10.20305273518101
 30
0.0
 10
83.64014116646639
 20
-9.732458611369516
 30
0.0
 10
80.28027620322801
 20
-8.637914800231183
 30
0.0
 10
76.92040336505436
 20
-7.298674102444563
 30
0.0
 10
73.5605230458424
 20
-5.726806228342496
 30
0.0
 10
70.20063414612105
 20
-3.97895203811155
 30
0.0
 10
66.84074169092266
 20
-2.10726915195045
 30
0.0
 10
63.57388070413894
 20
-0.223819167920739
 30
0.0
 10
60.40011822653285
 20
1.610225351896266
 30
0.0
 10
57.31947489136209
 20
3.348547254085747
 30
0.0
 10
54.23909707565805
 20
4.999554748877309
 30
0.0
 10
51.15900292594615
 20
6.520089514511178
 30
0.0
 10
48.07914072837632
 20
7.870729956607878
 30
0.0
 10
44.99944711330299
 20
9.015511531619367
 30
0.0
 10
41.9198618777523
 20
9.92746071950279
 30
0.0
 10
38.84032296606902
 20
10.57214182816305
 30
0.0
 10
35.95344191966888
 20
10.94751756464142
 30
0.0
 10
34.09305686997958
 20
10.96864435615178
 30
0.0
 10
33.25918940605251
 20
10.97811387111086
 30
0.0
  0
SPLINE
  5
AD
330
1F
100
AcDbEntity
  8
0
  6
Continuous
 62
     1
370
    15
100
AcDbSpline
210
0.0
220
0.0
230
1.0
 70
     8
 71
     3
 72
    16
 73
    12
 74
     0
 42
0.000000001
 43
0.00000001
 40
0.0
 40
0.0
 40
0.0
 40
0.0
 40
0.1138752564987512
 40
0.2277494425580917
 40
0.3416226069659833
 40
0.4554947985831293
 40
0.5693660663395295
 40
0.6832364592310307
 40
0.7971060263158669
 40
0.9109748167111853
 40
1.0
 40
1.0
 40
1.0
 40
1.0
 10
87.00000000000001
 20
-8.678694908050366
 30
0.0
 10
85.91588305349994
 20
-8.45636126344666
 30
0.0
 10
83.7476593513133
 20
-8.011696064198937
 30
0.0
 10
80.49534442706852
 20
-7.04423472697231
 30
0.0
 10
77.24306267159326
 20
-5.890154386150418
 30
0.0
 10
73.99081291229422
 20
-4.559977096202248
 30
0.0
 10
70.73859343745505
 20
-3.09874369520645
 30
0.0
 10
67.48640264016348
 20
-1.546440455919554
 30
0.0
 10
64.234239020031
 20
0.0482486972306736
 30
0.0
 10
61.21860804591606
 20
1.534211121749897
 30
0.0
 10
59.28703278323762
 20
2.442456497343766
 30
0.0
 10
58.43950222984724
 20
2.840973563007534
 30
0.0
  0
LINE
  5
AE
330
1F
100
AcDbEntity
  8
0
  6
Continuous
 62
     1
370
    15
100
AcDbLine
 10
87.0
 20
-10.43834956155089
 30
0.0
 11
87.0
 21
-8.678694908050362
 31
0.0
  0
LINE
  5
AF
330
1F
100
AcDbEntity
  8
0
  6
Continuous
 62
     1
370
    15
100
AcDbLine
 10
86.99999999999999
 20
-10.99999999999972
 30
0.0
 11
87.0
 21
-10.4383495615509
 31
0.0
  0
SPLINE
  5
B0
330
1F
100
AcDbEntity
  8
0
  6
Continuous
 62
     1
370
    15
100
AcDbSpline
210
0.0
220
0.0
230
1.0
 70
     8
 71
     3
 72
    19
 73
    15
 74
     0
 42
0.000000001
 43
0.00000001
 40
0.0
 40
0.0
 40
0.0
 40
0.0
 40
0.0264059201011719
 40
0.1172642543686916
 40
0.2081214341943548
 40
0.2989789638905369
 40
0.3898383474929424
 40
0.4807010875715611
 40
0.5715686840440926
 40
0.6572613420691492
 40
0.7429722531325431
 40
0.8286641015424111
 40
0.9143374882946438
 40
1.0
 40
1.0
 40
1.0
 40
1.0
 10
45.89443278070978
 20
-8.64533666616582
 30
0.0
 10
45.59609503911908
 20
-8.757993939524495
 30
0.0
 10
44.27122725630245
 20
-9.258285961502885
 30
0.0
 10
41.91986283724542
 20
-9.915653072577195
 30
0.0
 10
38.84032296277691
 20
-10.58018513460635
 30
0.0
 10
35.76077108291287
 20
-10.95220417510288
 30
0.0
 10
32.68114129926022
 20
-11.04311645008928
 30
0.0
 10
29.60138284069096
 20
-10.84488009374737
 30
0.0
 10
26.57993827928573
 20
-10.3733240156592
 30
0.0
 10
23.61676103168823
 20
-9.658126714686368
 30
0.0
 10
20.71180285403652
 20
-8.733873038159674
 30
0.0
 10
17.80729299984276
 20
-7.604790017870974
 30
0.0
 10
14.90343912367601
 20
-6.307490607114307
 30
0.0
 10
12.96777208761502
 20
-5.325112264106999
 30
0.0
 10
11.99999999999679
 20
-4.833954269404667
 30
0.0
  0
SPLINE
  5
B1
330
1F
100
AcDbEntity
  8
0
  6
Continuous
 62
   131
370
    15
100
AcDbSpline
210
0.0
220
0.0
230
1.0
 70
    24
 71
     3
 72
     8
 73
     4
 74
     0
 42
0.000000001
 43
0.00000001
 40
0.0
 40
0.0
 40
0.0
 40
0.0
 40
1.0
 40
1.0
 40
1.0
 40
1.0
 10
12.00000000000001
 20
-3.595179504993361
 30
0.0
 10
12.00000000000001
 20
-3.97262410750598
 30
0.0
 10
12.00000000000001
 20
-4.38804547259355
 30
0.0
 10
12.00000000000001
 20
-4.833954269397939
 30
0.0
  0
SPLINE
  5
B2
330
1F
100
AcDbEntity
  8
0
  6
Continuous
 62
     1
370
    15
100
AcDbSpline
210
0.0
220
0.0
230
1.0
 70
     8
 71
     3
 72
    16
 73
    12
 74
     0
 42
0.000000001
 43
0.00000001
 40
0.0
 40
0.0
 40
0.0
 40
0.0
 40
0.0039353070219506
 40
0.1274857578605132
 40
0.2510358478483932
 40
0.3745856307112605
 40
0.4981351601967689
 40
0.621684490070712
 40
0.7452336741131748
 40
0.8726168450341044
 40
1.0
 40
1.0
 40
1.0
 40
1.0
 10
38.32128945951726
 20
-9.149376422117259
 30
0.0
 10
38.28676214979868
 20
-9.15417925523818
 30
0.0
 10
37.16823690594661
 20
-9.309768848853807
 30
0.0
 10
34.96571839700376
 20
-9.372267550436721
 30
0.0
 10
31.7137366913647
 20
-9.30688252052266
 30
0.0
 10
28.46176383242311
 20
-8.940297956860666
 30
0.0
 10
25.20980094713837
 20
-8.321965413833881
 30
0.0
 10
21.95783528064041
 20
-7.460106713996629
 30
0.0
 10
18.67226814840591
 20
-6.368800174030624
 30
0.0
 10
15.35293731588058
 20
-5.081879003450642
 30
0.0
 10
13.11764572529763
 20
-4.090745983788839
 30
0.0
 10
12.00000000000001
 20
-3.595179504993361
 30
0.0
  0
SPLINE
  5
B3
330
1F
100
AcDbEntity
  8
0
  6
Continuous
 62
     1
370
    15
100
AcDbSpline
210
0.0
220
0.0
230
1.0
 70
     8
 71
     3
 72
    12
 73
     8
 74
     0
 42
0.000000001
 43
0.00000001
 40
0.0
 40
0.0
 40
0.0
 40
0.0
 40
0.2109418934277897
 40
0.4218838248831493
 40
0.6328257853167798
 40
0.8437677656789209
 40
1.0
 40
1.0
 40
1.0
 40
1.0
 10
12.00000000000001
 20
-7.374865455826349
 30
0.0
 10
13.12001631568255
 20
-7.832352039527939
 30
0.0
 10
15.36004914895867
 20
-8.747325289404555
 30
0.0
 10
18.7200988148821
 20
-9.790008021995558
 30
0.0
 10
22.08014902446226
 20
-10.5339545111006
 30
0.0
 10
25.14971286148515
 20
-10.9503442142233
 30
0.0
 10
27.09925994531593
 20
-10.9621530297682
 30
0.0
 10
27.92879013736334
 20
-10.96717766811013
 30
0.0
  0
SPLINE
  5
B4
330
1F
100
AcDbEntity
  8
0
  6
Continuous
 62
     1
370
    15
100
AcDbSpline
210
0.0
220
0.0
230
1.0
 70
     8
 71
     3
 72
    13
 73
     9
 74
     0
 42
0.000000001
 43
0.00000001
 40
0.0
 40
0.0
 40
0.0
 40
0.0
 40
0.039247077631462
 40
0.2313653713242958
 40
0.4234827483165597
 40
0.6156162933621492
 40
0.8077830537669719
 40
1.0
 40
1.0
 40
1.0
 40
1.0
 10
71.88772596678791
 20
7.373927983791971
 30
0.0
 10
72.08543555501731
 20
7.463017999025478
 30
0.0
 10
73.25095296562839
 20
7.988212375262664
 30
0.0
 10
75.38407400894607
 20
8.775763561941783
 30
0.0
 10
78.2874006022013
 20
9.702788220746609
 30
0.0
 10
81.19099565315544
 20
10.38463283005668
 30
0.0
 10
84.09518580130542
 20
10.84810815227339
 30
0.0
 10
86.03164432459903
 20
10.94316722541399
 30
0.0
 10
87.00000000000001
 20
11.00000000000029
 30
0.0
  0
LINE
  5
B5
330
1F
100
AcDbEntity
  8
0
  6
Continuous
 62
   131
370
    15
100
AcDbLine
 10
12.00000000000001
 20
-9.999999999999979
 30
0.0
 11
12.00000000000001
 21
-3.595179504993361
 31
0.0
  0
SPLINE
  5
B6
330
1F
100
AcDbEntity
  8
0
  6
Continuous
 62
     1
370
    15
100
AcDbSpline
210
0.0
220
0.0
230
1.0
 70
     8
 71
     3
 72
    10
 73
     6
 74
     0
 42
0.000000001
 43
0.00000001
 40
0.0
 40
0.0
 40
0.0
 40
0.0
 40
0.5
 40
0.5
 40
1.0
 40
1.0
 40
1.0
 40
1.0
 10
87.0
 20
-2.93967240632608
 30
0.0
 10
86.14398258082475
 20
-2.266702150175882
 30
0.0
 10
85.29928109991423
 20
-1.574094824119236
 30
0.0
 10
83.63217455028199
 20
-0.1501881789452537
 30
0.0
 10
82.80974813322446
 20
0.5810740934196478
 30
0.0
 10
82.00000000000001
 20
1.334337576828715
 30
0.0
  0
LINE
  5
B7
330
1F
100
AcDbEntity
  8
0
  6
Continuous
 62
     1
370
    15
100
AcDbLine
 10
82.0
 20
2.937719435296605
 30
0.0
 11
87.0
 21
0.0000000000000149
 31
0.0
  0
LINE
  5
B8
330
1F
100
AcDbEntity
  8
0
  6
Continuous
 62
   131
370
    15
100
AcDbLine
 10
87.0
 20
0.0000000000000149
 30
0.0
 11
87.0
 21
-2.939672406326079
 31
0.0
  0
SPLINE
  5
B9
330
1F
100
AcDbEntity
  8
0
  6
Continuous
 62
     1
370
    15
100
AcDbSpline
210
0.0
220
0.0
230
1.0
 70
     8
 71
     3
 72
    15
 73
    11
 74
     0
 42
0.000000001
 43
0.00000001
 40
0.0
 40
0.0
 40
0.0
 40
0.0
 40
0.1348336164423704
 40
0.2696620593356066
 40
0.4044803431237473
 40
0.5392834974787273
 40
0.6740666327324054
 40
0.8088518691494402
 40
0.9359604989543874
 40
1.0
 40
1.0
 40
1.0
 40
1.0
 10
82.00000000000416
 20
2.28297711201798
 30
0.0
 10
80.78024662726617
 20
2.81887915762114
 30
0.0
 10
78.34078668357571
 20
3.890662686332459
 30
0.0
 10
74.68173018782716
 20
5.332720693586086
 30
0.0
 10
71.0229885649798
 20
6.585030442775859
 30
0.0
 10
67.3647009303345
 20
7.592440103890693
 30
0.0
 10
63.70682321108987
 20
8.32557104870599
 30
0.0
 10
60.1184942976426
 20
8.728490295785905
 30
0.0
 10
57.17016217105557
 20
8.855487006527847
 30
0.0
 10
55.44105795543645
 20
8.74276720619016
 30
0.0
 10
54.86176392451192
 20
8.705003196992338
 30
0.0
  0
SPLINE
  5
BA
330
1F
100
AcDbEntity
  8
0
  6
Continuous
 62
     1
370
    15
100
AcDbSpline
210
0.0
220
0.0
230
1.0
 70
    24
 71
     3
 72
     8
 73
     4
 74
     0
 42
0.000000001
 43
0.00000001
 40
0.0
 40
0.0
 40
0.0
 40
0.0
 40
1.0
 40
1.0
 40
1.0
 40
1.0
 10
82.0
 20
1.334337576822874
 30
0.0
 10
82.0
 20
1.654158604074248
 30
0.0
 10
82.00000000000001
 20
1.970822689818932
 30
0.0
 10
82.00000000000001
 20
2.282977112019837
 30
0.0
  0
SPLINE
  5
BB
330
1F
100
AcDbEntity
  8
0
  6
Continuous
 62
   131
370
    15
100
AcDbSpline
210
0.0
220
0.0
230
1.0
 70
    24
 71
     3
 72
    10
 73
     6
 74
     0
 42
0.000000001
 43
0.00000001
 40
0.0
 40
0.0
 40
0.0
 40
0.0
 40
0.5
 40
0.5
 40
1.0
 40
1.0
 40
1.0
 40
1.0
 10
87.0
 20
-8.678694908050362
 30
0.0
 10
86.99999999999999
 20
-8.013405279041839
 30
0.0
 10
87.00000000000001
 20
-7.172786322971144
 30
0.0
 10
87.0
 20
-5.218428150657466
 30
0.0
 10
87.00000000000001
 20
-4.106381873564396
 30
0.0
 10
87.0
 20
-2.939672406326431
 30
0.0
  0
SPLINE
  5
BC
330
1F
100
AcDbEntity
  8
0
  6
Continuous
 62
     1
370
    15
100
AcDbSpline
210
0.0
220
0.0
230
1.0
 70
     8
 71
     3
 72
    22
 73
    18
 74
     0
 42
0.000000001
 43
0.00000001
 40
0.0
 40
0.0
 40
0.0
 40
0.0
 40
0.0705553779093257
 40
0.1372801733291534
 40
0.204006264637254
 40
0.2707335170898131
 40
0.3374617957023015
 40
0.4041909652773216
 40
0.4709208904325516
 40
0.5376514356287694
 40
0.6043824651979464
 40
0.6711138433713991
 40
0.7378454343079849
 40
0.8033840899880579
 40
0.8689227477881092
 40
0.9344613902708998
 40
1.0
 40
1.0
 40
1.0
 40
1.0
 10
63.69653503540243
 20
-8.27302323160117
 30
0.0
 10
62.48070835825706
 20
-8.435411970713375
 30
0.0
 10
60.1150644920839
 20
-8.751373062732128
 30
0.0
 10
56.59962593671234
 20
-8.842102680893998
 30
0.0
 10
53.15013071418655
 20
-8.662211349128299
 30
0.0
 10
49.70057128135925
 20
-8.193740160959397
 30
0.0
 10
46.25095074571878
 20
-7.458842731317597
 30
0.0
 10
42.80127834025198
 20
-6.479706622758393
 30
0.0
 10
39.35156151689294
 20
-5.288832945103715
 30
0.0
 10
35.9018087927158
 20
-3.925014523957659
 30
0.0
 10
32.45202626176557
 20
-2.432899779933525
 30
0.0
 10
29.00222869149063
 20
-0.8611633519624146
 30
0.0
 10
25.57295705335692
 20
0.7289073102634324
 30
0.0
 10
22.16431157621369
 20
2.286861797607537
 30
0.0
 10
18.77620376273039
 20
3.759480710089751
 30
0.0
 10
15.3881019496921
 20
5.12775512660132
 30
0.0
 10
13.12936712842587
 20
5.896736197652957
 30
0.0
 10
12.00000000000001
 20
6.281226637101967
 30
0.0
  0
SPLINE
  5
BD
330
1F
100
AcDbEntity
  8
0
  6
Continuous
 62
   131
370
    15
100
AcDbSpline
210
0.0
220
0.0
230
1.0
 70
    24
 71
     3
 72
    14
 73
    10
 74
     0
 42
0.000000001
 43
0.00000001
 40
0.0
 40
0.0
 40
0.0
 40
0.0
 40
0.25
 40
0.25
 40
0.4999999999999999
 40
0.4999999999999999
 40
0.75
 40
0.75
 40
1.0
 40
1.0
 40
1.0
 40
1.0
 10
12.00000000000001
 20
6.281226637101966
 30
0.0
 10
12.00000000000001
 20
5.621069183959173
 30
0.0
 10
12.00000000000001
 20
4.888580656769845
 30
0.0
 10
12.00000000000001
 20
3.317021825934733
 30
0.0
 10
12.00000000000001
 20
2.478260282115879
 30
0.0
 10
12.00000000000001
 20
0.7521136082878517
 30
0.0
 10
12.00000000000001
 20
-0.1347730629610024
 30
0.0
 10
12.00000000000001
 20
-1.8920559828034
 30
0.0
 10
12.00000000000001
 20
-2.76199722466229
 30
0.0
 10
12.00000000000001
 20
-3.595179504993361
 30
0.0
  0
SPLINE
  5
BE
330
1F
100
AcDbEntity
  8
0
  6
Continuous
 62
   131
370
    15
100
AcDbSpline
210
0.0
220
0.0
230
1.0
 70
    24
 71
     3
 72
    10
 73
     6
 74
     0
 42
0.000000001
 43
0.00000001
 40
0.0
 40
0.0
 40
0.0
 40
0.0
 40
0.2204379046381994
 40
0.604764091676857
 40
1.0
 40
1.0
 40
1.0
 40
1.0
 10
12.00000000000001
 20
11.00000000000001
 30
0.0
 10
12.00000000000001
 20
7.336345611736989
 30
0.0
 10
12.00000000000001
 20
7.353356915427783
 30
0.0
 10
12.00000000000001
 20
7.024308109699055
 30
0.0
 10
12.00000000000001
 20
6.531220661486408
 30
0.0
 10
12.00000000000001
 20
6.281226637101966
 30
0.0
  0
SPLINE
  5
BF
330
1F
100
AcDbEntity
  8
0
  6
Continuous
 62
     1
370
    15
100
AcDbSpline
210
0.0
220
0.0
230
1.0
 70
    24
 71
     3
 72
    10
 73
     6
 74
     0
 42
0.000000001
 43
0.00000001
 40
0.0
 40
0.0
 40
0.0
 40
0.0
 40
0.5
 40
0.5
 40
1.0
 40
1.0
 40
1.0
 40
1.0
 10
82.00000000000001
 20
2.282977112019842
 30
0.0
 10
82.0
 20
3.041227678271558
 30
0.0
 10
81.99999999999997
 20
3.760945801936484
 30
0.0
 10
81.99999999999997
 20
5.046477921679513
 30
0.0
 10
81.99999999999999
 20
5.611518999820881
 30
0.0
 10
82.0
 20
6.069159746183471
 30
0.0
  0
SPLINE
  5
C0
330
1F
100
AcDbEntity
  8
0
  6
Continuous
 62
     1
370
    15
100
AcDbSpline
210
0.0
220
0.0
230
1.0
 70
     8
 71
     3
 72
     9
 73
     5
 74
     0
 42
0.000000001
 43
0.00000001
 40
0.0
 40
0.0
 40
0.0
 40
0.0
 40
0.9585692102492086
 40
1.0
 40
1.0
 40
1.0
 40
1.0
 10
87.0
 20
7.700000000000014
 30
0.0
 10
85.69376088158542
 20
7.696649390753033
 30
0.0
 10
84.33106416188272
 20
7.693153963181237
 30
0.0
 10
82.96829132993534
 20
7.523890602656633
 30
0.0
 10
82.91183057525686
 20
7.516877887954229
 30
0.0
  0
SPLINE
  5
C1
330
1F
100
AcDbEntity
  8
0
  6
Continuous
 62
     1
370
    15
100
AcDbSpline
210
0.0
220
0.0
230
1.0
 70
     8
 71
     3
 72
     8
 73
     4
 74
     0
 42
0.000000001
 43
0.00000001
 40
0.0
 40
0.0
 40
0.0
 40
0.0
 40
1.0
 40
1.0
 40
1.0
 40
1.0
 10
87.0
 20
7.700000000000014
 30
0.0
 10
85.31729263067882
 20
7.243792377298368
 30
0.0
 10
83.6480748428883
 20
6.70557198803771
 30
0.0
 10
82.0
 20
6.069159746181326
 30
0.0
  0
SPLINE
  5
C2
330
1F
100
AcDbEntity
  8
0
  6
Continuous
 62
     1
370
    15
100
AcDbSpline
210
0.0
220
0.0
230
1.0
 70
    24
 71
     3
 72
    10
 73
     6
 74
     0
 42
0.000000001
 43
0.00000001
 40
0.0
 40
0.0
 40
0.0
 40
0.0
 40
0.5
 40
0.5
 40
1.0
 40
1.0
 40
1.0
 40
1.0
 10
87.0
 20
7.700000000000015
 30
0.0
 10
86.99999999999999
 20
8.166754824880464
 30
0.0
 10
87.00000000000001
 20
8.709167157538305
 30
0.0
 10
87.0
 20
9.847146770569426
 30
0.0
 10
87.00000000000001
 20
10.43980779381622
 30
0.0
 10
87.00000000000001
 20
11.00000000000029
 30
0.0
  0
LINE
  5
C3
330
1F
100
AcDbEntity
  8
0
  6
Continuous
 62
   131
370
    15
100
AcDbLine
 10
87.0
 20
0.0000000000000149
 30
0.0
 11
87.0
 21
7.700000000000013
 31
0.0
  0
LINE
  5
C4
330
1F
100
AcDbEntity
  8
중심선
100
AcDbLine
 10
-45.0
 20
0.0000000000000013
 30
0.0
 11
94.00000000000003
 21
-0.0000000000000018
 31
0.0
  0
CIRCLE
  5
C5
330
1F
100
AcDbEntity
  8
외형선
100
AcDbCircle
 10
0.0000000000000104
 20
0.0
 30
0.0
 40
3.000000000000005
  0
INSERT
  5
C6
330
1F
100
AcDbEntity
  8
0
  6
Continuous
 62
     7
100
AcDbBlockReference
 66
     1
  2
블럭10
 10
-22.93944368806589
 20
-52.04609937292004
 30
0.0
  0
ATTRIB
  5
C7
330
C6
100
AcDbEntity
  8
FORMAT
 62
     2
100
AcDbText
 10
-39.05870472750145
 20
-49.97073246008785
 30
0.0
 40
4.233333333333333
  1
SEME7022075E [ 2 FLUTE ]
 41
0.75
  7
SLDTEXTSTYLE0
 11
-39.05870472750145
 21
-52.08739912675452
 31
0.0
100
AcDbAttribute
  2
AUTOATTR0
 70
     0
 74
     1
  0
SEQEND
  5
C8
330
C6
100
AcDbEntity
  8
0
  6
Continuous
 62
     7
  0
HATCH
  5
C9
330
1F
100
AcDbEntity
  8
중심선
100
AcDbHatch
 10
0.0
 20
0.0
 30
0.0
210
0.0
220
0.0
230
1.0
  2
SOLID
 70
     1
 71
     0
 91
        1
 92
        0
 93
        4
 72
     1
 10
-17.22453438368504
 20
-35.7989250712761
 11
-20.67080962752232
 21
-35.7989250712761
 72
     1
 10
-20.67080962752232
 20
-35.7989250712761
 11
-22.79903948672635
 21
-38.3352506518487
 72
     1
 10
-22.79903948672635
 20
-38.3352506518487
 11
-19.35273115777591
 21
-38.33521122254621
 72
     1
 10
-19.35273115777591
 20
-38.33521122254621
 11
-17.22453438368504
 21
-35.7989250712761
 97
        0
 75
     0
 76
     1
 98
        1
 10
0.0
 20
0.0
  0
HATCH
  5
CA
330
1F
100
AcDbEntity
  8
중심선
100
AcDbHatch
 10
0.0
 20
0.0
 30
0.0
210
0.0
220
0.0
230
1.0
  2
SOLID
 70
     1
 71
     0
 91
        1
 92
        0
 93
        4
 72
     1
 10
-12.21177039264909
 20
-35.7989250712761
 11
-15.65804563648637
 21
-35.7989250712761
 72
     1
 10
-15.65804563648637
 20
-35.7989250712761
 11
-20.18918364484376
 21
-41.19892507127612
 72
     1
 10
-20.18918364484376
 20
-41.19892507127612
 11
-16.74290840100648
 21
-41.19892507127612
 72
     1
 10
-16.74290840100648
 20
-41.19892507127612
 11
-12.21177039264909
 21
-35.7989250712761
 97
        0
 75
     0
 76
     1
 98
        1
 10
0.0
 20
0.0
  0
HATCH
  5
CB
330
1F
100
AcDbEntity
  8
중심선
100
AcDbHatch
 10
0.0
 20
0.0
 30
0.0
210
0.0
220
0.0
230
1.0
  2
SOLID
 70
     1
 71
     0
 91
        1
 92
        0
 93
        4
 72
     1
 10
-7.199006401613195
 20
-35.79892507127613
 11
-10.64528164545031
 21
-35.7989250712761
 72
     1
 10
-10.64528164545031
 20
-35.7989250712761
 11
-17.69371854733956
 21
-44.19892507127612
 72
     1
 10
-17.69371854733956
 20
-44.19892507127612
 11
-14.24744330350228
 21
-44.19892507127612
 72
     1
 10
-14.24744330350228
 20
-44.19892507127612
 11
-7.199006401613195
 21
-35.79892507127613
 97
        0
 75
     0
 76
     1
 98
        1
 10
0.0
 20
0.0
  0
HATCH
  5
CC
330
1F
100
AcDbEntity
  8
중심선
100
AcDbHatch
 10
0.0
 20
0.0
 30
0.0
210
0.0
220
0.0
230
1.0
  2
SOLID
 70
     1
 71
     0
 91
        1
 92
        0
 93
        6
 72
     3
 10
-2.399115970600996
 20
-39.99892507132738
 11
3.960054785062284
 21
1.540850780301639E-10
 40
0.3939339440162633
 50
17.09539180608433
 51
320.0019657685079
 73
     0
 72
     1
 10
-0.7161163149004002
 20
-38.58681907591441
 11
1.589185558800638
 21
-36.65249236586649
 72
     3
 10
-2.399115970653842
 20
-39.99892507127625
 11
6.600054785286829
 21
-1.249000902703301E-13
 40
0.6363583540795982
 50
39.99873849337408
 51
368.4976242363725
 73
     1
 72
     1
 10
4.026216521246767
 20
-39.03892507120613
 11
-3.71904866381792
 21
-39.0389250712061
 72
     1
 10
-3.71904866381792
 20
-39.0389250712061
 11
-3.719073708263854
 21
-40.95892507120602
 72
     1
 10
-3.719073708263854
 20
-40.95892507120602
 11
0.7223060612081831
 21
-40.95892507120599
 97
        0
 75
     0
 76
     1
 98
        1
 10
0.0
 20
0.0
  0
DIMENSION
  5
CD
330
1F
100
AcDbEntity
  8
치수문자_일반주서
100
AcDbDimension
  2
_D
 10
103.1974902084151
 20
11.00000000000035
 30
0.0
 11
103.1974902084151
 21
21.97900000000035
 31
0.0
 70
   160
  1
%%c<>
 71
     2
 42
22.00000000000001
 52
-270.0
  3
SLDDIMSTYLE0
100
AcDbAlignedDimension
 13
86.99999999999999
 23
-10.99999999999972
 33
0.0
 14
87.00000000000001
 24
11.00000000000029
 34
0.0
 50
90.0000000000002
100
AcDbRotatedDimension
  0
DIMENSION
  5
DB
330
1F
100
AcDbEntity
  8
치수문자_일반주서
100
AcDbDimension
  2
_D_1
 10
87.00000000000003
 20
33.66418227566014
 30
0.0
 11
23.88236986130919
 21
33.66418227566014
 31
0.0
 70
   160
  1
<>
 71
     2
 42
150.0
  3
SLDDIMSTYLE1
100
AcDbAlignedDimension
 13
-63.0
 23
9.450000000000015
 33
0.0
 14
87.00000000000001
 24
11.00000000000029
 34
0.0
 50
-0.0000000000000032
100
AcDbRotatedDimension
  0
DIMENSION
  5
E6
330
1F
100
AcDbEntity
  8
치수문자_일반주서
100
AcDbDimension
  2
_D_2
 10
87.00000000000001
 20
21.16519480938925
 30
0.0
 11
57.00000000000001
 21
21.16519480938925
 31
0.0
 70
   160
  1
<>
 71
     2
 42
75.0
  3
SLDDIMSTYLE1
100
AcDbAlignedDimension
 13
12.00000000000001
 23
11.00000000000001
 33
0.0
 14
87.00000000000001
 24
11.00000000000029
 34
0.0
 50
-0.0000000000000045
100
AcDbRotatedDimension
  0
DIMENSION
  5
F0
330
1F
100
AcDbEntity
  8
치수문자_일반주서
100
AcDbDimension
  2
_D_3
 10
-74.7125947346731
 20
-10.00000000000003
 30
0.0
 11
-74.71259473467322
 21
23.2290817166863
 31
0.0
 70
   160
  1
%%c<>
 71
     2
 42
19.99999999999999
 52
-270.0
  3
SLDDIMSTYLE0
100
AcDbAlignedDimension
 13
-62.44999999999999
 23
10.00000000000001
 33
0.0
 14
-62.44999999999999
 24
-9.99999999999998
 34
0.0
 50
90.0000000000002
100
AcDbRotatedDimension
  0
INSERT
  5
103
330
1F
100
AcDbEntity
  8
외형선
100
AcDbBlockReference
  2
SW_DOWELSYMBOL_0
 10
0.0000000000000104
 20
0.0
 30
0.0
  0
LINE
  5
131
330
1F
100
AcDbEntity
  8
0
  6
Continuous
 62
     1
370
    15
100
AcDbLine
 10
87.0
 20
9.450000000000015
 30
0.0
 11
87.0
 21
-9.449999999999987
 31
0.0
  0
ENDSEC
  0
SECTION
  2
OBJECTS
  0
DICTIONARY
  5
C
330
0
100
AcDbDictionary
281
     1
  3
ACAD_GROUP
350
D
  3
ACAD_IMAGE_VARS
350
127
  3
ACAD_LAYOUT
350
1A
  3
ACAD_MLINESTYLE
350
17
  3
ACAD_PLOTSETTINGS
350
19
  3
ACAD_PLOTSTYLENAME
350
E
  3
ACAD_SCALELIST
350
47
  3
APPDATA
350
125
  3
DWGPROPS
350
139
  0
DICTIONARY
  5
D
102
{ACAD_REACTORS
330
C
102
}
330
C
100
AcDbDictionary
281
     1
  0
RASTERVARIABLES
  5
127
102
{ACAD_REACTORS
330
C
102
}
330
C
100
AcDbRasterVariables
 90
        0
 70
     1
 71
     1
 72
     1
  0
DICTIONARY
  5
1A
102
{ACAD_REACTORS
330
C
102
}
330
C
100
AcDbDictionary
281
     1
  3
Layout1
350
1E
  3
Layout2
350
26
  3
Model
350
22
  0
DICTIONARY
  5
17
102
{ACAD_REACTORS
330
C
102
}
330
C
100
AcDbDictionary
281
     1
  3
Standard
350
18
  0
DICTIONARY
  5
19
102
{ACAD_REACTORS
330
C
102
}
330
C
100
AcDbDictionary
281
     1
  0
ACDBDICTIONARYWDFLT
  5
E
102
{ACAD_REACTORS
330
C
102
}
330
C
100
AcDbDictionary
281
     1
  3
Normal
350
F
100
AcDbDictionaryWithDefault
340
F
  0
DICTIONARY
  5
47
102
{ACAD_REACTORS
330
C
102
}
330
C
100
AcDbDictionary
281
     1
  3
A0
350
48
  3
A1
350
49
  3
A2
350
4A
  3
A3
350
4B
  3
A4
350
4C
  3
A5
350
4D
  3
A6
350
4E
  3
A7
350
4F
  3
A8
350
50
  3
A9
350
51
  3
B0
350
52
  3
B1
350
53
  3
B2
350
54
  3
B3
350
55
  3
B4
350
56
  3
B5
350
57
  3
B6
350
58
  3
B7
350
59
  3
B8
350
5A
  3
B9
350
5B
  3
C0
350
5C
  3
C1
350
5D
  3
C2
350
5E
  3
C3
350
5F
  3
C4
350
60
  3
C5
350
61
  3
C6
350
62
  3
C7
350
63
  3
C8
350
64
  3
C9
350
65
  3
D0
350
66
  3
D1
350
67
  3
D2
350
68
  0
DICTIONARY
  5
125
102
{ACAD_REACTORS
330
C
102
}
330
C
100
AcDbDictionary
281
     1
  0
XRECORD
  5
139
102
{ACAD_REACTORS
330
C
102
}
330
C
100
AcDbXrecord
280
     1
  1
DWGPROPS COOKIE
  2

  3

  4

  6

  7

  8
12014102
  9

300
=
301
=
302
=
303
=
304
=
305
=
306
=
307
=
308
=
309
=
 40
0.0
 41
2458262.179495266
 42
2458266.234085
  1

 90
        0
  0
LAYOUT
  5
1E
102
{ACAD_REACTORS
330
1A
102
}
330
1A
100
AcDbPlotSettings
  1

  2
none_device
  4

  6

 40
0.0
 41
0.0
 42
0.0
 43
0.0
 44
0.0
 45
0.0
 46
0.0
 47
0.0
 48
0.0
 49
0.0
140
0.0
141
0.0
142
1.0
143
1.0
 70
   688
 72
     1
 73
     0
 74
     5
  7

 75
    16
147
1.0
148
0.0
149
0.0
100
AcDbLayout
  1
Layout1
 70
     1
 71
     1
 10
0.0
 20
0.0
 11
420.0
 21
297.0
 12
0.0
 22
0.0
 32
0.0
 14
1.000000000000000E+20
 24
1.000000000000000E+20
 34
1.000000000000000E+20
 15
-1.000000000000000E+20
 25
-1.000000000000000E+20
 35
-1.000000000000000E+20
146
0.0
 13
0.0
 23
0.0
 33
0.0
 16
1.0
 26
0.0
 36
0.0
 17
0.0
 27
1.0
 37
0.0
 76
     0
330
1B
  0
LAYOUT
  5
26
102
{ACAD_REACTORS
330
1A
102
}
330
1A
100
AcDbPlotSettings
  1

  2
none_device
  4

  6

 40
0.0
 41
0.0
 42
0.0
 43
0.0
 44
0.0
 45
0.0
 46
0.0
 47
0.0
 48
0.0
 49
0.0
140
0.0
141
0.0
142
1.0
143
1.0
 70
   688
 72
     1
 73
     0
 74
     5
  7

 75
    16
147
1.0
148
0.0
149
0.0
100
AcDbLayout
  1
Layout2
 70
     1
 71
     2
 10
0.0
 20
0.0
 11
0.0
 21
0.0
 12
0.0
 22
0.0
 32
0.0
 14
0.0
 24
0.0
 34
0.0
 15
0.0
 25
0.0
 35
0.0
146
0.0
 13
0.0
 23
0.0
 33
0.0
 16
1.0
 26
0.0
 36
0.0
 17
0.0
 27
1.0
 37
0.0
 76
     0
330
23
  0
LAYOUT
  5
22
102
{ACAD_REACTORS
330
1A
102
}
330
1A
100
AcDbPlotSettings
  1

  2
none_device
  4
ANSI_A_(11.00_x_8.50_Inches)
  6

 40
6.35
 41
19.05
 42
6.35000508
 43
19.05000254
 44
279.4
 45
215.9
 46
90.71110900947771
 47
107.8245707609616
 48
0.0
 49
0.0
140
0.0
141
0.0
142
0.0678455353684426
143
1.0
 70
  1696
 72
     0
 73
     0
 74
     0
  7

 75
     0
147
0.0235690232323232
148
0.0
149
0.0
100
AcDbLayout
  1
Model
 70
     1
 71
     0
 10
0.0
 20
0.0
 11
420.0
 21
297.0
 12
0.0
 22
0.0
 32
0.0
 14
-79.08759473467325
 24
-49.97073246008785
 34
0.0
 15
103.7478235417485
 25
38.03918227566014
 35
0.0
146
0.0
 13
0.0
 23
0.0
 33
0.0
 16
1.0
 26
0.0
 36
0.0
 17
0.0
 27
1.0
 37
0.0
 76
     0
330
1F
331
29
  0
MLINESTYLE
  5
18
102
{ACAD_REACTORS
330
17
102
}
330
17
100
AcDbMlineStyle
  2
Standard
 70
     0
  3

 62
   256
 51
90.0
 52
90.0
 71
     2
 49
0.5
 62
   256
  6
BYLAYER
 49
-0.5
 62
   256
  6
BYLAYER
  0
ACDBPLACEHOLDER
  5
F
102
{ACAD_REACTORS
330
E
102
}
330
E
  0
SCALE
  5
48
102
{ACAD_REACTORS
330
47
102
}
330
47
100
AcDbScale
 70
     0
300
1:1
140
1.0
141
1.0
290
     1
  0
SCALE
  5
49
102
{ACAD_REACTORS
330
47
102
}
330
47
100
AcDbScale
 70
     0
300
1:2
140
1.0
141
2.0
290
     0
  0
SCALE
  5
4A
102
{ACAD_REACTORS
330
47
102
}
330
47
100
AcDbScale
 70
     0
300
1:4
140
1.0
141
4.0
290
     0
  0
SCALE
  5
4B
102
{ACAD_REACTORS
330
47
102
}
330
47
100
AcDbScale
 70
     0
300
1:5
140
1.0
141
5.0
290
     0
  0
SCALE
  5
4C
102
{ACAD_REACTORS
330
47
102
}
330
47
100
AcDbScale
 70
     0
300
1:8
140
1.0
141
8.0
290
     0
  0
SCALE
  5
4D
102
{ACAD_REACTORS
330
47
102
}
330
47
100
AcDbScale
 70
     0
300
1:10
140
1.0
141
10.0
290
     0
  0
SCALE
  5
4E
102
{ACAD_REACTORS
330
47
102
}
330
47
100
AcDbScale
 70
     0
300
1:16
140
1.0
141
16.0
290
     0
  0
SCALE
  5
4F
102
{ACAD_REACTORS
330
47
102
}
330
47
100
AcDbScale
 70
     0
300
1:20
140
1.0
141
20.0
290
     0
  0
SCALE
  5
50
102
{ACAD_REACTORS
330
47
102
}
330
47
100
AcDbScale
 70
     0
300
1:30
140
1.0
141
30.0
290
     0
  0
SCALE
  5
51
102
{ACAD_REACTORS
330
47
102
}
330
47
100
AcDbScale
 70
     0
300
1:40
140
1.0
141
40.0
290
     0
  0
SCALE
  5
52
102
{ACAD_REACTORS
330
47
102
}
330
47
100
AcDbScale
 70
     0
300
1:50
140
1.0
141
50.0
290
     0
  0
SCALE
  5
53
102
{ACAD_REACTORS
330
47
102
}
330
47
100
AcDbScale
 70
     0
300
1:100
140
1.0
141
100.0
290
     0
  0
SCALE
  5
54
102
{ACAD_REACTORS
330
47
102
}
330
47
100
AcDbScale
 70
     0
300
2:1
140
2.0
141
1.0
290
     0
  0
SCALE
  5
55
102
{ACAD_REACTORS
330
47
102
}
330
47
100
AcDbScale
 70
     0
300
4:1
140
4.0
141
1.0
290
     0
  0
SCALE
  5
56
102
{ACAD_REACTORS
330
47
102
}
330
47
100
AcDbScale
 70
     0
300
8:1
140
8.0
141
1.0
290
     0
  0
SCALE
  5
57
102
{ACAD_REACTORS
330
47
102
}
330
47
100
AcDbScale
 70
     0
300
10:1
140
10.0
141
1.0
290
     0
  0
SCALE
  5
58
102
{ACAD_REACTORS
330
47
102
}
330
47
100
AcDbScale
 70
     0
300
100:1
140
100.0
141
1.0
290
     0
  0
SCALE
  5
59
102
{ACAD_REACTORS
330
47
102
}
330
47
100
AcDbScale
 70
     0
300
1/128" = 1'-0"
140
0.0078125
141
12.0
290
     0
  0
SCALE
  5
5A
102
{ACAD_REACTORS
330
47
102
}
330
47
100
AcDbScale
 70
     0
300
1/64" = 1'-0"
140
0.015625
141
12.0
290
     0
  0
SCALE
  5
5B
102
{ACAD_REACTORS
330
47
102
}
330
47
100
AcDbScale
 70
     0
300
1/32" = 1'-0"
140
0.03125
141
12.0
290
     0
  0
SCALE
  5
5C
102
{ACAD_REACTORS
330
47
102
}
330
47
100
AcDbScale
 70
     0
300
1/16" = 1'-0"
140
0.0625
141
12.0
290
     0
  0
SCALE
  5
5D
102
{ACAD_REACTORS
330
47
102
}
330
47
100
AcDbScale
 70
     0
300
3/32" = 1'-0"
140
0.09375
141
12.0
290
     0
  0
SCALE
  5
5E
102
{ACAD_REACTORS
330
47
102
}
330
47
100
AcDbScale
 70
     0
300
1/8" = 1'-0"
140
0.125
141
12.0
290
     0
  0
SCALE
  5
5F
102
{ACAD_REACTORS
330
47
102
}
330
47
100
AcDbScale
 70
     0
300
3/16" = 1'-0"
140
0.1875
141
12.0
290
     0
  0
SCALE
  5
60
102
{ACAD_REACTORS
330
47
102
}
330
47
100
AcDbScale
 70
     0
300
1/4" = 1'-0"
140
0.25
141
12.0
290
     0
  0
SCALE
  5
61
102
{ACAD_REACTORS
330
47
102
}
330
47
100
AcDbScale
 70
     0
300
3/8" = 1'-0"
140
0.375
141
12.0
290
     0
  0
SCALE
  5
62
102
{ACAD_REACTORS
330
47
102
}
330
47
100
AcDbScale
 70
     0
300
1/2" = 1'-0"
140
0.5
141
12.0
290
     0
  0
SCALE
  5
63
102
{ACAD_REACTORS
330
47
102
}
330
47
100
AcDbScale
 70
     0
300
3/4" = 1'-0"
140
0.75
141
12.0
290
     0
  0
SCALE
  5
64
102
{ACAD_REACTORS
330
47
102
}
330
47
100
AcDbScale
 70
     0
300
1" = 1'-0"
140
1.0
141
12.0
290
     0
  0
SCALE
  5
65
102
{ACAD_REACTORS
330
47
102
}
330
47
100
AcDbScale
 70
     0
300
1-1/2" = 1'-0"
140
1.5
141
12.0
290
     0
  0
SCALE
  5
66
102
{ACAD_REACTORS
330
47
102
}
330
47
100
AcDbScale
 70
     0
300
3" = 1'-0"
140
3.0
141
12.0
290
     0
  0
SCALE
  5
67
102
{ACAD_REACTORS
330
47
102
}
330
47
100
AcDbScale
 70
     0
300
6" = 1'-0"
140
6.0
141
12.0
290
     0
  0
SCALE
  5
68
102
{ACAD_REACTORS
330
47
102
}
330
47
100
AcDbScale
 70
     0
300
1'-0" = 1'-0"
140
12.0
141
12.0
290
     0
  0
ENDSEC
  0
EOF
