  0
SECTION
  2
HEADER
  9
$ACADVER
  1
AC1015
  9
$ACADMAINTVER
 70
     6
  9
$DWGCODEPAGE
  3
ANSI_949
  9
$INSBASE
 10
0.0
 20
0.0
 30
0.0
  9
$EXTMIN
 10
-93.97954615372196
 20
-49.97073246008785
 30
0.0
  9
$EXTMAX
 10
141.7133679232144
 20
37.66341044024269
 30
0.0
  9
$LIMMIN
 10
0.0
 20
0.0
  9
$LIMMAX
 10
420.0
 20
297.0
  9
$ORTHOMODE
 70
     0
  9
$REGENMODE
 70
     1
  9
$FILLMODE
 70
     1
  9
$QTEXTMODE
 70
     0
  9
$MIRRTEXT
 70
     1
  9
$LTSCALE
 40
1.0
  9
$ATTMODE
 70
     1
  9
$TEXTSIZE
 40
3.5
  9
$TRACEWID
 40
1.0
  9
$TEXTSTYLE
  7
Standard
  9
$CLAYER
  8
0
  9
$CELTYPE
  6
ByLayer
  9
$CECOLOR
 62
   256
  9
$CELTSCALE
 40
1.0
  9
$DISPSILH
 70
     0
  9
$DIMSCALE
 40
1.0
  9
$DIMASZ
 40
3.302
  9
$DIMEXO
 40
1.0
  9
$DIMDLI
 40
3.75
  9
$DIMRND
 40
0.0
  9
$DIMDLE
 40
0.0
  9
$DIMEXE
 40
1.0
  9
$DIMTP
 40
0.0
  9
$DIMTM
 40
0.0
  9
$DIMTXT
 40
3.5
  9
$DIMCEN
 40
2.5
  9
$DIMTSZ
 40
0.0
  9
$DIMTOL
 70
     0
  9
$DIMLIM
 70
     0
  9
$DIMTIH
 70
     1
  9
$DIMTOH
 70
     1
  9
$DIMSE1
 70
     0
  9
$DIMSE2
 70
     0
  9
$DIMTAD
 70
     1
  9
$DIMZIN
 70
     0
  9
$DIMBLK
  1

  9
$DIMASO
 70
     1
  9
$DIMSHO
 70
     1
  9
$DIMPOST
  1

  9
$DIMAPOST
  1

  9
$DIMALT
 70
     0
  9
$DIMALTD
 70
     3
  9
$DIMALTF
 40
0.0393700787401575
  9
$DIMLFAC
 40
1.0
  9
$DIMTOFL
 70
     1
  9
$DIMTVP
 40
0.0
  9
$DIMTIX
 70
     0
  9
$DIMSOXD
 70
     0
  9
$DIMSAH
 70
     0
  9
$DIMBLK1
  1

  9
$DIMBLK2
  1

  9
$DIMSTYLE
  2
ISO-25
  9
$DIMCLRD
 70
     0
  9
$DIMCLRE
 70
     0
  9
$DIMCLRT
 70
     0
  9
$DIMTFAC
 40
1.0
  9
$DIMGAP
 40
1.524
  9
$DIMJUST
 70
     0
  9
$DIMSD1
 70
     0
  9
$DIMSD2
 70
     0
  9
$DIMTOLJ
 70
     0
  9
$DIMTZIN
 70
     0
  9
$DIMALTZ
 70
     0
  9
$DIMALTTZ
 70
     0
  9
$DIMUPT
 70
     0
  9
$DIMDEC
 70
     2
  9
$DIMTDEC
 70
     2
  9
$DIMALTU
 70
     2
  9
$DIMALTTD
 70
     3
  9
$DIMTXSTY
  7
Standard
  9
$DIMAUNIT
 70
     0
  9
$DIMADEC
 70
     2
  9
$DIMALTRND
 40
0.0
  9
$DIMAZIN
 70
     0
  9
$DIMDSEP
 70
    44
  9
$DIMATFIT
 70
     3
  9
$DIMFRAC
 70
     0
  9
$DIMLDRBLK
  1

  9
$DIMLUNIT
 70
     2
  9
$DIMLWD
 70
    -2
  9
$DIMLWE
 70
    -2
  9
$DIMTMOVE
 70
     0
  9
$LUNITS
 70
     2
  9
$LUPREC
 70
     2
  9
$SKETCHINC
 40
1.0
  9
$FILLETRAD
 40
10.0
  9
$AUNITS
 70
     0
  9
$AUPREC
 70
     2
  9
$MENU
  1
.
  9
$ELEVATION
 40
0.0
  9
$PELEVATION
 40
0.0
  9
$THICKNESS
 40
0.0
  9
$LIMCHECK
 70
     0
  9
$CHAMFERA
 40
0.0
  9
$CHAMFERB
 40
0.0
  9
$CHAMFERC
 40
0.0
  9
$CHAMFERD
 40
0.0
  9
$SKPOLY
 70
     0
  9
$TDCREATE
 40
2458262.554683009
  9
$TDUCREATE
 40
2458262.179683009
  9
$TDUPDATE
 40
2458266.653888831
  9
$TDUUPDATE
 40
2458266.278888831
  9
$TDINDWG
 40
0.0198775463
  9
$TDUSRTIMER
 40
2458266.259011331
  9
$USRTIMER
 70
     1
  9
$ANGBASE
 50
0.0
  9
$ANGDIR
 70
     0
  9
$PDMODE
 70
     0
  9
$PDSIZE
 40
-1.0
  9
$PLINEWID
 40
0.0
  9
$SPLFRAME
 70
     0
  9
$SPLINETYPE
 70
     6
  9
$SPLINESEGS
 70
     8
  9
$HANDSEED
  5
144
  9
$SURFTAB1
 70
     6
  9
$SURFTAB2
 70
     6
  9
$SURFTYPE
 70
     6
  9
$SURFU
 70
     6
  9
$SURFV
 70
     6
  9
$UCSBASE
  2

  9
$UCSNAME
  2

  9
$UCSORG
 10
0.0
 20
0.0
 30
0.0
  9
$UCSXDIR
 10
1.0
 20
0.0
 30
0.0
  9
$UCSYDIR
 10
0.0
 20
1.0
 30
0.0
  9
$UCSORTHOREF
  2

  9
$UCSORTHOVIEW
 70
     0
  9
$UCSORGTOP
 10
0.0
 20
0.0
 30
0.0
  9
$UCSORGBOTTOM
 10
0.0
 20
0.0
 30
0.0
  9
$UCSORGLEFT
 10
0.0
 20
0.0
 30
0.0
  9
$UCSORGRIGHT
 10
0.0
 20
0.0
 30
0.0
  9
$UCSORGFRONT
 10
0.0
 20
0.0
 30
0.0
  9
$UCSORGBACK
 10
0.0
 20
0.0
 30
0.0
  9
$PUCSBASE
  2

  9
$PUCSNAME
  2

  9
$PUCSORG
 10
0.0
 20
0.0
 30
0.0
  9
$PUCSXDIR
 10
1.0
 20
0.0
 30
0.0
  9
$PUCSYDIR
 10
0.0
 20
1.0
 30
0.0
  9
$PUCSORTHOREF
  2

  9
$PUCSORTHOVIEW
 70
     0
  9
$PUCSORGTOP
 10
0.0
 20
0.0
 30
0.0
  9
$PUCSORGBOTTOM
 10
0.0
 20
0.0
 30
0.0
  9
$PUCSORGLEFT
 10
0.0
 20
0.0
 30
0.0
  9
$PUCSORGRIGHT
 10
0.0
 20
0.0
 30
0.0
  9
$PUCSORGFRONT
 10
0.0
 20
0.0
 30
0.0
  9
$PUCSORGBACK
 10
0.0
 20
0.0
 30
0.0
  9
$USERI1
 70
     0
  9
$USERI2
 70
     0
  9
$USERI3
 70
     0
  9
$USERI4
 70
     0
  9
$USERI5
 70
     0
  9
$USERR1
 40
0.0
  9
$USERR2
 40
0.0
  9
$USERR3
 40
0.0
  9
$USERR4
 40
0.0
  9
$USERR5
 40
0.0
  9
$WORLDVIEW
 70
     1
  9
$SHADEDGE
 70
     3
  9
$SHADEDIF
 70
    70
  9
$TILEMODE
 70
     1
  9
$MAXACTVP
 70
    64
  9
$PINSBASE
 10
0.0
 20
0.0
 30
0.0
  9
$PLIMCHECK
 70
     0
  9
$PEXTMIN
 10
1.000000000000000E+20
 20
1.000000000000000E+20
 30
1.000000000000000E+20
  9
$PEXTMAX
 10
-1.000000000000000E+20
 20
-1.000000000000000E+20
 30
-1.000000000000000E+20
  9
$PLIMMIN
 10
0.0
 20
0.0
  9
$PLIMMAX
 10
0.0
 20
0.0
  9
$UNITMODE
 70
     0
  9
$VISRETAIN
 70
     1
  9
$PLINEGEN
 70
     0
  9
$PSLTSCALE
 70
     1
  9
$TREEDEPTH
 70
  3020
  9
$CMLSTYLE
  2
Standard
  9
$CMLJUST
 70
     0
  9
$CMLSCALE
 40
20.0
  9
$PROXYGRAPHICS
 70
     1
  9
$MEASUREMENT
 70
     1
  9
$CELWEIGHT
370
    -1
  9
$ENDCAPS
280
     0
  9
$JOINSTYLE
280
     0
  9
$LWDISPLAY
290
     1
  9
$INSUNITS
 70
     4
  9
$HYPERLINKBASE
  1

  9
$STYLESHEET
  1

  9
$XEDIT
290
     1
  9
$CEPSNTYPE
380
     0
  9
$PSTYLEMODE
290
     1
  9
$FINGERPRINTGUID
  2
{55BCC4FB-3BD9-4989-845E-3396128CC028}
  9
$VERSIONGUID
  2
{FAEB1C32-E019-11D5-929B-00C0DF256EC4}
  9
$EXTNAMES
290
     1
  9
$PSVPSCALE
 40
0.0
  9
$OLESTARTUP
290
     0
  0
ENDSEC
  0
SECTION
  2
CLASSES
  0
CLASS
  1
ACDBDICTIONARYWDFLT
  2
AcDbDictionaryWithDefault
  3
ObjectDBX Classes
 90
        0
280
     0
281
     0
  0
CLASS
  1
VISUALSTYLE
  2
AcDbVisualStyle
  3
ObjectDBX Classes
 90
     4095
280
     0
281
     0
  0
CLASS
  1
MATERIAL
  2
AcDbMaterial
  3
ObjectDBX Classes
 90
     1153
280
     0
281
     0
  0
CLASS
  1
SCALE
  2
AcDbScale
  3
ObjectDBX Classes
 90
     1153
280
     0
281
     0
  0
CLASS
  1
SUN
  2
AcDbSun
  3
SCENEOE
 90
     1153
280
     0
281
     0
  0
CLASS
  1
ACDBPLACEHOLDER
  2
AcDbPlaceHolder
  3
ObjectDBX Classes
 90
        0
280
     0
281
     0
  0
CLASS
  1
LAYOUT
  2
AcDbLayout
  3
ObjectDBX Classes
 90
        0
280
     0
281
     0
  0
CLASS
  1
TABLESTYLE
  2
AcDbTableStyle
  3
ObjectDBX Classes
 90
     4095
280
     0
281
     0
  0
CLASS
  1
MLEADERSTYLE
  2
AcDbMLeaderStyle
  3
ACDB_MLEADERSTYLE_CLASS
 90
     4095
280
     0
281
     0
  0
CLASS
  1
RASTERVARIABLES
  2
AcDbRasterVariables
  3
ISM
 90
        0
280
     0
281
     0
  0
ENDSEC
  0
SECTION
  2
TABLES
  0
TABLE
  2
VPORT
  5
8
330
0
100
AcDbSymbolTable
 70
     1
  0
VPORT
  5
29
330
8
100
AcDbSymbolTableRecord
100
AcDbViewportTableRecord
  2
*Active
 70
     0
 10
0.0
 20
0.0
 11
1.0
 21
1.0
 12
23.86691088474622
 22
-6.15366100992258
 13
0.0
 23
0.0
 14
10.0
 24
10.0
 15
10.0
 25
10.0
 16
0.0
 26
0.0
 36
1.0
 17
0.0
 27
0.0
 37
0.0
 40
208.6040827415468
 41
1.152454780361757
 42
50.0
 43
0.0
 44
0.0
 50
0.0
 51
0.0
 71
    16
 72
  2000
 73
     1
 74
     3
 75
     0
 76
     0
 77
     0
 78
     0
281
     0
 65
     1
110
0.0
120
0.0
130
0.0
111
1.0
121
0.0
131
0.0
112
0.0
122
1.0
132
0.0
 79
     0
146
0.0
  0
ENDTAB
  0
TABLE
  2
LTYPE
  5
5
330
0
100
AcDbSymbolTable
 70
     6
  0
LTYPE
  5
14
330
5
100
AcDbSymbolTableRecord
100
AcDbLinetypeTableRecord
  2
ByBlock
 70
     0
  3

 72
    65
 73
     0
 40
0.0
  0
LTYPE
  5
15
330
5
100
AcDbSymbolTableRecord
100
AcDbLinetypeTableRecord
  2
ByLayer
 70
     0
  3

 72
    65
 73
     0
 40
0.0
  0
LTYPE
  5
16
330
5
100
AcDbSymbolTableRecord
100
AcDbLinetypeTableRecord
  2
Continuous
 70
     0
  3
Solid line
 72
    65
 73
     0
 40
0.0
  0
LTYPE
  5
6A
330
5
100
AcDbSymbolTableRecord
100
AcDbLinetypeTableRecord
  2
HIDDEN
 70
     0
  3
Hidden __ __ __ __ __ __ __ __ __ __ __ __ __ __
 72
    65
 73
     2
 40
1.905
 49
1.27
 74
     0
 49
-0.635
 74
     0
  0
LTYPE
  5
6B
330
5
100
AcDbSymbolTableRecord
100
AcDbLinetypeTableRecord
  2
PHANTOM
 70
     0
  3
Phantom ______  __  __  ______  __  __  ______
 72
    65
 73
     6
 40
12.7
 49
6.35
 74
     0
 49
-1.27
 74
     0
 49
1.27
 74
     0
 49
-1.27
 74
     0
 49
1.27
 74
     0
 49
-1.27
 74
     0
  0
LTYPE
  5
6C
330
5
100
AcDbSymbolTableRecord
100
AcDbLinetypeTableRecord
  2
CENTER
 70
     0
  3
Center ____ _ ____ _ ____ _ ____ _ ____ _ ____
 72
    65
 73
     4
 40
10.16
 49
6.35
 74
     0
 49
-1.27
 74
     0
 49
1.27
 74
     0
 49
-1.27
 74
     0
  0
LTYPE
  5
6D
330
5
100
AcDbSymbolTableRecord
100
AcDbLinetypeTableRecord
  2
CENTERX2
 70
     0
  3
Center (2x) ________  __  ________  __  _____
 72
    65
 73
     4
 40
20.32
 49
12.7
 74
     0
 49
-2.54
 74
     0
 49
2.54
 74
     0
 49
-2.54
 74
     0
  0
LTYPE
  5
6E
330
5
100
AcDbSymbolTableRecord
100
AcDbLinetypeTableRecord
  2
DOT2
 70
     0
  3
Dot (.5x) ........................................
 72
    65
 73
     2
 40
0.635
 49
0.0
 74
     0
 49
-0.635
 74
     0
  0
ENDTAB
  0
TABLE
  2
LAYER
  5
2
330
0
100
AcDbSymbolTable
 70
    17
  0
LAYER
  5
10
330
2
100
AcDbSymbolTableRecord
100
AcDbLayerTableRecord
  2
0
 70
     0
 62
     7
  6
Continuous
370
    -3
390
F
  0
LAYER
  5
6F
330
2
100
AcDbSymbolTableRecord
100
AcDbLayerTableRecord
  2
FORMAT
 70
     0
 62
     2
  6
Continuous
370
    -3
390
F
  0
LAYER
  5
70
330
2
100
AcDbSymbolTableRecord
100
AcDbLayerTableRecord
  2
외형선
 70
     0
 62
   100
  6
Continuous
370
    30
390
F
  0
LAYER
  5
71
330
2
100
AcDbSymbolTableRecord
100
AcDbLayerTableRecord
  2
숨은선
 70
     0
 62
     2
  6
HIDDEN
370
    15
390
F
  0
LAYER
  5
72
330
2
100
AcDbSymbolTableRecord
100
AcDbLayerTableRecord
  2
중심선
 70
     0
 62
     1
  6
CENTERX2
370
    -3
390
F
  0
LAYER
  5
73
330
2
100
AcDbSymbolTableRecord
100
AcDbLayerTableRecord
  2
파단선
 70
     0
 62
     4
  6
Continuous
370
    -3
390
F
  0
LAYER
  5
74
330
2
100
AcDbSymbolTableRecord
100
AcDbLayerTableRecord
  2
해칭선
 70
     0
 62
     4
  6
Continuous
370
    -3
390
F
  0
LAYER
  5
75
330
2
100
AcDbSymbolTableRecord
100
AcDbLayerTableRecord
  2
가는실선
 70
     0
 62
     4
  6
Continuous
370
    -3
390
F
  0
LAYER
  5
76
330
2
100
AcDbSymbolTableRecord
100
AcDbLayerTableRecord
  2
치수_보조선
 70
     0
 62
     4
  6
Continuous
370
    -3
390
F
  0
LAYER
  5
77
330
2
100
AcDbSymbolTableRecord
100
AcDbLayerTableRecord
  2
치수문자_일반주서
 70
     0
 62
     7
  6
Continuous
370
    15
390
F
  0
LAYER
  5
78
330
2
100
AcDbSymbolTableRecord
100
AcDbLayerTableRecord
  2
개별주서
 70
     0
 62
   100
  6
Continuous
370
    30
390
F
  0
LAYER
  5
79
330
2
100
AcDbSymbolTableRecord
100
AcDbLayerTableRecord
  2
중간선
 70
     0
 62
     2
  6
Continuous
370
    15
390
F
  0
LAYER
  5
7A
330
2
100
AcDbSymbolTableRecord
100
AcDbLayerTableRecord
  2
윤곽선
 70
     0
 62
     3
  6
Continuous
370
    40
390
F
  0
LAYER
  5
7B
330
2
100
AcDbSymbolTableRecord
100
AcDbLayerTableRecord
  2
중심마크
 70
     0
 62
   100
  6
Continuous
370
    30
390
F
  0
LAYER
  5
7C
330
2
100
AcDbSymbolTableRecord
100
AcDbLayerTableRecord
  2
가상선
 70
     0
 62
     4
  6
PHANTOM
370
    -3
390
F
  0
LAYER
  5
7D
330
2
100
AcDbSymbolTableRecord
100
AcDbLayerTableRecord
  2
특수지정선
 70
     0
 62
     5
  6
CENTERX2
370
    60
390
F
  0
LAYER
  5
132
330
2
100
AcDbSymbolTableRecord
100
AcDbLayerTableRecord
  2
Defpoints
 70
     0
 62
     7
  6
Continuous
290
     0
370
    -3
390
F
  0
ENDTAB
  0
TABLE
  2
STYLE
  5
3
330
0
100
AcDbSymbolTable
 70
     2
  0
STYLE
  5
11
330
3
100
AcDbSymbolTableRecord
100
AcDbTextStyleTableRecord
  2
Standard
 70
     0
 40
0.0
 41
1.0
 50
0.0
 71
     0
 42
3.5
  3
txt
  4

  0
STYLE
  5
93
330
3
100
AcDbSymbolTableRecord
100
AcDbTextStyleTableRecord
  2
SLDTEXTSTYLE0
 70
     0
 40
0.0
 41
0.75
 50
0.0
 71
     0
 42
3.5
  3
TXT
  4

  0
ENDTAB
  0
TABLE
  2
VIEW
  5
6
330
0
100
AcDbSymbolTable
 70
     0
  0
ENDTAB
  0
TABLE
  2
UCS
  5
7
330
0
100
AcDbSymbolTable
 70
     0
  0
ENDTAB
  0
TABLE
  2
APPID
  5
9
330
0
100
AcDbSymbolTable
 70
     1
  0
APPID
  5
12
330
9
100
AcDbSymbolTableRecord
100
AcDbRegAppTableRecord
  2
ACAD
 70
     0
  0
ENDTAB
  0
TABLE
  2
DIMSTYLE
  5
A
330
0
100
AcDbSymbolTable
 70
     3
100
AcDbDimStyleTable
  0
DIMSTYLE
105
27
330
A
100
AcDbSymbolTableRecord
100
AcDbDimStyleTableRecord
  2
ISO-25
 70
     0
 41
2.5
 42
0.625
 43
3.75
 44
1.25
 73
     0
 74
     0
 77
     1
 78
     8
140
2.5
141
2.5
143
0.03937007874016
147
0.625
171
     3
172
     1
178
     0
271
     2
272
     2
274
     3
278
    44
283
     0
284
     8
340
11
  0
DIMSTYLE
105
DC
102
{ACAD_REACTORS
330
DB
330
FC
102
}
330
A
100
AcDbSymbolTableRecord
100
AcDbDimStyleTableRecord
  2
SLDDIMSTYLE0
 70
     0
 41
3.302
 44
0.0
 45
0.000000001
 73
     0
 74
     0
 77
     1
 78
    12
 79
     3
140
3.5
147
0.875
172
     1
173
     1
178
     0
271
     2
272
     2
276
     2
284
    12
289
     0
340
93
  0
DIMSTYLE
105
E8
102
{ACAD_REACTORS
330
E7
330
F2
102
}
330
A
100
AcDbSymbolTableRecord
100
AcDbDimStyleTableRecord
  2
SLDDIMSTYLE1
 70
     0
 41
3.302
 44
0.0
 45
0.000000001
 73
     0
 74
     0
 77
     1
 78
    12
 79
     3
140
3.5
147
0.875
173
     1
178
     0
271
     2
272
     2
276
     2
284
    12
340
93
  0
ENDTAB
  0
TABLE
  2
BLOCK_RECORD
  5
1
330
0
100
AcDbSymbolTable
 70
     7
  0
BLOCK_RECORD
  5
1F
330
1
100
AcDbSymbolTableRecord
100
AcDbBlockTableRecord
  2
*Model_Space
340
22
  0
BLOCK_RECORD
  5
1B
330
1
100
AcDbSymbolTableRecord
100
AcDbBlockTableRecord
  2
*Paper_Space
340
1E
  0
BLOCK_RECORD
  5
23
330
1
100
AcDbSymbolTableRecord
100
AcDbBlockTableRecord
  2
*Paper_Space0
340
26
  0
BLOCK_RECORD
  5
7E
330
1
100
AcDbSymbolTableRecord
100
AcDbBlockTableRecord
  2
블럭10
340
0
102
{BLKREFS
331
D4
102
}
  0
BLOCK_RECORD
  5
DD
330
1
100
AcDbSymbolTableRecord
100
AcDbBlockTableRecord
  2
_D
340
0
  0
BLOCK_RECORD
  5
E9
330
1
100
AcDbSymbolTableRecord
100
AcDbBlockTableRecord
  2
_D_1
340
0
  0
BLOCK_RECORD
  5
F3
330
1
100
AcDbSymbolTableRecord
100
AcDbBlockTableRecord
  2
_D_2
340
0
  0
BLOCK_RECORD
  5
FD
330
1
100
AcDbSymbolTableRecord
100
AcDbBlockTableRecord
  2
_D_3
340
0
  0
BLOCK_RECORD
  5
107
330
1
100
AcDbSymbolTableRecord
100
AcDbBlockTableRecord
  2
SW_DOWELSYMBOL_0
340
0
102
{BLKREFS
331
10D
102
}
  0
ENDTAB
  0
ENDSEC
  0
SECTION
  2
BLOCKS
  0
BLOCK
  5
20
330
1F
100
AcDbEntity
  8
0
100
AcDbBlockBegin
  2
*Model_Space
 70
     0
 10
0.0
 20
0.0
 30
0.0
  3
*Model_Space
  1

  0
ENDBLK
  5
21
330
1F
100
AcDbEntity
  8
0
100
AcDbBlockEnd
  0
BLOCK
  5
1C
330
1B
100
AcDbEntity
 67
     1
  8
0
100
AcDbBlockBegin
  2
*Paper_Space
 70
     0
 10
0.0
 20
0.0
 30
0.0
  3
*Paper_Space
  1

  0
ENDBLK
  5
1D
330
1B
100
AcDbEntity
 67
     1
  8
0
100
AcDbBlockEnd
  0
BLOCK
  5
24
330
23
100
AcDbEntity
  8
0
100
AcDbBlockBegin
  2
*Paper_Space0
 70
     0
 10
0.0
 20
0.0
 30
0.0
  3
*Paper_Space0
  1

  0
ENDBLK
  5
25
330
23
100
AcDbEntity
  8
0
100
AcDbBlockEnd
  0
BLOCK
  5
7F
330
7E
100
AcDbEntity
  8
0
100
AcDbBlockBegin
  2
블럭10
 70
     2
 10
0.0
 20
0.0
 30
0.0
  3
블럭10
  1

  0
ELLIPSE
  5
81
330
7E
100
AcDbEntity
  8
중심선
100
AcDbEllipse
 10
20.54032771741204
 20
12.0471743016438
 30
0.0
 11
6.600054785286829
 21
-1.261213355974178E-13
 31
0.0
210
0.0
220
0.0
230
1.0
 40
0.636358354079598
 41
0.9219305317359503
 42
6.513795318482858
  0
ELLIPSE
  5
82
330
7E
100
AcDbEntity
  8
중심선
100
AcDbEllipse
 10
20.54032771746488
 20
12.04717430159265
 30
0.0
 11
3.960054785062283
 21
1.540847449632565E-10
 31
0.0
210
0.0
220
0.0
230
1.0
 40
0.3939339440162632
 41
1.131841032648279
 42
5.62031148352944
  0
LINE
  5
83
330
7E
100
AcDbEntity
  8
중심선
100
AcDbLine
 10
2.268634060543552
 20
16.24717430164393
 30
0.0
 11
5.714909304380834
 21
16.24717430164393
 31
0.0
  0
LINE
  5
84
330
7E
100
AcDbEntity
  8
중심선
100
AcDbLine
 10
5.245725140726316
 20
7.84717430164391
 30
0.0
 11
8.692000384563599
 21
7.84717430164391
 31
0.0
  0
LINE
  5
85
330
7E
100
AcDbEntity
  8
중심선
100
AcDbLine
 10
15.74043728645272
 20
16.24717430164393
 30
0.0
 11
8.692000384563599
 21
7.84717430164391
 31
0.0
  0
LINE
  5
86
330
7E
100
AcDbEntity
  8
중심선
100
AcDbLine
 10
0.1404042013395286
 20
13.71084872107135
 30
0.0
 11
3.58671253028996
 21
13.71088815037384
 31
0.0
  0
LINE
  5
87
330
7E
100
AcDbEntity
  8
중심선
100
AcDbLine
 10
2.750260043222114
 20
10.84717430164391
 30
0.0
 11
6.196535287059397
 21
10.84717430164391
 31
0.0
  0
LINE
  5
88
330
7E
100
AcDbEntity
  8
중심선
100
AcDbLine
 10
12.29416204261559
 20
16.24717430164393
 30
0.0
 11
5.245725140726316
 21
7.84717430164391
 31
0.0
  0
LINE
  5
89
330
7E
100
AcDbEntity
  8
중심선
100
AcDbLine
 10
10.72767329541681
 20
16.24717430164393
 30
0.0
 11
6.196535287059397
 21
10.84717430164391
 31
0.0
  0
LINE
  5
8A
330
7E
100
AcDbEntity
  8
중심선
100
AcDbLine
 10
7.28139805157953
 20
16.24717430164393
 30
0.0
 11
2.750260043222114
 21
10.84717430164391
 31
0.0
  0
LINE
  5
8B
330
7E
100
AcDbEntity
  8
중심선
100
AcDbLine
 10
5.714909304380834
 20
16.24717430164393
 30
0.0
 11
3.58671253028996
 21
13.71088815037384
 31
0.0
  0
LINE
  5
8C
330
7E
100
AcDbEntity
  8
중심선
100
AcDbLine
 10
2.268634060543552
 20
16.24717430164393
 30
0.0
 11
0.1404042013395286
 21
13.71084872107135
 31
0.0
  0
LINE
  5
8D
330
7E
100
AcDbEntity
  8
중심선
100
AcDbLine
 10
7.28139805157953
 20
16.24717430164393
 30
0.0
 11
10.72767329541681
 21
16.24717430164393
 31
0.0
  0
LINE
  5
8E
330
7E
100
AcDbEntity
  8
중심선
100
AcDbLine
 10
12.29416204261559
 20
16.24717430164393
 30
0.0
 11
15.74043728645272
 21
16.24717430164393
 31
0.0
  0
LINE
  5
8F
330
7E
100
AcDbEntity
  8
중심선
100
AcDbLine
 10
19.22036997980202
 20
11.08717430171403
 30
0.0
 11
23.66174974927406
 21
11.08717430171406
 31
0.0
  0
LINE
  5
90
330
7E
100
AcDbEntity
  8
중심선
100
AcDbLine
 10
19.22039502424796
 20
13.00717430171391
 30
0.0
 11
19.22036997980202
 21
11.08717430171403
 31
0.0
  0
LINE
  5
91
330
7E
100
AcDbEntity
  8
중심선
100
AcDbLine
 10
19.22039502424796
 20
13.00717430171391
 30
0.0
 11
26.96566020931264
 21
13.00717430171391
 31
0.0
  0
LINE
  5
92
330
7E
100
AcDbEntity
  8
중심선
100
AcDbLine
 10
22.22332737316547
 20
13.45928029700563
 30
0.0
 11
24.52862924686651
 21
15.39360700705356
 31
0.0
  0
ATTDEF
  5
94
330
7E
100
AcDbEntity
  8
FORMAT
 62
     2
100
AcDbText
 10
-17.69892196172445
 20
2.075366912832191
 30
0.0
 40
4.233333333333333
  1
SEME70250110E [ 2 FLUTE ]
 41
0.75
  7
SLDTEXTSTYLE0
 11
-17.69892196172445
 21
-0.0412997538344756
 31
0.0
100
AcDbAttributeDefinition
  3

  2
AUTOATTR0
 70
     0
 74
     1
  0
ENDBLK
  5
80
330
7E
100
AcDbEntity
  8
0
100
AcDbBlockEnd
  0
BLOCK
  5
DE
330
DD
100
AcDbEntity
  8
0
100
AcDbBlockBegin
  2
_D
 70
     0
 10
0.0
 20
0.0
 30
0.0
  3
_D
  1

  0
LINE
  5
E0
330
DD
100
AcDbEntity
  8
치수문자_일반주서
 62
     0
370
    -2
100
AcDbLine
 10
122.0624999999993
 20
-12.49999999999959
 30
0.0
 11
141.1630345898811
 21
-12.49999999999952
 31
0.0
  0
LINE
  5
E1
330
DD
100
AcDbEntity
  8
치수문자_일반주서
 62
     0
370
    -2
100
AcDbLine
 10
122.0624999999994
 20
12.50000000000042
 30
0.0
 11
141.163034589881
 21
12.50000000000049
 31
0.0
  0
LINE
  5
E2
330
DD
100
AcDbEntity
  8
치수문자_일반주서
 62
     0
370
    -2
100
AcDbLine
 10
141.1630345898811
 20
-12.49999999999952
 30
0.0
 11
141.1630345898809
 21
27.85400000000049
 31
0.0
  0
LINE
  5
E3
330
DD
100
AcDbEntity
  8
치수문자_일반주서
 62
     0
370
    -2
100
AcDbLine
 10
141.1630345898811
 20
-12.49999999999952
 30
0.0
 11
141.163034589881
 21
12.50000000000049
 31
0.0
  0
LINE
  5
E4
330
DD
100
AcDbEntity
  8
치수문자_일반주서
 62
     0
370
    -2
100
AcDbLine
 10
141.1630345898811
 20
-15.80199999999952
 30
0.0
 11
141.1630345898811
 21
-19.10399999999952
 31
0.0
  0
LINE
  5
E5
330
DD
100
AcDbEntity
  8
치수문자_일반주서
 62
     0
370
    -2
100
AcDbLine
 10
141.163034589881
 20
15.80200000000049
 30
0.0
 11
141.163034589881
 21
19.10400000000049
 31
0.0
  0
SOLID
  5
E6
330
DD
100
AcDbEntity
  8
치수문자_일반주서
 62
     0
100
AcDbTrace
 10
141.7133679232144
 20
-15.80199999999952
 30
0.0
 11
140.6127012565477
 21
-15.80199999999952
 31
0.0
 12
141.1630345898811
 22
-12.49999999999952
 32
0.0
 13
141.1630345898811
 23
-12.49999999999952
 33
0.0
  0
SOLID
  5
133
330
DD
100
AcDbEntity
  8
치수문자_일반주서
 62
     0
100
AcDbTrace
 10
140.6127012565476
 20
15.80200000000049
 30
0.0
 11
141.7133679232143
 21
15.80200000000049
 31
0.0
 12
141.163034589881
 22
12.50000000000049
 32
0.0
 13
141.163034589881
 23
12.50000000000049
 33
0.0
  0
MTEXT
  5
134
330
DD
100
AcDbEntity
  8
치수문자_일반주서
 62
     0
100
AcDbMText
 10
136.7880345898809
 20
23.47900000000048
 30
0.0
 40
3.5
 41
0.0
 71
     2
 72
     1
  1
\A1;%%c25
  7
SLDTEXTSTYLE0
 11
-3.410605131648479E-15
 21
1.0
 31
0.0
 73
     1
 44
1.0
  0
POINT
  5
140
330
DD
100
AcDbEntity
  8
Defpoints
 62
     0
100
AcDbPoint
 10
121.9999999999993
 20
-12.49999999999959
 30
0.0
  0
POINT
  5
141
330
DD
100
AcDbEntity
  8
Defpoints
 62
     0
100
AcDbPoint
 10
121.9999999999994
 20
12.50000000000042
 30
0.0
  0
POINT
  5
142
330
DD
100
AcDbEntity
  8
Defpoints
 62
     0
100
AcDbPoint
 10
141.163034589881
 20
12.50000000000049
 30
0.0
  0
ENDBLK
  5
DF
330
DD
100
AcDbEntity
  8
0
100
AcDbBlockEnd
  0
BLOCK
  5
EA
330
E9
100
AcDbEntity
  8
0
100
AcDbBlockBegin
  2
_D_1
 70
     0
 10
0.0
 20
0.0
 30
0.0
  3
_D_1
  1

  0
LINE
  5
EC
330
E9
100
AcDbEntity
  8
치수문자_일반주서
 62
     0
370
    -2
100
AcDbLine
 10
-77.99999999999999
 20
11.56249999999999
 30
0.0
 11
-78.0
 21
33.28841044024269
 31
0.0
  0
LINE
  5
ED
330
E9
100
AcDbEntity
  8
치수문자_일반주서
 62
     0
370
    -2
100
AcDbLine
 10
121.9999999999994
 20
12.56250000000042
 30
0.0
 11
121.9999999999994
 21
33.28841044024269
 31
0.0
  0
LINE
  5
EE
330
E9
100
AcDbEntity
  8
치수문자_일반주서
 62
     0
370
    -2
100
AcDbLine
 10
-74.69800000000001
 20
33.28841044024269
 30
0.0
 11
118.6979999999994
 21
33.28841044024269
 31
0.0
  0
SOLID
  5
EF
330
E9
100
AcDbEntity
  8
치수문자_일반주서
 62
     0
100
AcDbTrace
 10
-74.69800000000001
 20
33.83874377357603
 30
0.0
 11
-74.69800000000001
 21
32.73807710690936
 31
0.0
 12
-78.0
 22
33.28841044024269
 32
0.0
 13
-78.0
 23
33.28841044024269
 33
0.0
  0
SOLID
  5
F0
330
E9
100
AcDbEntity
  8
치수문자_일반주서
 62
     0
100
AcDbTrace
 10
118.6979999999994
 20
32.73807710690936
 30
0.0
 11
118.6979999999994
 21
33.83874377357603
 31
0.0
 12
121.9999999999994
 22
33.28841044024269
 32
0.0
 13
121.9999999999994
 23
33.28841044024269
 33
0.0
  0
MTEXT
  5
F1
330
E9
100
AcDbEntity
  8
치수문자_일반주서
 62
     0
100
AcDbMText
 10
21.99999999999973
 20
37.66341044024269
 30
0.0
 40
3.5
 41
0.0
 71
     2
 72
     1
  1
\A1;200
  7
SLDTEXTSTYLE0
 73
     1
 44
1.0
  0
POINT
  5
135
330
E9
100
AcDbEntity
  8
Defpoints
 62
     0
100
AcDbPoint
 10
-77.99999999999999
 20
11.49999999999999
 30
0.0
  0
POINT
  5
136
330
E9
100
AcDbEntity
  8
Defpoints
 62
     0
100
AcDbPoint
 10
121.9999999999994
 20
12.50000000000042
 30
0.0
  0
POINT
  5
137
330
E9
100
AcDbEntity
  8
Defpoints
 62
     0
100
AcDbPoint
 10
121.9999999999994
 20
33.28841044024269
 30
0.0
  0
ENDBLK
  5
EB
330
E9
100
AcDbEntity
  8
0
100
AcDbBlockEnd
  0
BLOCK
  5
F4
330
F3
100
AcDbEntity
  8
0
100
AcDbBlockBegin
  2
_D_2
 70
     0
 10
0.0
 20
0.0
 30
0.0
  3
_D_2
  1

  0
LINE
  5
F6
330
F3
100
AcDbEntity
  8
치수문자_일반주서
 62
     0
370
    -2
100
AcDbLine
 10
12.0
 20
9.827794271938084
 30
0.0
 11
12.0
 21
23.11229207810566
 31
0.0
  0
LINE
  5
F7
330
F3
100
AcDbEntity
  8
치수문자_일반주서
 62
     0
370
    -2
100
AcDbLine
 10
121.9999999999994
 20
12.56250000000042
 30
0.0
 11
121.9999999999994
 21
23.11229207810566
 31
0.0
  0
LINE
  5
F8
330
F3
100
AcDbEntity
  8
치수문자_일반주서
 62
     0
370
    -2
100
AcDbLine
 10
15.302
 20
23.11229207810566
 30
0.0
 11
118.6979999999994
 21
23.11229207810566
 31
0.0
  0
SOLID
  5
F9
330
F3
100
AcDbEntity
  8
치수문자_일반주서
 62
     0
100
AcDbTrace
 10
15.302
 20
23.662625411439
 30
0.0
 11
15.302
 21
22.56195874477233
 31
0.0
 12
12.0
 22
23.11229207810566
 32
0.0
 13
12.0
 23
23.11229207810566
 33
0.0
  0
SOLID
  5
FA
330
F3
100
AcDbEntity
  8
치수문자_일반주서
 62
     0
100
AcDbTrace
 10
118.6979999999994
 20
22.56195874477233
 30
0.0
 11
118.6979999999994
 21
23.662625411439
 31
0.0
 12
121.9999999999994
 22
23.11229207810566
 32
0.0
 13
121.9999999999994
 23
23.11229207810566
 33
0.0
  0
MTEXT
  5
FB
330
F3
100
AcDbEntity
  8
치수문자_일반주서
 62
     0
100
AcDbMText
 10
66.99999999999997
 20
27.48729207810566
 30
0.0
 40
3.5
 41
0.0
 71
     2
 72
     1
  1
\A1;110
  7
SLDTEXTSTYLE0
 73
     1
 44
1.0
  0
POINT
  5
138
330
F3
100
AcDbEntity
  8
Defpoints
 62
     0
100
AcDbPoint
 10
12.0
 20
9.765294271938084
 30
0.0
  0
POINT
  5
139
330
F3
100
AcDbEntity
  8
Defpoints
 62
     0
100
AcDbPoint
 10
121.9999999999994
 20
12.50000000000042
 30
0.0
  0
POINT
  5
13A
330
F3
100
AcDbEntity
  8
Defpoints
 62
     0
100
AcDbPoint
 10
121.9999999999994
 20
23.11229207810566
 30
0.0
  0
ENDBLK
  5
F5
330
F3
100
AcDbEntity
  8
0
100
AcDbBlockEnd
  0
BLOCK
  5
FE
330
FD
100
AcDbEntity
  8
0
100
AcDbBlockBegin
  2
_D_3
 70
     0
 10
0.0
 20
0.0
 30
0.0
  3
_D_3
  1

  0
LINE
  5
100
330
FD
100
AcDbEntity
  8
치수문자_일반주서
 62
     0
370
    -2
100
AcDbLine
 10
-77.06249999999999
 20
12.5
 30
0.0
 11
-89.6045461537219
 21
12.49999999999995
 31
0.0
  0
LINE
  5
101
330
FD
100
AcDbEntity
  8
치수문자_일반주서
 62
     0
370
    -2
100
AcDbLine
 10
-77.06249999999999
 20
-12.5
 30
0.0
 11
-89.60454615372181
 21
-12.50000000000005
 31
0.0
  0
LINE
  5
102
330
FD
100
AcDbEntity
  8
치수문자_일반주서
 62
     0
370
    -2
100
AcDbLine
 10
-89.6045461537219
 20
12.49999999999995
 30
0.0
 11
-89.60454615372196
 21
27.85399999999995
 31
0.0
  0
LINE
  5
103
330
FD
100
AcDbEntity
  8
치수문자_일반주서
 62
     0
370
    -2
100
AcDbLine
 10
-89.6045461537219
 20
12.49999999999995
 30
0.0
 11
-89.60454615372181
 21
-12.50000000000005
 31
0.0
  0
LINE
  5
104
330
FD
100
AcDbEntity
  8
치수문자_일반주서
 62
     0
370
    -2
100
AcDbLine
 10
-89.60454615372191
 20
15.80199999999995
 30
0.0
 11
-89.60454615372193
 21
19.10399999999995
 31
0.0
  0
LINE
  5
105
330
FD
100
AcDbEntity
  8
치수문자_일반주서
 62
     0
370
    -2
100
AcDbLine
 10
-89.6045461537218
 20
-15.80200000000005
 30
0.0
 11
-89.60454615372178
 21
-19.10400000000005
 31
0.0
  0
SOLID
  5
106
330
FD
100
AcDbEntity
  8
치수문자_일반주서
 62
     0
100
AcDbTrace
 10
-90.15487948705524
 20
15.80199999999995
 30
0.0
 11
-89.05421282038859
 21
15.80199999999995
 31
0.0
 12
-89.6045461537219
 22
12.49999999999995
 32
0.0
 13
-89.6045461537219
 23
12.49999999999995
 33
0.0
  0
SOLID
  5
13B
330
FD
100
AcDbEntity
  8
치수문자_일반주서
 62
     0
100
AcDbTrace
 10
-89.05421282038847
 20
-15.80200000000005
 30
0.0
 11
-90.15487948705513
 21
-15.80200000000005
 31
0.0
 12
-89.60454615372181
 22
-12.50000000000005
 32
0.0
 13
-89.60454615372181
 23
-12.50000000000005
 33
0.0
  0
MTEXT
  5
13C
330
FD
100
AcDbEntity
  8
치수문자_일반주서
 62
     0
100
AcDbMText
 10
-93.97954615372194
 20
23.47899999999993
 30
0.0
 40
3.5
 41
0.0
 71
     2
 72
     1
  1
\A1;%%c25
  7
SLDTEXTSTYLE0
 11
-3.410605131648482E-15
 21
1.0
 31
0.0
 73
     1
 44
1.0
  0
POINT
  5
13D
330
FD
100
AcDbEntity
  8
Defpoints
 62
     0
100
AcDbPoint
 10
-76.99999999999999
 20
12.5
 30
0.0
  0
POINT
  5
13E
330
FD
100
AcDbEntity
  8
Defpoints
 62
     0
100
AcDbPoint
 10
-76.99999999999999
 20
-12.5
 30
0.0
  0
POINT
  5
13F
330
FD
100
AcDbEntity
  8
Defpoints
 62
     0
100
AcDbPoint
 10
-89.60454615372181
 20
-12.50000000000005
 30
0.0
  0
ENDBLK
  5
FF
330
FD
100
AcDbEntity
  8
0
100
AcDbBlockEnd
  0
BLOCK
  5
108
330
107
100
AcDbEntity
  8
0
100
AcDbBlockBegin
  2
SW_DOWELSYMBOL_0
 70
     0
 10
0.0
 20
0.0
 30
0.0
  3
SW_DOWELSYMBOL_0
  1

  0
CIRCLE
  5
10A
330
107
100
AcDbEntity
  8
외형선
 62
     0
100
AcDbCircle
 10
0.0
 20
0.0
 30
0.0
 40
3.000000000000004
  0
HATCH
  5
10B
330
107
100
AcDbEntity
  8
0
  6
Continuous
 62
     0
370
    30
100
AcDbHatch
 10
0.0
 20
0.0
 30
0.0
210
0.0
220
0.0
230
1.0
  2
SOLID
 70
     1
 71
     0
 91
        1
 92
        0
 93
        3
 72
     2
 10
0.0000000000000104
 20
0.0
 40
3.000000000000004
 50
0.0
 51
90.0
 73
     1
 72
     1
 10
0.0000000000000104
 20
3.000000000000004
 11
0.0000000000000104
 21
0.0
 72
     1
 10
0.0000000000000104
 20
0.0
 11
3.000000000000015
 21
0.0
 97
        0
 75
     0
 76
     1
 98
        1
 10
0.0
 20
0.0
  0
HATCH
  5
10C
330
107
100
AcDbEntity
  8
0
  6
Continuous
 62
     0
370
    30
100
AcDbHatch
 10
0.0
 20
0.0
 30
0.0
210
0.0
220
0.0
230
1.0
  2
SOLID
 70
     1
 71
     0
 91
        1
 92
        0
 93
        3
 72
     2
 10
0.0000000000000104
 20
0.0
 40
3.000000000000004
 50
180.0
 51
270.0000000000008
 73
     1
 72
     1
 10
0.0000000000000104
 20
-3.000000000000004
 11
0.0000000000000104
 21
0.0
 72
     1
 10
0.0000000000000104
 20
0.0
 11
-2.999999999999994
 21
0.0
 97
        0
 75
     0
 76
     1
 98
        1
 10
0.0
 20
0.0
  0
ENDBLK
  5
109
330
107
100
AcDbEntity
  8
0
100
AcDbBlockEnd
  0
ENDSEC
  0
SECTION
  2
ENTITIES
  0
SPLINE
  5
95
330
1F
100
AcDbEntity
  8
0
  6
Continuous
 62
     1
370
    15
100
AcDbSpline
210
0.0
220
0.0
230
1.0
 70
     8
 71
     3
 72
     9
 73
     5
 74
     0
 42
0.000000001
 43
0.00000001
 40
0.0
 40
0.0
 40
0.0
 40
0.0
 40
0.5243355920265066
 40
1.0
 40
1.0
 40
1.0
 40
1.0
 10
89.61557493694274
 20
3.203127296181211
 30
0.0
 10
89.00955271479303
 20
3.492191833825235
 30
0.0
 10
87.85376197434856
 20
4.043488640755351
 30
0.0
 10
86.69791903454816
 20
4.649351405891792
 30
0.0
 10
86.14812568687766
 20
4.937538759383603
 30
0.0
  0
SPLINE
  5
96
330
1F
100
AcDbEntity
  8
0
  6
Continuous
 62
     1
370
    15
100
AcDbSpline
210
0.0
220
0.0
230
1.0
 70
     8
 71
     3
 72
     9
 73
     5
 74
     0
 42
0.000000001
 43
0.00000001
 40
0.0
 40
0.0
 40
0.0
 40
0.0
 40
0.5243563386810416
 40
1.0
 40
1.0
 40
1.0
 40
1.0
 10
21.59805761443988
 20
3.203146589648736
 30
0.0
 10
20.99201782724774
 20
3.49222008837581
 30
0.0
 10
19.83623931846387
 20
4.043512172408219
 30
0.0
 10
18.68040499085599
 20
4.649371041850847
 30
0.0
 10
18.13063971939443
 20
4.937543972755105
 30
0.0
  0
LINE
  5
97
330
1F
100
AcDbEntity
  8
0
  6
Continuous
 62
     1
370
    15
100
AcDbLine
 10
60.93152260450979
 20
12.50000000000001
 30
0.0
 11
54.87365670941546
 21
12.50000000000001
 31
0.0
  0
LINE
  5
98
330
1F
100
AcDbEntity
  8
0
  6
Continuous
 62
     1
370
    15
100
AcDbLine
 10
54.87365670941544
 20
-12.50000000000001
 30
0.0
 11
60.93152260450984
 21
-12.50000000000001
 31
0.0
  0
LINE
  5
99
330
1F
100
AcDbEntity
  8
0
  6
Continuous
 62
     1
370
    15
100
AcDbLine
 10
14.70464066339436
 20
3.509097757027865
 30
0.0
 11
14.55047942853356
 21
3.593732924797349
 31
0.0
  0
LINE
  5
9A
330
1F
100
AcDbEntity
  8
0
  6
Continuous
 62
   131
370
    15
100
AcDbLine
 10
82.70326573522992
 20
3.519217842003497
 30
0.0
 11
82.56785135496983
 21
3.593790682641834
 31
0.0
  0
SPLINE
  5
9B
330
1F
100
AcDbEntity
  8
0
  6
Continuous
 62
     1
370
    15
100
AcDbSpline
210
0.0
220
0.0
230
1.0
 70
     8
 71
     3
 72
    23
 73
    19
 74
     0
 42
0.000000001
 43
0.00000001
 40
0.0
 40
0.0
 40
0.0
 40
0.0
 40
0.069310194792796
 40
0.1196629646251208
 40
0.1697053165164168
 40
0.2233690606053012
 40
0.2912175046064381
 40
0.3521799692960239
 40
0.4067142071825495
 40
0.4573614887688825
 40
0.50543922463846
 40
0.6180177351404708
 40
0.7233157964712871
 40
0.7549654470844244
 40
0.7950657932051444
 40
0.8492081461671113
 40
0.9175020211519517
 40
1.0
 40
1.0
 40
1.0
 40
1.0
 10
66.68293554035598
 20
-10.40175567738365
 30
0.0
 10
67.11796232353575
 20
-10.35939656254614
 30
0.0
 10
67.8690292440984
 20
-10.28626421490947
 30
0.0
 10
68.9331048876827
 20
-10.19388921262818
 30
0.0
 10
69.89198061269863
 20
-10.11719074317832
 30
0.0
 10
70.96898713908007
 20
-10.03934300981477
 30
0.0
 10
72.11685861011738
 20
-9.966490158787751
 30
0.0
 10
73.2728685107229
 20
-9.904603448463975
 30
0.0
 10
74.323245169263
 20
-9.857538626324825
 30
0.0
 10
75.28303224425235
 20
-9.8228405988076
 30
0.0
 10
76.58586706598022
 20
-9.785818503788708
 30
0.0
 10
78.26237639996305
 20
-9.759330445553227
 30
0.0
 10
79.79486320417863
 20
-9.760555629777807
 30
0.0
 10
80.9160638546082
 20
-9.774749504838036
 30
0.0
 10
81.71034223600937
 20
-9.789175272861026
 30
0.0
 10
82.73220591836468
 20
-9.81553888547991
 30
0.0
 10
84.01916015107722
 20
-9.860125540869527
 30
0.0
 10
84.9661444000121
 20
-9.907223841481718
 30
0.0
 10
85.48423794785485
 20
-9.932991245415815
 30
0.0
  0
SPLINE
  5
9C
330
1F
100
AcDbEntity
  8
0
  6
Continuous
 62
     1
370
    15
100
AcDbSpline
210
0.0
220
0.0
230
1.0
 70
     8
 71
     3
 72
     9
 73
     5
 74
     0
 42
0.000000001
 43
0.00000001
 40
0.0
 40
0.0
 40
0.0
 40
0.0
 40
0.5124830497658308
 40
1.0
 40
1.0
 40
1.0
 40
1.0
 10
17.46682351931149
 20
9.932994540843902
 30
0.0
 10
16.52833604272032
 20
9.888260990077047
 30
0.0
 10
14.69708040017762
 20
9.800973126044676
 30
0.0
 10
12.88393776691012
 20
9.776987608970389
 30
0.0
 10
12.0
 20
9.765294262836544
 30
0.0
  0
SPLINE
  5
9D
330
1F
100
AcDbEntity
  8
0
  6
Continuous
 62
     1
370
    15
100
AcDbSpline
210
0.0
220
0.0
230
1.0
 70
     8
 71
     3
 72
     9
 73
     5
 74
     0
 42
0.000000001
 43
0.00000001
 40
0.0
 40
0.0
 40
0.0
 40
0.0
 40
0.4875169502341694
 40
1.0
 40
1.0
 40
1.0
 40
1.0
 10
12.0
 20
-9.765294262836536
 30
0.0
 10
12.88393776691012
 20
-9.776987608970382
 30
0.0
 10
14.69708040017762
 20
-9.800973126044669
 30
0.0
 10
16.52833604272032
 20
-9.888260990077038
 30
0.0
 10
17.46682351931149
 20
-9.932994540843891
 30
0.0
  0
SPLINE
  5
9E
330
1F
100
AcDbEntity
  8
0
  6
Continuous
 62
     1
370
    15
100
AcDbSpline
210
0.0
220
0.0
230
1.0
 70
     8
 71
     3
 72
    16
 73
    12
 74
     0
 42
0.000000001
 43
0.00000001
 40
0.0
 40
0.0
 40
0.0
 40
0.0
 40
0.1344722226191118
 40
0.2364119490960284
 40
0.3063333188805217
 40
0.3680061702338991
 40
0.4327379186546148
 40
0.5008354051737708
 40
0.689789895081079
 40
0.9022322855096471
 40
1.0
 40
1.0
 40
1.0
 40
1.0
 10
85.48423794785488
 20
9.932991245415833
 30
0.0
 10
85.02557140394626
 20
9.9099757542291
 30
0.0
 10
84.21920225559276
 20
9.869512846537969
 30
0.0
 10
83.17454381358709
 20
9.830661996416394
 30
0.0
 10
82.37532059880854
 20
9.80622040647071
 30
0.0
 10
81.7027678134546
 20
9.78962960791829
 30
0.0
 10
81.03752992869974
 20
9.776863334352067
 30
0.0
 10
79.9381604067636
 20
9.762023756244677
 30
0.0
 10
78.3348008535024
 20
9.7591728527028
 30
0.0
 10
76.62964430259298
 20
9.7821533750987
 30
0.0
 10
75.57022271346936
 20
9.816942869859828
 30
0.0
 10
75.23632892404098
 20
9.827907339866243
 30
0.0
  0
SPLINE
  5
9F
330
1F
100
AcDbEntity
  8
0
  6
Continuous
 62
     1
370
    15
100
AcDbSpline
210
0.0
220
0.0
230
1.0
 70
     8
 71
     3
 72
    17
 73
    13
 74
     0
 42
0.000000001
 43
0.00000001
 40
0.0
 40
0.0
 40
0.0
 40
0.0
 40
0.1534577280928156
 40
0.2795688152166323
 40
0.3779203490508442
 40
0.4429278647823274
 40
0.5093962024500992
 40
0.6120265088819156
 40
0.7356993476724003
 40
0.8350591599794429
 40
0.9426117913019223
 40
1.0
 40
1.0
 40
1.0
 40
1.0
 10
95.51905053668797
 20
-9.401673696286437
 30
0.0
 10
95.97792880449732
 20
-9.330526646489954
 30
0.0
 10
96.81391181593958
 20
-9.200911170847496
 30
0.0
 10
98.0100057182026
 20
-9.036680400950841
 30
0.0
 10
98.93586194962099
 20
-8.919275184714415
 30
0.0
 10
99.66264817456755
 20
-8.832082191648196
 30
0.0
 10
100.3832320260746
 20
-8.750766836558645
 30
0.0
 10
101.2956702571575
 20
-8.654953864352303
 30
0.0
 10
102.3077411895704
 20
-8.560589647684674
 30
0.0
 10
103.3368440618745
 20
-8.477077699849962
 30
0.0
 10
104.1602877113397
 20
-8.4168232047646
 30
0.0
 10
104.6737765420499
 20
-8.387771098881736
 30
0.0
 10
104.8524357763382
 20
-8.377662939402756
 30
0.0
  0
SPLINE
  5
A0
330
1F
100
AcDbEntity
  8
0
  6
Continuous
 62
     1
370
    15
100
AcDbSpline
210
0.0
220
0.0
230
1.0
 70
     8
 71
     3
 72
    27
 73
    23
 74
     0
 42
0.000000001
 43
0.00000001
 40
0.0
 40
0.0
 40
0.0
 40
0.0
 40
0.0662072407499272
 40
0.1176479518066075
 40
0.1557698768045747
 40
0.197255127076565
 40
0.2470066198647084
 40
0.2987518502908967
 40
0.3440981453624987
 40
0.3856780017800928
 40
0.4218925911236722
 40
0.4530958096303688
 40
0.4923751457771427
 40
0.5799097973135411
 40
0.6476395168356839
 40
0.7157195054922982
 40
0.7647725836733794
 40
0.819984459702788
 40
0.8503976483884544
 40
0.8862301405315417
 40
0.9359415821137494
 40
0.9999999999999999
 40
0.9999999999999999
 40
0.9999999999999999
 40
0.9999999999999999
 10
49.33832849682665
 20
8.549404800760291
 30
0.0
 10
48.8622128722118
 20
8.51058158012589
 30
0.0
 10
48.01617205515628
 20
8.441594074553429
 30
0.0
 10
46.88916381940885
 20
8.37033831865861
 30
0.0
 10
45.92199508900185
 20
8.31972413403409
 30
0.0
 10
44.97164682203608
 20
8.279748932175503
 30
0.0
 10
43.92888604167461
 20
8.247924319226867
 30
0.0
 10
42.86113959004796
 20
8.229165540059178
 30
0.0
 10
41.85198802228189
 20
8.22408562479917
 30
0.0
 10
40.95575983901904
 20
8.229571341134529
 30
0.0
 10
40.16368928879238
 20
8.24233412052763
 30
0.0
 10
39.39185460971031
 20
8.261444900731998
 30
0.0
 10
38.24101328440589
 20
8.300253000634441
 30
0.0
 10
36.81830084987747
 20
8.371106323466204
 30
0.0
 10
35.19501210725851
 20
8.483946160102391
 30
0.0
 10
33.84189249271205
 20
8.60003646227906
 30
0.0
 10
32.58368876911579
 20
8.726036732736256
 30
0.0
 10
31.61228631109316
 20
8.835343282294051
 30
0.0
 10
30.71818552090018
 20
8.944194014600983
 30
0.0
 10
29.86548015616341
 20
9.05439127811477
 30
0.0
 10
28.78284696142955
 20
9.204607494867844
 30
0.0
 10
27.96310818075495
 20
9.33068751244346
 30
0.0
 10
27.5015521094426
 20
9.401677197151681
 30
0.0
  0
SPLINE
  5
A1
330
1F
100
AcDbEntity
  8
0
  6
Continuous
 62
     1
370
    15
100
AcDbSpline
210
0.0
220
0.0
230
1.0
 70
     8
 71
     3
 72
    19
 73
    15
 74
     0
 42
0.000000001
 43
0.00000001
 40
0.0
 40
0.0
 40
0.0
 40
0.0
 40
0.1301289323280516
 40
0.2301797582811933
 40
0.3124682493800995
 40
0.3833175148141481
 40
0.4592415799749313
 40
0.5513107863377876
 40
0.6473549022993501
 40
0.719856579141687
 40
0.7763545003698253
 40
0.8642496310269654
 40
0.9719458434564352
 40
1.0
 40
1.0
 40
1.0
 40
1.0
 10
27.5015521094426
 20
-9.40167719715167
 30
0.0
 10
27.87577165601754
 20
-9.342784690864448
 30
0.0
 10
28.5377133413421
 20
-9.238612139693494
 30
0.0
 10
29.53843529904573
 20
-9.097990220824942
 30
0.0
 10
30.34956005918955
 20
-8.99157904480957
 30
0.0
 10
31.06747471831495
 20
-8.901085260034177
 30
0.0
 10
31.79165316830864
 20
-8.8148962647071
 30
0.0
 10
32.62536183251607
 20
-8.722500884345186
 30
0.0
 10
33.44946456732527
 20
-8.639169892328228
 30
0.0
 10
34.15929286053188
 20
-8.573532627722779
 30
0.0
 10
34.83333736848115
 20
-8.515794072682045
 30
0.0
 10
35.61749199390493
 20
-8.454960244588143
 30
0.0
 10
36.31118112814439
 20
-8.40614103484569
 30
0.0
 10
36.73460204604055
 20
-8.382292372051559
 30
0.0
 10
36.82210616705578
 20
-8.3773638099825
 30
0.0
  0
SPLINE
  5
A2
330
1F
100
AcDbEntity
  8
0
  6
Continuous
 62
     1
370
    15
100
AcDbSpline
210
0.0
220
0.0
230
1.0
 70
     8
 71
     3
 72
    27
 73
    23
 74
     0
 42
0.000000001
 43
0.00000001
 40
0.0
 40
0.0
 40
0.0
 40
0.0
 40
0.055645483322678
 40
0.0995932891631577
 40
0.1317866461353359
 40
0.1975890297493608
 40
0.2782572395870516
 40
0.3450656791614052
 40
0.4036340609502314
 40
0.4670053644360455
 40
0.5434750346477432
 40
0.5891329977749578
 40
0.6295443625712297
 40
0.6650901875503507
 40
0.7046874184636699
 40
0.7522385348391206
 40
0.791759243083826
 40
0.8156154582385824
 40
0.8444994293272764
 40
0.8860278177162315
 40
0.9377678183420219
 40
1.0
 40
1.0
 40
1.0
 40
1.0
 10
117.3561881698595
 20
8.549437778268803
 30
0.0
 10
116.9499912376536
 20
8.51607931084654
 30
0.0
 10
116.2229872454018
 20
8.456374923470479
 30
0.0
 10
115.262572492723
 20
8.392740258513765
 30
0.0
 10
114.2293790411587
 20
8.333079726081916
 30
0.0
 10
112.9241876618944
 20
8.274366153151352
 30
0.0
 10
111.3662821762103
 20
8.23320749781778
 30
0.0
 10
109.86969958017
 20
8.22219601944394
 30
0.0
 10
108.4976979438694
 20
8.23404888248604
 30
0.0
 10
107.0518229621085
 20
8.269342225324015
 30
0.0
 10
105.7036625489708
 20
8.32618289737327
 30
0.0
 10
104.5206608769174
 20
8.394213736221193
 30
0.0
 10
103.6350228841014
 20
8.454870487989856
 30
0.0
 10
102.7938765829401
 20
8.52017792075432
 30
0.0
 10
101.9015240406519
 20
8.597560670346969
 30
0.0
 10
100.9811468619301
 20
8.686953656239348
 30
0.0
 10
100.1736178037132
 20
8.774062843964217
 30
0.0
 10
99.51003116890521
 20
8.849995311687685
 30
0.0
 10
98.80842328624391
 20
8.935225541956543
 30
0.0
 10
97.89606268999378
 20
9.051708799007848
 30
0.0
 10
96.75023123043015
 20
9.210724706899805
 30
0.0
 10
95.95388120076896
 20
9.334233980668255
 30
0.0
 10
95.51905053668797
 20
9.401673696286458
 30
0.0
  0
LINE
  5
A3
330
1F
100
AcDbEntity
  8
0
  6
Continuous
 62
   131
370
    15
100
AcDbLine
 10
8.949955738985025
 20
12.5
 30
0.0
 11
-76.99999999999999
 21
12.5
 31
0.0
  0
LINE
  5
A4
330
1F
100
AcDbEntity
  8
0
  6
Continuous
 62
   131
370
    15
100
AcDbLine
 10
-76.99999999999999
 20
-12.5
 30
0.0
 11
8.949955738985025
 21
-12.5
 31
0.0
  0
LINE
  5
A5
330
1F
100
AcDbEntity
  8
0
  6
Continuous
 62
   131
370
    15
100
AcDbLine
 10
-76.99999999999999
 20
12.5
 30
0.0
 11
-77.99999999999999
 21
11.49999999999999
 31
0.0
  0
LINE
  5
A6
330
1F
100
AcDbEntity
  8
0
  6
Continuous
 62
   131
370
    15
100
AcDbLine
 10
-77.99999999999999
 20
-11.5
 30
0.0
 11
-76.99999999999999
 21
-12.5
 31
0.0
  0
SPLINE
  5
A7
330
1F
100
AcDbEntity
  8
0
  6
Continuous
 62
   131
370
    15
100
AcDbSpline
210
0.0
220
0.0
230
1.0
 70
     8
 71
     3
 72
     9
 73
     5
 74
     0
 42
0.000000001
 43
0.00000001
 40
0.0
 40
0.0
 40
0.0
 40
0.0
 40
0.4388970286754563
 40
1.0
 40
1.0
 40
1.0
 40
1.0
 10
12.00000000000001
 20
9.765294262836544
 30
0.0
 10
11.55388409336065
 20
9.763115284449324
 30
0.0
 10
10.53743632203331
 20
9.758150615643533
 30
0.0
 10
9.508766043784041
 20
9.773320952468824
 30
0.0
 10
8.931576094145134
 20
9.781833073537488
 30
0.0
  0
SPLINE
  5
A8
330
1F
100
AcDbEntity
  8
0
  6
Continuous
 62
   131
370
    15
100
AcDbSpline
210
0.0
220
0.0
230
1.0
 70
     8
 71
     3
 72
     9
 73
     5
 74
     0
 42
0.000000001
 43
0.00000001
 40
0.0
 40
0.0
 40
0.0
 40
0.0
 40
0.4381402591826645
 40
1.0
 40
1.0
 40
1.0
 40
1.0
 10
8.931576094145134
 20
-9.781833073537475
 30
0.0
 10
9.379699461630885
 20
-9.77485599033449
 30
0.0
 10
10.40248464992129
 20
-9.7589316760156
 30
0.0
 10
11.42531359437102
 20
-9.763005400854432
 30
0.0
 10
12.00000000000002
 20
-9.765294262836536
 30
0.0
  0
SPLINE
  5
A9
330
1F
100
AcDbEntity
  8
0
  6
Continuous
 62
     1
370
    15
100
AcDbSpline
210
0.0
220
0.0
230
1.0
 70
     8
 71
     3
 72
    23
 73
    19
 74
     0
 42
0.000000001
 43
0.00000001
 40
0.0
 40
0.0
 40
0.0
 40
0.0
 40
0.0661003347262121
 40
0.1322128486335413
 40
0.198333372403793
 40
0.2644577193723938
 40
0.3305816945853139
 40
0.3967011038948415
 40
0.462811763051581
 40
0.5289100193077277
 40
0.5950128149624418
 40
0.6611270526943871
 40
0.7272485594545625
 40
0.7933731464476832
 40
0.8594966181990862
 40
0.9256147816529471
 40
0.9917234552591572
 40
1.0
 40
1.0
 40
1.0
 40
1.0
 10
122.0
 20
-11.86176086539873
 30
0.0
 10
120.6545209302232
 20
-11.57685745327736
 30
0.0
 10
117.9633148821929
 20
-11.00699813474283
 30
0.0
 10
113.9260167399724
 20
-9.660424014842802
 30
0.0
 10
109.8881462077367
 20
-8.008333887918843
 30
0.0
 10
105.8499922137235
 20
-6.070580240394507
 30
0.0
 10
101.8118650799552
 20
-3.92443839497134
 30
0.0
 10
97.77407726527622
 20
-1.641694856401791
 30
0.0
 10
93.73690049077454
 20
0.6976753467554972
 30
0.0
 10
89.70029198299096
 20
3.013077804137614
 30
0.0
 10
85.66351099881496
 20
5.223923491919376
 30
0.0
 10
81.6260927944465
 20
7.25341360950134
 30
0.0
 10
77.58814850551528
 20
9.032309945269466
 30
0.0
 10
73.54997781511118
 20
10.49493154245336
 30
0.0
 10
69.51188578983277
 20
11.60511317037352
 30
0.0
 10
65.47419538820753
 20
12.26988618968765
 30
0.0
 10
62.61410566135986
 20
12.55297079193704
 30
0.0
 10
61.09999195998915
 20
12.48392529509701
 30
0.0
 10
60.9315226045098
 20
12.47624287974018
 30
0.0
  0
SPLINE
  5
AA
330
1F
100
AcDbEntity
  8
0
  6
Continuous
 62
     1
370
    15
100
AcDbSpline
210
0.0
220
0.0
230
1.0
 70
     8
 71
     3
 72
    14
 73
    10
 74
     0
 42
0.000000001
 43
0.00000001
 40
0.0
 40
0.0
 40
0.0
 40
0.0
 40
0.1449614394579777
 40
0.2899952287097424
 40
0.4349773055697772
 40
0.579920116370704
 40
0.7249504613900322
 40
0.8699497507190577
 40
1.0
 40
1.0
 40
1.0
 40
1.0
 10
122.0
 20
-9.862153304602682
 30
0.0
 10
120.4302264712965
 20
-9.530341021147905
 30
0.0
 10
117.2898959449097
 20
-8.866550847782085
 30
0.0
 10
112.5789355213399
 20
-7.328919016778804
 30
0.0
 10
107.8686150226464
 20
-5.478989268843447
 30
0.0
 10
103.158708071637
 20
-3.360056213740879
 30
0.0
 10
98.44780787106174
 20
-1.090132981659744
 30
0.0
 10
93.8985065790658
 20
1.165818193815122
 30
0.0
 10
90.92008666286814
 20
2.578185435434425
 30
0.0
 10
89.51181579456431
 20
3.245987725803985
 30
0.0
  0
LINE
  5
AB
330
1F
100
AcDbEntity
  8
0
  6
Continuous
 62
     1
370
    15
100
AcDbLine
 10
121.9999999999994
 20
-11.86176086539875
 30
0.0
 11
122.0
 21
-9.862153304602682
 31
0.0
  0
SPLINE
  5
AC
330
1F
100
AcDbEntity
  8
0
  6
Continuous
 62
     1
370
    15
100
AcDbSpline
210
0.0
220
0.0
230
1.0
 70
     8
 71
     3
 72
    23
 73
    19
 74
     0
 42
0.000000001
 43
0.00000001
 40
0.0
 40
0.0
 40
0.0
 40
0.0
 40
0.0267685187941968
 40
0.0906193869487483
 40
0.1544651292471174
 40
0.2183017078552702
 40
0.2821270844979116
 40
0.3459602377340515
 40
0.40980372727301
 40
0.4736535201598582
 40
0.5375055697819081
 40
0.601355824632347
 40
0.6677974406470197
 40
0.7342191247941026
 40
0.8006486995669999
 40
0.8670954724224692
 40
0.9335492973481054
 40
1.0
 40
1.0
 40
1.0
 40
1.0
 10
75.2429032005494
 20
-9.825535922639554
 30
0.0
 10
74.67858772640079
 20
-10.03544121673584
 30
0.0
 10
72.76821223247823
 20
-10.74603298367463
 30
0.0
 10
69.51188677131252
 20
-11.58512553175802
 30
0.0
 10
65.47419027587969
 20
-12.30018138768519
 30
0.0
 10
61.43712926484413
 20
-12.56829371869248
 30
0.0
 10
57.40056433453791
 20
-12.40608216390853
 30
0.0
 10
53.36368226225026
 20
-11.81224886903709
 30
0.0
 10
49.32615092448534
 20
-10.80922765423663
 30
0.0
 10
45.28814708893525
 20
-9.431234660852429
 30
0.0
 10
41.24995370995521
 20
-7.726183919289911
 30
0.0
 10
37.1572128680441
 20
-5.726508538171329
 30
0.0
 10
33.01011347294258
 20
-3.49103172572767
 30
0.0
 10
28.80911508313233
 20
-1.094913441515857
 30
0.0
 10
24.60780180268767
 20
1.343607522673559
 30
0.0
 10
20.40555926946714
 20
3.72588414636766
 30
0.0
 10
16.20278004970307
 20
5.989794192163954
 30
0.0
 10
13.40090474211407
 20
7.295905788574858
 30
0.0
 10
11.99999999999631
 20
7.948946244797553
 30
0.0
  0
SPLINE
  5
AD
330
1F
100
AcDbEntity
  8
0
  6
Continuous
 62
     1
370
    15
100
AcDbSpline
210
0.0
220
0.0
230
1.0
 70
     8
 71
     3
 72
    18
 73
    14
 74
     0
 42
0.000000001
 43
0.00000001
 40
0.0
 40
0.0
 40
0.0
 40
0.0
 40
0.0270422887746748
 40
0.1312519895082661
 40
0.2355104255932346
 40
0.3397911177958367
 40
0.4440088358666245
 40
0.5482549079616043
 40
0.652538088952041
 40
0.7567691749759088
 40
0.8610004204369256
 40
0.9652836137219404
 40
1.0
 40
1.0
 40
1.0
 40
1.0
 10
66.69592954346528
 20
-10.35351318820186
 30
0.0
 10
66.28861908434844
 20
-10.4083483952631
 30
0.0
 10
64.3117040180217
 20
-10.6744956168187
 30
0.0
 10
60.76509635929866
 20
-10.66039304644274
 30
0.0
 10
56.05456265074462
 20
-10.28186431935759
 30
0.0
 10
51.34368205440454
 20
-9.380679714391063
 30
0.0
 10
46.63377127691556
 20
-8.046771864413719
 30
0.0
 10
41.92344899713465
 20
-6.330859159616971
 30
0.0
 10
37.21249665356321
 20
-4.31853029978879
 30
0.0
 10
32.50236339529756
 20
-2.099251681755377
 30
0.0
 10
27.79237184438053
 20
0.2111414217031773
 30
0.0
 10
24.12837158469113
 20
2.022084472309175
 30
0.0
 10
22.0352233704971
 20
2.98936120579567
 30
0.0
 10
21.5124409119486
 20
3.23094720787605
 30
0.0
  0
SPLINE
  5
AE
330
1F
100
AcDbEntity
  8
0
  6
Continuous
 62
     1
370
    15
100
AcDbSpline
210
0.0
220
0.0
230
1.0
 70
     8
 71
     3
 72
    31
 73
    27
 74
     0
 42
0.000000001
 43
0.00000001
 40
0.0
 40
0.0
 40
0.0
 40
0.0
 40
0.0130274872275813
 40
0.0555591317033159
 40
0.0977973368937914
 40
0.1403287091315017
 40
0.1825664870345828
 40
0.2250974270142149
 40
0.2673346187903842
 40
0.3098649661365104
 40
0.3521014132629543
 40
0.3946310079128078
 40
0.436866552282734
 40
0.4793952345843285
 40
0.521629718608792
 40
0.5641573294216317
 40
0.606390596137814
 40
0.6489169769402287
 40
0.6911488701270952
 40
0.7336738631311498
 40
0.7759042274332792
 40
0.8184276757080802
 40
0.8629376464240206
 40
0.907791047225104
 40
0.9537067518951036
 40
1.0
 40
1.0
 40
1.0
 40
1.0
 10
36.82338172146989
 20
8.377923903110613
 30
0.0
 10
37.19325739187443
 20
8.542843798611441
 30
0.0
 10
38.7706890735844
 20
9.246187892108491
 30
0.0
 10
41.54738311999792
 20
10.24334356605258
 30
0.0
 10
45.16169393855883
 20
11.31859815892251
 30
0.0
 10
48.76772610224479
 20
12.06133676376769
 30
0.0
 10
52.38200532842757
 20
12.47523329730187
 30
0.0
 10
55.98799590073863
 20
12.5413537026857
 30
0.0
 10
59.60222942350493
 20
12.25967071620382
 30
0.0
 10
63.20816483524256
 20
11.63885947016278
 30
0.0
 10
66.82233902262347
 20
10.69348047319807
 30
0.0
 10
70.42820560916687
 20
9.453955277505907
 30
0.0
 10
74.04230689631875
 20
7.949138249024685
 30
0.0
 10
77.64809102286978
 20
6.227490032277513
 30
0.0
 10
81.26210589328176
 20
4.32907116016081
 30
0.0
 10
84.86779395786827
 20
2.315013036254641
 30
0.0
 10
88.48170900466167
 20
0.2321721570474987
 30
0.0
 10
92.08728724475276
 20
-1.852387113049177
 30
0.0
 10
95.70108993849949
 20
-3.890186536043345
 30
0.0
 10
99.30654160346775
 20
-5.815580467907902
 30
0.0
 10
102.9202308633586
 20
-7.583957538662183
 30
0.0
 10
106.5902666955484
 20
-9.165688991314429
 30
0.0
 10
110.3349823697285
 20
-10.51145124424496
 30
0.0
 10
114.175942911227
 20
-11.55735052561089
 30
0.0
 10
118.0675970984171
 20
-12.27653764767407
 30
0.0
 10
120.6856259177466
 20
-12.41827589685487
 30
0.0
 10
121.9999999999993
 20
-12.49999999999959
 30
0.0
  0
LINE
  5
AF
330
1F
100
AcDbEntity
  8
0
  6
Continuous
 62
   131
370
    15
100
AcDbLine
 10
121.9999999999993
 20
-12.49999999999959
 30
0.0
 11
121.9999999999988
 21
-11.86176086539872
 31
0.0
  0
SPLINE
  5
B0
330
1F
100
AcDbEntity
  8
0
  6
Continuous
 62
     1
370
    15
100
AcDbSpline
210
0.0
220
0.0
230
1.0
 70
     8
 71
     3
 72
    19
 73
    15
 74
     0
 42
0.000000001
 43
0.00000001
 40
0.0
 40
0.0
 40
0.0
 40
0.0
 40
0.0916444099540996
 40
0.1840487666494822
 40
0.268000648356399
 40
0.3525357384457505
 40
0.4364515727975549
 40
0.5209498587170082
 40
0.6048652693026297
 40
0.6893631233401017
 40
0.7732779999216036
 40
0.8577753131022825
 40
0.941689340789548
 40
1.0
 40
1.0
 40
1.0
 40
1.0
 10
12.00000000000001
 20
4.975466748566366
 30
0.0
 10
13.30976546465974
 20
4.265979767778977
 30
0.0
 10
15.9401574164596
 20
2.841122497890007
 30
0.0
 10
19.77062006149355
 20
0.6320698090718748
 30
0.0
 10
23.49888950856343
 20
-1.52413731485739
 30
0.0
 10
27.10604509830684
 20
-3.570789325396961
 30
0.0
 10
30.72090859462001
 20
-5.521821817087479
 30
0.0
 10
34.32699038824639
 20
-7.31531316092607
 30
0.0
 10
37.94132279133238
 20
-8.909877837798616
 30
0.0
 10
41.54738266247056
 20
-10.25305964807656
 30
0.0
 10
45.16169414807402
 20
-11.31798628734219
 30
0.0
 10
48.767725722165
 20
-12.05396972690959
 30
0.0
 10
52.00778795916173
 20
-12.45842348312885
 30
0.0
 10
54.04033381008086
 20
-12.46139299114969
 30
0.0
 10
54.87365670941544
 20
-12.46261045890442
 30
0.0
  0
SPLINE
  5
B1
330
1F
100
AcDbEntity
  8
0
  6
Continuous
 62
     1
370
    15
100
AcDbSpline
210
0.0
220
0.0
230
1.0
 70
     8
 71
     3
 72
    12
 73
     8
 74
     0
 42
0.000000001
 43
0.00000001
 40
0.0
 40
0.0
 40
0.0
 40
0.0
 40
0.0981261818686309
 40
0.3192082073978235
 40
0.5419960578833025
 40
0.770060395575803
 40
1.0
 40
1.0
 40
1.0
 40
1.0
 10
104.8511948098217
 20
8.37713046026355
 30
0.0
 10
105.4120927555892
 20
8.622955566619215
 30
0.0
 10
107.2367151386472
 20
9.42263400145553
 30
0.0
 10
110.3349859433683
 20
10.50276451944504
 30
0.0
 10
114.1759419301184
 20
11.5597353826547
 30
0.0
 10
118.067597348457
 20
12.27592985631002
 30
0.0
 10
120.6856260013204
 20
12.41807274747362
 30
0.0
 10
121.9999999999994
 20
12.50000000000042
 30
0.0
  0
LINE
  5
B2
330
1F
100
AcDbEntity
  8
0
  6
Continuous
 62
   131
370
    15
100
AcDbLine
 10
12.0
 20
4.975466748566365
 30
0.0
 11
12.0
 21
7.948946244789878
 31
0.0
  0
SPLINE
  5
B3
330
1F
100
AcDbEntity
  8
0
  6
Continuous
 62
     1
370
    15
100
AcDbSpline
210
0.0
220
0.0
230
1.0
 70
    24
 71
     3
 72
    10
 73
     6
 74
     0
 42
0.000000001
 43
0.00000001
 40
0.0
 40
0.0
 40
0.0
 40
0.0
 40
0.5
 40
0.5
 40
1.0
 40
1.0
 40
1.0
 40
1.0
 10
122.0
 20
8.750000000000018
 30
0.0
 10
122.0
 20
9.28040321009144
 30
0.0
 10
122.0
 20
9.896780860838984
 30
0.0
 10
122.0
 20
11.18993951201072
 30
0.0
 10
122.0
 20
11.86341794751843
 30
0.0
 10
121.9999999999994
 20
12.50000000000042
 30
0.0
  0
LINE
  5
B4
330
1F
100
AcDbEntity
  8
0
  6
Continuous
 62
     1
370
    15
100
AcDbLine
 10
122.0
 20
8.750000000000018
 30
0.0
 11
117.3553440417608
 21
8.546593646906992
 31
0.0
  0
SPLINE
  5
B5
330
1F
100
AcDbEntity
  8
0
  6
Continuous
 62
     1
370
    15
100
AcDbSpline
210
0.0
220
0.0
230
1.0
 70
     8
 71
     3
 72
    10
 73
     6
 74
     0
 42
0.000000001
 43
0.00000001
 40
0.0
 40
0.0
 40
0.0
 40
0.0
 40
0.3245152328941205
 40
0.6622588163909905
 40
1.0
 40
1.0
 40
1.0
 40
1.0
 10
22.93617466830535
 20
-1.193301183256564
 30
0.0
 10
21.75318866111148
 20
-0.7170739217197947
 30
0.0
 10
19.33899409173997
 20
0.2547932530373428
 30
0.0
 10
15.69360222610446
 20
1.731153560505044
 30
0.0
 10
13.2311978258603
 20
2.677006117651266
 30
0.0
 10
12.00000000000001
 20
3.149930715993986
 30
0.0
  0
SPLINE
  5
B6
330
1F
100
AcDbEntity
  8
0
  6
Continuous
 62
   131
370
    15
100
AcDbSpline
210
0.0
220
0.0
230
1.0
 70
    24
 71
     3
 72
    10
 73
     6
 74
     0
 42
0.000000001
 43
0.00000001
 40
0.0
 40
0.0
 40
0.0
 40
0.0
 40
0.5
 40
0.5
 40
1.0
 40
1.0
 40
1.0
 40
1.0
 10
12.0
 20
4.975466748566365
 30
0.0
 10
12.0
 20
4.899547199548476
 30
0.0
 10
12.0
 20
4.692547648959147
 30
0.0
 10
12.0
 20
4.054785586335587
 30
0.0
 10
12.0
 20
3.626569132222245
 30
0.0
 10
12.0
 20
3.149930715993992
 30
0.0
  0
SPLINE
  5
B7
330
1F
100
AcDbEntity
  8
0
  6
Continuous
 62
     1
370
    15
100
AcDbSpline
210
0.0
220
0.0
230
1.0
 70
     8
 71
     3
 72
    17
 73
    13
 74
     0
 42
0.000000001
 43
0.00000001
 40
0.0
 40
0.0
 40
0.0
 40
0.0
 40
0.0455418350073441
 40
0.1588064729569567
 40
0.2720626660705429
 40
0.3852495926948385
 40
0.4985058330183452
 40
0.6117704372246398
 40
0.7249603768366596
 40
0.8382054252265876
 40
0.9514756430808312
 40
1.0
 40
1.0
 40
1.0
 40
1.0
 10
90.92276623359622
 20
-1.173636584955406
 30
0.0
 10
90.29131163090788
 20
-0.9226142772786887
 30
0.0
 10
88.08940039326885
 20
-0.0472879469007599
 30
0.0
 10
84.31674625192848
 20
1.491863885035192
 30
0.0
 10
79.60615977619746
 20
3.329760427426367
 30
0.0
 10
74.89625529499789
 20
5.015446020847035
 30
0.0
 10
70.18566249384014
 20
6.462912481810543
 30
0.0
 10
65.47496489838065
 20
7.604371976029928
 30
0.0
 10
60.76503102672842
 20
8.394228279926942
 30
0.0
 10
56.05457005122987
 20
8.764030534272406
 30
0.0
 10
52.24059643325185
 20
8.800894431838485
 30
0.0
 10
49.99723719036242
 20
8.568588195848614
 30
0.0
 10
49.32442374929164
 20
8.498916448662357
 30
0.0
  0
SPLINE
  5
B8
330
1F
100
AcDbEntity
  8
0
  6
Continuous
 62
     1
370
    15
100
AcDbSpline
210
0.0
220
0.0
230
1.0
 70
     8
 71
     3
 72
    10
 73
     6
 74
     0
 42
0.000000001
 43
0.00000001
 40
0.0
 40
0.0
 40
0.0
 40
0.0
 40
0.5
 40
0.5
 40
1.0
 40
1.0
 40
1.0
 40
1.0
 10
122.0
 20
-3.340536825370543
 30
0.0
 10
121.1488828028069
 20
-2.671419553953046
 30
0.0
 10
120.3066580994793
 20
-1.984398767618584
 30
0.0
 10
118.6397424367718
 20
-0.5750560014869024
 30
0.0
 10
117.8150487555734
 20
0.1472604983948019
 30
0.0
 10
117.0000000000019
 20
0.8889954058057902
 30
0.0
  0
LINE
  5
B9
330
1F
100
AcDbEntity
  8
0
  6
Continuous
 62
     1
370
    15
100
AcDbLine
 10
117.0
 20
2.937719435296609
 30
0.0
 11
122.0
 21
0.0000000000000184
 31
0.0
  0
LINE
  5
BA
330
1F
100
AcDbEntity
  8
0
  6
Continuous
 62
     1
370
    15
100
AcDbLine
 10
122.0
 20
0.0000000000000184
 30
0.0
 11
122.0
 21
-3.340536825370543
 31
0.0
  0
SPLINE
  5
BB
330
1F
100
AcDbEntity
  8
0
  6
Continuous
 62
     1
370
    15
100
AcDbSpline
210
0.0
220
0.0
230
1.0
 70
     8
 71
     3
 72
    25
 73
    21
 74
     0
 42
0.000000001
 43
0.00000001
 40
0.0
 40
0.0
 40
0.0
 40
0.0
 40
0.0230904526123767
 40
0.0833948198361768
 40
0.1437379325476732
 40
0.2040766631960369
 40
0.2643794518422799
 40
0.3247182071106039
 40
0.3850613022249644
 40
0.4453656542406156
 40
0.5056986021205025
 40
0.5660446101324619
 40
0.6263536669102169
 40
0.6866793596273224
 40
0.7470268278786494
 40
0.8073437291433884
 40
0.8676607216337537
 40
0.9280081969197647
 40
0.9753202830189168
 40
0.9999999999999999
 40
0.9999999999999999
 40
0.9999999999999999
 40
0.9999999999999999
 10
95.53961267384558
 20
-9.34612599646701
 30
0.0
 10
94.93863191025426
 20
-9.454325079892488
 30
0.0
 10
92.76809487721907
 20
-9.845103174206276
 30
0.0
 10
89.02751755063191
 20
-10.05006651203814
 30
0.0
 10
84.31673882503641
 20
-9.939086826044639
 30
0.0
 10
79.60610844160912
 20
-9.331685856583848
 30
0.0
 10
74.89630203894816
 20
-8.291120440000112
 30
0.0
 10
70.18566565857049
 20
-6.858317868750434
 30
0.0
 10
65.47490887296776
 20
-5.103055746051989
 30
0.0
 10
60.76506892977535
 20
-3.105635405559113
 30
0.0
 10
56.05457717441882
 20
-0.9628958003727036
 30
0.0
 10
51.34372451087024
 20
1.22476045931627
 30
0.0
 10
46.63377931333562
 20
3.356137408557165
 30
0.0
 10
41.92345557993428
 20
5.328421894768234
 30
0.0
 10
37.21253753183711
 20
7.049348744854455
 30
0.0
 10
32.50239446955162
 20
8.437294658121006
 30
0.0
 10
27.79234596967314
 20
9.432778492545973
 30
0.0
 10
23.41988217021611
 20
9.924373488948888
 30
0.0
 10
19.97620203098867
 20
10.05599462957974
 30
0.0
 10
18.10272604263238
 20
9.937349152715171
 30
0.0
 10
17.46047435306215
 20
9.896675955700786
 30
0.0
  0
SPLINE
  5
BC
330
1F
100
AcDbEntity
  8
0
  6
Continuous
 62
   131
370
    15
100
AcDbSpline
210
0.0
220
0.0
230
1.0
 70
    24
 71
     3
 72
    11
 73
     7
 74
     0
 42
0.000000001
 43
0.00000001
 40
0.0
 40
0.0
 40
0.0
 40
0.0
 40
0.2855954639677016
 40
0.6301035366758783
 40
0.9327531245727801
 40
1.0
 40
1.0
 40
1.0
 40
1.0
 10
11.99999999999999
 20
9.74149260416365
 30
0.0
 10
11.99999999999999
 20
9.726201642360383
 30
0.0
 10
11.99999999999999
 20
9.692465500414857
 30
0.0
 10
11.99999999999999
 20
9.16474253851863
 30
0.0
 10
11.99999999999999
 20
8.608694306102196
 30
0.0
 10
11.99999999999999
 20
8.16774341331282
 30
0.0
 10
11.99999999999999
 20
8.087578900544973
 30
0.0
  0
SPLINE
  5
BD
330
1F
100
AcDbEntity
  8
0
  6
Continuous
 62
     1
370
    15
100
AcDbSpline
210
0.0
220
0.0
230
1.0
 70
     8
 71
     3
 72
    14
 73
    10
 74
     0
 42
0.000000001
 43
0.00000001
 40
0.0
 40
0.0
 40
0.0
 40
0.0
 40
0.1448689643743615
 40
0.2896842248490993
 40
0.4390634530100458
 40
0.5885341563191603
 40
0.7379724065347435
 40
0.8873399438421092
 40
1.0
 40
1.0
 40
1.0
 40
1.0
 10
117.0
 20
2.289109021582338
 30
0.0
 10
115.477706621676
 20
2.963511415184801
 30
0.0
 10
112.4336841894237
 20
4.312066196885729
 30
0.0
 10
107.8202743018934
 20
6.136379507922041
 30
0.0
 10
103.1586770801164
 20
7.705489409263078
 30
0.0
 10
98.44783500009623
 20
8.92869668144491
 30
0.0
 10
93.7373362459401
 20
9.71654202848335
 30
0.0
 10
89.41419793276073
 20
10.0720069333165
 30
0.0
 10
86.66071903069329
 20
9.943943341578308
 30
0.0
 10
85.47684719630338
 20
9.888881768687442
 30
0.0
  0
SPLINE
  5
BE
330
1F
100
AcDbEntity
  8
0
  6
Continuous
 62
     1
370
    15
100
AcDbSpline
210
0.0
220
0.0
230
1.0
 70
     8
 71
     3
 72
    11
 73
     7
 74
     0
 42
0.000000001
 43
0.00000001
 40
0.0
 40
0.0
 40
0.0
 40
0.0
 40
0.2853426388034126
 40
0.5235632294094785
 40
0.7617824389863773
 40
1.0
 40
1.0
 40
1.0
 40
1.0
 10
27.50589852614658
 20
-9.388036438592318
 30
0.0
 10
26.03081207167976
 20
-9.588727573543972
 30
0.0
 10
23.32423785971663
 20
-9.956967312160582
 30
0.0
 10
19.38726120226464
 20
-10.03747780626217
 30
0.0
 10
15.69358994538824
 20
-9.866168142471203
 30
0.0
 10
13.23119380834063
 20
-9.50842469177726
 30
0.0
 10
12.00000000000002
 20
-9.329553585361017
 30
0.0
  0
SPLINE
  5
BF
330
1F
100
AcDbEntity
  8
0
  6
Continuous
 62
     1
370
    15
100
AcDbSpline
210
0.0
220
0.0
230
1.0
 70
    24
 71
     3
 72
     8
 73
     4
 74
     0
 42
0.000000001
 43
0.00000001
 40
0.0
 40
0.0
 40
0.0
 40
0.0
 40
1.0
 40
1.0
 40
1.0
 40
1.0
 10
117.0
 20
0.8889954057935723
 30
0.0
 10
117.0
 20
1.361273205123769
 30
0.0
 10
117.0
 20
1.829117335839355
 30
0.0
 10
117.0
 20
2.28910902158233
 30
0.0
  0
SPLINE
  5
C0
330
1F
100
AcDbEntity
  8
0
  6
Continuous
 62
     1
370
    15
100
AcDbSpline
210
0.0
220
0.0
230
1.0
 70
    24
 71
     3
 72
    12
 73
     8
 74
     0
 42
0.000000001
 43
0.00000001
 40
0.0
 40
0.0
 40
0.0
 40
0.0
 40
0.5000000000000002
 40
0.5000000000000002
 40
0.7500000000000001
 40
0.7500000000000001
 40
1.0
 40
1.0
 40
1.0
 40
1.0
 10
122.0
 20
-9.862153304602678
 30
0.0
 10
122.0000000000001
 20
-9.106142362547542
 30
0.0
 10
122.0
 20
-8.150893548830838
 30
0.0
 10
122.0
 20
-6.48524737924532
 30
0.0
 10
122.0
 20
-5.892209210045255
 30
0.0
 10
121.9999999999999
 20
-4.651258470056874
 30
0.0
 10
122.0
 20
-4.003439931756144
 30
0.0
 10
122.0
 20
-3.34053682537094
 30
0.0
  0
SPLINE
  5
C1
330
1F
100
AcDbEntity
  8
0
  6
Continuous
 62
   131
370
    15
100
AcDbSpline
210
0.0
220
0.0
230
1.0
 70
    24
 71
     3
 72
    10
 73
     6
 74
     0
 42
0.000000001
 43
0.00000001
 40
0.0
 40
0.0
 40
0.0
 40
0.0
 40
0.4485064300415567
 40
0.9028358699980741
 40
1.0
 40
1.0
 40
1.0
 40
1.0
 10
12.00000000000001
 20
-9.329553585361017
 30
0.0
 10
12.0
 20
-9.437958571736495
 30
0.0
 10
11.99999999999999
 20
-9.656175978736359
 30
0.0
 10
12.0
 20
-9.792709092487879
 30
0.0
 10
12.0
 20
-9.749164455634892
 30
0.0
 10
12.0
 20
-9.741492604163644
 30
0.0
  0
SPLINE
  5
C2
330
1F
100
AcDbEntity
  8
0
  6
Continuous
 62
     1
370
    15
100
AcDbSpline
210
0.0
220
0.0
230
1.0
 70
    24
 71
     3
 72
    10
 73
     6
 74
     0
 42
0.000000001
 43
0.00000001
 40
0.0
 40
0.0
 40
0.0
 40
0.0
 40
0.5
 40
0.5
 40
1.0
 40
1.0
 40
1.0
 40
1.0
 10
117.0
 20
2.289109021582322
 30
0.0
 10
117.0
 20
3.285481301107076
 30
0.0
 10
117.0
 20
4.230412258055741
 30
0.0
 10
117.0
 20
5.890227061962099
 30
0.0
 10
117.0
 20
6.603509984791779
 30
0.0
 10
117.0
 20
7.154572845957861
 30
0.0
  0
SPLINE
  5
C3
330
1F
100
AcDbEntity
  8
0
  6
Continuous
 62
     1
370
    15
100
AcDbSpline
210
0.0
220
0.0
230
1.0
 70
     8
 71
     3
 72
     8
 73
     4
 74
     0
 42
0.000000001
 43
0.00000001
 40
0.0
 40
0.0
 40
0.0
 40
0.0
 40
1.0
 40
1.0
 40
1.0
 40
1.0
 10
122.0
 20
8.750000000000018
 30
0.0
 10
120.3190792401319
 20
8.294315489460118
 30
0.0
 10
118.651728911856
 20
7.766157559606864
 30
0.0
 10
117.0
 20
7.154572845957863
 30
0.0
  0
SPLINE
  5
C4
330
1F
100
AcDbEntity
  8
0
  6
Continuous
 62
   131
370
    15
100
AcDbSpline
210
0.0
220
0.0
230
1.0
 70
    24
 71
     3
 72
    14
 73
    10
 74
     0
 42
0.000000001
 43
0.00000001
 40
0.0
 40
0.0
 40
0.0
 40
0.0
 40
0.25
 40
0.25
 40
0.5
 40
0.5
 40
0.75
 40
0.75
 40
1.0
 40
1.0
 40
1.0
 40
1.0
 10
12.0
 20
3.149930715993992
 30
0.0
 10
12.0
 20
2.055681243701813
 30
0.0
 10
12.0
 20
0.9055107855559704
 30
0.0
 10
12.0
 20
-1.407213786170973
 30
0.0
 10
12.0
 20
-2.56866767550221
 30
0.0
 10
12.0
 20
-4.7866318332387
 30
0.0
 10
12.0
 20
-5.841960277611575
 30
0.0
 10
12.0
 20
-7.750312614230134
 30
0.0
 10
12.0
 20
-8.60280424484907
 30
0.0
 10
12.0
 20
-9.329553585361007
 30
0.0
  0
LINE
  5
C5
330
1F
100
AcDbEntity
  8
0
  6
Continuous
 62
     1
370
    15
100
AcDbLine
 10
122.0
 20
0.0000000000000184
 30
0.0
 11
122.0
 21
8.750000000000018
 31
0.0
  0
LINE
  5
C6
330
1F
100
AcDbEntity
  8
0
  6
Continuous
 62
   131
370
    15
100
AcDbLine
 10
8.949955738985032
 20
9.225275565249914
 30
0.0
 11
8.949955738985025
 21
12.5
 31
0.0
  0
SPLINE
  5
C7
330
1F
100
AcDbEntity
  8
0
  6
Continuous
 62
   131
370
    15
100
AcDbSpline
210
0.0
220
0.0
230
1.0
 70
     8
 71
     3
 72
    10
 73
     6
 74
     0
 42
0.000000001
 43
0.00000001
 40
0.0
 40
0.0
 40
0.0
 40
0.0
 40
0.5
 40
0.5
 40
1.0
 40
1.0
 40
1.0
 40
1.0
 10
12.0
 20
7.948946244795908
 30
0.0
 10
11.49121559822572
 20
8.17554956015164
 30
0.0
 10
10.98491154745391
 20
8.395215133183289
 30
0.0
 10
9.96877677373113
 20
8.820823166310706
 30
0.0
 10
9.459166925489708
 20
9.026715852921075
 30
0.0
 10
8.94990936675007
 20
9.22491406894221
 30
0.0
  0
SPLINE
  5
C8
330
1F
100
AcDbEntity
  8
0
  6
Continuous
 62
   131
370
    15
100
AcDbSpline
210
0.0
220
0.0
230
1.0
 70
     8
 71
     3
 72
    10
 73
     6
 74
     0
 42
0.000000001
 43
0.00000001
 40
0.0
 40
0.0
 40
0.0
 40
0.0
 40
0.5
 40
0.5
 40
1.0
 40
1.0
 40
1.0
 40
1.0
 10
8.94995573898504
 20
6.536481510540002
 30
0.0
 10
9.459205590453879
 20
6.286131624260105
 30
0.0
 10
9.968807663071091
 20
6.030304694733144
 30
0.0
 10
10.98492692197055
 20
5.509623779513061
 30
0.0
 10
11.49122331975055
 20
5.244820106506478
 30
0.0
 10
12.0
 20
4.975466748566365
 30
0.0
  0
LINE
  5
C9
330
1F
100
AcDbEntity
  8
0
  6
Continuous
 62
   131
370
    15
100
AcDbLine
 10
8.949955738985025
 20
-12.5
 30
0.0
 11
8.94995573898504
 21
6.536483927664101
 31
0.0
  0
LINE
  5
CA
330
1F
100
AcDbEntity
  8
0
  6
Continuous
 62
   131
370
    15
100
AcDbLine
 10
-76.99999999999999
 20
12.5
 30
0.0
 11
-76.99999999999999
 21
-12.5
 31
0.0
  0
LINE
  5
CB
330
1F
100
AcDbEntity
  8
0
  6
Continuous
 62
   131
370
    15
100
AcDbLine
 10
-77.99999999999999
 20
11.49999999999999
 30
0.0
 11
-77.99999999999999
 21
-11.5
 31
0.0
  0
SPLINE
  5
CC
330
1F
100
AcDbEntity
  8
0
  6
Continuous
 62
   131
370
    15
100
AcDbSpline
210
0.0
220
0.0
230
1.0
 70
    24
 71
     3
 72
    10
 73
     6
 74
     0
 42
0.000000001
 43
0.00000001
 40
0.0
 40
0.0
 40
0.0
 40
0.0
 40
0.5
 40
0.5
 40
1.0
 40
1.0
 40
1.0
 40
1.0
 10
12.0
 20
4.975466748566364
 30
0.0
 10
12.0
 20
4.899547199548475
 30
0.0
 10
12.0
 20
4.692547648959147
 30
0.0
 10
12.0
 20
4.054785586335585
 30
0.0
 10
12.0
 20
3.626569132222246
 30
0.0
 10
12.0
 20
3.149930715993992
 30
0.0
  0
SPLINE
  5
CD
330
1F
100
AcDbEntity
  8
0
  6
Continuous
 62
   131
370
    15
100
AcDbSpline
210
0.0
220
0.0
230
1.0
 70
     8
 71
     3
 72
    10
 73
     6
 74
     0
 42
0.000000001
 43
0.00000001
 40
0.0
 40
0.0
 40
0.0
 40
0.0
 40
0.5
 40
0.5
 40
1.0
 40
1.0
 40
1.0
 40
1.0
 10
12.00000000000001
 20
3.149930715993976
 30
0.0
 10
11.49122145964866
 20
3.34168219548858
 30
0.0
 10
10.98492321827639
 20
3.530518779407598
 30
0.0
 10
9.968800221883068
 20
3.902484553062296
 30
0.0
 10
9.459196276131454
 20
4.08557869736345
 30
0.0
 10
8.949944567994105
 20
4.265095309898663
 30
0.0
  0
SPLINE
  5
CE
330
1F
100
AcDbEntity
  8
0
  6
Continuous
 62
   131
370
    15
100
AcDbSpline
210
0.0
220
0.0
230
1.0
 70
     8
 71
     3
 72
    10
 73
     6
 74
     0
 42
0.000000001
 43
0.00000001
 40
0.0
 40
0.0
 40
0.0
 40
0.0
 40
0.5
 40
0.5
 40
1.0
 40
1.0
 40
1.0
 40
1.0
 10
12.00000000000002
 20
-9.329553585361017
 30
0.0
 10
11.49122050036937
 20
-9.244993857957263
 30
0.0
 10
10.98492130823201
 20
-9.152861361574827
 30
0.0
 10
9.968796384363364
 20
-8.953416460328947
 30
0.0
 10
9.459191472611456
 20
-8.84609833759491
 30
0.0
 10
8.949938806965548
 20
-8.731566541480316
 30
0.0
  0
SPLINE
  5
CF
330
1F
100
AcDbEntity
  8
0
  6
Continuous
 62
   131
370
    15
100
AcDbSpline
210
0.0
220
0.0
230
1.0
 70
    24
 71
     3
 72
    14
 73
    10
 74
     0
 42
0.000000001
 43
0.00000001
 40
0.0
 40
0.0
 40
0.0
 40
0.0
 40
0.25
 40
0.25
 40
0.5
 40
0.5
 40
0.75
 40
0.75
 40
1.0
 40
1.0
 40
1.0
 40
1.0
 10
12.0
 20
3.149930715993992
 30
0.0
 10
12.0
 20
2.055681243701813
 30
0.0
 10
12.0
 20
0.9055107855559704
 30
0.0
 10
12.0
 20
-1.407213786170973
 30
0.0
 10
12.0
 20
-2.56866767550221
 30
0.0
 10
12.0
 20
-4.7866318332387
 30
0.0
 10
12.0
 20
-5.841960277611575
 30
0.0
 10
12.0
 20
-7.750312614230134
 30
0.0
 10
12.0
 20
-8.60280424484907
 30
0.0
 10
12.0
 20
-9.329553585361007
 30
0.0
  0
SPLINE
  5
D0
330
1F
100
AcDbEntity
  8
0
  6
Continuous
 62
   131
370
    15
100
AcDbSpline
210
0.0
220
0.0
230
1.0
 70
    24
 71
     3
 72
    11
 73
     7
 74
     0
 42
0.000000001
 43
0.00000001
 40
0.0
 40
0.0
 40
0.0
 40
0.0
 40
0.283191099113788
 40
0.6288586312880388
 40
0.9325268017883379
 40
1.0
 40
1.0
 40
1.0
 40
1.0
 10
12.0
 20
9.740175082504896
 30
0.0
 10
12.0
 20
9.72493286625048
 30
0.0
 10
12.0
 20
9.691085759891752
 30
0.0
 10
12.0
 20
9.16460663511802
 30
0.0
 10
12.0
 20
8.60869989106626
 30
0.0
 10
12.0
 20
8.167744272462096
 30
0.0
 10
12.0
 20
8.087578900544973
 30
0.0
  0
SPLINE
  5
D1
330
1F
100
AcDbEntity
  8
0
  6
Continuous
 62
   131
370
    15
100
AcDbSpline
210
0.0
220
0.0
230
1.0
 70
    24
 71
     3
 72
    10
 73
     6
 74
     0
 42
0.000000001
 43
0.00000001
 40
0.0
 40
0.0
 40
0.0
 40
0.0
 40
0.4458594675467451
 40
0.897507579193783
 40
0.9999999999999999
 40
0.9999999999999999
 40
0.9999999999999999
 40
0.9999999999999999
 10
12.00000000000001
 20
-9.329553585361017
 30
0.0
 10
12.00000000000001
 20
-9.438036802798269
 30
0.0
 10
11.99999999999999
 20
-9.656411687604443
 30
0.0
 10
12.0
 20
-9.79287122587279
 30
0.0
 10
12.0
 20
-9.748515636866507
 30
0.0
 10
12.0
 20
-9.740311740152052
 30
0.0
  0
LINE
  5
D2
330
1F
100
AcDbEntity
  8
중심선
100
AcDbLine
 10
-80.99999999999999
 20
0.0000000000000005
 30
0.0
 11
128.9999920397302
 21
0.3167010613494566
 31
0.0
  0
CIRCLE
  5
D3
330
1F
100
AcDbEntity
  8
외형선
100
AcDbCircle
 10
0.0000000000000104
 20
0.0
 30
0.0
 40
3.000000000000005
  0
INSERT
  5
D4
330
1F
100
AcDbEntity
  8
0
  6
Continuous
 62
     7
100
AcDbBlockReference
 66
     1
  2
블럭10
 10
-22.93944368806589
 20
-52.04609937292004
 30
0.0
  0
ATTRIB
  5
D5
330
D4
100
AcDbEntity
  8
FORMAT
 62
     2
100
AcDbText
 10
-40.63836564979034
 20
-49.97073246008785
 30
0.0
 40
4.233333333333333
  1
SEME70250110E [ 2 FLUTE ]
 41
0.75
  7
SLDTEXTSTYLE0
 11
-40.63836564979034
 21
-52.08739912675452
 31
0.0
100
AcDbAttribute
  2
AUTOATTR0
 70
     0
 74
     1
  0
SEQEND
  5
D6
330
D4
100
AcDbEntity
  8
0
  6
Continuous
 62
     7
  0
HATCH
  5
D7
330
1F
100
AcDbEntity
  8
중심선
100
AcDbHatch
 10
0.0
 20
0.0
 30
0.0
210
0.0
220
0.0
230
1.0
  2
SOLID
 70
     1
 71
     0
 91
        1
 92
        0
 93
        4
 72
     1
 10
-17.22453438368504
 20
-35.7989250712761
 11
-20.67080962752232
 21
-35.7989250712761
 72
     1
 10
-20.67080962752232
 20
-35.7989250712761
 11
-22.79903948672635
 21
-38.3352506518487
 72
     1
 10
-22.79903948672635
 20
-38.3352506518487
 11
-19.35273115777591
 21
-38.33521122254621
 72
     1
 10
-19.35273115777591
 20
-38.33521122254621
 11
-17.22453438368504
 21
-35.7989250712761
 97
        0
 75
     0
 76
     1
 98
        1
 10
0.0
 20
0.0
  0
HATCH
  5
D8
330
1F
100
AcDbEntity
  8
중심선
100
AcDbHatch
 10
0.0
 20
0.0
 30
0.0
210
0.0
220
0.0
230
1.0
  2
SOLID
 70
     1
 71
     0
 91
        1
 92
        0
 93
        4
 72
     1
 10
-12.21177039264909
 20
-35.7989250712761
 11
-15.65804563648637
 21
-35.7989250712761
 72
     1
 10
-15.65804563648637
 20
-35.7989250712761
 11
-20.18918364484376
 21
-41.19892507127612
 72
     1
 10
-20.18918364484376
 20
-41.19892507127612
 11
-16.74290840100648
 21
-41.19892507127612
 72
     1
 10
-16.74290840100648
 20
-41.19892507127612
 11
-12.21177039264909
 21
-35.7989250712761
 97
        0
 75
     0
 76
     1
 98
        1
 10
0.0
 20
0.0
  0
HATCH
  5
D9
330
1F
100
AcDbEntity
  8
중심선
100
AcDbHatch
 10
0.0
 20
0.0
 30
0.0
210
0.0
220
0.0
230
1.0
  2
SOLID
 70
     1
 71
     0
 91
        1
 92
        0
 93
        4
 72
     1
 10
-7.199006401613195
 20
-35.79892507127613
 11
-10.64528164545031
 21
-35.7989250712761
 72
     1
 10
-10.64528164545031
 20
-35.7989250712761
 11
-17.69371854733956
 21
-44.19892507127612
 72
     1
 10
-17.69371854733956
 20
-44.19892507127612
 11
-14.24744330350228
 21
-44.19892507127612
 72
     1
 10
-14.24744330350228
 20
-44.19892507127612
 11
-7.199006401613195
 21
-35.79892507127613
 97
        0
 75
     0
 76
     1
 98
        1
 10
0.0
 20
0.0
  0
HATCH
  5
DA
330
1F
100
AcDbEntity
  8
중심선
100
AcDbHatch
 10
0.0
 20
0.0
 30
0.0
210
0.0
220
0.0
230
1.0
  2
SOLID
 70
     1
 71
     0
 91
        1
 92
        0
 93
        6
 72
     3
 10
-2.399115970600996
 20
-39.99892507132738
 11
3.960054785062284
 21
1.540850780301639E-10
 40
0.3939339440162633
 50
17.09539180608433
 51
320.0019657685079
 73
     0
 72
     1
 10
-0.7161163149004002
 20
-38.58681907591441
 11
1.589185558800638
 21
-36.65249236586649
 72
     3
 10
-2.399115970653842
 20
-39.99892507127625
 11
6.600054785286829
 21
-1.249000902703301E-13
 40
0.6363583540795982
 50
39.99873849337408
 51
368.4976242363725
 73
     1
 72
     1
 10
4.026216521246767
 20
-39.03892507120613
 11
-3.71904866381792
 21
-39.0389250712061
 72
     1
 10
-3.71904866381792
 20
-39.0389250712061
 11
-3.719073708263854
 21
-40.95892507120602
 72
     1
 10
-3.719073708263854
 20
-40.95892507120602
 11
0.7223060612081831
 21
-40.95892507120599
 97
        0
 75
     0
 76
     1
 98
        1
 10
0.0
 20
0.0
  0
DIMENSION
  5
DB
330
1F
100
AcDbEntity
  8
치수문자_일반주서
100
AcDbDimension
  2
_D
 10
141.163034589881
 20
12.50000000000049
 30
0.0
 11
141.1630345898809
 21
23.47900000000049
 31
0.0
 70
   160
  1
%%c<>
 71
     2
 42
25.00000000000001
 52
-270.0
  3
SLDDIMSTYLE0
100
AcDbAlignedDimension
 13
121.9999999999993
 23
-12.49999999999959
 33
0.0
 14
121.9999999999994
 24
12.50000000000042
 34
0.0
 50
90.0000000000002
100
AcDbRotatedDimension
  0
DIMENSION
  5
E7
330
1F
100
AcDbEntity
  8
치수문자_일반주서
100
AcDbDimension
  2
_D_1
 10
121.9999999999994
 20
33.28841044024269
 30
0.0
 11
21.99999999999973
 21
33.28841044024269
 31
0.0
 70
   160
  1
<>
 71
     2
 42
199.9999999999994
  3
SLDDIMSTYLE1
100
AcDbAlignedDimension
 13
-77.99999999999999
 23
11.49999999999999
 33
0.0
 14
121.9999999999994
 24
12.50000000000042
 34
0.0
 50
-0.0000000000000041
100
AcDbRotatedDimension
  0
DIMENSION
  5
F2
330
1F
100
AcDbEntity
  8
치수문자_일반주서
100
AcDbDimension
  2
_D_2
 10
121.9999999999994
 20
23.11229207810566
 30
0.0
 11
66.99999999999997
 21
23.11229207810566
 31
0.0
 70
   160
  1
<>
 71
     2
 42
109.9999999999994
  3
SLDDIMSTYLE1
100
AcDbAlignedDimension
 13
12.0
 23
9.765294271938084
 33
0.0
 14
121.9999999999994
 24
12.50000000000042
 34
0.0
 50
0.0000000000000592
100
AcDbRotatedDimension
  0
DIMENSION
  5
FC
330
1F
100
AcDbEntity
  8
치수문자_일반주서
100
AcDbDimension
  2
_D_3
 10
-89.60454615372181
 20
-12.50000000000005
 30
0.0
 11
-89.60454615372194
 21
23.47899999999995
 31
0.0
 70
   160
  1
%%c<>
 71
     2
 42
24.99999999999999
 52
-270.0
  3
SLDDIMSTYLE0
100
AcDbAlignedDimension
 13
-76.99999999999999
 23
12.5
 33
0.0
 14
-76.99999999999999
 24
-12.5
 34
0.0
 50
90.0000000000002
100
AcDbRotatedDimension
  0
INSERT
  5
10D
330
1F
100
AcDbEntity
  8
외형선
100
AcDbBlockReference
  2
SW_DOWELSYMBOL_0
 10
0.0000000000000104
 20
0.0
 30
0.0
  0
ENDSEC
  0
SECTION
  2
OBJECTS
  0
DICTIONARY
  5
C
330
0
100
AcDbDictionary
281
     1
  3
ACAD_GROUP
350
D
  3
ACAD_IMAGE_VARS
350
131
  3
ACAD_LAYOUT
350
1A
  3
ACAD_MLINESTYLE
350
17
  3
ACAD_PLOTSETTINGS
350
19
  3
ACAD_PLOTSTYLENAME
350
E
  3
ACAD_SCALELIST
350
47
  3
APPDATA
350
12F
  3
DWGPROPS
350
143
  0
DICTIONARY
  5
D
102
{ACAD_REACTORS
330
C
102
}
330
C
100
AcDbDictionary
281
     1
  0
RASTERVARIABLES
  5
131
102
{ACAD_REACTORS
330
C
102
}
330
C
100
AcDbRasterVariables
 90
        0
 70
     1
 71
     1
 72
     1
  0
DICTIONARY
  5
1A
102
{ACAD_REACTORS
330
C
102
}
330
C
100
AcDbDictionary
281
     1
  3
Layout1
350
1E
  3
Layout2
350
26
  3
Model
350
22
  0
DICTIONARY
  5
17
102
{ACAD_REACTORS
330
C
102
}
330
C
100
AcDbDictionary
281
     1
  3
Standard
350
18
  0
DICTIONARY
  5
19
102
{ACAD_REACTORS
330
C
102
}
330
C
100
AcDbDictionary
281
     1
  0
ACDBDICTIONARYWDFLT
  5
E
102
{ACAD_REACTORS
330
C
102
}
330
C
100
AcDbDictionary
281
     1
  3
Normal
350
F
100
AcDbDictionaryWithDefault
340
F
  0
DICTIONARY
  5
47
102
{ACAD_REACTORS
330
C
102
}
330
C
100
AcDbDictionary
281
     1
  3
A0
350
48
  3
A1
350
49
  3
A2
350
4A
  3
A3
350
4B
  3
A4
350
4C
  3
A5
350
4D
  3
A6
350
4E
  3
A7
350
4F
  3
A8
350
50
  3
A9
350
51
  3
B0
350
52
  3
B1
350
53
  3
B2
350
54
  3
B3
350
55
  3
B4
350
56
  3
B5
350
57
  3
B6
350
58
  3
B7
350
59
  3
B8
350
5A
  3
B9
350
5B
  3
C0
350
5C
  3
C1
350
5D
  3
C2
350
5E
  3
C3
350
5F
  3
C4
350
60
  3
C5
350
61
  3
C6
350
62
  3
C7
350
63
  3
C8
350
64
  3
C9
350
65
  3
D0
350
66
  3
D1
350
67
  3
D2
350
68
  0
DICTIONARY
  5
12F
102
{ACAD_REACTORS
330
C
102
}
330
C
100
AcDbDictionary
281
     1
  0
XRECORD
  5
143
102
{ACAD_REACTORS
330
C
102
}
330
C
100
AcDbXrecord
280
     1
  1
DWGPROPS COOKIE
  2

  3

  4

  6

  7

  8
12014102
  9

300
=
301
=
302
=
303
=
304
=
305
=
306
=
307
=
308
=
309
=
 40
0.0
 41
2458262.179683009
 42
2458266.278888831
  1

 90
        0
  0
LAYOUT
  5
1E
102
{ACAD_REACTORS
330
1A
102
}
330
1A
100
AcDbPlotSettings
  1

  2
none_device
  4

  6

 40
0.0
 41
0.0
 42
0.0
 43
0.0
 44
0.0
 45
0.0
 46
0.0
 47
0.0
 48
0.0
 49
0.0
140
0.0
141
0.0
142
1.0
143
1.0
 70
   688
 72
     1
 73
     0
 74
     5
  7

 75
    16
147
1.0
148
0.0
149
0.0
100
AcDbLayout
  1
Layout1
 70
     1
 71
     1
 10
0.0
 20
0.0
 11
420.0
 21
297.0
 12
0.0
 22
0.0
 32
0.0
 14
1.000000000000000E+20
 24
1.000000000000000E+20
 34
1.000000000000000E+20
 15
-1.000000000000000E+20
 25
-1.000000000000000E+20
 35
-1.000000000000000E+20
146
0.0
 13
0.0
 23
0.0
 33
0.0
 16
1.0
 26
0.0
 36
0.0
 17
0.0
 27
1.0
 37
0.0
 76
     0
330
1B
  0
LAYOUT
  5
26
102
{ACAD_REACTORS
330
1A
102
}
330
1A
100
AcDbPlotSettings
  1

  2
none_device
  4

  6

 40
0.0
 41
0.0
 42
0.0
 43
0.0
 44
0.0
 45
0.0
 46
0.0
 47
0.0
 48
0.0
 49
0.0
140
0.0
141
0.0
142
1.0
143
1.0
 70
   688
 72
     1
 73
     0
 74
     5
  7

 75
    16
147
1.0
148
0.0
149
0.0
100
AcDbLayout
  1
Layout2
 70
     1
 71
     2
 10
0.0
 20
0.0
 11
0.0
 21
0.0
 12
0.0
 22
0.0
 32
0.0
 14
0.0
 24
0.0
 34
0.0
 15
0.0
 25
0.0
 35
0.0
146
0.0
 13
0.0
 23
0.0
 33
0.0
 16
1.0
 26
0.0
 36
0.0
 17
0.0
 27
1.0
 37
0.0
 76
     0
330
23
  0
LAYOUT
  5
22
102
{ACAD_REACTORS
330
1A
102
}
330
1A
100
AcDbPlotSettings
  1

  2
none_device
  4
ANSI_A_(11.00_x_8.50_Inches)
  6

 40
6.35
 41
19.05
 42
6.35000508
 43
19.05000254
 44
279.4
 45
215.9
 46
111.6273685207664
 47
97.16602982109248
 48
0.0
 49
0.0
140
0.0
141
0.0
142
0.0504022769828517
143
1.0
 70
  1696
 72
     0
 73
     0
 74
     0
  7

 75
     0
147
0.0235690232323232
148
0.0
149
0.0
100
AcDbLayout
  1
Model
 70
     1
 71
     0
 10
0.0
 20
0.0
 11
420.0
 21
297.0
 12
0.0
 22
0.0
 32
0.0
 14
-93.97954615372196
 24
-49.97073246008785
 34
0.0
 15
141.7133679232144
 25
37.66341044024269
 35
0.0
146
0.0
 13
0.0
 23
0.0
 33
0.0
 16
1.0
 26
0.0
 36
0.0
 17
0.0
 27
1.0
 37
0.0
 76
     0
330
1F
331
29
  0
MLINESTYLE
  5
18
102
{ACAD_REACTORS
330
17
102
}
330
17
100
AcDbMlineStyle
  2
Standard
 70
     0
  3

 62
   256
 51
90.0
 52
90.0
 71
     2
 49
0.5
 62
   256
  6
BYLAYER
 49
-0.5
 62
   256
  6
BYLAYER
  0
ACDBPLACEHOLDER
  5
F
102
{ACAD_REACTORS
330
E
102
}
330
E
  0
SCALE
  5
48
102
{ACAD_REACTORS
330
47
102
}
330
47
100
AcDbScale
 70
     0
300
1:1
140
1.0
141
1.0
290
     1
  0
SCALE
  5
49
102
{ACAD_REACTORS
330
47
102
}
330
47
100
AcDbScale
 70
     0
300
1:2
140
1.0
141
2.0
290
     0
  0
SCALE
  5
4A
102
{ACAD_REACTORS
330
47
102
}
330
47
100
AcDbScale
 70
     0
300
1:4
140
1.0
141
4.0
290
     0
  0
SCALE
  5
4B
102
{ACAD_REACTORS
330
47
102
}
330
47
100
AcDbScale
 70
     0
300
1:5
140
1.0
141
5.0
290
     0
  0
SCALE
  5
4C
102
{ACAD_REACTORS
330
47
102
}
330
47
100
AcDbScale
 70
     0
300
1:8
140
1.0
141
8.0
290
     0
  0
SCALE
  5
4D
102
{ACAD_REACTORS
330
47
102
}
330
47
100
AcDbScale
 70
     0
300
1:10
140
1.0
141
10.0
290
     0
  0
SCALE
  5
4E
102
{ACAD_REACTORS
330
47
102
}
330
47
100
AcDbScale
 70
     0
300
1:16
140
1.0
141
16.0
290
     0
  0
SCALE
  5
4F
102
{ACAD_REACTORS
330
47
102
}
330
47
100
AcDbScale
 70
     0
300
1:20
140
1.0
141
20.0
290
     0
  0
SCALE
  5
50
102
{ACAD_REACTORS
330
47
102
}
330
47
100
AcDbScale
 70
     0
300
1:30
140
1.0
141
30.0
290
     0
  0
SCALE
  5
51
102
{ACAD_REACTORS
330
47
102
}
330
47
100
AcDbScale
 70
     0
300
1:40
140
1.0
141
40.0
290
     0
  0
SCALE
  5
52
102
{ACAD_REACTORS
330
47
102
}
330
47
100
AcDbScale
 70
     0
300
1:50
140
1.0
141
50.0
290
     0
  0
SCALE
  5
53
102
{ACAD_REACTORS
330
47
102
}
330
47
100
AcDbScale
 70
     0
300
1:100
140
1.0
141
100.0
290
     0
  0
SCALE
  5
54
102
{ACAD_REACTORS
330
47
102
}
330
47
100
AcDbScale
 70
     0
300
2:1
140
2.0
141
1.0
290
     0
  0
SCALE
  5
55
102
{ACAD_REACTORS
330
47
102
}
330
47
100
AcDbScale
 70
     0
300
4:1
140
4.0
141
1.0
290
     0
  0
SCALE
  5
56
102
{ACAD_REACTORS
330
47
102
}
330
47
100
AcDbScale
 70
     0
300
8:1
140
8.0
141
1.0
290
     0
  0
SCALE
  5
57
102
{ACAD_REACTORS
330
47
102
}
330
47
100
AcDbScale
 70
     0
300
10:1
140
10.0
141
1.0
290
     0
  0
SCALE
  5
58
102
{ACAD_REACTORS
330
47
102
}
330
47
100
AcDbScale
 70
     0
300
100:1
140
100.0
141
1.0
290
     0
  0
SCALE
  5
59
102
{ACAD_REACTORS
330
47
102
}
330
47
100
AcDbScale
 70
     0
300
1/128" = 1'-0"
140
0.0078125
141
12.0
290
     0
  0
SCALE
  5
5A
102
{ACAD_REACTORS
330
47
102
}
330
47
100
AcDbScale
 70
     0
300
1/64" = 1'-0"
140
0.015625
141
12.0
290
     0
  0
SCALE
  5
5B
102
{ACAD_REACTORS
330
47
102
}
330
47
100
AcDbScale
 70
     0
300
1/32" = 1'-0"
140
0.03125
141
12.0
290
     0
  0
SCALE
  5
5C
102
{ACAD_REACTORS
330
47
102
}
330
47
100
AcDbScale
 70
     0
300
1/16" = 1'-0"
140
0.0625
141
12.0
290
     0
  0
SCALE
  5
5D
102
{ACAD_REACTORS
330
47
102
}
330
47
100
AcDbScale
 70
     0
300
3/32" = 1'-0"
140
0.09375
141
12.0
290
     0
  0
SCALE
  5
5E
102
{ACAD_REACTORS
330
47
102
}
330
47
100
AcDbScale
 70
     0
300
1/8" = 1'-0"
140
0.125
141
12.0
290
     0
  0
SCALE
  5
5F
102
{ACAD_REACTORS
330
47
102
}
330
47
100
AcDbScale
 70
     0
300
3/16" = 1'-0"
140
0.1875
141
12.0
290
     0
  0
SCALE
  5
60
102
{ACAD_REACTORS
330
47
102
}
330
47
100
AcDbScale
 70
     0
300
1/4" = 1'-0"
140
0.25
141
12.0
290
     0
  0
SCALE
  5
61
102
{ACAD_REACTORS
330
47
102
}
330
47
100
AcDbScale
 70
     0
300
3/8" = 1'-0"
140
0.375
141
12.0
290
     0
  0
SCALE
  5
62
102
{ACAD_REACTORS
330
47
102
}
330
47
100
AcDbScale
 70
     0
300
1/2" = 1'-0"
140
0.5
141
12.0
290
     0
  0
SCALE
  5
63
102
{ACAD_REACTORS
330
47
102
}
330
47
100
AcDbScale
 70
     0
300
3/4" = 1'-0"
140
0.75
141
12.0
290
     0
  0
SCALE
  5
64
102
{ACAD_REACTORS
330
47
102
}
330
47
100
AcDbScale
 70
     0
300
1" = 1'-0"
140
1.0
141
12.0
290
     0
  0
SCALE
  5
65
102
{ACAD_REACTORS
330
47
102
}
330
47
100
AcDbScale
 70
     0
300
1-1/2" = 1'-0"
140
1.5
141
12.0
290
     0
  0
SCALE
  5
66
102
{ACAD_REACTORS
330
47
102
}
330
47
100
AcDbScale
 70
     0
300
3" = 1'-0"
140
3.0
141
12.0
290
     0
  0
SCALE
  5
67
102
{ACAD_REACTORS
330
47
102
}
330
47
100
AcDbScale
 70
     0
300
6" = 1'-0"
140
6.0
141
12.0
290
     0
  0
SCALE
  5
68
102
{ACAD_REACTORS
330
47
102
}
330
47
100
AcDbScale
 70
     0
300
1'-0" = 1'-0"
140
12.0
141
12.0
290
     0
  0
ENDSEC
  0
EOF
