  0
SECTION
  2
HEADER
  9
$ACADVER
  1
AC1015
  9
$ACADMAINTVER
 70
     6
  9
$DWGCODEPAGE
  3
ANSI_949
  9
$INSBASE
 10
0.0
 20
0.0
 30
0.0
  9
$EXTMIN
 10
-67.31328781384583
 20
-49.97073246008785
 30
0.0
  9
$EXTMAX
 10
119.6691821320659
 20
37.6634104402427
 30
0.0
  9
$LIMMIN
 10
0.0
 20
0.0
  9
$LIMMAX
 10
420.0
 20
297.0
  9
$ORTHOMODE
 70
     0
  9
$REGENMODE
 70
     1
  9
$FILLMODE
 70
     1
  9
$QTEXTMODE
 70
     0
  9
$MIRRTEXT
 70
     1
  9
$LTSCALE
 40
1.0
  9
$ATTMODE
 70
     1
  9
$TEXTSIZE
 40
3.5
  9
$TRACEWID
 40
1.0
  9
$TEXTSTYLE
  7
Standard
  9
$CLAYER
  8
0
  9
$CELTYPE
  6
ByLayer
  9
$CECOLOR
 62
   256
  9
$CELTSCALE
 40
1.0
  9
$DISPSILH
 70
     0
  9
$DIMSCALE
 40
1.0
  9
$DIMASZ
 40
3.302
  9
$DIMEXO
 40
1.0
  9
$DIMDLI
 40
3.75
  9
$DIMRND
 40
0.0
  9
$DIMDLE
 40
0.0
  9
$DIMEXE
 40
1.0
  9
$DIMTP
 40
0.0
  9
$DIMTM
 40
0.0
  9
$DIMTXT
 40
3.5
  9
$DIMCEN
 40
2.5
  9
$DIMTSZ
 40
0.0
  9
$DIMTOL
 70
     0
  9
$DIMLIM
 70
     0
  9
$DIMTIH
 70
     1
  9
$DIMTOH
 70
     1
  9
$DIMSE1
 70
     0
  9
$DIMSE2
 70
     0
  9
$DIMTAD
 70
     1
  9
$DIMZIN
 70
     0
  9
$DIMBLK
  1

  9
$DIMASO
 70
     1
  9
$DIMSHO
 70
     1
  9
$DIMPOST
  1

  9
$DIMAPOST
  1

  9
$DIMALT
 70
     0
  9
$DIMALTD
 70
     3
  9
$DIMALTF
 40
0.0393700787401575
  9
$DIMLFAC
 40
1.0
  9
$DIMTOFL
 70
     1
  9
$DIMTVP
 40
0.0
  9
$DIMTIX
 70
     0
  9
$DIMSOXD
 70
     0
  9
$DIMSAH
 70
     0
  9
$DIMBLK1
  1

  9
$DIMBLK2
  1

  9
$DIMSTYLE
  2
ISO-25
  9
$DIMCLRD
 70
     0
  9
$DIMCLRE
 70
     0
  9
$DIMCLRT
 70
     0
  9
$DIMTFAC
 40
1.0
  9
$DIMGAP
 40
1.524
  9
$DIMJUST
 70
     0
  9
$DIMSD1
 70
     0
  9
$DIMSD2
 70
     0
  9
$DIMTOLJ
 70
     0
  9
$DIMTZIN
 70
     0
  9
$DIMALTZ
 70
     0
  9
$DIMALTTZ
 70
     0
  9
$DIMUPT
 70
     0
  9
$DIMDEC
 70
     2
  9
$DIMTDEC
 70
     2
  9
$DIMALTU
 70
     2
  9
$DIMALTTD
 70
     3
  9
$DIMTXSTY
  7
Standard
  9
$DIMAUNIT
 70
     0
  9
$DIMADEC
 70
     2
  9
$DIMALTRND
 40
0.0
  9
$DIMAZIN
 70
     0
  9
$DIMDSEP
 70
    44
  9
$DIMATFIT
 70
     3
  9
$DIMFRAC
 70
     0
  9
$DIMLDRBLK
  1

  9
$DIMLUNIT
 70
     2
  9
$DIMLWD
 70
    -2
  9
$DIMLWE
 70
    -2
  9
$DIMTMOVE
 70
     0
  9
$LUNITS
 70
     2
  9
$LUPREC
 70
     2
  9
$SKETCHINC
 40
1.0
  9
$FILLETRAD
 40
10.0
  9
$AUNITS
 70
     0
  9
$AUPREC
 70
     2
  9
$MENU
  1
.
  9
$ELEVATION
 40
0.0
  9
$PELEVATION
 40
0.0
  9
$THICKNESS
 40
0.0
  9
$LIMCHECK
 70
     0
  9
$CHAMFERA
 40
0.0
  9
$CHAMFERB
 40
0.0
  9
$CHAMFERC
 40
0.0
  9
$CHAMFERD
 40
0.0
  9
$SKPOLY
 70
     0
  9
$TDCREATE
 40
2458262.555246204
  9
$TDUCREATE
 40
2458262.180246204
  9
$TDUPDATE
 40
2458266.613845058
  9
$TDUUPDATE
 40
2458266.238845058
  9
$TDINDWG
 40
0.0022287963
  9
$TDUSRTIMER
 40
2458266.236616308
  9
$USRTIMER
 70
     1
  9
$ANGBASE
 50
0.0
  9
$ANGDIR
 70
     0
  9
$PDMODE
 70
     0
  9
$PDSIZE
 40
-1.0
  9
$PLINEWID
 40
0.0
  9
$SPLFRAME
 70
     0
  9
$SPLINETYPE
 70
     6
  9
$SPLINESEGS
 70
     8
  9
$HANDSEED
  5
13E
  9
$SURFTAB1
 70
     6
  9
$SURFTAB2
 70
     6
  9
$SURFTYPE
 70
     6
  9
$SURFU
 70
     6
  9
$SURFV
 70
     6
  9
$UCSBASE
  2

  9
$UCSNAME
  2

  9
$UCSORG
 10
0.0
 20
0.0
 30
0.0
  9
$UCSXDIR
 10
1.0
 20
0.0
 30
0.0
  9
$UCSYDIR
 10
0.0
 20
1.0
 30
0.0
  9
$UCSORTHOREF
  2

  9
$UCSORTHOVIEW
 70
     0
  9
$UCSORGTOP
 10
0.0
 20
0.0
 30
0.0
  9
$UCSORGBOTTOM
 10
0.0
 20
0.0
 30
0.0
  9
$UCSORGLEFT
 10
0.0
 20
0.0
 30
0.0
  9
$UCSORGRIGHT
 10
0.0
 20
0.0
 30
0.0
  9
$UCSORGFRONT
 10
0.0
 20
0.0
 30
0.0
  9
$UCSORGBACK
 10
0.0
 20
0.0
 30
0.0
  9
$PUCSBASE
  2

  9
$PUCSNAME
  2

  9
$PUCSORG
 10
0.0
 20
0.0
 30
0.0
  9
$PUCSXDIR
 10
1.0
 20
0.0
 30
0.0
  9
$PUCSYDIR
 10
0.0
 20
1.0
 30
0.0
  9
$PUCSORTHOREF
  2

  9
$PUCSORTHOVIEW
 70
     0
  9
$PUCSORGTOP
 10
0.0
 20
0.0
 30
0.0
  9
$PUCSORGBOTTOM
 10
0.0
 20
0.0
 30
0.0
  9
$PUCSORGLEFT
 10
0.0
 20
0.0
 30
0.0
  9
$PUCSORGRIGHT
 10
0.0
 20
0.0
 30
0.0
  9
$PUCSORGFRONT
 10
0.0
 20
0.0
 30
0.0
  9
$PUCSORGBACK
 10
0.0
 20
0.0
 30
0.0
  9
$USERI1
 70
     0
  9
$USERI2
 70
     0
  9
$USERI3
 70
     0
  9
$USERI4
 70
     0
  9
$USERI5
 70
     0
  9
$USERR1
 40
0.0
  9
$USERR2
 40
0.0
  9
$USERR3
 40
0.0
  9
$USERR4
 40
0.0
  9
$USERR5
 40
0.0
  9
$WORLDVIEW
 70
     1
  9
$SHADEDGE
 70
     3
  9
$SHADEDIF
 70
    70
  9
$TILEMODE
 70
     1
  9
$MAXACTVP
 70
    64
  9
$PINSBASE
 10
0.0
 20
0.0
 30
0.0
  9
$PLIMCHECK
 70
     0
  9
$PEXTMIN
 10
1.000000000000000E+20
 20
1.000000000000000E+20
 30
1.000000000000000E+20
  9
$PEXTMAX
 10
-1.000000000000000E+20
 20
-1.000000000000000E+20
 30
-1.000000000000000E+20
  9
$PLIMMIN
 10
0.0
 20
0.0
  9
$PLIMMAX
 10
0.0
 20
0.0
  9
$UNITMODE
 70
     0
  9
$VISRETAIN
 70
     1
  9
$PLINEGEN
 70
     0
  9
$PSLTSCALE
 70
     1
  9
$TREEDEPTH
 70
  3020
  9
$CMLSTYLE
  2
Standard
  9
$CMLJUST
 70
     0
  9
$CMLSCALE
 40
20.0
  9
$PROXYGRAPHICS
 70
     1
  9
$MEASUREMENT
 70
     1
  9
$CELWEIGHT
370
    -1
  9
$ENDCAPS
280
     0
  9
$JOINSTYLE
280
     0
  9
$LWDISPLAY
290
     1
  9
$INSUNITS
 70
     4
  9
$HYPERLINKBASE
  1

  9
$STYLESHEET
  1

  9
$XEDIT
290
     1
  9
$CEPSNTYPE
380
     0
  9
$PSTYLEMODE
290
     1
  9
$FINGERPRINTGUID
  2
{EDA07A45-FDBA-4CB7-A4B9-6F6E5E2F274F}
  9
$VERSIONGUID
  2
{FAEB1C32-E019-11D5-929B-00C0DF256EC4}
  9
$EXTNAMES
290
     1
  9
$PSVPSCALE
 40
0.0
  9
$OLESTARTUP
290
     0
  0
ENDSEC
  0
SECTION
  2
CLASSES
  0
CLASS
  1
ACDBDICTIONARYWDFLT
  2
AcDbDictionaryWithDefault
  3
ObjectDBX Classes
 90
        0
280
     0
281
     0
  0
CLASS
  1
VISUALSTYLE
  2
AcDbVisualStyle
  3
ObjectDBX Classes
 90
     4095
280
     0
281
     0
  0
CLASS
  1
MATERIAL
  2
AcDbMaterial
  3
ObjectDBX Classes
 90
     1153
280
     0
281
     0
  0
CLASS
  1
SCALE
  2
AcDbScale
  3
ObjectDBX Classes
 90
     1153
280
     0
281
     0
  0
CLASS
  1
SUN
  2
AcDbSun
  3
SCENEOE
 90
     1153
280
     0
281
     0
  0
CLASS
  1
ACDBPLACEHOLDER
  2
AcDbPlaceHolder
  3
ObjectDBX Classes
 90
        0
280
     0
281
     0
  0
CLASS
  1
LAYOUT
  2
AcDbLayout
  3
ObjectDBX Classes
 90
        0
280
     0
281
     0
  0
CLASS
  1
TABLESTYLE
  2
AcDbTableStyle
  3
ObjectDBX Classes
 90
     4095
280
     0
281
     0
  0
CLASS
  1
MLEADERSTYLE
  2
AcDbMLeaderStyle
  3
ACDB_MLEADERSTYLE_CLASS
 90
     4095
280
     0
281
     0
  0
CLASS
  1
RASTERVARIABLES
  2
AcDbRasterVariables
  3
ISM
 90
        0
280
     0
281
     0
  0
ENDSEC
  0
SECTION
  2
TABLES
  0
TABLE
  2
VPORT
  5
8
330
0
100
AcDbSymbolTable
 70
     1
  0
VPORT
  5
29
330
8
100
AcDbSymbolTableRecord
100
AcDbViewportTableRecord
  2
*Active
 70
     0
 10
0.0
 20
0.0
 11
1.0
 21
1.0
 12
26.17794715911002
 22
-6.15366100992258
 13
0.0
 23
0.0
 14
10.0
 24
10.0
 15
10.0
 25
10.0
 16
0.0
 26
0.0
 36
1.0
 17
0.0
 27
0.0
 37
0.0
 40
165.4920631983165
 41
1.152454780361757
 42
50.0
 43
0.0
 44
0.0
 50
0.0
 51
0.0
 71
    16
 72
  2000
 73
     1
 74
     3
 75
     0
 76
     0
 77
     0
 78
     0
281
     0
 65
     1
110
0.0
120
0.0
130
0.0
111
1.0
121
0.0
131
0.0
112
0.0
122
1.0
132
0.0
 79
     0
146
0.0
  0
ENDTAB
  0
TABLE
  2
LTYPE
  5
5
330
0
100
AcDbSymbolTable
 70
     6
  0
LTYPE
  5
14
330
5
100
AcDbSymbolTableRecord
100
AcDbLinetypeTableRecord
  2
ByBlock
 70
     0
  3

 72
    65
 73
     0
 40
0.0
  0
LTYPE
  5
15
330
5
100
AcDbSymbolTableRecord
100
AcDbLinetypeTableRecord
  2
ByLayer
 70
     0
  3

 72
    65
 73
     0
 40
0.0
  0
LTYPE
  5
16
330
5
100
AcDbSymbolTableRecord
100
AcDbLinetypeTableRecord
  2
Continuous
 70
     0
  3
Solid line
 72
    65
 73
     0
 40
0.0
  0
LTYPE
  5
6A
330
5
100
AcDbSymbolTableRecord
100
AcDbLinetypeTableRecord
  2
HIDDEN
 70
     0
  3
Hidden __ __ __ __ __ __ __ __ __ __ __ __ __ __
 72
    65
 73
     2
 40
1.905
 49
1.27
 74
     0
 49
-0.635
 74
     0
  0
LTYPE
  5
6B
330
5
100
AcDbSymbolTableRecord
100
AcDbLinetypeTableRecord
  2
PHANTOM
 70
     0
  3
Phantom ______  __  __  ______  __  __  ______
 72
    65
 73
     6
 40
12.7
 49
6.35
 74
     0
 49
-1.27
 74
     0
 49
1.27
 74
     0
 49
-1.27
 74
     0
 49
1.27
 74
     0
 49
-1.27
 74
     0
  0
LTYPE
  5
6C
330
5
100
AcDbSymbolTableRecord
100
AcDbLinetypeTableRecord
  2
CENTER
 70
     0
  3
Center ____ _ ____ _ ____ _ ____ _ ____ _ ____
 72
    65
 73
     4
 40
10.16
 49
6.35
 74
     0
 49
-1.27
 74
     0
 49
1.27
 74
     0
 49
-1.27
 74
     0
  0
LTYPE
  5
6D
330
5
100
AcDbSymbolTableRecord
100
AcDbLinetypeTableRecord
  2
CENTERX2
 70
     0
  3
Center (2x) ________  __  ________  __  _____
 72
    65
 73
     4
 40
20.32
 49
12.7
 74
     0
 49
-2.54
 74
     0
 49
2.54
 74
     0
 49
-2.54
 74
     0
  0
LTYPE
  5
6E
330
5
100
AcDbSymbolTableRecord
100
AcDbLinetypeTableRecord
  2
DOT2
 70
     0
  3
Dot (.5x) ........................................
 72
    65
 73
     2
 40
0.635
 49
0.0
 74
     0
 49
-0.635
 74
     0
  0
ENDTAB
  0
TABLE
  2
LAYER
  5
2
330
0
100
AcDbSymbolTable
 70
    17
  0
LAYER
  5
10
330
2
100
AcDbSymbolTableRecord
100
AcDbLayerTableRecord
  2
0
 70
     0
 62
     7
  6
Continuous
370
    -3
390
F
  0
LAYER
  5
6F
330
2
100
AcDbSymbolTableRecord
100
AcDbLayerTableRecord
  2
FORMAT
 70
     0
 62
     2
  6
Continuous
370
    -3
390
F
  0
LAYER
  5
70
330
2
100
AcDbSymbolTableRecord
100
AcDbLayerTableRecord
  2
외형선
 70
     0
 62
   100
  6
Continuous
370
    30
390
F
  0
LAYER
  5
71
330
2
100
AcDbSymbolTableRecord
100
AcDbLayerTableRecord
  2
숨은선
 70
     0
 62
     2
  6
HIDDEN
370
    15
390
F
  0
LAYER
  5
72
330
2
100
AcDbSymbolTableRecord
100
AcDbLayerTableRecord
  2
중심선
 70
     0
 62
     1
  6
CENTERX2
370
    -3
390
F
  0
LAYER
  5
73
330
2
100
AcDbSymbolTableRecord
100
AcDbLayerTableRecord
  2
파단선
 70
     0
 62
     4
  6
Continuous
370
    -3
390
F
  0
LAYER
  5
74
330
2
100
AcDbSymbolTableRecord
100
AcDbLayerTableRecord
  2
해칭선
 70
     0
 62
     4
  6
Continuous
370
    -3
390
F
  0
LAYER
  5
75
330
2
100
AcDbSymbolTableRecord
100
AcDbLayerTableRecord
  2
가는실선
 70
     0
 62
     4
  6
Continuous
370
    -3
390
F
  0
LAYER
  5
76
330
2
100
AcDbSymbolTableRecord
100
AcDbLayerTableRecord
  2
치수_보조선
 70
     0
 62
     4
  6
Continuous
370
    -3
390
F
  0
LAYER
  5
77
330
2
100
AcDbSymbolTableRecord
100
AcDbLayerTableRecord
  2
치수문자_일반주서
 70
     0
 62
     7
  6
Continuous
370
    15
390
F
  0
LAYER
  5
78
330
2
100
AcDbSymbolTableRecord
100
AcDbLayerTableRecord
  2
개별주서
 70
     0
 62
   100
  6
Continuous
370
    30
390
F
  0
LAYER
  5
79
330
2
100
AcDbSymbolTableRecord
100
AcDbLayerTableRecord
  2
중간선
 70
     0
 62
     2
  6
Continuous
370
    15
390
F
  0
LAYER
  5
7A
330
2
100
AcDbSymbolTableRecord
100
AcDbLayerTableRecord
  2
윤곽선
 70
     0
 62
     3
  6
Continuous
370
    40
390
F
  0
LAYER
  5
7B
330
2
100
AcDbSymbolTableRecord
100
AcDbLayerTableRecord
  2
중심마크
 70
     0
 62
   100
  6
Continuous
370
    30
390
F
  0
LAYER
  5
7C
330
2
100
AcDbSymbolTableRecord
100
AcDbLayerTableRecord
  2
가상선
 70
     0
 62
     4
  6
PHANTOM
370
    -3
390
F
  0
LAYER
  5
7D
330
2
100
AcDbSymbolTableRecord
100
AcDbLayerTableRecord
  2
특수지정선
 70
     0
 62
     5
  6
CENTERX2
370
    60
390
F
  0
LAYER
  5
12B
330
2
100
AcDbSymbolTableRecord
100
AcDbLayerTableRecord
  2
Defpoints
 70
     0
 62
     7
  6
Continuous
290
     0
370
    -3
390
F
  0
ENDTAB
  0
TABLE
  2
STYLE
  5
3
330
0
100
AcDbSymbolTable
 70
     2
  0
STYLE
  5
11
330
3
100
AcDbSymbolTableRecord
100
AcDbTextStyleTableRecord
  2
Standard
 70
     0
 40
0.0
 41
1.0
 50
0.0
 71
     0
 42
3.5
  3
txt
  4

  0
STYLE
  5
93
330
3
100
AcDbSymbolTableRecord
100
AcDbTextStyleTableRecord
  2
SLDTEXTSTYLE0
 70
     0
 40
0.0
 41
0.75
 50
0.0
 71
     0
 42
3.5
  3
TXT
  4

  0
ENDTAB
  0
TABLE
  2
VIEW
  5
6
330
0
100
AcDbSymbolTable
 70
     0
  0
ENDTAB
  0
TABLE
  2
UCS
  5
7
330
0
100
AcDbSymbolTable
 70
     0
  0
ENDTAB
  0
TABLE
  2
APPID
  5
9
330
0
100
AcDbSymbolTable
 70
     1
  0
APPID
  5
12
330
9
100
AcDbSymbolTableRecord
100
AcDbRegAppTableRecord
  2
ACAD
 70
     0
  0
ENDTAB
  0
TABLE
  2
DIMSTYLE
  5
A
330
0
100
AcDbSymbolTable
 70
     3
100
AcDbDimStyleTable
  0
DIMSTYLE
105
27
330
A
100
AcDbSymbolTableRecord
100
AcDbDimStyleTableRecord
  2
ISO-25
 70
     0
 41
2.5
 42
0.625
 43
3.75
 44
1.25
 73
     0
 74
     0
 77
     1
 78
     8
140
2.5
141
2.5
143
0.03937007874016
147
0.625
171
     3
172
     1
178
     0
271
     2
272
     2
274
     3
278
    44
283
     0
284
     8
340
11
  0
DIMSTYLE
105
D5
102
{ACAD_REACTORS
330
D4
330
F5
102
}
330
A
100
AcDbSymbolTableRecord
100
AcDbDimStyleTableRecord
  2
SLDDIMSTYLE0
 70
     0
 41
3.302
 44
0.0
 45
0.000000001
 73
     0
 74
     0
 77
     1
 78
    12
 79
     3
140
3.5
147
0.875
172
     1
173
     1
178
     0
271
     2
272
     2
276
     2
284
    12
289
     0
340
93
  0
DIMSTYLE
105
E1
102
{ACAD_REACTORS
330
E0
330
EB
102
}
330
A
100
AcDbSymbolTableRecord
100
AcDbDimStyleTableRecord
  2
SLDDIMSTYLE1
 70
     0
 41
3.302
 44
0.0
 45
0.000000001
 73
     0
 74
     0
 77
     1
 78
    12
 79
     3
140
3.5
147
0.875
173
     1
178
     0
271
     2
272
     2
276
     2
284
    12
340
93
  0
ENDTAB
  0
TABLE
  2
BLOCK_RECORD
  5
1
330
0
100
AcDbSymbolTable
 70
     7
  0
BLOCK_RECORD
  5
1F
330
1
100
AcDbSymbolTableRecord
100
AcDbBlockTableRecord
  2
*Model_Space
340
22
  0
BLOCK_RECORD
  5
1B
330
1
100
AcDbSymbolTableRecord
100
AcDbBlockTableRecord
  2
*Paper_Space
340
1E
  0
BLOCK_RECORD
  5
23
330
1
100
AcDbSymbolTableRecord
100
AcDbBlockTableRecord
  2
*Paper_Space0
340
26
  0
BLOCK_RECORD
  5
7E
330
1
100
AcDbSymbolTableRecord
100
AcDbBlockTableRecord
  2
블럭10
340
0
102
{BLKREFS
331
CD
102
}
  0
BLOCK_RECORD
  5
D6
330
1
100
AcDbSymbolTableRecord
100
AcDbBlockTableRecord
  2
_D
340
0
  0
BLOCK_RECORD
  5
E2
330
1
100
AcDbSymbolTableRecord
100
AcDbBlockTableRecord
  2
_D_1
340
0
  0
BLOCK_RECORD
  5
EC
330
1
100
AcDbSymbolTableRecord
100
AcDbBlockTableRecord
  2
_D_2
340
0
  0
BLOCK_RECORD
  5
F6
330
1
100
AcDbSymbolTableRecord
100
AcDbBlockTableRecord
  2
_D_3
340
0
  0
BLOCK_RECORD
  5
100
330
1
100
AcDbSymbolTableRecord
100
AcDbBlockTableRecord
  2
SW_DOWELSYMBOL_0
340
0
102
{BLKREFS
331
106
102
}
  0
ENDTAB
  0
ENDSEC
  0
SECTION
  2
BLOCKS
  0
BLOCK
  5
20
330
1F
100
AcDbEntity
  8
0
100
AcDbBlockBegin
  2
*Model_Space
 70
     0
 10
0.0
 20
0.0
 30
0.0
  3
*Model_Space
  1

  0
ENDBLK
  5
21
330
1F
100
AcDbEntity
  8
0
100
AcDbBlockEnd
  0
BLOCK
  5
1C
330
1B
100
AcDbEntity
 67
     1
  8
0
100
AcDbBlockBegin
  2
*Paper_Space
 70
     0
 10
0.0
 20
0.0
 30
0.0
  3
*Paper_Space
  1

  0
ENDBLK
  5
1D
330
1B
100
AcDbEntity
 67
     1
  8
0
100
AcDbBlockEnd
  0
BLOCK
  5
24
330
23
100
AcDbEntity
  8
0
100
AcDbBlockBegin
  2
*Paper_Space0
 70
     0
 10
0.0
 20
0.0
 30
0.0
  3
*Paper_Space0
  1

  0
ENDBLK
  5
25
330
23
100
AcDbEntity
  8
0
100
AcDbBlockEnd
  0
BLOCK
  5
7F
330
7E
100
AcDbEntity
  8
0
100
AcDbBlockBegin
  2
블럭10
 70
     2
 10
0.0
 20
0.0
 30
0.0
  3
블럭10
  1

  0
ELLIPSE
  5
81
330
7E
100
AcDbEntity
  8
중심선
100
AcDbEllipse
 10
20.54032771741204
 20
12.0471743016438
 30
0.0
 11
6.600054785286829
 21
-1.261213355974178E-13
 31
0.0
210
0.0
220
0.0
230
1.0
 40
0.636358354079598
 41
0.9219305317359503
 42
6.513795318482858
  0
ELLIPSE
  5
82
330
7E
100
AcDbEntity
  8
중심선
100
AcDbEllipse
 10
20.54032771746488
 20
12.04717430159265
 30
0.0
 11
3.960054785062283
 21
1.540847449632565E-10
 31
0.0
210
0.0
220
0.0
230
1.0
 40
0.3939339440162632
 41
1.131841032648279
 42
5.62031148352944
  0
LINE
  5
83
330
7E
100
AcDbEntity
  8
중심선
100
AcDbLine
 10
2.268634060543552
 20
16.24717430164393
 30
0.0
 11
5.714909304380834
 21
16.24717430164393
 31
0.0
  0
LINE
  5
84
330
7E
100
AcDbEntity
  8
중심선
100
AcDbLine
 10
5.245725140726316
 20
7.84717430164391
 30
0.0
 11
8.692000384563599
 21
7.84717430164391
 31
0.0
  0
LINE
  5
85
330
7E
100
AcDbEntity
  8
중심선
100
AcDbLine
 10
15.74043728645272
 20
16.24717430164393
 30
0.0
 11
8.692000384563599
 21
7.84717430164391
 31
0.0
  0
LINE
  5
86
330
7E
100
AcDbEntity
  8
중심선
100
AcDbLine
 10
0.1404042013395286
 20
13.71084872107135
 30
0.0
 11
3.58671253028996
 21
13.71088815037384
 31
0.0
  0
LINE
  5
87
330
7E
100
AcDbEntity
  8
중심선
100
AcDbLine
 10
2.750260043222114
 20
10.84717430164391
 30
0.0
 11
6.196535287059397
 21
10.84717430164391
 31
0.0
  0
LINE
  5
88
330
7E
100
AcDbEntity
  8
중심선
100
AcDbLine
 10
12.29416204261559
 20
16.24717430164393
 30
0.0
 11
5.245725140726316
 21
7.84717430164391
 31
0.0
  0
LINE
  5
89
330
7E
100
AcDbEntity
  8
중심선
100
AcDbLine
 10
10.72767329541681
 20
16.24717430164393
 30
0.0
 11
6.196535287059397
 21
10.84717430164391
 31
0.0
  0
LINE
  5
8A
330
7E
100
AcDbEntity
  8
중심선
100
AcDbLine
 10
7.28139805157953
 20
16.24717430164393
 30
0.0
 11
2.750260043222114
 21
10.84717430164391
 31
0.0
  0
LINE
  5
8B
330
7E
100
AcDbEntity
  8
중심선
100
AcDbLine
 10
5.714909304380834
 20
16.24717430164393
 30
0.0
 11
3.58671253028996
 21
13.71088815037384
 31
0.0
  0
LINE
  5
8C
330
7E
100
AcDbEntity
  8
중심선
100
AcDbLine
 10
2.268634060543552
 20
16.24717430164393
 30
0.0
 11
0.1404042013395286
 21
13.71084872107135
 31
0.0
  0
LINE
  5
8D
330
7E
100
AcDbEntity
  8
중심선
100
AcDbLine
 10
7.28139805157953
 20
16.24717430164393
 30
0.0
 11
10.72767329541681
 21
16.24717430164393
 31
0.0
  0
LINE
  5
8E
330
7E
100
AcDbEntity
  8
중심선
100
AcDbLine
 10
12.29416204261559
 20
16.24717430164393
 30
0.0
 11
15.74043728645272
 21
16.24717430164393
 31
0.0
  0
LINE
  5
8F
330
7E
100
AcDbEntity
  8
중심선
100
AcDbLine
 10
19.22036997980202
 20
11.08717430171403
 30
0.0
 11
23.66174974927406
 21
11.08717430171406
 31
0.0
  0
LINE
  5
90
330
7E
100
AcDbEntity
  8
중심선
100
AcDbLine
 10
19.22039502424796
 20
13.00717430171391
 30
0.0
 11
19.22036997980202
 21
11.08717430171403
 31
0.0
  0
LINE
  5
91
330
7E
100
AcDbEntity
  8
중심선
100
AcDbLine
 10
19.22039502424796
 20
13.00717430171391
 30
0.0
 11
26.96566020931264
 21
13.00717430171391
 31
0.0
  0
LINE
  5
92
330
7E
100
AcDbEntity
  8
중심선
100
AcDbLine
 10
22.22332737316547
 20
13.45928029700563
 30
0.0
 11
24.52862924686651
 21
15.39360700705356
 31
0.0
  0
ATTDEF
  5
94
330
7E
100
AcDbEntity
  8
FORMAT
 62
     2
100
AcDbText
 10
-16.11926103943555
 20
2.075366912832191
 30
0.0
 40
4.233333333333333
  1
SEME7025090E [ 2 FLUTE ]
 41
0.75
  7
SLDTEXTSTYLE0
 11
-16.11926103943555
 21
-0.0412997538344756
 31
0.0
100
AcDbAttributeDefinition
  3

  2
AUTOATTR0
 70
     0
 74
     1
  0
ENDBLK
  5
80
330
7E
100
AcDbEntity
  8
0
100
AcDbBlockEnd
  0
BLOCK
  5
D7
330
D6
100
AcDbEntity
  8
0
100
AcDbBlockBegin
  2
_D
 70
     0
 10
0.0
 20
0.0
 30
0.0
  3
_D
  1

  0
LINE
  5
D9
330
D6
100
AcDbEntity
  8
치수문자_일반주서
 62
     0
370
    -2
100
AcDbLine
 10
102.0625
 20
-12.49999999999967
 30
0.0
 11
119.1188487987325
 21
-12.4999999999996
 31
0.0
  0
LINE
  5
DA
330
D6
100
AcDbEntity
  8
치수문자_일반주서
 62
     0
370
    -2
100
AcDbLine
 10
102.0625
 20
12.50000000000034
 30
0.0
 11
119.1188487987324
 21
12.50000000000041
 31
0.0
  0
LINE
  5
DB
330
D6
100
AcDbEntity
  8
치수문자_일반주서
 62
     0
370
    -2
100
AcDbLine
 10
119.1188487987325
 20
-12.4999999999996
 30
0.0
 11
119.1188487987324
 21
27.85400000000041
 31
0.0
  0
LINE
  5
DC
330
D6
100
AcDbEntity
  8
치수문자_일반주서
 62
     0
370
    -2
100
AcDbLine
 10
119.1188487987325
 20
-12.4999999999996
 30
0.0
 11
119.1188487987324
 21
12.50000000000041
 31
0.0
  0
LINE
  5
DD
330
D6
100
AcDbEntity
  8
치수문자_일반주서
 62
     0
370
    -2
100
AcDbLine
 10
119.1188487987325
 20
-15.8019999999996
 30
0.0
 11
119.1188487987325
 21
-19.1039999999996
 31
0.0
  0
LINE
  5
DE
330
D6
100
AcDbEntity
  8
치수문자_일반주서
 62
     0
370
    -2
100
AcDbLine
 10
119.1188487987324
 20
15.80200000000041
 30
0.0
 11
119.1188487987324
 21
19.10400000000041
 31
0.0
  0
SOLID
  5
DF
330
D6
100
AcDbEntity
  8
치수문자_일반주서
 62
     0
100
AcDbTrace
 10
119.6691821320659
 20
-15.8019999999996
 30
0.0
 11
118.5685154653992
 21
-15.8019999999996
 31
0.0
 12
119.1188487987325
 22
-12.4999999999996
 32
0.0
 13
119.1188487987325
 23
-12.4999999999996
 33
0.0
  0
SOLID
  5
12C
330
D6
100
AcDbEntity
  8
치수문자_일반주서
 62
     0
100
AcDbTrace
 10
118.5685154653991
 20
15.80200000000041
 30
0.0
 11
119.6691821320657
 21
15.80200000000041
 31
0.0
 12
119.1188487987324
 22
12.50000000000041
 32
0.0
 13
119.1188487987324
 23
12.50000000000041
 33
0.0
  0
MTEXT
  5
12D
330
D6
100
AcDbEntity
  8
치수문자_일반주서
 62
     0
100
AcDbMText
 10
114.7438487987324
 20
23.47900000000039
 30
0.0
 40
3.5
 41
0.0
 71
     2
 72
     1
  1
\A1;%%c25
  7
SLDTEXTSTYLE0
 11
-3.410605131648480E-15
 21
1.0
 31
0.0
 73
     1
 44
1.0
  0
POINT
  5
12E
330
D6
100
AcDbEntity
  8
Defpoints
 62
     0
100
AcDbPoint
 10
102.0
 20
-12.49999999999967
 30
0.0
  0
POINT
  5
12F
330
D6
100
AcDbEntity
  8
Defpoints
 62
     0
100
AcDbPoint
 10
102.0
 20
12.50000000000034
 30
0.0
  0
POINT
  5
130
330
D6
100
AcDbEntity
  8
Defpoints
 62
     0
100
AcDbPoint
 10
119.1188487987324
 20
12.50000000000041
 30
0.0
  0
ENDBLK
  5
D8
330
D6
100
AcDbEntity
  8
0
100
AcDbBlockEnd
  0
BLOCK
  5
E3
330
E2
100
AcDbEntity
  8
0
100
AcDbBlockBegin
  2
_D_1
 70
     0
 10
0.0
 20
0.0
 30
0.0
  3
_D_1
  1

  0
LINE
  5
E5
330
E2
100
AcDbEntity
  8
치수문자_일반주서
 62
     0
370
    -2
100
AcDbLine
 10
-47.99999999999999
 20
11.5625
 30
0.0
 11
-47.99999999999999
 21
33.2884104402427
 31
0.0
  0
LINE
  5
E6
330
E2
100
AcDbEntity
  8
치수문자_일반주서
 62
     0
370
    -2
100
AcDbLine
 10
102.0
 20
12.56250000000034
 30
0.0
 11
102.0
 21
33.2884104402427
 31
0.0
  0
LINE
  5
E7
330
E2
100
AcDbEntity
  8
치수문자_일반주서
 62
     0
370
    -2
100
AcDbLine
 10
-44.69799999999999
 20
33.2884104402427
 30
0.0
 11
98.69800000000001
 21
33.2884104402427
 31
0.0
  0
SOLID
  5
E8
330
E2
100
AcDbEntity
  8
치수문자_일반주서
 62
     0
100
AcDbTrace
 10
-44.69799999999999
 20
33.83874377357603
 30
0.0
 11
-44.69799999999999
 21
32.73807710690937
 31
0.0
 12
-47.99999999999999
 22
33.2884104402427
 32
0.0
 13
-47.99999999999999
 23
33.2884104402427
 33
0.0
  0
SOLID
  5
E9
330
E2
100
AcDbEntity
  8
치수문자_일반주서
 62
     0
100
AcDbTrace
 10
98.69800000000001
 20
32.73807710690937
 30
0.0
 11
98.69800000000001
 21
33.83874377357603
 31
0.0
 12
102.0
 22
33.2884104402427
 32
0.0
 13
102.0
 23
33.2884104402427
 33
0.0
  0
MTEXT
  5
EA
330
E2
100
AcDbEntity
  8
치수문자_일반주서
 62
     0
100
AcDbMText
 10
27.00000000000001
 20
37.6634104402427
 30
0.0
 40
3.5
 41
0.0
 71
     2
 72
     1
  1
\A1;150
  7
SLDTEXTSTYLE0
 73
     1
 44
1.0
  0
POINT
  5
136
330
E2
100
AcDbEntity
  8
Defpoints
 62
     0
100
AcDbPoint
 10
-47.99999999999999
 20
11.5
 30
0.0
  0
POINT
  5
137
330
E2
100
AcDbEntity
  8
Defpoints
 62
     0
100
AcDbPoint
 10
102.0
 20
12.50000000000034
 30
0.0
  0
POINT
  5
138
330
E2
100
AcDbEntity
  8
Defpoints
 62
     0
100
AcDbPoint
 10
102.0
 20
33.2884104402427
 30
0.0
  0
ENDBLK
  5
E4
330
E2
100
AcDbEntity
  8
0
100
AcDbBlockEnd
  0
BLOCK
  5
ED
330
EC
100
AcDbEntity
  8
0
100
AcDbBlockBegin
  2
_D_2
 70
     0
 10
0.0
 20
0.0
 30
0.0
  3
_D_2
  1

  0
LINE
  5
EF
330
EC
100
AcDbEntity
  8
치수문자_일반주서
 62
     0
370
    -2
100
AcDbLine
 10
12.0
 20
8.5592151766369
 30
0.0
 11
12.00000000000001
 21
21.84371298280441
 31
0.0
  0
LINE
  5
F0
330
EC
100
AcDbEntity
  8
치수문자_일반주서
 62
     0
370
    -2
100
AcDbLine
 10
102.0
 20
12.56250000000034
 30
0.0
 11
102.0
 21
21.84371298280441
 31
0.0
  0
LINE
  5
F1
330
EC
100
AcDbEntity
  8
치수문자_일반주서
 62
     0
370
    -2
100
AcDbLine
 10
15.30200000000001
 20
21.84371298280441
 30
0.0
 11
98.69800000000001
 21
21.84371298280441
 31
0.0
  0
SOLID
  5
F2
330
EC
100
AcDbEntity
  8
치수문자_일반주서
 62
     0
100
AcDbTrace
 10
15.30200000000001
 20
22.39404631613775
 30
0.0
 11
15.30200000000001
 21
21.29337964947108
 31
0.0
 12
12.00000000000001
 22
21.84371298280441
 32
0.0
 13
12.00000000000001
 23
21.84371298280441
 33
0.0
  0
SOLID
  5
F3
330
EC
100
AcDbEntity
  8
치수문자_일반주서
 62
     0
100
AcDbTrace
 10
98.69800000000001
 20
21.29337964947108
 30
0.0
 11
98.69800000000001
 21
22.39404631613775
 31
0.0
 12
102.0
 22
21.84371298280441
 32
0.0
 13
102.0
 23
21.84371298280441
 33
0.0
  0
MTEXT
  5
F4
330
EC
100
AcDbEntity
  8
치수문자_일반주서
 62
     0
100
AcDbMText
 10
57.00000000000002
 20
26.21871298280441
 30
0.0
 40
3.5
 41
0.0
 71
     2
 72
     1
  1
\A1;90
  7
SLDTEXTSTYLE0
 73
     1
 44
1.0
  0
POINT
  5
139
330
EC
100
AcDbEntity
  8
Defpoints
 62
     0
100
AcDbPoint
 10
12.0
 20
8.4967151766369
 30
0.0
  0
POINT
  5
13A
330
EC
100
AcDbEntity
  8
Defpoints
 62
     0
100
AcDbPoint
 10
102.0
 20
12.50000000000034
 30
0.0
  0
POINT
  5
13B
330
EC
100
AcDbEntity
  8
Defpoints
 62
     0
100
AcDbPoint
 10
102.0
 20
21.84371298280441
 30
0.0
  0
ENDBLK
  5
EE
330
EC
100
AcDbEntity
  8
0
100
AcDbBlockEnd
  0
BLOCK
  5
F7
330
F6
100
AcDbEntity
  8
0
100
AcDbBlockBegin
  2
_D_3
 70
     0
 10
0.0
 20
0.0
 30
0.0
  3
_D_3
  1

  0
LINE
  5
F9
330
F6
100
AcDbEntity
  8
치수문자_일반주서
 62
     0
370
    -2
100
AcDbLine
 10
-47.06249999999998
 20
12.5
 30
0.0
 11
-62.93828781384578
 21
12.49999999999994
 31
0.0
  0
LINE
  5
FA
330
F6
100
AcDbEntity
  8
치수문자_일반주서
 62
     0
370
    -2
100
AcDbLine
 10
-47.06249999999998
 20
-12.5
 30
0.0
 11
-62.9382878138457
 21
-12.50000000000006
 31
0.0
  0
LINE
  5
FB
330
F6
100
AcDbEntity
  8
치수문자_일반주서
 62
     0
370
    -2
100
AcDbLine
 10
-62.93828781384578
 20
12.49999999999994
 30
0.0
 11
-62.93828781384583
 21
27.85399999999995
 31
0.0
  0
LINE
  5
FC
330
F6
100
AcDbEntity
  8
치수문자_일반주서
 62
     0
370
    -2
100
AcDbLine
 10
-62.93828781384578
 20
12.49999999999994
 30
0.0
 11
-62.9382878138457
 21
-12.50000000000006
 31
0.0
  0
LINE
  5
FD
330
F6
100
AcDbEntity
  8
치수문자_일반주서
 62
     0
370
    -2
100
AcDbLine
 10
-62.9382878138458
 20
15.80199999999994
 30
0.0
 11
-62.93828781384581
 21
19.10399999999994
 31
0.0
  0
LINE
  5
FE
330
F6
100
AcDbEntity
  8
치수문자_일반주서
 62
     0
370
    -2
100
AcDbLine
 10
-62.93828781384568
 20
-15.80200000000006
 30
0.0
 11
-62.93828781384567
 21
-19.10400000000006
 31
0.0
  0
SOLID
  5
FF
330
F6
100
AcDbEntity
  8
치수문자_일반주서
 62
     0
100
AcDbTrace
 10
-63.48862114717913
 20
15.80199999999994
 30
0.0
 11
-62.38795448051246
 21
15.80199999999994
 31
0.0
 12
-62.93828781384578
 22
12.49999999999994
 32
0.0
 13
-62.93828781384578
 23
12.49999999999994
 33
0.0
  0
SOLID
  5
131
330
F6
100
AcDbEntity
  8
치수문자_일반주서
 62
     0
100
AcDbTrace
 10
-62.38795448051235
 20
-15.80200000000006
 30
0.0
 11
-63.48862114717902
 21
-15.80200000000007
 31
0.0
 12
-62.9382878138457
 22
-12.50000000000006
 32
0.0
 13
-62.9382878138457
 23
-12.50000000000006
 33
0.0
  0
MTEXT
  5
132
330
F6
100
AcDbEntity
  8
치수문자_일반주서
 62
     0
100
AcDbMText
 10
-67.31328781384582
 20
23.47899999999993
 30
0.0
 40
3.5
 41
0.0
 71
     2
 72
     1
  1
\A1;%%c25
  7
SLDTEXTSTYLE0
 11
-3.410605131648481E-15
 21
1.0
 31
0.0
 73
     1
 44
1.0
  0
POINT
  5
133
330
F6
100
AcDbEntity
  8
Defpoints
 62
     0
100
AcDbPoint
 10
-46.99999999999998
 20
12.5
 30
0.0
  0
POINT
  5
134
330
F6
100
AcDbEntity
  8
Defpoints
 62
     0
100
AcDbPoint
 10
-46.99999999999998
 20
-12.5
 30
0.0
  0
POINT
  5
135
330
F6
100
AcDbEntity
  8
Defpoints
 62
     0
100
AcDbPoint
 10
-62.9382878138457
 20
-12.50000000000006
 30
0.0
  0
ENDBLK
  5
F8
330
F6
100
AcDbEntity
  8
0
100
AcDbBlockEnd
  0
BLOCK
  5
101
330
100
100
AcDbEntity
  8
0
100
AcDbBlockBegin
  2
SW_DOWELSYMBOL_0
 70
     0
 10
0.0
 20
0.0
 30
0.0
  3
SW_DOWELSYMBOL_0
  1

  0
CIRCLE
  5
103
330
100
100
AcDbEntity
  8
외형선
 62
     0
100
AcDbCircle
 10
0.0
 20
0.0
 30
0.0
 40
3.000000000000004
  0
HATCH
  5
104
330
100
100
AcDbEntity
  8
0
  6
Continuous
 62
     0
370
    30
100
AcDbHatch
 10
0.0
 20
0.0
 30
0.0
210
0.0
220
0.0
230
1.0
  2
SOLID
 70
     1
 71
     0
 91
        1
 92
        0
 93
        3
 72
     2
 10
0.0000000000000104
 20
0.0
 40
3.000000000000004
 50
0.0
 51
90.0
 73
     1
 72
     1
 10
0.0000000000000104
 20
3.000000000000004
 11
0.0000000000000104
 21
0.0
 72
     1
 10
0.0000000000000104
 20
0.0
 11
3.000000000000015
 21
0.0
 97
        0
 75
     0
 76
     1
 98
        1
 10
0.0
 20
0.0
  0
HATCH
  5
105
330
100
100
AcDbEntity
  8
0
  6
Continuous
 62
     0
370
    30
100
AcDbHatch
 10
0.0
 20
0.0
 30
0.0
210
0.0
220
0.0
230
1.0
  2
SOLID
 70
     1
 71
     0
 91
        1
 92
        0
 93
        3
 72
     2
 10
0.0000000000000104
 20
0.0
 40
3.000000000000004
 50
180.0
 51
270.0000000000008
 73
     1
 72
     1
 10
0.0000000000000104
 20
-3.000000000000004
 11
0.0000000000000104
 21
0.0
 72
     1
 10
0.0000000000000104
 20
0.0
 11
-2.999999999999994
 21
0.0
 97
        0
 75
     0
 76
     1
 98
        1
 10
0.0
 20
0.0
  0
ENDBLK
  5
102
330
100
100
AcDbEntity
  8
0
100
AcDbBlockEnd
  0
ENDSEC
  0
SECTION
  2
ENTITIES
  0
SPLINE
  5
95
330
1F
100
AcDbEntity
  8
0
  6
Continuous
 62
     1
370
    15
100
AcDbSpline
210
0.0
220
0.0
230
1.0
 70
     8
 71
     3
 72
     9
 73
     5
 74
     0
 42
0.000000001
 43
0.00000001
 40
0.0
 40
0.0
 40
0.0
 40
0.0
 40
0.4956330641009384
 40
1.0
 40
1.0
 40
1.0
 40
1.0
 10
69.61561166922989
 20
3.20311007971741
 30
0.0
 10
69.04275091304523
 20
3.476098703447106
 30
0.0
 10
67.88693464960886
 20
4.026886460565142
 30
0.0
 10
66.73113785039222
 20
4.632202189153592
 30
0.0
 10
66.1481921602494
 20
4.937503428433256
 30
0.0
  0
LINE
  5
96
330
1F
100
AcDbEntity
  8
0
  6
Continuous
 62
     1
370
    15
100
AcDbLine
 10
40.93103429699931
 20
12.50000000000001
 30
0.0
 11
34.87344510891104
 21
12.50000000000001
 31
0.0
  0
LINE
  5
97
330
1F
100
AcDbEntity
  8
0
  6
Continuous
 62
     1
370
    15
100
AcDbLine
 10
34.87344510891104
 20
-12.5
 30
0.0
 11
40.93103429699942
 21
-12.5
 31
0.0
  0
SPLINE
  5
98
330
1F
100
AcDbEntity
  8
0
  6
Continuous
 62
     1
370
    15
100
AcDbSpline
210
0.0
220
0.0
230
1.0
 70
     8
 71
     3
 72
    18
 73
    14
 74
     0
 42
0.000000001
 43
0.00000001
 40
0.0
 40
0.0
 40
0.0
 40
0.0
 40
0.1210261917061714
 40
0.2149952112554299
 40
0.2828339279693246
 40
0.3389927759916597
 40
0.3881993484422822
 40
0.4797141700689667
 40
0.5777688294544929
 40
0.6735988155647349
 40
0.7946535224291753
 40
0.9146198805169554
 40
1.0
 40
1.0
 40
1.0
 40
1.0
 10
65.48415677147351
 20
9.932986911746108
 30
0.0
 10
65.08015156445049
 20
9.912523072631286
 30
0.0
 10
64.36246241297255
 20
9.876170384410955
 30
0.0
 10
63.41231598161519
 20
9.83891985354594
 30
0.0
 10
62.66979012647091
 20
9.814772222437274
 30
0.0
 10
62.07992500951342
 20
9.798691219865537
 30
0.0
 10
61.41270406824283
 20
9.783475826952621
 30
0.0
 10
60.60823988605107
 20
9.769998452620353
 30
0.0
 10
59.64430396294251
 20
9.76166898133491
 30
0.0
 10
58.58201648341295
 20
9.761314758738465
 30
0.0
 10
57.44500831900515
 20
9.771823650766061
 30
0.0
 10
56.34344587478697
 20
9.792416943321596
 30
0.0
 10
55.65060458976181
 20
9.813363439121654
 30
0.0
 10
55.36253112291683
 20
9.822072691577876
 30
0.0
  0
SPLINE
  5
99
330
1F
100
AcDbEntity
  8
0
  6
Continuous
 62
     1
370
    15
100
AcDbSpline
210
0.0
220
0.0
230
1.0
 70
     8
 71
     3
 72
    30
 73
    26
 74
     0
 42
0.000000001
 43
0.00000001
 40
0.0
 40
0.0
 40
0.0
 40
0.0
 40
0.053834396905966
 40
0.0998637345891031
 40
0.1388553813603149
 40
0.1668430683933175
 40
0.1888082996163085
 40
0.2214234459339551
 40
0.2636146868646586
 40
0.3016921688134388
 40
0.333227579509371
 40
0.3723328378114484
 40
0.4178571366253604
 40
0.4570250450621774
 40
0.5084762829658478
 40
0.5729475901801477
 40
0.6380037886044059
 40
0.6895039305886688
 40
0.7341587484264961
 40
0.7770993437594153
 40
0.8198536808320719
 40
0.8497239610483314
 40
0.8860106401734492
 40
0.9359936838315646
 40
1.0
 40
1.0
 40
1.0
 40
1.0
 10
46.6831532645697
 20
-10.40173391324011
 30
0.0
 10
47.00297494956919
 20
-10.36987479606915
 30
0.0
 10
47.59624969029706
 20
-10.31077558433354
 30
0.0
 10
48.48153458660088
 20
-10.23145638686116
 30
0.0
 10
49.19771385615045
 20
-10.17285308808454
 30
0.0
 10
49.76860392987638
 20
-10.12742190885441
 30
0.0
 10
50.27602444220312
 20
-10.08951965614975
 30
0.0
 10
50.88831567104848
 20
-10.04583504997902
 30
0.0
 10
51.60251250317849
 20
-9.99875738186742
 30
0.0
 10
52.30671678114845
 20
-9.95671506808123
 30
0.0
 10
52.97523342809623
 20
-9.920683348540994
 30
0.0
 10
53.70232704987841
 20
-9.885066691095634
 30
0.0
 10
54.48004784188455
 20
-9.85214982375153
 30
0.0
 10
55.3347933019139
 20
-9.821556859320177
 30
0.0
 10
56.30848757482222
 20
-9.793650479982901
 30
0.0
 10
57.4450124981602
 20
-9.771650799726302
 30
0.0
 10
58.58199975615408
 20
-9.76135024556285
 30
0.0
 10
59.59388228343821
 20
-9.761646356141542
 30
0.0
 10
60.46778235545086
 20
-9.76864221951079
 30
0.0
 10
61.28583443587148
 20
-9.780893828344766
 30
0.0
 10
62.01300510418346
 20
-9.796768085127864
 30
0.0
 10
62.70355122946164
 20
-9.815793846500657
 30
0.0
 10
63.43932420636699
 20
-9.839918794366458
 30
0.0
 10
64.37854345656851
 20
-9.876939229600275
 30
0.0
 10
65.08658399338063
 20
-9.912832457746688
 30
0.0
 10
65.48415677147348
 20
-9.932986911746093
 30
0.0
  0
SPLINE
  5
9A
330
1F
100
AcDbEntity
  8
0
  6
Continuous
 62
     1
370
    15
100
AcDbSpline
210
0.0
220
0.0
230
1.0
 70
     8
 71
     3
 72
    18
 73
    14
 74
     0
 42
0.000000001
 43
0.00000001
 40
0.0
 40
0.0
 40
0.0
 40
0.0
 40
0.07384028643272
 40
0.1462125300756519
 40
0.2655548808589001
 40
0.3678769707504626
 40
0.4545845063122425
 40
0.5484791001305287
 40
0.6697046841539331
 40
0.7556502250275854
 40
0.826424246253681
 40
0.9122993899825436
 40
1.0
 40
1.0
 40
1.0
 40
1.0
 10
75.51905745330514
 20
-9.401672608910506
 30
0.0
 10
75.7090162311911
 20
-9.371176503955924
 30
0.0
 10
76.08515715461627
 20
-9.310790597044184
 30
0.0
 10
76.91193564459616
 20
-9.184436889764704
 30
0.0
 10
77.85665116442753
 20
-9.058490042844369
 30
0.0
 10
78.84594117585067
 20
-8.929842058571367
 30
0.0
 10
79.71671551971082
 20
-8.825617061834116
 30
0.0
 10
80.66058398932188
 20
-8.720236003685034
 30
0.0
 10
81.59993808833109
 20
-8.625809533905825
 30
0.0
 10
82.46766180659311
 20
-8.54785514370424
 30
0.0
 10
83.22433770936391
 20
-8.486158896073636
 30
0.0
 10
83.98702008091725
 20
-8.429496880123699
 30
0.0
 10
84.5287550023399
 20
-8.39595070751651
 30
0.0
 10
84.80247112945499
 20
-8.379001221554887
 30
0.0
  0
SPLINE
  5
9B
330
1F
100
AcDbEntity
  8
0
  6
Continuous
 62
     1
370
    15
100
AcDbSpline
210
0.0
220
0.0
230
1.0
 70
     8
 71
     3
 72
    31
 73
    27
 74
     0
 42
0.000000001
 43
0.00000001
 40
0.0
 40
0.0
 40
0.0
 40
0.0
 40
0.0578939169092001
 40
0.105720672627651
 40
0.1464323756517361
 40
0.1818845544100296
 40
0.2132846151915126
 40
0.252481716415873
 40
0.3023398143481403
 40
0.3476120503788913
 40
0.3820914018980725
 40
0.4228037664531319
 40
0.4686346645326205
 40
0.5070646992061076
 40
0.5425489999725223
 40
0.5867036539962307
 40
0.6379092010115119
 40
0.6790082126244787
 40
0.7154411135346744
 40
0.7541863836712733
 40
0.7969220560520598
 40
0.8317958051042105
 40
0.8531506463708717
 40
0.8856726883319924
 40
0.9346795282474665
 40
1.0
 40
1.0
 40
1.0
 40
1.0
 10
29.33835474521012
 20
8.549407057883228
 30
0.0
 10
29.03490763370274
 20
8.52340668976663
 30
0.0
 10
28.48077976590288
 20
8.475927152146733
 30
0.0
 10
27.62454676512474
 20
8.414525485151442
 30
0.0
 10
26.8812478533949
 20
8.37129393682591
 30
0.0
 10
26.23880602230066
 20
8.336088016680055
 30
0.0
 10
25.62595725333279
 20
8.307099379934288
 30
0.0
 10
24.93240331191099
 20
8.279108244220827
 30
0.0
 10
24.15368853367652
 20
8.254680524402188
 30
0.0
 10
23.4034834218138
 20
8.238378004909872
 30
0.0
 10
22.70494982922622
 20
8.228894309272583
 30
0.0
 10
22.00361536982395
 20
8.22480678668877
 30
0.0
 10
21.27965353307259
 20
8.226988236347047
 30
0.0
 10
20.585963325294
 20
8.235048467184505
 30
0.0
 10
19.90156892931938
 20
8.248180430525151
 30
0.0
 10
19.14363695401083
 20
8.268944605434193
 30
0.0
 10
18.35295511395618
 20
8.298203429718896
 30
0.0
 10
17.60695011906382
 20
8.332731457133361
 30
0.0
 10
16.93314956261214
 20
8.369163057502803
 30
0.0
 10
16.24996936276631
 20
8.411280775809521
 30
0.0
 10
15.57584640005862
 20
8.458372669166685
 30
0.0
 10
15.00230441777209
 20
8.502700161786285
 30
0.0
 10
14.48813688310663
 20
8.545207221177943
 30
0.0
 10
13.89224849726854
 20
8.5976410275923
 30
0.0
 10
13.04146162115641
 20
8.67852222515867
 30
0.0
 10
12.37867856263236
 20
8.750997052916182
 30
0.0
 10
11.99999999999726
 20
8.792405268243167
 30
0.0
  0
SPLINE
  5
9C
330
1F
100
AcDbEntity
  8
0
  6
Continuous
 62
     1
370
    15
100
AcDbSpline
210
0.0
220
0.0
230
1.0
 70
     8
 71
     3
 72
    13
 73
     9
 74
     0
 42
0.000000001
 43
0.00000001
 40
0.0
 40
0.0
 40
0.0
 40
0.0
 40
0.2352398767350684
 40
0.4117291560006291
 40
0.5856960109550762
 40
0.7492414585139533
 40
0.9498492482186042
 40
1.0
 40
1.0
 40
1.0
 40
1.0
 10
11.99999999999726
 20
-8.79240526824316
 30
0.0
 10
12.37867905427088
 20
-8.750996549903803
 30
0.0
 10
13.0414629732864
 20
-8.678520841747691
 30
0.0
 10
13.98369308674956
 20
-8.588951298909745
 30
0.0
 10
14.81031169041163
 20
-8.517330682448442
 30
0.0
 10
15.67633025724883
 20
-8.450800936467756
 30
0.0
 10
16.34277939665529
 20
-8.404337826857754
 30
0.0
 10
16.74624532301051
 20
-8.381515358172622
 30
0.0
 10
16.82693696926503
 20
-8.376950951491661
 30
0.0
  0
SPLINE
  5
9D
330
1F
100
AcDbEntity
  8
0
  6
Continuous
 62
     1
370
    15
100
AcDbSpline
210
0.0
220
0.0
230
1.0
 70
     8
 71
     3
 72
    35
 73
    31
 74
     0
 42
0.000000001
 43
0.00000001
 40
0.0
 40
0.0
 40
0.0
 40
0.0
 40
0.0523011699134482
 40
0.0938442419588852
 40
0.1251661886168703
 40
0.1508160607534666
 40
0.1726778759973386
 40
0.1920914637040276
 40
0.2298406420955807
 40
0.2738103711268881
 40
0.3082722440451106
 40
0.3435509884091833
 40
0.3900395011983306
 40
0.4299710077227848
 40
0.4634060818346551
 40
0.5080988971086919
 40
0.5474428510717247
 40
0.5775469274352095
 40
0.6131280050235394
 40
0.6559353225184426
 40
0.6906278689909623
 40
0.7214177032763333
 40
0.76225839815124
 40
0.7934301563140574
 40
0.8150640043755953
 40
0.8329417861006347
 40
0.8584329961048753
 40
0.8928986669087364
 40
0.93981854380177
 40
1.0
 40
1.0
 40
1.0
 40
1.0
 10
97.3558704078582
 20
8.549410454833875
 30
0.0
 10
96.98770770302866
 20
8.518859300904065
 30
0.0
 10
96.32711158234082
 20
8.464041217747283
 30
0.0
 10
95.4209766640193
 20
8.401847257911779
 30
0.0
 10
94.68204759902035
 20
8.358832021000007
 30
0.0
 10
94.09191620195836
 20
8.328021255753816
 30
0.0
 10
93.59607349038488
 20
8.305163395070494
 30
0.0
 10
93.0358309788856
 20
8.282672231329126
 30
0.0
 10
92.30242976147281
 20
8.258032606432028
 30
0.0
 10
91.4554729971803
 20
8.23850460305401
 30
0.0
 10
90.62723393714796
 20
8.227734409735076
 30
0.0
 10
89.77963778939782
 20
8.224364219984352
 30
0.0
 10
88.89276951920226
 20
8.230158140702548
 30
0.0
 10
88.01938250721456
 20
8.245564340285421
 30
0.0
 10
87.15886289552067
 20
8.268926177067732
 30
0.0
 10
86.30285102119029
 20
8.300650090384481
 30
0.0
 10
85.47099136443984
 20
8.340314362453372
 30
0.0
 10
84.7050689862587
 20
8.383546563081264
 30
0.0
 10
83.91471015543421
 20
8.434807414072015
 30
0.0
 10
83.09086087376059
 20
8.496179314763905
 30
0.0
 10
82.30125584961867
 20
8.562373462768866
 30
0.0
 10
81.52601354046757
 20
8.633502124136113
 30
0.0
 10
80.77730411658516
 20
8.708672022686256
 30
0.0
 10
80.09474513744068
 20
8.783184043374554
 30
0.0
 10
79.58908376759288
 20
8.84124126657401
 30
0.0
 10
79.12284538324074
 20
8.89666374524236
 30
0.0
 10
78.54123888963062
 20
8.969202510255506
 30
0.0
 10
77.74539005240466
 20
9.07293920527472
 30
0.0
 10
76.71457139687472
 20
9.217284874982932
 30
0.0
 10
75.94915411976372
 20
9.335337498287448
 30
0.0
 10
75.51905745330514
 20
9.401672608910518
 30
0.0
  0
LINE
  5
9E
330
1F
100
AcDbEntity
  8
0
  6
Continuous
 62
   131
370
    15
100
AcDbLine
 10
8.94999166133915
 20
12.5
 30
0.0
 11
-46.99999999999998
 21
12.5
 31
0.0
  0
LINE
  5
9F
330
1F
100
AcDbEntity
  8
0
  6
Continuous
 62
   131
370
    15
100
AcDbLine
 10
-46.99999999999998
 20
-12.5
 30
0.0
 11
8.949991661339153
 21
-12.5
 31
0.0
  0
LINE
  5
A0
330
1F
100
AcDbEntity
  8
0
  6
Continuous
 62
   131
370
    15
100
AcDbLine
 10
-46.99999999999998
 20
12.5
 30
0.0
 11
-47.99999999999999
 21
11.5
 31
0.0
  0
LINE
  5
A1
330
1F
100
AcDbEntity
  8
0
  6
Continuous
 62
   131
370
    15
100
AcDbLine
 10
-47.99999999999999
 20
-11.5
 30
0.0
 11
-46.99999999999998
 21
-12.5
 31
0.0
  0
SPLINE
  5
A2
330
1F
100
AcDbEntity
  8
0
  6
Continuous
 62
   131
370
    15
100
AcDbSpline
210
0.0
220
0.0
230
1.0
 70
     8
 71
     3
 72
     9
 73
     5
 74
     0
 42
0.000000001
 43
0.00000001
 40
0.0
 40
0.0
 40
0.0
 40
0.0
 40
0.5566393248639842
 40
1.0
 40
1.0
 40
1.0
 40
1.0
 10
8.949989559073538
 20
-9.179703234138762
 30
0.0
 10
9.525258485387058
 20
-9.101212109587212
 30
0.0
 10
10.55872647914421
 20
-8.960203163496793
 30
0.0
 10
11.55728044121608
 20
-8.843948163520347
 30
0.0
 10
12.0
 20
-8.792405268242847
 30
0.0
  0
SPLINE
  5
A3
330
1F
100
AcDbEntity
  8
0
  6
Continuous
 62
   131
370
    15
100
AcDbSpline
210
0.0
220
0.0
230
1.0
 70
     8
 71
     3
 72
     9
 73
     5
 74
     0
 42
0.000000001
 43
0.00000001
 40
0.0
 40
0.0
 40
0.0
 40
0.0
 40
0.4433606751360157
 40
1.0
 40
1.0
 40
1.0
 40
1.0
 10
12.0
 20
8.792405268242858
 30
0.0
 10
11.55728044121608
 20
8.843948163520354
 30
0.0
 10
10.55872647914421
 20
8.960203163496802
 30
0.0
 10
9.525258485387058
 20
9.101212109587221
 30
0.0
 10
8.949989559073538
 20
9.179703234138772
 30
0.0
  0
SPLINE
  5
A4
330
1F
100
AcDbEntity
  8
0
  6
Continuous
 62
     1
370
    15
100
AcDbSpline
210
0.0
220
0.0
230
1.0
 70
     8
 71
     3
 72
    24
 73
    20
 74
     0
 42
0.000000001
 43
0.00000001
 40
0.0
 40
0.0
 40
0.0
 40
0.0
 40
0.0577744027617274
 40
0.1155486021412958
 40
0.1733226041432989
 40
0.2310964147777302
 40
0.2888700400598197
 40
0.3466434860098666
 40
0.4044167586530835
 40
0.4621898640194269
 40
0.522708868294287
 40
0.5832269943834805
 40
0.6437441744666007
 40
0.7042605365374134
 40
0.7647775812694063
 40
0.8252955813213114
 40
0.885814468890132
 40
0.9463341760502367
 40
1.0
 40
1.0
 40
1.0
 40
1.0
 10
102.0
 20
-11.86176086539874
 30
0.0
 10
100.8239294518086
 20
-11.61719749873066
 30
0.0
 10
98.47179249552514
 20
-11.1280716263264
 30
0.0
 10
94.9435963229109
 20
-10.01532152375456
 30
0.0
 10
91.41541439251291
 20
-8.659773895433986
 30
0.0
 10
87.88724666580885
 20
-7.06873531639377
 30
0.0
 10
84.3590920078318
 20
-5.292027186531686
 30
0.0
 10
80.83095235364557
 20
-3.374675623738372
 30
0.0
 10
77.3028184523564
 20
-1.368015007048738
 30
0.0
 10
73.71882380350014
 20
0.7072359099127878
 30
0.0
 10
70.07885471807585
 20
2.79615383554864
 30
0.0
 10
66.38306703981917
 20
4.835819582141433
 30
0.0
 10
62.68733562523188
 20
6.734860761649797
 30
0.0
 10
58.99164411789827
 20
8.438297936825455
 30
0.0
 10
55.29592173979308
 20
9.895764568382884
 30
0.0
 10
51.60013680380043
 20
11.06800128314974
 30
0.0
 10
47.90428650567154
 20
11.90937835087984
 30
0.0
 10
44.34791345666382
 20
12.41855077214999
 30
0.0
 10
42.0234868147346
 20
12.46153563222517
 30
0.0
 10
40.93103429699934
 20
12.48173799859223
 30
0.0
  0
SPLINE
  5
A5
330
1F
100
AcDbEntity
  8
0
  6
Continuous
 62
     1
370
    15
100
AcDbSpline
210
0.0
220
0.0
230
1.0
 70
     8
 71
     3
 72
    16
 73
    12
 74
     0
 42
0.000000001
 43
0.00000001
 40
0.0
 40
0.0
 40
0.0
 40
0.0
 40
0.1194953647462784
 40
0.2390020418594766
 40
0.3585177915223943
 40
0.4780403655909446
 40
0.5975675096497726
 40
0.7170969650802256
 40
0.8366264711366002
 40
0.9561537670265976
 40
1.0
 40
1.0
 40
1.0
 40
1.0
 10
102.0
 20
-9.862153304602685
 30
0.0
 10
100.707902782347
 20
-9.59567823604223
 30
0.0
 10
98.12358602700063
 20
-9.062702872304724
 30
0.0
 10
94.24687965411957
 20
-7.888927796357143
 30
0.0
 10
90.36984004145417
 20
-6.485502027639168
 30
0.0
 10
86.49254493936367
 20
-4.868417734016329
 30
0.0
 10
82.61508006857935
 20
-3.097733057924466
 30
0.0
 10
78.73752854365262
 20
-1.22562707579436
 30
0.0
 10
74.85997689479208
 20
0.6784963131614551
 30
0.0
 10
71.80082465471895
 20
2.184463873994314
 30
0.0
 10
70.03421063603912
 20
2.997739341289907
 30
0.0
 10
69.56008627589335
 20
3.216006436691945
 30
0.0
  0
LINE
  5
A6
330
1F
100
AcDbEntity
  8
0
  6
Continuous
 62
     1
370
    15
100
AcDbLine
 10
102.0
 20
-11.86176086539874
 30
0.0
 11
102.0
 21
-9.862153304602685
 31
0.0
  0
SPLINE
  5
A7
330
1F
100
AcDbEntity
  8
0
  6
Continuous
 62
     1
370
    15
100
AcDbSpline
210
0.0
220
0.0
230
1.0
 70
     8
 71
     3
 72
    31
 73
    27
 74
     0
 42
0.000000001
 43
0.00000001
 40
0.0
 40
0.0
 40
0.0
 40
0.0
 40
0.0261817294522361
 40
0.0676040500972486
 40
0.1090262756494614
 40
0.1504484104521461
 40
0.191870458851065
 40
0.2332924251943512
 40
0.2747143138323905
 40
0.3181080975112958
 40
0.361501463575425
 40
0.4048943630689277
 40
0.4482867471005586
 40
0.4916785668504092
 40
0.5350697735766174
 40
0.5784603186220562
 40
0.6218501594940002
 40
0.6652401253160609
 40
0.7086307926766552
 40
0.7520221129931624
 40
0.7954140375927589
 40
0.8363303800850538
 40
0.8772471209414836
 40
0.9181642868122716
 40
0.959081904308562
 40
1.0
 40
1.0
 40
1.0
 40
1.0
 10
16.8261810600399
 20
8.376634591465436
 30
0.0
 10
17.56950711149265
 20
8.696122180645151
 30
0.0
 10
19.4888551710881
 20
9.521073604261302
 30
0.0
 10
22.58422066277644
 20
10.58072461583436
 30
0.0
 10
26.1122749699873
 20
11.54295788268059
 30
0.0
 10
29.64032086507682
 20
12.19003549857216
 30
0.0
 10
33.16835446395402
 20
12.51663606761804
 30
0.0
 10
36.69639267750438
 20
12.51093492991783
 30
0.0
 10
40.28035985429823
 20
12.16860291952999
 30
0.0
 10
43.92048635362927
 20
11.480112565059
 30
0.0
 10
47.6165123351193
 20
10.44728731377578
 30
0.0
 10
51.31250526557837
 20
9.110741828013763
 30
0.0
 10
55.00844157841944
 20
7.509338403977311
 30
0.0
 10
58.70432135369558
 20
5.689636447549817
 30
0.0
 10
62.40013790996149
 20
3.70454043144206
 30
0.0
 10
66.09588818756822
 20
1.611765061537547
 30
0.0
 10
69.79158706075472
 20
-0.52787399708943
 30
0.0
 10
73.48729230329859
 20
-2.652159867418955
 30
0.0
 10
77.18305689227331
 20
-4.699357130737797
 30
0.0
 10
80.87887645022244
 20
-6.609908642394622
 30
0.0
 10
84.50449738057245
 20
-8.295788077528048
 30
0.0
 10
88.05972479321153
 20
-9.722141846421385
 30
0.0
 10
91.5447350815416
 20
-10.87067526878509
 30
0.0
 10
95.02977924113934
 20
-11.73195368323397
 30
0.0
 10
98.51487152756934
 20
-12.31311815972723
 30
0.0
 10
100.8382859836777
 20
-12.43066261787143
 30
0.0
 10
102.0
 20
-12.49999999999967
 30
0.0
  0
LINE
  5
A8
330
1F
100
AcDbEntity
  8
0
  6
Continuous
 62
     1
370
    15
100
AcDbLine
 10
102.0
 20
-12.49999999999967
 30
0.0
 11
102.0000000000011
 21
-11.86176086539876
 31
0.0
  0
SPLINE
  5
A9
330
1F
100
AcDbEntity
  8
0
  6
Continuous
 62
     1
370
    15
100
AcDbSpline
210
0.0
220
0.0
230
1.0
 70
     8
 71
     3
 72
    18
 73
    14
 74
     0
 42
0.000000001
 43
0.00000001
 40
0.0
 40
0.0
 40
0.0
 40
0.0
 40
0.0383209091211389
 40
0.1449478317355967
 40
0.2515999924026064
 40
0.3582336658752194
 40
0.464815199286148
 40
0.5714326649527534
 40
0.6780834506028327
 40
0.7847238416043569
 40
0.8913121213851823
 40
0.9979186403426179
 40
1.0
 40
1.0
 40
1.0
 40
1.0
 10
70.93541025097072
 20
-1.17959637057558
 30
0.0
 10
70.40407979116567
 20
-0.9686038767898723
 30
0.0
 10
68.39433628950798
 20
-0.1705303136067276
 30
0.0
 10
64.90560268877482
 20
1.254113663592133
 30
0.0
 10
60.46956630538208
 20
2.999184777270181
 30
0.0
 10
56.03419426228673
 20
4.622462097238409
 30
0.0
 10
51.59970405909297
 20
6.051862702296854
 30
0.0
 10
47.16468094047368
 20
7.228714451324256
 30
0.0
 10
42.72869836130709
 20
8.100263484118502
 30
0.0
 10
38.29313189560204
 20
8.644178027621445
 30
0.0
 10
33.8585443376483
 20
8.78544281689058
 30
0.0
 10
30.87360379843426
 20
8.736798924781862
 30
0.0
 10
29.3665230970654
 20
8.549616611801627
 30
0.0
 10
29.33766268491802
 20
8.546032093272256
 30
0.0
  0
SPLINE
  5
AA
330
1F
100
AcDbEntity
  8
0
  6
Continuous
 62
     1
370
    15
100
AcDbSpline
210
0.0
220
0.0
230
1.0
 70
     8
 71
     3
 72
    20
 73
    16
 74
     0
 42
0.000000001
 43
0.00000001
 40
0.0
 40
0.0
 40
0.0
 40
0.0
 40
0.001535697441466
 40
0.0867652930269124
 40
0.1719961385331713
 40
0.2572281382982229
 40
0.3424611965004462
 40
0.4276952171717799
 40
0.5129301042109261
 40
0.5981657613965914
 40
0.6785314967469779
 40
0.7588977356343505
 40
0.8392645307329869
 40
0.9196319346658981
 40
1.0
 40
1.0
 40
1.0
 40
1.0
 10
55.36253112291683
 20
-9.822072691577862
 30
0.0
 10
55.34033385873538
 20
-9.83080068654028
 30
0.0
 10
54.08621173865016
 20
-10.32392323789952
 30
0.0
 10
51.60013583716566
 20
-11.04600770974149
 30
0.0
 10
47.90428694448524
 20
-11.92055556077477
 30
0.0
 10
44.20837619544441
 20
-12.41581320793598
 30
0.0
 10
40.51241212890787
 20
-12.55889916669018
 30
0.0
 10
36.81639278768641
 20
-12.33452333822241
 30
0.0
 10
33.12034741372703
 20
-11.7521817304414
 30
0.0
 10
29.49459380355808
 20
-10.84561893163388
 30
0.0
 10
25.93945690107645
 20
-9.662504841557913
 30
0.0
 10
22.45462587834312
 20
-8.253405192915803
 30
0.0
 10
18.96978260543349
 20
-6.629495708405481
 30
0.0
 10
15.48490361758011
 20
-4.839586957694593
 30
0.0
 10
13.16163772581471
 20
-3.549497071172432
 30
0.0
 10
11.99999999999504
 20
-2.904449473652801
 30
0.0
  0
SPLINE
  5
AB
330
1F
100
AcDbEntity
  8
0
  6
Continuous
 62
   131
370
    15
100
AcDbSpline
210
0.0
220
0.0
230
1.0
 70
    24
 71
     3
 72
     8
 73
     4
 74
     0
 42
0.000000001
 43
0.00000001
 40
0.0
 40
0.0
 40
0.0
 40
0.0
 40
1.0
 40
1.0
 40
1.0
 40
1.0
 10
12.00000000000015
 20
-1.841431348155076
 30
0.0
 10
12.00000000000015
 20
-2.148797940571403
 30
0.0
 10
12.00000000000015
 20
-2.505206232504936
 30
0.0
 10
12.00000000000015
 20
-2.904449473648178
 30
0.0
  0
SPLINE
  5
AC
330
1F
100
AcDbEntity
  8
0
  6
Continuous
 62
     1
370
    15
100
AcDbSpline
210
0.0
220
0.0
230
1.0
 70
     8
 71
     3
 72
    17
 73
    13
 74
     0
 42
0.000000001
 43
0.00000001
 40
0.0
 40
0.0
 40
0.0
 40
0.0
 40
0.0820186932473458
 40
0.1937838957325243
 40
0.3055534661095964
 40
0.4173252924809738
 40
0.5290972608730149
 40
0.6408672571813613
 40
0.7526331691165259
 40
0.8350851582002616
 40
0.9175307952296404
 40
1.0
 40
1.0
 40
1.0
 40
1.0
 10
46.6902802263226
 20
-10.36835380221672
 30
0.0
 10
45.74183816521585
 20
-10.45912726242233
 30
0.0
 10
43.50097342815426
 20
-10.67359586770377
 30
0.0
 10
39.9675942203094
 20
-10.61614841163683
 30
0.0
 10
36.09013479487927
 20
-10.25622296391492
 30
0.0
 10
32.21259028467219
 20
-9.556821616618572
 30
0.0
 10
28.33501745783895
 20
-8.554832738333664
 30
0.0
 10
24.45760904092123
 20
-7.278339721446716
 30
0.0
 10
20.91897534776258
 20
-5.901446897444542
 30
0.0
 10
17.72034780741224
 20
-4.523412749126541
 30
0.0
 10
14.86035491036659
 20
-3.214590857930542
 30
0.0
 10
12.9535424700561
 20
-2.299194790721852
 30
0.0
 10
12.0
 20
-1.841431348155004
 30
0.0
  0
SPLINE
  5
AD
330
1F
100
AcDbEntity
  8
0
  6
Continuous
 62
     1
370
    15
100
AcDbSpline
210
0.0
220
0.0
230
1.0
 70
     8
 71
     3
 72
    14
 73
    10
 74
     0
 42
0.000000001
 43
0.00000001
 40
0.0
 40
0.0
 40
0.0
 40
0.0
 40
0.1542435010805805
 40
0.3084866157514906
 40
0.4627293601657394
 40
0.6169717504864906
 40
0.7712138028866216
 40
0.925455533548285
 40
1.0
 40
1.0
 40
1.0
 40
1.0
 10
11.99999999999819
 20
-6.149257129851775
 30
0.0
 10
13.17602839962758
 20
-6.724624651851324
 30
0.0
 10
15.52808225270875
 20
-7.875358254443989
 30
0.0
 10
19.05615647787679
 20
-9.349463412898238
 30
0.0
 10
22.58422066811931
 20
-10.58627325970541
 30
0.0
 10
26.1122751244004
 20
-11.54424569570265
 30
0.0
 10
29.6403202420836
 20
-12.17933565573939
 30
0.0
 10
32.56070937087672
 20
-12.49290326763068
 30
0.0
 10
34.3050830132056
 20
-12.46701440687658
 30
0.0
 10
34.87344510891104
 20
-12.45857914576245
 30
0.0
  0
SPLINE
  5
AE
330
1F
100
AcDbEntity
  8
0
  6
Continuous
 62
     1
370
    15
100
AcDbSpline
210
0.0
220
0.0
230
1.0
 70
     8
 71
     3
 72
    12
 73
     8
 74
     0
 42
0.000000001
 43
0.00000001
 40
0.0
 40
0.0
 40
0.0
 40
0.0
 40
0.1894141377979547
 40
0.3920573142337672
 40
0.5947025955845303
 40
0.7973501136438989
 40
0.9999999999999999
 40
0.9999999999999999
 40
0.9999999999999999
 40
0.9999999999999999
 10
84.80223441599883
 20
8.378906635621263
 30
0.0
 10
85.88806273882642
 20
8.828246962074633
 30
0.0
 10
88.13555567106384
 20
9.75831038613724
 30
0.0
 10
91.54473355011322
 20
10.86759583153907
 30
0.0
 10
95.0297796495269
 20
11.73277487990254
 30
0.0
 10
98.51487142547059
 20
12.31291285681677
 30
0.0
 10
100.8382859496447
 20
12.43059418330136
 30
0.0
 10
102.0
 20
12.50000000000034
 30
0.0
  0
LINE
  5
AF
330
1F
100
AcDbEntity
  8
0
  6
Continuous
 62
   131
370
    15
100
AcDbLine
 10
12.0
 20
-6.149257129852678
 30
0.0
 11
12.00000000000002
 21
-2.904449473644537
 31
0.0
  0
SPLINE
  5
B0
330
1F
100
AcDbEntity
  8
0
  6
Continuous
 62
     1
370
    15
100
AcDbSpline
210
0.0
220
0.0
230
1.0
 70
    24
 71
     3
 72
    10
 73
     6
 74
     0
 42
0.000000001
 43
0.00000001
 40
0.0
 40
0.0
 40
0.0
 40
0.0
 40
0.5
 40
0.5
 40
1.0
 40
1.0
 40
1.0
 40
1.0
 10
102.0
 20
8.750000000000014
 30
0.0
 10
102.0
 20
9.280403210091437
 30
0.0
 10
102.0
 20
9.89678086083898
 30
0.0
 10
102.0
 20
11.18993951201071
 30
0.0
 10
102.0
 20
11.86341794751842
 30
0.0
 10
102.0
 20
12.50000000000034
 30
0.0
  0
SPLINE
  5
B1
330
1F
100
AcDbEntity
  8
0
  6
Continuous
 62
     1
370
    15
100
AcDbSpline
210
0.0
220
0.0
230
1.0
 70
     8
 71
     3
 72
     9
 73
     5
 74
     0
 42
0.000000001
 43
0.00000001
 40
0.0
 40
0.0
 40
0.0
 40
0.0
 40
0.8670893579605348
 40
1.0
 40
1.0
 40
1.0
 40
1.0
 10
102.0
 20
8.750000000000018
 30
0.0
 10
100.6563323446002
 20
8.742535650155341
 30
0.0
 10
99.1067023750198
 20
8.733927137346196
 30
0.0
 10
97.55702523578987
 20
8.553900674244137
 30
0.0
 10
97.35105665226094
 20
8.529973241449149
 30
0.0
  0
SPLINE
  5
B2
330
1F
100
AcDbEntity
  8
0
  6
Continuous
 62
     1
370
    15
100
AcDbSpline
210
0.0
220
0.0
230
1.0
 70
     8
 71
     3
 72
    10
 73
     6
 74
     0
 42
0.000000001
 43
0.00000001
 40
0.0
 40
0.0
 40
0.0
 40
0.0
 40
0.5
 40
0.5
 40
1.0
 40
1.0
 40
1.0
 40
1.0
 10
102.0
 20
-3.340536825370553
 30
0.0
 10
101.1488828028069
 20
-2.671419553953053
 30
0.0
 10
100.3066580994794
 20
-1.984398767618594
 30
0.0
 10
98.63974243677171
 20
-0.5750560014869045
 30
0.0
 10
97.81504875557343
 20
0.1472604983948193
 30
0.0
 10
97.00000000000189
 20
0.8889954058058125
 30
0.0
  0
LINE
  5
B3
330
1F
100
AcDbEntity
  8
0
  6
Continuous
 62
     1
370
    15
100
AcDbLine
 10
97.0
 20
2.937719435296606
 30
0.0
 11
102.0
 21
0.0000000000000159
 31
0.0
  0
LINE
  5
B4
330
1F
100
AcDbEntity
  8
0
  6
Continuous
 62
     1
370
    15
100
AcDbLine
 10
102.0
 20
0.0000000000000159
 30
0.0
 11
102.0
 21
-3.340536825370545
 31
0.0
  0
SPLINE
  5
B5
330
1F
100
AcDbEntity
  8
0
  6
Continuous
 62
     1
370
    15
100
AcDbSpline
210
0.0
220
0.0
230
1.0
 70
     8
 71
     3
 72
    16
 73
    12
 74
     0
 42
0.000000001
 43
0.00000001
 40
0.0
 40
0.0
 40
0.0
 40
0.0
 40
0.120825099460204
 40
0.2416508587797145
 40
0.3624762105484839
 40
0.4833000875778896
 40
0.6041214234803889
 40
0.7249391532482543
 40
0.8457522138306978
 40
0.9786068322849987
 40
1.0
 40
1.0
 40
1.0
 40
1.0
 10
96.99999999999908
 20
2.289109021582752
 30
0.0
 10
95.7305384448487
 20
2.853006147959663
 30
0.0
 10
93.19160840166711
 20
3.980803480311752
 30
0.0
 10
89.38320942022034
 20
5.530761876413963
 30
0.0
 10
85.57482564935644
 20
6.914971533062498
 30
0.0
 10
81.76649384697113
 20
8.085010854557973
 30
0.0
 10
77.95825479860903
 20
9.003784368871955
 30
0.0
 10
74.15013698396953
 20
9.652617615864823
 30
0.0
 10
70.21564004113482
 20
9.984483150935432
 30
0.0
 10
67.32567427613763
 20
10.0717193546614
 30
0.0
 10
65.70503986218706
 20
9.927830733171948
 30
0.0
 10
65.48026837804856
 20
9.907874314423575
 30
0.0
  0
SPLINE
  5
B6
330
1F
100
AcDbEntity
  8
0
  6
Continuous
 62
     1
370
    15
100
AcDbSpline
210
0.0
220
0.0
230
1.0
 70
    24
 71
     3
 72
     8
 73
     4
 74
     0
 42
0.000000001
 43
0.00000001
 40
0.0
 40
0.0
 40
0.0
 40
0.0
 40
1.0
 40
1.0
 40
1.0
 40
1.0
 10
97.00000000000003
 20
0.8889954058042164
 30
0.0
 10
97.00000000000003
 20
1.361273205130796
 30
0.0
 10
97.00000000000001
 20
1.829117335842805
 30
0.0
 10
97.00000000000001
 20
2.289109021582322
 30
0.0
  0
SPLINE
  5
B7
330
1F
100
AcDbEntity
  8
0
  6
Continuous
 62
     1
370
    15
100
AcDbSpline
210
0.0
220
0.0
230
1.0
 70
    24
 71
     3
 72
    12
 73
     8
 74
     0
 42
0.000000001
 43
0.00000001
 40
0.0
 40
0.0
 40
0.0
 40
0.0
 40
0.5
 40
0.5
 40
0.75
 40
0.75
 40
1.0
 40
1.0
 40
1.0
 40
1.0
 10
102.0
 20
-9.862153304602682
 30
0.0
 10
102.0
 20
-9.106142362547546
 30
0.0
 10
102.0
 20
-8.150893548830842
 30
0.0
 10
102.0
 20
-6.48524737924533
 30
0.0
 10
102.0
 20
-5.89220921004527
 30
0.0
 10
102.0
 20
-4.651258470056889
 30
0.0
 10
102.0
 20
-4.00343993175616
 30
0.0
 10
102.0
 20
-3.340536825370955
 30
0.0
  0
SPLINE
  5
B8
330
1F
100
AcDbEntity
  8
0
  6
Continuous
 62
     1
370
    15
100
AcDbSpline
210
0.0
220
0.0
230
1.0
 70
     8
 71
     3
 72
    23
 73
    19
 74
     0
 42
0.000000001
 43
0.00000001
 40
0.0
 40
0.0
 40
0.0
 40
0.0
 40
0.0216707529544856
 40
0.0816156755750679
 40
0.1475353682360735
 40
0.2134586551629887
 40
0.2794006493952876
 40
0.3453513211641764
 40
0.4113006069703469
 40
0.4772384487047725
 40
0.5431559904387089
 40
0.6090820789929743
 40
0.6750256613512737
 40
0.7409767015748229
 40
0.805747419893748
 40
0.8705093440827747
 40
0.9352557123684245
 40
1.0
 40
1.0
 40
1.0
 40
1.0
 10
75.5267210044657
 20
-9.3669456417995
 30
0.0
 10
75.067845353306
 20
-9.448067727081812
 30
0.0
 10
73.33964299905435
 20
-9.753587051134827
 30
0.0
 10
70.2156446947437
 20
-9.99068999189115
 30
0.0
 10
66.1544990303708
 20
-10.03008306080759
 30
0.0
 10
61.96640942961827
 20
-9.674359634271507
 30
0.0
 10
57.77742962673268
 20
-8.963597142714317
 30
0.0
 10
53.58784496542508
 20
-7.916732241925038
 30
0.0
 10
49.39836095293492
 20
-6.574862702646429
 30
0.0
 10
45.20965202171963
 20
-4.987687306988247
 30
0.0
 10
41.02170607775013
 20
-3.214104049091646
 30
0.0
 10
36.83350441111531
 20
-1.320807833759231
 30
0.0
 10
32.64442610860839
 20
0.6218365119462421
 30
0.0
 10
28.47973333837879
 20
2.529512506208234
 30
0.0
 10
24.34017676245759
 20
4.334521342156378
 30
0.0
 10
20.22616532593116
 20
5.966620994966277
 30
0.0
 10
16.11290695504115
 20
7.406007908179267
 30
0.0
 10
13.37095429912628
 20
8.13314998172102
 30
0.0
 10
11.99999999999759
 20
8.49671517663749
 30
0.0
  0
SPLINE
  5
B9
330
1F
100
AcDbEntity
  8
0
  6
Continuous
 62
   131
370
    15
100
AcDbSpline
210
0.0
220
0.0
230
1.0
 70
    24
 71
     3
 72
    14
 73
    10
 74
     0
 42
0.000000001
 43
0.00000001
 40
0.0
 40
0.0
 40
0.0
 40
0.0
 40
0.2499999999999998
 40
0.2499999999999998
 40
0.4999999999999999
 40
0.4999999999999999
 40
0.75
 40
0.75
 40
1.0
 40
1.0
 40
1.0
 40
1.0
 10
12.0
 20
8.4967151766369
 30
0.0
 10
12.0
 20
7.897112510571146
 30
0.0
 10
12.0
 20
7.203002486374332
 30
0.0
 10
12.0
 20
5.656098437759805
 30
0.0
 10
12.0
 20
4.803550338112069
 30
0.0
 10
12.0
 20
2.996703092203812
 30
0.0
 10
12.0
 20
2.042925708579075
 30
0.0
 10
12.0
 20
0.105358454452323
 30
0.0
 10
12.0
 20
-0.8778778667487619
 30
0.0
 10
12.0
 20
-1.841431348155003
 30
0.0
  0
SPLINE
  5
BA
330
1F
100
AcDbEntity
  8
0
  6
Continuous
 62
   131
370
    15
100
AcDbSpline
210
0.0
220
0.0
230
1.0
 70
    24
 71
     3
 72
     9
 73
     5
 74
     0
 42
0.000000001
 43
0.00000001
 40
0.0
 40
0.0
 40
0.0
 40
0.0
 40
0.1845311274887405
 40
1.0
 40
1.0
 40
1.0
 40
1.0
 10
12.0
 20
8.759188082775784
 30
0.0
 10
12.0
 20
8.769560257662057
 30
0.0
 10
12.0
 20
8.825768524676013
 30
0.0
 10
11.99999999999999
 20
8.64451873679948
 30
0.0
 10
11.99999999999999
 20
8.496715176636897
 30
0.0
  0
SPLINE
  5
BB
330
1F
100
AcDbEntity
  8
0
  6
Continuous
 62
     1
370
    15
100
AcDbSpline
210
0.0
220
0.0
230
1.0
 70
    24
 71
     3
 72
    10
 73
     6
 74
     0
 42
0.000000001
 43
0.00000001
 40
0.0
 40
0.0
 40
0.0
 40
0.0
 40
0.4999999999999999
 40
0.4999999999999999
 40
1.0
 40
1.0
 40
1.0
 40
1.0
 10
97.0
 20
2.289109021582333
 30
0.0
 10
97.0
 20
3.285481301107084
 30
0.0
 10
97.00000000000001
 20
4.230412258055749
 30
0.0
 10
96.99999999999996
 20
5.8902270619621
 30
0.0
 10
97.0
 20
6.603509984791778
 30
0.0
 10
97.00000000000001
 20
7.154572845957859
 30
0.0
  0
SPLINE
  5
BC
330
1F
100
AcDbEntity
  8
0
  6
Continuous
 62
     1
370
    15
100
AcDbSpline
210
0.0
220
0.0
230
1.0
 70
     8
 71
     3
 72
     8
 73
     4
 74
     0
 42
0.000000001
 43
0.00000001
 40
0.0
 40
0.0
 40
0.0
 40
0.0
 40
1.0
 40
1.0
 40
1.0
 40
1.0
 10
102.0
 20
8.750000000000014
 30
0.0
 10
100.3190792401319
 20
8.294315489460114
 30
0.0
 10
98.651728911856
 20
7.766157559606861
 30
0.0
 10
97.0
 20
7.154572845957857
 30
0.0
  0
SPLINE
  5
BD
330
1F
100
AcDbEntity
  8
0
  6
Continuous
 62
   131
370
    15
100
AcDbSpline
210
0.0
220
0.0
230
1.0
 70
    24
 71
     3
 72
    11
 73
     7
 74
     0
 42
0.000000001
 43
0.00000001
 40
0.0
 40
0.0
 40
0.0
 40
0.0
 40
0.2465723430426197
 40
0.5167606813281339
 40
0.7947844997277871
 40
1.0
 40
1.0
 40
1.0
 40
1.0
 10
12.0
 20
-6.25446745276655
 30
0.0
 10
12.0
 20
-6.638425256378617
 30
0.0
 10
12.0
 20
-7.443115246129539
 30
0.0
 10
12.0
 20
-8.245809826384923
 30
0.0
 10
12.0
 20
-8.73379833018234
 30
0.0
 10
12.0
 20
-8.75161987257973
 30
0.0
 10
12.0
 20
-8.759188082775777
 30
0.0
  0
LINE
  5
BE
330
1F
100
AcDbEntity
  8
0
  6
Continuous
 62
     1
370
    15
100
AcDbLine
 10
102.0
 20
0.0000000000000159
 30
0.0
 11
102.0
 21
8.750000000000014
 31
0.0
  0
SPLINE
  5
BF
330
1F
100
AcDbEntity
  8
0
  6
Continuous
 62
   131
370
    15
100
AcDbSpline
210
0.0
220
0.0
230
1.0
 70
     8
 71
     3
 72
     8
 73
     4
 74
     0
 42
0.000000001
 43
0.00000001
 40
0.0
 40
0.0
 40
0.0
 40
0.0
 40
1.0
 40
1.0
 40
1.0
 40
1.0
 10
11.99999999999819
 20
-2.90444947365457
 30
0.0
 10
10.98466434864031
 20
-2.333932397879066
 30
0.0
 10
9.962953279076306
 20
-1.752591737586155
 30
0.0
 10
8.949982940834321
 20
-1.169045057555616
 30
0.0
  0
SPLINE
  5
C0
330
1F
100
AcDbEntity
  8
0
  6
Continuous
 62
   131
370
    15
100
AcDbSpline
210
0.0
220
0.0
230
1.0
 70
     8
 71
     3
 72
     8
 73
     4
 74
     0
 42
0.000000001
 43
0.00000001
 40
0.0
 40
0.0
 40
0.0
 40
0.0
 40
1.0
 40
1.0
 40
1.0
 40
1.0
 10
11.99999999999819
 20
-6.149257129851764
 30
0.0
 10
10.98466726226272
 20
-5.638572960918944
 30
0.0
 10
9.962959142783326
 20
-5.10641859880548
 30
0.0
 10
8.949991661339142
 20
-4.560709224450792
 30
0.0
  0
LINE
  5
C1
330
1F
100
AcDbEntity
  8
0
  6
Continuous
 62
   131
370
    15
100
AcDbLine
 10
8.949991661339153
 20
-12.5
 30
0.0
 11
8.949991661339139
 21
-4.560706584208446
 31
0.0
  0
LINE
  5
C2
330
1F
100
AcDbEntity
  8
0
  6
Continuous
 62
   131
370
    15
100
AcDbLine
 10
-46.99999999999998
 20
12.5
 30
0.0
 11
-46.99999999999998
 21
-12.49999999999998
 31
0.0
  0
LINE
  5
C3
330
1F
100
AcDbEntity
  8
0
  6
Continuous
 62
   131
370
    15
100
AcDbLine
 10
8.949991661339146
 20
-1.168511689651249
 30
0.0
 11
8.94999166133915
 21
12.5
 31
0.0
  0
LINE
  5
C4
330
1F
100
AcDbEntity
  8
0
  6
Continuous
 62
   131
370
    15
100
AcDbLine
 10
-47.99999999999999
 20
11.5
 30
0.0
 11
-47.99999999999999
 21
-11.5
 31
0.0
  0
SPLINE
  5
C5
330
1F
100
AcDbEntity
  8
0
  6
Continuous
 62
   131
370
    15
100
AcDbSpline
210
0.0
220
0.0
230
1.0
 70
    24
 71
     3
 72
     8
 73
     4
 74
     0
 42
0.000000001
 43
0.00000001
 40
0.0
 40
0.0
 40
0.0
 40
0.0
 40
1.0
 40
1.0
 40
1.0
 40
1.0
 10
12.00000000000015
 20
-1.841431348155076
 30
0.0
 10
12.00000000000015
 20
-2.148797940571385
 30
0.0
 10
12.00000000000015
 20
-2.505206232504895
 30
0.0
 10
12.00000000000015
 20
-2.904449473648109
 30
0.0
  0
SPLINE
  5
C6
330
1F
100
AcDbEntity
  8
0
  6
Continuous
 62
   131
370
    15
100
AcDbSpline
210
0.0
220
0.0
230
1.0
 70
     8
 71
     3
 72
     8
 73
     4
 74
     0
 42
0.000000001
 43
0.00000001
 40
0.0
 40
0.0
 40
0.0
 40
0.0
 40
1.0
 40
1.0
 40
1.0
 40
1.0
 10
11.99999999999774
 20
-1.841431348153909
 30
0.0
 10
10.98466434864001
 20
-1.350390995362369
 30
0.0
 10
9.962953279076153
 20
-0.8522203659335642
 30
0.0
 10
8.949982940834321
 20
-0.3542991771717677
 30
0.0
  0
SPLINE
  5
C7
330
1F
100
AcDbEntity
  8
0
  6
Continuous
 62
   131
370
    15
100
AcDbSpline
210
0.0
220
0.0
230
1.0
 70
     8
 71
     3
 72
     8
 73
     4
 74
     0
 42
0.000000001
 43
0.00000001
 40
0.0
 40
0.0
 40
0.0
 40
0.0
 40
1.0
 40
1.0
 40
1.0
 40
1.0
 10
12.0
 20
8.4967151766369
 30
0.0
 10
10.98466619792158
 20
8.74415964994199
 30
0.0
 10
9.96295700077963
 20
8.963913305054346
 30
0.0
 10
8.949988475750379
 20
9.152792223674231
 30
0.0
  0
SPLINE
  5
C8
330
1F
100
AcDbEntity
  8
0
  6
Continuous
 62
   131
370
    15
100
AcDbSpline
210
0.0
220
0.0
230
1.0
 70
    24
 71
     3
 72
    14
 73
    10
 74
     0
 42
0.000000001
 43
0.00000001
 40
0.0
 40
0.0
 40
0.0
 40
0.0
 40
0.2499999999999998
 40
0.2499999999999998
 40
0.4999999999999999
 40
0.4999999999999999
 40
0.75
 40
0.75
 40
1.0
 40
1.0
 40
1.0
 40
1.0
 10
12.0
 20
8.4967151766369
 30
0.0
 10
12.0
 20
7.897112510571146
 30
0.0
 10
12.0
 20
7.203002486374332
 30
0.0
 10
12.0
 20
5.656098437759805
 30
0.0
 10
12.0
 20
4.803550338112069
 30
0.0
 10
12.0
 20
2.996703092203812
 30
0.0
 10
12.0
 20
2.042925708579075
 30
0.0
 10
12.0
 20
0.105358454452323
 30
0.0
 10
12.0
 20
-0.8778778667487619
 30
0.0
 10
12.0
 20
-1.841431348155003
 30
0.0
  0
SPLINE
  5
C9
330
1F
100
AcDbEntity
  8
0
  6
Continuous
 62
   131
370
    15
100
AcDbSpline
210
0.0
220
0.0
230
1.0
 70
    24
 71
     3
 72
    11
 73
     7
 74
     0
 42
0.000000001
 43
0.00000001
 40
0.0
 40
0.0
 40
0.0
 40
0.0
 40
0.2462284657495263
 40
0.5160375101327883
 40
0.7936710350813291
 40
1.0
 40
1.0
 40
1.0
 40
1.0
 10
12.0
 20
-6.254457452766552
 30
0.0
 10
12.0
 20
-6.638413183753133
 30
0.0
 10
12.0
 20
-7.443094960965208
 30
0.0
 10
12.0
 20
-8.245889417131368
 30
0.0
 10
12.0
 20
-8.734433944355368
 30
0.0
 10
12.0
 20
-8.752153151217925
 30
0.0
 10
12.0
 20
-8.759707425955485
 30
0.0
  0
SPLINE
  5
CA
330
1F
100
AcDbEntity
  8
0
  6
Continuous
 62
   131
370
    15
100
AcDbSpline
210
0.0
220
0.0
230
1.0
 70
    24
 71
     3
 72
     9
 73
     5
 74
     0
 42
0.000000001
 43
0.00000001
 40
0.0
 40
0.0
 40
0.0
 40
0.0
 40
0.1811236270349665
 40
1.0
 40
1.0
 40
1.0
 40
1.0
 10
12.0
 20
8.759707425955495
 30
0.0
 10
12.0
 20
8.769797059461403
 30
0.0
 10
12.0
 20
8.825502842693972
 30
0.0
 10
12.0
 20
8.644738679200493
 30
0.0
 10
12.0
 20
8.496715176636897
 30
0.0
  0
LINE
  5
CB
330
1F
100
AcDbEntity
  8
중심선
100
AcDbLine
 10
-50.99999999999999
 20
0.0000000000000005
 30
0.0
 11
109.0
 21
0.0000000000000166
 31
0.0
  0
CIRCLE
  5
CC
330
1F
100
AcDbEntity
  8
외형선
100
AcDbCircle
 10
0.0000000000000104
 20
0.0
 30
0.0
 40
3.000000000000005
  0
INSERT
  5
CD
330
1F
100
AcDbEntity
  8
0
  6
Continuous
 62
     7
100
AcDbBlockReference
 66
     1
  2
블럭10
 10
-22.93944368806589
 20
-52.04609937292004
 30
0.0
  0
ATTRIB
  5
CE
330
CD
100
AcDbEntity
  8
FORMAT
 62
     2
100
AcDbText
 10
-39.05870472750145
 20
-49.97073246008785
 30
0.0
 40
4.233333333333333
  1
SEME7025090E [ 2 FLUTE ]
 41
0.75
  7
SLDTEXTSTYLE0
 11
-39.05870472750145
 21
-52.08739912675452
 31
0.0
100
AcDbAttribute
  2
AUTOATTR0
 70
     0
 74
     1
  0
SEQEND
  5
CF
330
CD
100
AcDbEntity
  8
0
  6
Continuous
 62
     7
  0
HATCH
  5
D0
330
1F
100
AcDbEntity
  8
중심선
100
AcDbHatch
 10
0.0
 20
0.0
 30
0.0
210
0.0
220
0.0
230
1.0
  2
SOLID
 70
     1
 71
     0
 91
        1
 92
        0
 93
        4
 72
     1
 10
-17.22453438368504
 20
-35.7989250712761
 11
-20.67080962752232
 21
-35.7989250712761
 72
     1
 10
-20.67080962752232
 20
-35.7989250712761
 11
-22.79903948672635
 21
-38.3352506518487
 72
     1
 10
-22.79903948672635
 20
-38.3352506518487
 11
-19.35273115777591
 21
-38.33521122254621
 72
     1
 10
-19.35273115777591
 20
-38.33521122254621
 11
-17.22453438368504
 21
-35.7989250712761
 97
        0
 75
     0
 76
     1
 98
        1
 10
0.0
 20
0.0
  0
HATCH
  5
D1
330
1F
100
AcDbEntity
  8
중심선
100
AcDbHatch
 10
0.0
 20
0.0
 30
0.0
210
0.0
220
0.0
230
1.0
  2
SOLID
 70
     1
 71
     0
 91
        1
 92
        0
 93
        4
 72
     1
 10
-12.21177039264909
 20
-35.7989250712761
 11
-15.65804563648637
 21
-35.7989250712761
 72
     1
 10
-15.65804563648637
 20
-35.7989250712761
 11
-20.18918364484376
 21
-41.19892507127612
 72
     1
 10
-20.18918364484376
 20
-41.19892507127612
 11
-16.74290840100648
 21
-41.19892507127612
 72
     1
 10
-16.74290840100648
 20
-41.19892507127612
 11
-12.21177039264909
 21
-35.7989250712761
 97
        0
 75
     0
 76
     1
 98
        1
 10
0.0
 20
0.0
  0
HATCH
  5
D2
330
1F
100
AcDbEntity
  8
중심선
100
AcDbHatch
 10
0.0
 20
0.0
 30
0.0
210
0.0
220
0.0
230
1.0
  2
SOLID
 70
     1
 71
     0
 91
        1
 92
        0
 93
        4
 72
     1
 10
-7.199006401613195
 20
-35.79892507127613
 11
-10.64528164545031
 21
-35.7989250712761
 72
     1
 10
-10.64528164545031
 20
-35.7989250712761
 11
-17.69371854733956
 21
-44.19892507127612
 72
     1
 10
-17.69371854733956
 20
-44.19892507127612
 11
-14.24744330350228
 21
-44.19892507127612
 72
     1
 10
-14.24744330350228
 20
-44.19892507127612
 11
-7.199006401613195
 21
-35.79892507127613
 97
        0
 75
     0
 76
     1
 98
        1
 10
0.0
 20
0.0
  0
HATCH
  5
D3
330
1F
100
AcDbEntity
  8
중심선
100
AcDbHatch
 10
0.0
 20
0.0
 30
0.0
210
0.0
220
0.0
230
1.0
  2
SOLID
 70
     1
 71
     0
 91
        1
 92
        0
 93
        6
 72
     3
 10
-2.399115970600996
 20
-39.99892507132738
 11
3.960054785062284
 21
1.540850780301639E-10
 40
0.3939339440162633
 50
17.09539180608433
 51
320.0019657685079
 73
     0
 72
     1
 10
-0.7161163149004002
 20
-38.58681907591441
 11
1.589185558800638
 21
-36.65249236586649
 72
     3
 10
-2.399115970653842
 20
-39.99892507127625
 11
6.600054785286829
 21
-1.249000902703301E-13
 40
0.6363583540795982
 50
39.99873849337408
 51
368.4976242363725
 73
     1
 72
     1
 10
4.026216521246767
 20
-39.03892507120613
 11
-3.71904866381792
 21
-39.0389250712061
 72
     1
 10
-3.71904866381792
 20
-39.0389250712061
 11
-3.719073708263854
 21
-40.95892507120602
 72
     1
 10
-3.719073708263854
 20
-40.95892507120602
 11
0.7223060612081831
 21
-40.95892507120599
 97
        0
 75
     0
 76
     1
 98
        1
 10
0.0
 20
0.0
  0
DIMENSION
  5
D4
330
1F
100
AcDbEntity
  8
치수문자_일반주서
100
AcDbDimension
  2
_D
 10
119.1188487987324
 20
12.50000000000041
 30
0.0
 11
119.1188487987324
 21
23.47900000000041
 31
0.0
 70
   160
  1
%%c<>
 71
     2
 42
25.00000000000001
 52
-270.0
  3
SLDDIMSTYLE0
100
AcDbAlignedDimension
 13
102.0
 23
-12.49999999999967
 33
0.0
 14
102.0
 24
12.50000000000034
 34
0.0
 50
90.0000000000002
100
AcDbRotatedDimension
  0
DIMENSION
  5
E0
330
1F
100
AcDbEntity
  8
치수문자_일반주서
100
AcDbDimension
  2
_D_1
 10
102.0
 20
33.2884104402427
 30
0.0
 11
27.00000000000001
 21
33.2884104402427
 31
0.0
 70
   160
  1
<>
 71
     2
 42
150.0
  3
SLDDIMSTYLE1
100
AcDbAlignedDimension
 13
-47.99999999999999
 23
11.5
 33
0.0
 14
102.0
 24
12.50000000000034
 34
0.0
100
AcDbRotatedDimension
  0
DIMENSION
  5
EB
330
1F
100
AcDbEntity
  8
치수문자_일반주서
100
AcDbDimension
  2
_D_2
 10
102.0
 20
21.84371298280441
 30
0.0
 11
57.00000000000002
 21
21.84371298280441
 31
0.0
 70
   160
  1
<>
 71
     2
 42
90.0
  3
SLDDIMSTYLE1
100
AcDbAlignedDimension
 13
12.0
 23
8.4967151766369
 33
0.0
 14
102.0
 24
12.50000000000034
 34
0.0
 50
-0.0000000000000158
100
AcDbRotatedDimension
  0
DIMENSION
  5
F5
330
1F
100
AcDbEntity
  8
치수문자_일반주서
100
AcDbDimension
  2
_D_3
 10
-62.9382878138457
 20
-12.50000000000006
 30
0.0
 11
-62.93828781384582
 21
23.47899999999995
 31
0.0
 70
   160
  1
%%c<>
 71
     2
 42
25.0
 52
-270.0
  3
SLDDIMSTYLE0
100
AcDbAlignedDimension
 13
-46.99999999999998
 23
12.5
 33
0.0
 14
-46.99999999999998
 24
-12.5
 34
0.0
 50
90.0000000000002
100
AcDbRotatedDimension
  0
INSERT
  5
106
330
1F
100
AcDbEntity
  8
외형선
100
AcDbBlockReference
  2
SW_DOWELSYMBOL_0
 10
0.0000000000000104
 20
0.0
 30
0.0
  0
ENDSEC
  0
SECTION
  2
OBJECTS
  0
DICTIONARY
  5
C
330
0
100
AcDbDictionary
281
     1
  3
ACAD_GROUP
350
D
  3
ACAD_IMAGE_VARS
350
12A
  3
ACAD_LAYOUT
350
1A
  3
ACAD_MLINESTYLE
350
17
  3
ACAD_PLOTSETTINGS
350
19
  3
ACAD_PLOTSTYLENAME
350
E
  3
ACAD_SCALELIST
350
47
  3
APPDATA
350
128
  3
DWGPROPS
350
13D
  0
DICTIONARY
  5
D
102
{ACAD_REACTORS
330
C
102
}
330
C
100
AcDbDictionary
281
     1
  0
RASTERVARIABLES
  5
12A
102
{ACAD_REACTORS
330
C
102
}
330
C
100
AcDbRasterVariables
 90
        0
 70
     1
 71
     1
 72
     1
  0
DICTIONARY
  5
1A
102
{ACAD_REACTORS
330
C
102
}
330
C
100
AcDbDictionary
281
     1
  3
Layout1
350
1E
  3
Layout2
350
26
  3
Model
350
22
  0
DICTIONARY
  5
17
102
{ACAD_REACTORS
330
C
102
}
330
C
100
AcDbDictionary
281
     1
  3
Standard
350
18
  0
DICTIONARY
  5
19
102
{ACAD_REACTORS
330
C
102
}
330
C
100
AcDbDictionary
281
     1
  0
ACDBDICTIONARYWDFLT
  5
E
102
{ACAD_REACTORS
330
C
102
}
330
C
100
AcDbDictionary
281
     1
  3
Normal
350
F
100
AcDbDictionaryWithDefault
340
F
  0
DICTIONARY
  5
47
102
{ACAD_REACTORS
330
C
102
}
330
C
100
AcDbDictionary
281
     1
  3
A0
350
48
  3
A1
350
49
  3
A2
350
4A
  3
A3
350
4B
  3
A4
350
4C
  3
A5
350
4D
  3
A6
350
4E
  3
A7
350
4F
  3
A8
350
50
  3
A9
350
51
  3
B0
350
52
  3
B1
350
53
  3
B2
350
54
  3
B3
350
55
  3
B4
350
56
  3
B5
350
57
  3
B6
350
58
  3
B7
350
59
  3
B8
350
5A
  3
B9
350
5B
  3
C0
350
5C
  3
C1
350
5D
  3
C2
350
5E
  3
C3
350
5F
  3
C4
350
60
  3
C5
350
61
  3
C6
350
62
  3
C7
350
63
  3
C8
350
64
  3
C9
350
65
  3
D0
350
66
  3
D1
350
67
  3
D2
350
68
  0
DICTIONARY
  5
128
102
{ACAD_REACTORS
330
C
102
}
330
C
100
AcDbDictionary
281
     1
  0
XRECORD
  5
13D
102
{ACAD_REACTORS
330
C
102
}
330
C
100
AcDbXrecord
280
     1
  1
DWGPROPS COOKIE
  2

  3

  4

  6

  7

  8
12014102
  9

300
=
301
=
302
=
303
=
304
=
305
=
306
=
307
=
308
=
309
=
 40
0.0
 41
2458262.180246204
 42
2458266.238845058
  1

 90
        0
  0
LAYOUT
  5
1E
102
{ACAD_REACTORS
330
1A
102
}
330
1A
100
AcDbPlotSettings
  1

  2
none_device
  4

  6

 40
0.0
 41
0.0
 42
0.0
 43
0.0
 44
0.0
 45
0.0
 46
0.0
 47
0.0
 48
0.0
 49
0.0
140
0.0
141
0.0
142
1.0
143
1.0
 70
   688
 72
     1
 73
     0
 74
     5
  7

 75
    16
147
1.0
148
0.0
149
0.0
100
AcDbLayout
  1
Layout1
 70
     1
 71
     1
 10
0.0
 20
0.0
 11
420.0
 21
297.0
 12
0.0
 22
0.0
 32
0.0
 14
1.000000000000000E+20
 24
1.000000000000000E+20
 34
1.000000000000000E+20
 15
-1.000000000000000E+20
 25
-1.000000000000000E+20
 35
-1.000000000000000E+20
146
0.0
 13
0.0
 23
0.0
 33
0.0
 16
1.0
 26
0.0
 36
0.0
 17
0.0
 27
1.0
 37
0.0
 76
     0
330
1B
  0
LAYOUT
  5
26
102
{ACAD_REACTORS
330
1A
102
}
330
1A
100
AcDbPlotSettings
  1

  2
none_device
  4

  6

 40
0.0
 41
0.0
 42
0.0
 43
0.0
 44
0.0
 45
0.0
 46
0.0
 47
0.0
 48
0.0
 49
0.0
140
0.0
141
0.0
142
1.0
143
1.0
 70
   688
 72
     1
 73
     0
 74
     5
  7

 75
    16
147
1.0
148
0.0
149
0.0
100
AcDbLayout
  1
Layout2
 70
     1
 71
     2
 10
0.0
 20
0.0
 11
0.0
 21
0.0
 12
0.0
 22
0.0
 32
0.0
 14
0.0
 24
0.0
 34
0.0
 15
0.0
 25
0.0
 35
0.0
146
0.0
 13
0.0
 23
0.0
 33
0.0
 16
1.0
 26
0.0
 36
0.0
 17
0.0
 27
1.0
 37
0.0
 76
     0
330
23
  0
LAYOUT
  5
22
102
{ACAD_REACTORS
330
1A
102
}
330
1A
100
AcDbPlotSettings
  1

  2
none_device
  4
ANSI_A_(11.00_x_8.50_Inches)
  6

 40
6.35
 41
19.05
 42
6.35000508
 43
19.05000254
 44
279.4
 45
215.9
 46
96.75842563169273
 47
99.6548736422203
 48
0.0
 49
0.0
140
0.0
141
0.0
142
0.0655780480702265
143
1.0
 70
  1696
 72
     0
 73
     0
 74
     0
  7

 75
     0
147
0.0235690232323232
148
0.0
149
0.0
100
AcDbLayout
  1
Model
 70
     1
 71
     0
 10
0.0
 20
0.0
 11
420.0
 21
297.0
 12
0.0
 22
0.0
 32
0.0
 14
-67.31328781384583
 24
-49.97073246008785
 34
0.0
 15
119.6691821320659
 25
37.6634104402427
 35
0.0
146
0.0
 13
0.0
 23
0.0
 33
0.0
 16
1.0
 26
0.0
 36
0.0
 17
0.0
 27
1.0
 37
0.0
 76
     0
330
1F
331
29
  0
MLINESTYLE
  5
18
102
{ACAD_REACTORS
330
17
102
}
330
17
100
AcDbMlineStyle
  2
Standard
 70
     0
  3

 62
   256
 51
90.0
 52
90.0
 71
     2
 49
0.5
 62
   256
  6
BYLAYER
 49
-0.5
 62
   256
  6
BYLAYER
  0
ACDBPLACEHOLDER
  5
F
102
{ACAD_REACTORS
330
E
102
}
330
E
  0
SCALE
  5
48
102
{ACAD_REACTORS
330
47
102
}
330
47
100
AcDbScale
 70
     0
300
1:1
140
1.0
141
1.0
290
     1
  0
SCALE
  5
49
102
{ACAD_REACTORS
330
47
102
}
330
47
100
AcDbScale
 70
     0
300
1:2
140
1.0
141
2.0
290
     0
  0
SCALE
  5
4A
102
{ACAD_REACTORS
330
47
102
}
330
47
100
AcDbScale
 70
     0
300
1:4
140
1.0
141
4.0
290
     0
  0
SCALE
  5
4B
102
{ACAD_REACTORS
330
47
102
}
330
47
100
AcDbScale
 70
     0
300
1:5
140
1.0
141
5.0
290
     0
  0
SCALE
  5
4C
102
{ACAD_REACTORS
330
47
102
}
330
47
100
AcDbScale
 70
     0
300
1:8
140
1.0
141
8.0
290
     0
  0
SCALE
  5
4D
102
{ACAD_REACTORS
330
47
102
}
330
47
100
AcDbScale
 70
     0
300
1:10
140
1.0
141
10.0
290
     0
  0
SCALE
  5
4E
102
{ACAD_REACTORS
330
47
102
}
330
47
100
AcDbScale
 70
     0
300
1:16
140
1.0
141
16.0
290
     0
  0
SCALE
  5
4F
102
{ACAD_REACTORS
330
47
102
}
330
47
100
AcDbScale
 70
     0
300
1:20
140
1.0
141
20.0
290
     0
  0
SCALE
  5
50
102
{ACAD_REACTORS
330
47
102
}
330
47
100
AcDbScale
 70
     0
300
1:30
140
1.0
141
30.0
290
     0
  0
SCALE
  5
51
102
{ACAD_REACTORS
330
47
102
}
330
47
100
AcDbScale
 70
     0
300
1:40
140
1.0
141
40.0
290
     0
  0
SCALE
  5
52
102
{ACAD_REACTORS
330
47
102
}
330
47
100
AcDbScale
 70
     0
300
1:50
140
1.0
141
50.0
290
     0
  0
SCALE
  5
53
102
{ACAD_REACTORS
330
47
102
}
330
47
100
AcDbScale
 70
     0
300
1:100
140
1.0
141
100.0
290
     0
  0
SCALE
  5
54
102
{ACAD_REACTORS
330
47
102
}
330
47
100
AcDbScale
 70
     0
300
2:1
140
2.0
141
1.0
290
     0
  0
SCALE
  5
55
102
{ACAD_REACTORS
330
47
102
}
330
47
100
AcDbScale
 70
     0
300
4:1
140
4.0
141
1.0
290
     0
  0
SCALE
  5
56
102
{ACAD_REACTORS
330
47
102
}
330
47
100
AcDbScale
 70
     0
300
8:1
140
8.0
141
1.0
290
     0
  0
SCALE
  5
57
102
{ACAD_REACTORS
330
47
102
}
330
47
100
AcDbScale
 70
     0
300
10:1
140
10.0
141
1.0
290
     0
  0
SCALE
  5
58
102
{ACAD_REACTORS
330
47
102
}
330
47
100
AcDbScale
 70
     0
300
100:1
140
100.0
141
1.0
290
     0
  0
SCALE
  5
59
102
{ACAD_REACTORS
330
47
102
}
330
47
100
AcDbScale
 70
     0
300
1/128" = 1'-0"
140
0.0078125
141
12.0
290
     0
  0
SCALE
  5
5A
102
{ACAD_REACTORS
330
47
102
}
330
47
100
AcDbScale
 70
     0
300
1/64" = 1'-0"
140
0.015625
141
12.0
290
     0
  0
SCALE
  5
5B
102
{ACAD_REACTORS
330
47
102
}
330
47
100
AcDbScale
 70
     0
300
1/32" = 1'-0"
140
0.03125
141
12.0
290
     0
  0
SCALE
  5
5C
102
{ACAD_REACTORS
330
47
102
}
330
47
100
AcDbScale
 70
     0
300
1/16" = 1'-0"
140
0.0625
141
12.0
290
     0
  0
SCALE
  5
5D
102
{ACAD_REACTORS
330
47
102
}
330
47
100
AcDbScale
 70
     0
300
3/32" = 1'-0"
140
0.09375
141
12.0
290
     0
  0
SCALE
  5
5E
102
{ACAD_REACTORS
330
47
102
}
330
47
100
AcDbScale
 70
     0
300
1/8" = 1'-0"
140
0.125
141
12.0
290
     0
  0
SCALE
  5
5F
102
{ACAD_REACTORS
330
47
102
}
330
47
100
AcDbScale
 70
     0
300
3/16" = 1'-0"
140
0.1875
141
12.0
290
     0
  0
SCALE
  5
60
102
{ACAD_REACTORS
330
47
102
}
330
47
100
AcDbScale
 70
     0
300
1/4" = 1'-0"
140
0.25
141
12.0
290
     0
  0
SCALE
  5
61
102
{ACAD_REACTORS
330
47
102
}
330
47
100
AcDbScale
 70
     0
300
3/8" = 1'-0"
140
0.375
141
12.0
290
     0
  0
SCALE
  5
62
102
{ACAD_REACTORS
330
47
102
}
330
47
100
AcDbScale
 70
     0
300
1/2" = 1'-0"
140
0.5
141
12.0
290
     0
  0
SCALE
  5
63
102
{ACAD_REACTORS
330
47
102
}
330
47
100
AcDbScale
 70
     0
300
3/4" = 1'-0"
140
0.75
141
12.0
290
     0
  0
SCALE
  5
64
102
{ACAD_REACTORS
330
47
102
}
330
47
100
AcDbScale
 70
     0
300
1" = 1'-0"
140
1.0
141
12.0
290
     0
  0
SCALE
  5
65
102
{ACAD_REACTORS
330
47
102
}
330
47
100
AcDbScale
 70
     0
300
1-1/2" = 1'-0"
140
1.5
141
12.0
290
     0
  0
SCALE
  5
66
102
{ACAD_REACTORS
330
47
102
}
330
47
100
AcDbScale
 70
     0
300
3" = 1'-0"
140
3.0
141
12.0
290
     0
  0
SCALE
  5
67
102
{ACAD_REACTORS
330
47
102
}
330
47
100
AcDbScale
 70
     0
300
6" = 1'-0"
140
6.0
141
12.0
290
     0
  0
SCALE
  5
68
102
{ACAD_REACTORS
330
47
102
}
330
47
100
AcDbScale
 70
     0
300
1'-0" = 1'-0"
140
12.0
141
12.0
290
     0
  0
ENDSEC
  0
EOF
