  0
SECTION
  2
HEADER
  9
$ACADVER
  1
AC1015
  9
$ACADMAINTVER
 70
     6
  9
$DWGCODEPAGE
  3
ANSI_949
  9
$INSBASE
 10
0.0
 20
0.0
 30
0.0
  9
$EXTMIN
 10
-40.9832755450274
 20
-49.97180738881174
 30
0.0
  9
$EXTMAX
 10
34.28259113972197
 20
24.76413260158165
 30
0.0
  9
$LIMMIN
 10
0.0
 20
0.0
  9
$LIMMAX
 10
420.0
 20
297.0
  9
$ORTHOMODE
 70
     0
  9
$REGENMODE
 70
     1
  9
$FILLMODE
 70
     1
  9
$QTEXTMODE
 70
     0
  9
$MIRRTEXT
 70
     1
  9
$LTSCALE
 40
1.0
  9
$ATTMODE
 70
     1
  9
$TEXTSIZE
 40
3.5
  9
$TRACEWID
 40
1.0
  9
$TEXTSTYLE
  7
Standard
  9
$CLAYER
  8
0
  9
$CELTYPE
  6
ByLayer
  9
$CECOLOR
 62
   256
  9
$CELTSCALE
 40
1.0
  9
$DISPSILH
 70
     0
  9
$DIMSCALE
 40
1.0
  9
$DIMASZ
 40
3.302
  9
$DIMEXO
 40
1.0
  9
$DIMDLI
 40
3.75
  9
$DIMRND
 40
0.0
  9
$DIMDLE
 40
0.0
  9
$DIMEXE
 40
1.0
  9
$DIMTP
 40
0.0
  9
$DIMTM
 40
0.0
  9
$DIMTXT
 40
3.5
  9
$DIMCEN
 40
2.5
  9
$DIMTSZ
 40
0.0
  9
$DIMTOL
 70
     0
  9
$DIMLIM
 70
     0
  9
$DIMTIH
 70
     1
  9
$DIMTOH
 70
     1
  9
$DIMSE1
 70
     0
  9
$DIMSE2
 70
     0
  9
$DIMTAD
 70
     1
  9
$DIMZIN
 70
     0
  9
$DIMBLK
  1

  9
$DIMASO
 70
     1
  9
$DIMSHO
 70
     1
  9
$DIMPOST
  1

  9
$DIMAPOST
  1

  9
$DIMALT
 70
     0
  9
$DIMALTD
 70
     3
  9
$DIMALTF
 40
0.0393700787401575
  9
$DIMLFAC
 40
1.0
  9
$DIMTOFL
 70
     1
  9
$DIMTVP
 40
0.0
  9
$DIMTIX
 70
     0
  9
$DIMSOXD
 70
     0
  9
$DIMSAH
 70
     0
  9
$DIMBLK1
  1

  9
$DIMBLK2
  1

  9
$DIMSTYLE
  2
ISO-25
  9
$DIMCLRD
 70
     0
  9
$DIMCLRE
 70
     0
  9
$DIMCLRT
 70
     0
  9
$DIMTFAC
 40
1.0
  9
$DIMGAP
 40
1.524
  9
$DIMJUST
 70
     0
  9
$DIMSD1
 70
     0
  9
$DIMSD2
 70
     0
  9
$DIMTOLJ
 70
     0
  9
$DIMTZIN
 70
     0
  9
$DIMALTZ
 70
     0
  9
$DIMALTTZ
 70
     0
  9
$DIMUPT
 70
     0
  9
$DIMDEC
 70
     2
  9
$DIMTDEC
 70
     2
  9
$DIMALTU
 70
     2
  9
$DIMALTTD
 70
     3
  9
$DIMTXSTY
  7
Standard
  9
$DIMAUNIT
 70
     0
  9
$DIMADEC
 70
     2
  9
$DIMALTRND
 40
0.0
  9
$DIMAZIN
 70
     0
  9
$DIMDSEP
 70
    44
  9
$DIMATFIT
 70
     3
  9
$DIMFRAC
 70
     0
  9
$DIMLDRBLK
  1

  9
$DIMLUNIT
 70
     2
  9
$DIMLWD
 70
    -2
  9
$DIMLWE
 70
    -2
  9
$DIMTMOVE
 70
     0
  9
$LUNITS
 70
     2
  9
$LUPREC
 70
     2
  9
$SKETCHINC
 40
1.0
  9
$FILLETRAD
 40
10.0
  9
$AUNITS
 70
     0
  9
$AUPREC
 70
     2
  9
$MENU
  1
.
  9
$ELEVATION
 40
0.0
  9
$PELEVATION
 40
0.0
  9
$THICKNESS
 40
0.0
  9
$LIMCHECK
 70
     0
  9
$CHAMFERA
 40
0.0
  9
$CHAMFERB
 40
0.0
  9
$CHAMFERC
 40
0.0
  9
$CHAMFERD
 40
0.0
  9
$SKPOLY
 70
     0
  9
$TDCREATE
 40
2458260.484093461
  9
$TDUCREATE
 40
2458260.109093461
  9
$TDUPDATE
 40
2458266.80335265
  9
$TDUUPDATE
 40
2458266.42835265
  9
$TDINDWG
 40
0.001365787
  9
$TDUSRTIMER
 40
2458266.426986898
  9
$USRTIMER
 70
     1
  9
$ANGBASE
 50
0.0
  9
$ANGDIR
 70
     0
  9
$PDMODE
 70
     0
  9
$PDSIZE
 40
-1.0
  9
$PLINEWID
 40
0.0
  9
$SPLFRAME
 70
     0
  9
$SPLINETYPE
 70
     6
  9
$SPLINESEGS
 70
     8
  9
$HANDSEED
  5
160
  9
$SURFTAB1
 70
     6
  9
$SURFTAB2
 70
     6
  9
$SURFTYPE
 70
     6
  9
$SURFU
 70
     6
  9
$SURFV
 70
     6
  9
$UCSBASE
  2

  9
$UCSNAME
  2

  9
$UCSORG
 10
0.0
 20
0.0
 30
0.0
  9
$UCSXDIR
 10
1.0
 20
0.0
 30
0.0
  9
$UCSYDIR
 10
0.0
 20
1.0
 30
0.0
  9
$UCSORTHOREF
  2

  9
$UCSORTHOVIEW
 70
     0
  9
$UCSORGTOP
 10
0.0
 20
0.0
 30
0.0
  9
$UCSORGBOTTOM
 10
0.0
 20
0.0
 30
0.0
  9
$UCSORGLEFT
 10
0.0
 20
0.0
 30
0.0
  9
$UCSORGRIGHT
 10
0.0
 20
0.0
 30
0.0
  9
$UCSORGFRONT
 10
0.0
 20
0.0
 30
0.0
  9
$UCSORGBACK
 10
0.0
 20
0.0
 30
0.0
  9
$PUCSBASE
  2

  9
$PUCSNAME
  2

  9
$PUCSORG
 10
0.0
 20
0.0
 30
0.0
  9
$PUCSXDIR
 10
1.0
 20
0.0
 30
0.0
  9
$PUCSYDIR
 10
0.0
 20
1.0
 30
0.0
  9
$PUCSORTHOREF
  2

  9
$PUCSORTHOVIEW
 70
     0
  9
$PUCSORGTOP
 10
0.0
 20
0.0
 30
0.0
  9
$PUCSORGBOTTOM
 10
0.0
 20
0.0
 30
0.0
  9
$PUCSORGLEFT
 10
0.0
 20
0.0
 30
0.0
  9
$PUCSORGRIGHT
 10
0.0
 20
0.0
 30
0.0
  9
$PUCSORGFRONT
 10
0.0
 20
0.0
 30
0.0
  9
$PUCSORGBACK
 10
0.0
 20
0.0
 30
0.0
  9
$USERI1
 70
     0
  9
$USERI2
 70
     0
  9
$USERI3
 70
     0
  9
$USERI4
 70
     0
  9
$USERI5
 70
     0
  9
$USERR1
 40
0.0
  9
$USERR2
 40
0.0
  9
$USERR3
 40
0.0
  9
$USERR4
 40
0.0
  9
$USERR5
 40
0.0
  9
$WORLDVIEW
 70
     1
  9
$SHADEDGE
 70
     3
  9
$SHADEDIF
 70
    70
  9
$TILEMODE
 70
     1
  9
$MAXACTVP
 70
    64
  9
$PINSBASE
 10
0.0
 20
0.0
 30
0.0
  9
$PLIMCHECK
 70
     0
  9
$PEXTMIN
 10
1.000000000000000E+20
 20
1.000000000000000E+20
 30
1.000000000000000E+20
  9
$PEXTMAX
 10
-1.000000000000000E+20
 20
-1.000000000000000E+20
 30
-1.000000000000000E+20
  9
$PLIMMIN
 10
0.0
 20
0.0
  9
$PLIMMAX
 10
0.0
 20
0.0
  9
$UNITMODE
 70
     0
  9
$VISRETAIN
 70
     1
  9
$PLINEGEN
 70
     0
  9
$PSLTSCALE
 70
     1
  9
$TREEDEPTH
 70
  3020
  9
$CMLSTYLE
  2
Standard
  9
$CMLJUST
 70
     0
  9
$CMLSCALE
 40
20.0
  9
$PROXYGRAPHICS
 70
     1
  9
$MEASUREMENT
 70
     1
  9
$CELWEIGHT
370
    -1
  9
$ENDCAPS
280
     0
  9
$JOINSTYLE
280
     0
  9
$LWDISPLAY
290
     1
  9
$INSUNITS
 70
     4
  9
$HYPERLINKBASE
  1

  9
$STYLESHEET
  1

  9
$XEDIT
290
     1
  9
$CEPSNTYPE
380
     0
  9
$PSTYLEMODE
290
     1
  9
$FINGERPRINTGUID
  2
{11D8C7CC-58BF-4CB5-A6A6-B66DC3326486}
  9
$VERSIONGUID
  2
{FAEB1C32-E019-11D5-929B-00C0DF256EC4}
  9
$EXTNAMES
290
     1
  9
$PSVPSCALE
 40
0.0
  9
$OLESTARTUP
290
     0
  0
ENDSEC
  0
SECTION
  2
CLASSES
  0
CLASS
  1
ACDBDICTIONARYWDFLT
  2
AcDbDictionaryWithDefault
  3
ObjectDBX Classes
 90
        0
280
     0
281
     0
  0
CLASS
  1
VISUALSTYLE
  2
AcDbVisualStyle
  3
ObjectDBX Classes
 90
     4095
280
     0
281
     0
  0
CLASS
  1
MATERIAL
  2
AcDbMaterial
  3
ObjectDBX Classes
 90
     1153
280
     0
281
     0
  0
CLASS
  1
SCALE
  2
AcDbScale
  3
ObjectDBX Classes
 90
     1153
280
     0
281
     0
  0
CLASS
  1
TABLESTYLE
  2
AcDbTableStyle
  3
ObjectDBX Classes
 90
     4095
280
     0
281
     0
  0
CLASS
  1
MLEADERSTYLE
  2
AcDbMLeaderStyle
  3
ACDB_MLEADERSTYLE_CLASS
 90
     4095
280
     0
281
     0
  0
CLASS
  1
SUN
  2
AcDbSun
  3
SCENEOE
 90
     1153
280
     0
281
     0
  0
CLASS
  1
ACDBPLACEHOLDER
  2
AcDbPlaceHolder
  3
ObjectDBX Classes
 90
        0
280
     0
281
     0
  0
CLASS
  1
LAYOUT
  2
AcDbLayout
  3
ObjectDBX Classes
 90
        0
280
     0
281
     0
  0
CLASS
  1
RASTERVARIABLES
  2
AcDbRasterVariables
  3
ISM
 90
        0
280
     0
281
     0
  0
ENDSEC
  0
SECTION
  2
TABLES
  0
TABLE
  2
VPORT
  5
8
330
0
100
AcDbSymbolTable
 70
     1
  0
VPORT
  5
29
330
8
100
AcDbSymbolTableRecord
100
AcDbViewportTableRecord
  2
*Active
 70
     0
 10
0.0
 20
0.0
 11
1.0
 21
1.0
 12
-3.350342202652712
 22
-12.60383739361504
 13
0.0
 23
0.0
 14
10.0
 24
10.0
 15
10.0
 25
10.0
 16
0.0
 26
0.0
 36
1.0
 17
0.0
 27
0.0
 37
0.0
 40
76.23065879020126
 41
1.728553137003841
 42
50.0
 43
0.0
 44
0.0
 50
0.0
 51
0.0
 71
    16
 72
  2000
 73
     1
 74
     3
 75
     0
 76
     0
 77
     0
 78
     0
281
     0
 65
     1
110
0.0
120
0.0
130
0.0
111
1.0
121
0.0
131
0.0
112
0.0
122
1.0
132
0.0
 79
     0
146
0.0
  0
ENDTAB
  0
TABLE
  2
LTYPE
  5
5
330
0
100
AcDbSymbolTable
 70
     6
  0
LTYPE
  5
14
330
5
100
AcDbSymbolTableRecord
100
AcDbLinetypeTableRecord
  2
ByBlock
 70
     0
  3

 72
    65
 73
     0
 40
0.0
  0
LTYPE
  5
15
330
5
100
AcDbSymbolTableRecord
100
AcDbLinetypeTableRecord
  2
ByLayer
 70
     0
  3

 72
    65
 73
     0
 40
0.0
  0
LTYPE
  5
16
330
5
100
AcDbSymbolTableRecord
100
AcDbLinetypeTableRecord
  2
Continuous
 70
     0
  3
Solid line
 72
    65
 73
     0
 40
0.0
  0
LTYPE
  5
6E
330
5
100
AcDbSymbolTableRecord
100
AcDbLinetypeTableRecord
  2
HIDDEN
 70
     0
  3
Hidden __ __ __ __ __ __ __ __ __ __ __ __ __ __
 72
    65
 73
     2
 40
1.905
 49
1.27
 74
     0
 49
-0.635
 74
     0
  0
LTYPE
  5
6F
330
5
100
AcDbSymbolTableRecord
100
AcDbLinetypeTableRecord
  2
PHANTOM
 70
     0
  3
Phantom ______  __  __  ______  __  __  ______
 72
    65
 73
     6
 40
12.7
 49
6.35
 74
     0
 49
-1.27
 74
     0
 49
1.27
 74
     0
 49
-1.27
 74
     0
 49
1.27
 74
     0
 49
-1.27
 74
     0
  0
LTYPE
  5
70
330
5
100
AcDbSymbolTableRecord
100
AcDbLinetypeTableRecord
  2
CENTER
 70
     0
  3
Center ____ _ ____ _ ____ _ ____ _ ____ _ ____
 72
    65
 73
     4
 40
10.16
 49
6.35
 74
     0
 49
-1.27
 74
     0
 49
1.27
 74
     0
 49
-1.27
 74
     0
  0
LTYPE
  5
71
330
5
100
AcDbSymbolTableRecord
100
AcDbLinetypeTableRecord
  2
CENTERX2
 70
     0
  3
Center (2x) ________  __  ________  __  _____
 72
    65
 73
     4
 40
20.32
 49
12.7
 74
     0
 49
-2.54
 74
     0
 49
2.54
 74
     0
 49
-2.54
 74
     0
  0
LTYPE
  5
72
330
5
100
AcDbSymbolTableRecord
100
AcDbLinetypeTableRecord
  2
DOT2
 70
     0
  3
Dot (.5x) ........................................
 72
    65
 73
     2
 40
0.635
 49
0.0
 74
     0
 49
-0.635
 74
     0
  0
ENDTAB
  0
TABLE
  2
LAYER
  5
2
330
0
100
AcDbSymbolTable
 70
    17
  0
LAYER
  5
10
330
2
100
AcDbSymbolTableRecord
100
AcDbLayerTableRecord
  2
0
 70
     0
 62
     7
  6
Continuous
370
    -3
390
F
  0
LAYER
  5
73
330
2
100
AcDbSymbolTableRecord
100
AcDbLayerTableRecord
  2
FORMAT
 70
     0
 62
     2
  6
Continuous
370
    -3
390
F
  0
LAYER
  5
74
330
2
100
AcDbSymbolTableRecord
100
AcDbLayerTableRecord
  2
외형선
 70
     0
 62
   100
  6
Continuous
370
    35
390
F
  0
LAYER
  5
75
330
2
100
AcDbSymbolTableRecord
100
AcDbLayerTableRecord
  2
숨은선
 70
     0
 62
     2
  6
HIDDEN
370
    25
390
F
  0
LAYER
  5
76
330
2
100
AcDbSymbolTableRecord
100
AcDbLayerTableRecord
  2
중심선
 70
     0
 62
     1
  6
CENTERX2
370
    -3
390
F
  0
LAYER
  5
77
330
2
100
AcDbSymbolTableRecord
100
AcDbLayerTableRecord
  2
파단선
 70
     0
 62
     4
  6
Continuous
370
    -3
390
F
  0
LAYER
  5
78
330
2
100
AcDbSymbolTableRecord
100
AcDbLayerTableRecord
  2
해칭선
 70
     0
 62
   100
  6
Continuous
370
    -3
390
F
  0
LAYER
  5
79
330
2
100
AcDbSymbolTableRecord
100
AcDbLayerTableRecord
  2
가는실선
 70
     0
 62
     4
  6
Continuous
370
    -3
390
F
  0
LAYER
  5
7A
330
2
100
AcDbSymbolTableRecord
100
AcDbLayerTableRecord
  2
치수_보조선
 70
     0
 62
     4
  6
Continuous
370
    -3
390
F
  0
LAYER
  5
7B
330
2
100
AcDbSymbolTableRecord
100
AcDbLayerTableRecord
  2
치수문자_일반주서
 70
     0
 62
     7
  6
Continuous
370
    25
390
F
  0
LAYER
  5
7C
330
2
100
AcDbSymbolTableRecord
100
AcDbLayerTableRecord
  2
개별주서
 70
     0
 62
   100
  6
Continuous
370
    35
390
F
  0
LAYER
  5
7D
330
2
100
AcDbSymbolTableRecord
100
AcDbLayerTableRecord
  2
중간선
 70
     0
 62
     2
  6
Continuous
370
    25
390
F
  0
LAYER
  5
7E
330
2
100
AcDbSymbolTableRecord
100
AcDbLayerTableRecord
  2
윤곽선
 70
     0
 62
     3
  6
Continuous
370
    50
390
F
  0
LAYER
  5
7F
330
2
100
AcDbSymbolTableRecord
100
AcDbLayerTableRecord
  2
중심마크
 70
     0
 62
   100
  6
Continuous
370
    35
390
F
  0
LAYER
  5
80
330
2
100
AcDbSymbolTableRecord
100
AcDbLayerTableRecord
  2
가상선
 70
     0
 62
     4
  6
PHANTOM
370
    -3
390
F
  0
LAYER
  5
81
330
2
100
AcDbSymbolTableRecord
100
AcDbLayerTableRecord
  2
특수지정선
 70
     0
 62
     5
  6
CENTERX2
370
    70
390
F
  0
LAYER
  5
14F
330
2
100
AcDbSymbolTableRecord
100
AcDbLayerTableRecord
  2
Defpoints
 70
     0
 62
     7
  6
Continuous
290
     0
370
    -3
390
F
  0
ENDTAB
  0
TABLE
  2
STYLE
  5
3
330
0
100
AcDbSymbolTable
 70
     2
  0
STYLE
  5
11
330
3
100
AcDbSymbolTableRecord
100
AcDbTextStyleTableRecord
  2
Standard
 70
     0
 40
0.0
 41
1.0
 50
0.0
 71
     0
 42
3.5
  3
txt
  4

  0
STYLE
  5
97
330
3
100
AcDbSymbolTableRecord
100
AcDbTextStyleTableRecord
  2
SLDTEXTSTYLE0
 70
     0
 40
0.0
 41
0.75
 50
0.0
 71
     0
 42
3.5
  3
TXT
  4

  0
ENDTAB
  0
TABLE
  2
VIEW
  5
6
330
0
100
AcDbSymbolTable
 70
     0
  0
ENDTAB
  0
TABLE
  2
UCS
  5
7
330
0
100
AcDbSymbolTable
 70
     0
  0
ENDTAB
  0
TABLE
  2
APPID
  5
9
330
0
100
AcDbSymbolTable
 70
     1
  0
APPID
  5
12
330
9
100
AcDbSymbolTableRecord
100
AcDbRegAppTableRecord
  2
ACAD
 70
     0
  0
ENDTAB
  0
TABLE
  2
DIMSTYLE
  5
A
330
0
100
AcDbSymbolTable
 70
     4
100
AcDbDimStyleTable
  0
DIMSTYLE
105
27
330
A
100
AcDbSymbolTableRecord
100
AcDbDimStyleTableRecord
  2
ISO-25
 70
     0
 41
2.5
 42
0.625
 43
3.75
 44
1.25
 73
     0
 74
     0
 77
     1
 78
     8
140
2.5
141
2.5
143
0.03937007874016
147
0.625
171
     3
172
     1
178
     0
271
     2
272
     2
274
     3
278
    44
283
     0
284
     8
340
11
  0
DIMSTYLE
105
F2
102
{ACAD_REACTORS
330
F1
102
}
330
A
100
AcDbSymbolTableRecord
100
AcDbDimStyleTableRecord
  2
SLDDIMSTYLE0
 70
     0
 41
3.302
 44
0.0
 45
0.000000001
 73
     0
 74
     0
 77
     1
 78
    12
 79
     3
140
3.5
147
0.875
172
     1
173
     1
178
     0
271
     1
272
     1
276
     2
284
    12
289
     0
340
97
  0
DIMSTYLE
105
100
102
{ACAD_REACTORS
330
FF
102
}
330
A
100
AcDbSymbolTableRecord
100
AcDbDimStyleTableRecord
  2
SLDDIMSTYLE1
 70
     0
 41
3.302
 44
0.0
 45
0.000000001
 73
     0
 74
     0
 77
     1
 78
    12
 79
     3
140
3.5
147
0.875
173
     1
178
     0
271
     2
272
     2
276
     2
284
    12
340
97
  0
DIMSTYLE
105
10B
102
{ACAD_REACTORS
330
10A
330
118
102
}
330
A
100
AcDbSymbolTableRecord
100
AcDbDimStyleTableRecord
  2
SLDDIMSTYLE2
 70
     0
 41
3.302
 44
0.0
 45
0.000000001
 73
     0
 74
     0
 77
     1
 78
    12
 79
     3
140
3.5
147
0.875
172
     1
173
     1
178
     0
271
     2
272
     2
276
     2
284
    12
289
     0
340
97
  0
ENDTAB
  0
TABLE
  2
BLOCK_RECORD
  5
1
330
0
100
AcDbSymbolTable
 70
     7
  0
BLOCK_RECORD
  5
1F
330
1
100
AcDbSymbolTableRecord
100
AcDbBlockTableRecord
  2
*Model_Space
340
22
  0
BLOCK_RECORD
  5
1B
330
1
100
AcDbSymbolTableRecord
100
AcDbBlockTableRecord
  2
*Paper_Space
340
1E
  0
BLOCK_RECORD
  5
23
330
1
100
AcDbSymbolTableRecord
100
AcDbBlockTableRecord
  2
*Paper_Space0
340
26
  0
BLOCK_RECORD
  5
82
330
1
100
AcDbSymbolTableRecord
100
AcDbBlockTableRecord
  2
블럭10
340
0
102
{BLKREFS
331
EA
102
}
  0
BLOCK_RECORD
  5
F3
330
1
100
AcDbSymbolTableRecord
100
AcDbBlockTableRecord
  2
_D
340
0
  0
BLOCK_RECORD
  5
101
330
1
100
AcDbSymbolTableRecord
100
AcDbBlockTableRecord
  2
_D_1
340
0
  0
BLOCK_RECORD
  5
10C
330
1
100
AcDbSymbolTableRecord
100
AcDbBlockTableRecord
  2
_D_2
340
0
  0
BLOCK_RECORD
  5
119
330
1
100
AcDbSymbolTableRecord
100
AcDbBlockTableRecord
  2
_D_3
340
0
  0
BLOCK_RECORD
  5
124
330
1
100
AcDbSymbolTableRecord
100
AcDbBlockTableRecord
  2
SW_DOWELSYMBOL_0
340
0
102
{BLKREFS
331
12A
102
}
  0
ENDTAB
  0
ENDSEC
  0
SECTION
  2
BLOCKS
  0
BLOCK
  5
20
330
1F
100
AcDbEntity
  8
0
100
AcDbBlockBegin
  2
*Model_Space
 70
     0
 10
0.0
 20
0.0
 30
0.0
  3
*Model_Space
  1

  0
ENDBLK
  5
21
330
1F
100
AcDbEntity
  8
0
100
AcDbBlockEnd
  0
BLOCK
  5
1C
330
1B
100
AcDbEntity
 67
     1
  8
0
100
AcDbBlockBegin
  2
*Paper_Space
 70
     0
 10
0.0
 20
0.0
 30
0.0
  3
*Paper_Space
  1

  0
ENDBLK
  5
1D
330
1B
100
AcDbEntity
 67
     1
  8
0
100
AcDbBlockEnd
  0
BLOCK
  5
24
330
23
100
AcDbEntity
  8
0
100
AcDbBlockBegin
  2
*Paper_Space0
 70
     0
 10
0.0
 20
0.0
 30
0.0
  3
*Paper_Space0
  1

  0
ENDBLK
  5
25
330
23
100
AcDbEntity
  8
0
100
AcDbBlockEnd
  0
BLOCK
  5
83
330
82
100
AcDbEntity
  8
0
100
AcDbBlockBegin
  2
블럭10
 70
     2
 10
0.0
 20
0.0
 30
0.0
  3
블럭10
  1

  0
ELLIPSE
  5
85
330
82
100
AcDbEntity
  8
중심선
100
AcDbEllipse
 10
20.54032771741204
 20
12.0471743016438
 30
0.0
 11
6.600054785286829
 21
-1.261213355974178E-13
 31
0.0
210
0.0
220
0.0
230
1.0
 40
0.636358354079598
 41
0.9219305317359503
 42
6.513795318482858
  0
ELLIPSE
  5
86
330
82
100
AcDbEntity
  8
중심선
100
AcDbEllipse
 10
20.54032771746488
 20
12.04717430159265
 30
0.0
 11
3.960054785062283
 21
1.540847449632565E-10
 31
0.0
210
0.0
220
0.0
230
1.0
 40
0.3939339440162632
 41
1.131841032648279
 42
5.62031148352944
  0
LINE
  5
87
330
82
100
AcDbEntity
  8
중심선
100
AcDbLine
 10
2.268634060543552
 20
16.24717430164393
 30
0.0
 11
5.714909304380834
 21
16.24717430164393
 31
0.0
  0
LINE
  5
88
330
82
100
AcDbEntity
  8
중심선
100
AcDbLine
 10
5.245725140726316
 20
7.84717430164391
 30
0.0
 11
8.692000384563599
 21
7.84717430164391
 31
0.0
  0
LINE
  5
89
330
82
100
AcDbEntity
  8
중심선
100
AcDbLine
 10
15.74043728645272
 20
16.24717430164393
 30
0.0
 11
8.692000384563599
 21
7.84717430164391
 31
0.0
  0
LINE
  5
8A
330
82
100
AcDbEntity
  8
중심선
100
AcDbLine
 10
0.1404042013395286
 20
13.71084872107135
 30
0.0
 11
3.58671253028996
 21
13.71088815037384
 31
0.0
  0
LINE
  5
8B
330
82
100
AcDbEntity
  8
중심선
100
AcDbLine
 10
2.750260043222114
 20
10.84717430164391
 30
0.0
 11
6.196535287059397
 21
10.84717430164391
 31
0.0
  0
LINE
  5
8C
330
82
100
AcDbEntity
  8
중심선
100
AcDbLine
 10
12.29416204261559
 20
16.24717430164393
 30
0.0
 11
5.245725140726316
 21
7.84717430164391
 31
0.0
  0
LINE
  5
8D
330
82
100
AcDbEntity
  8
중심선
100
AcDbLine
 10
10.72767329541681
 20
16.24717430164393
 30
0.0
 11
6.196535287059397
 21
10.84717430164391
 31
0.0
  0
LINE
  5
8E
330
82
100
AcDbEntity
  8
중심선
100
AcDbLine
 10
7.28139805157953
 20
16.24717430164393
 30
0.0
 11
2.750260043222114
 21
10.84717430164391
 31
0.0
  0
LINE
  5
8F
330
82
100
AcDbEntity
  8
중심선
100
AcDbLine
 10
5.714909304380834
 20
16.24717430164393
 30
0.0
 11
3.58671253028996
 21
13.71088815037384
 31
0.0
  0
LINE
  5
90
330
82
100
AcDbEntity
  8
중심선
100
AcDbLine
 10
2.268634060543552
 20
16.24717430164393
 30
0.0
 11
0.1404042013395286
 21
13.71084872107135
 31
0.0
  0
LINE
  5
91
330
82
100
AcDbEntity
  8
중심선
100
AcDbLine
 10
7.28139805157953
 20
16.24717430164393
 30
0.0
 11
10.72767329541681
 21
16.24717430164393
 31
0.0
  0
LINE
  5
92
330
82
100
AcDbEntity
  8
중심선
100
AcDbLine
 10
12.29416204261559
 20
16.24717430164393
 30
0.0
 11
15.74043728645272
 21
16.24717430164393
 31
0.0
  0
LINE
  5
93
330
82
100
AcDbEntity
  8
중심선
100
AcDbLine
 10
19.22036997980202
 20
11.08717430171403
 30
0.0
 11
23.66174974927406
 21
11.08717430171406
 31
0.0
  0
LINE
  5
94
330
82
100
AcDbEntity
  8
중심선
100
AcDbLine
 10
19.22039502424796
 20
13.00717430171391
 30
0.0
 11
19.22036997980202
 21
11.08717430171403
 31
0.0
  0
LINE
  5
95
330
82
100
AcDbEntity
  8
중심선
100
AcDbLine
 10
19.22039502424796
 20
13.00717430171391
 30
0.0
 11
26.96566020931264
 21
13.00717430171391
 31
0.0
  0
LINE
  5
96
330
82
100
AcDbEntity
  8
중심선
100
AcDbLine
 10
22.22332737316547
 20
13.45928029700563
 30
0.0
 11
24.52862924686651
 21
15.39360700705356
 31
0.0
  0
ATTDEF
  5
98
330
82
100
AcDbEntity
  8
FORMAT
 62
     2
100
AcDbText
 10
-16.11926103943555
 20
2.075366912832191
 30
0.0
 40
4.233333333333333
  1
SEME7101508E [ 4 FLUTE ]
 41
0.75
  7
SLDTEXTSTYLE0
 11
-16.11926103943555
 21
-0.0412997538344756
 31
0.0
100
AcDbAttributeDefinition
  3

  2
AUTOATTR0
 70
     0
 74
     1
  0
ENDBLK
  5
84
330
82
100
AcDbEntity
  8
0
100
AcDbBlockEnd
  0
BLOCK
  5
F4
330
F3
100
AcDbEntity
  8
0
100
AcDbBlockBegin
  2
_D
 70
     0
 10
0.0
 20
0.0
 30
0.0
  3
_D
  1

  0
LINE
  5
F6
330
F3
100
AcDbEntity
  8
치수문자_일반주서
 62
     0
370
    -2
100
AcDbLine
 10
19.45961431702997
 20
-0.750000000000004
 30
0.0
 11
33.17142224967824
 21
-0.749999999999952
 31
0.0
  0
LINE
  5
F7
330
F3
100
AcDbEntity
  8
치수문자_일반주서
 62
     0
370
    -2
100
AcDbLine
 10
19.45961431702997
 20
0.7500000000000071
 30
0.0
 11
33.17142224967824
 21
0.7500000000000586
 31
0.0
  0
LINE
  5
F8
330
F3
100
AcDbEntity
  8
치수문자_일반주서
 62
     0
370
    -2
100
AcDbLine
 10
33.17142224967824
 20
-0.749999999999952
 30
0.0
 11
33.17142224967817
 21
16.10400000000006
 31
0.0
  0
LINE
  5
F9
330
F3
100
AcDbEntity
  8
치수문자_일반주서
 62
     0
370
    -2
100
AcDbLine
 10
33.17142224967824
 20
-0.749999999999952
 30
0.0
 11
33.17142224967824
 21
0.7500000000000586
 31
0.0
  0
LINE
  5
FA
330
F3
100
AcDbEntity
  8
치수문자_일반주서
 62
     0
370
    -2
100
AcDbLine
 10
33.17142224967826
 20
-4.051999999999952
 30
0.0
 11
33.17142224967827
 21
-7.353999999999951
 31
0.0
  0
LINE
  5
FB
330
F3
100
AcDbEntity
  8
치수문자_일반주서
 62
     0
370
    -2
100
AcDbLine
 10
33.17142224967822
 20
4.052000000000058
 30
0.0
 11
33.17142224967821
 21
7.354000000000058
 31
0.0
  0
SOLID
  5
FC
330
F3
100
AcDbEntity
  8
치수문자_일반주서
 62
     0
100
AcDbTrace
 10
33.72175558301159
 20
-4.051999999999949
 30
0.0
 11
32.62108891634492
 21
-4.051999999999954
 31
0.0
 12
33.17142224967824
 22
-0.749999999999952
 32
0.0
 13
33.17142224967824
 23
-0.749999999999952
 33
0.0
  0
SOLID
  5
FD
330
F3
100
AcDbEntity
  8
치수문자_일반주서
 62
     0
100
AcDbTrace
 10
32.62108891634489
 20
4.052000000000056
 30
0.0
 11
33.72175558301156
 21
4.052000000000061
 31
0.0
 12
33.17142224967824
 22
0.7500000000000586
 32
0.0
 13
33.17142224967824
 23
0.7500000000000586
 33
0.0
  0
MTEXT
  5
FE
330
F3
100
AcDbEntity
  8
치수문자_일반주서
 62
     0
100
AcDbMText
 10
28.79642224967819
 20
11.72900000000004
 30
0.0
 40
3.5
 41
0.0
 71
     2
 72
     1
  1
\A1;%%c1.5
  7
SLDTEXTSTYLE0
 11
-4.736951571733966E-15
 21
1.0
 31
0.0
 73
     1
 44
1.0
  0
POINT
  5
157
330
F3
100
AcDbEntity
  8
Defpoints
 62
     0
100
AcDbPoint
 10
19.39711431702997
 20
-0.7500000000000042
 30
0.0
  0
POINT
  5
158
330
F3
100
AcDbEntity
  8
Defpoints
 62
     0
100
AcDbPoint
 10
19.39711431702997
 20
0.7500000000000069
 30
0.0
  0
POINT
  5
159
330
F3
100
AcDbEntity
  8
Defpoints
 62
     0
100
AcDbPoint
 10
33.17142224967822
 20
0.7500000000000584
 30
0.0
  0
ENDBLK
  5
F5
330
F3
100
AcDbEntity
  8
0
100
AcDbBlockEnd
  0
BLOCK
  5
102
330
101
100
AcDbEntity
  8
0
100
AcDbBlockBegin
  2
_D_1
 70
     0
 10
0.0
 20
0.0
 30
0.0
  3
_D_1
  1

  0
LINE
  5
104
330
101
100
AcDbEntity
  8
치수문자_일반주서
 62
     0
370
    -2
100
AcDbLine
 10
-30.60288568297005
 20
2.562499999999997
 30
0.0
 11
-30.60288568297004
 21
20.38913260158165
 31
0.0
  0
LINE
  5
105
330
101
100
AcDbEntity
  8
치수문자_일반주서
 62
     0
370
    -2
100
AcDbLine
 10
19.39711431702996
 20
0.8125000000000024
 30
0.0
 11
19.39711431702996
 21
20.38913260158165
 31
0.0
  0
LINE
  5
106
330
101
100
AcDbEntity
  8
치수문자_일반주서
 62
     0
370
    -2
100
AcDbLine
 10
-27.30088568297004
 20
20.38913260158165
 30
0.0
 11
16.09511431702996
 21
20.38913260158165
 31
0.0
  0
SOLID
  5
107
330
101
100
AcDbEntity
  8
치수문자_일반주서
 62
     0
100
AcDbTrace
 10
-27.30088568297004
 20
20.93946593491498
 30
0.0
 11
-27.30088568297004
 21
19.83879926824831
 31
0.0
 12
-30.60288568297004
 22
20.38913260158165
 32
0.0
 13
-30.60288568297004
 23
20.38913260158165
 33
0.0
  0
SOLID
  5
108
330
101
100
AcDbEntity
  8
치수문자_일반주서
 62
     0
100
AcDbTrace
 10
16.09511431702996
 20
19.83879926824831
 30
0.0
 11
16.09511431702996
 21
20.93946593491498
 31
0.0
 12
19.39711431702996
 22
20.38913260158165
 32
0.0
 13
19.39711431702996
 23
20.38913260158165
 33
0.0
  0
MTEXT
  5
109
330
101
100
AcDbEntity
  8
치수문자_일반주서
 62
     0
100
AcDbMText
 10
-5.602885682970047
 20
24.76413260158165
 30
0.0
 40
3.5
 41
0.0
 71
     2
 72
     1
  1
\A1;50
  7
SLDTEXTSTYLE0
 73
     1
 44
1.0
  0
POINT
  5
150
330
101
100
AcDbEntity
  8
Defpoints
 62
     0
100
AcDbPoint
 10
-30.60288568297005
 20
2.499999999999997
 30
0.0
  0
POINT
  5
151
330
101
100
AcDbEntity
  8
Defpoints
 62
     0
100
AcDbPoint
 10
19.39711431702996
 20
0.7500000000000024
 30
0.0
  0
POINT
  5
152
330
101
100
AcDbEntity
  8
Defpoints
 62
     0
100
AcDbPoint
 10
19.39711431702996
 20
20.38913260158165
 30
0.0
  0
ENDBLK
  5
103
330
101
100
AcDbEntity
  8
0
100
AcDbBlockEnd
  0
BLOCK
  5
10D
330
10C
100
AcDbEntity
  8
0
100
AcDbBlockBegin
  2
_D_2
 70
     0
 10
0.0
 20
0.0
 30
0.0
  3
_D_2
  1

  0
LINE
  5
10F
330
10C
100
AcDbEntity
  8
치수문자_일반주서
 62
     0
370
    -2
100
AcDbLine
 10
-30.16538568297005
 20
3.000000000000004
 30
0.0
 11
-36.60827554502735
 21
2.999999999999982
 31
0.0
  0
LINE
  5
110
330
10C
100
AcDbEntity
  8
치수문자_일반주서
 62
     0
370
    -2
100
AcDbLine
 10
-30.16538568297005
 20
-3.000000000000001
 30
0.0
 11
-36.60827554502733
 21
-3.000000000000025
 31
0.0
  0
LINE
  5
111
330
10C
100
AcDbEntity
  8
치수문자_일반주서
 62
     0
370
    -2
100
AcDbLine
 10
-36.60827554502735
 20
2.999999999999982
 30
0.0
 11
-36.6082755450274
 21
15.72899999999998
 31
0.0
  0
LINE
  5
112
330
10C
100
AcDbEntity
  8
치수문자_일반주서
 62
     0
370
    -2
100
AcDbLine
 10
-36.60827554502735
 20
2.999999999999982
 30
0.0
 11
-36.60827554502733
 21
-3.000000000000025
 31
0.0
  0
LINE
  5
113
330
10C
100
AcDbEntity
  8
치수문자_일반주서
 62
     0
370
    -2
100
AcDbLine
 10
-36.60827554502737
 20
6.301999999999982
 30
0.0
 11
-36.60827554502738
 21
9.603999999999981
 31
0.0
  0
LINE
  5
114
330
10C
100
AcDbEntity
  8
치수문자_일반주서
 62
     0
370
    -2
100
AcDbLine
 10
-36.60827554502732
 20
-6.302000000000024
 30
0.0
 11
-36.6082755450273
 21
-9.604000000000024
 31
0.0
  0
SOLID
  5
115
330
10C
100
AcDbEntity
  8
치수문자_일반주서
 62
     0
100
AcDbTrace
 10
-37.1586088783607
 20
6.30199999999998
 30
0.0
 11
-36.05794221169403
 21
6.301999999999984
 31
0.0
 12
-36.60827554502735
 22
2.999999999999982
 32
0.0
 13
-36.60827554502735
 23
2.999999999999982
 33
0.0
  0
SOLID
  5
116
330
10C
100
AcDbEntity
  8
치수문자_일반주서
 62
     0
100
AcDbTrace
 10
-36.05794221169398
 20
-6.302000000000023
 30
0.0
 11
-37.15860887836065
 21
-6.302000000000026
 31
0.0
 12
-36.60827554502733
 22
-3.000000000000025
 32
0.0
 13
-36.60827554502733
 23
-3.000000000000025
 33
0.0
  0
MTEXT
  5
117
330
10C
100
AcDbEntity
  8
치수문자_일반주서
 62
     0
100
AcDbMText
 10
-40.98327554502739
 20
12.66649999999997
 30
0.0
 40
3.5
 41
0.0
 71
     2
 72
     1
  1
\A1;%%c6
  7
SLDTEXTSTYLE0
 11
-3.552713678800497E-15
 21
1.0
 31
0.0
 73
     1
 44
1.0
  0
POINT
  5
154
330
10C
100
AcDbEntity
  8
Defpoints
 62
     0
100
AcDbPoint
 10
-30.10288568297005
 20
3.000000000000004
 30
0.0
  0
POINT
  5
155
330
10C
100
AcDbEntity
  8
Defpoints
 62
     0
100
AcDbPoint
 10
-30.10288568297005
 20
-3.000000000000001
 30
0.0
  0
POINT
  5
156
330
10C
100
AcDbEntity
  8
Defpoints
 62
     0
100
AcDbPoint
 10
-36.60827554502731
 20
-3.000000000000025
 30
0.0
  0
ENDBLK
  5
10E
330
10C
100
AcDbEntity
  8
0
100
AcDbBlockEnd
  0
BLOCK
  5
11A
330
119
100
AcDbEntity
  8
0
100
AcDbBlockBegin
  2
_D_3
 70
     0
 10
0.0
 20
0.0
 30
0.0
  3
_D_3
  1

  0
LINE
  5
11C
330
119
100
AcDbEntity
  8
치수문자_일반주서
 62
     0
370
    -2
100
AcDbLine
 10
11.39711431702995
 20
0.7880295792008348
 30
0.0
 11
11.39711431702995
 21
13.01545120730776
 31
0.0
  0
LINE
  5
11D
330
119
100
AcDbEntity
  8
치수문자_일반주서
 62
     0
370
    -2
100
AcDbLine
 10
19.39711431702996
 20
0.8125000000000024
 30
0.0
 11
19.39711431702995
 21
13.01545120730776
 31
0.0
  0
LINE
  5
11E
330
119
100
AcDbEntity
  8
치수문자_일반주서
 62
     0
370
    -2
100
AcDbLine
 10
11.39711431702995
 20
13.01545120730776
 30
0.0
 11
1.293114317029955
 21
13.01545120730776
 31
0.0
  0
LINE
  5
11F
330
119
100
AcDbEntity
  8
치수문자_일반주서
 62
     0
370
    -2
100
AcDbLine
 10
11.39711431702995
 20
13.01545120730776
 30
0.0
 11
19.39711431702995
 21
13.01545120730776
 31
0.0
  0
LINE
  5
120
330
119
100
AcDbEntity
  8
치수문자_일반주서
 62
     0
370
    -2
100
AcDbLine
 10
8.095114317029955
 20
13.01545120730776
 30
0.0
 11
4.793114317029955
 21
13.01545120730776
 31
0.0
  0
LINE
  5
121
330
119
100
AcDbEntity
  8
치수문자_일반주서
 62
     0
370
    -2
100
AcDbLine
 10
22.69911431702995
 20
13.01545120730776
 30
0.0
 11
26.00111431702995
 21
13.01545120730776
 31
0.0
  0
SOLID
  5
122
330
119
100
AcDbEntity
  8
치수문자_일반주서
 62
     0
100
AcDbTrace
 10
8.095114317029955
 20
12.46511787397443
 30
0.0
 11
8.095114317029955
 21
13.5657845406411
 31
0.0
 12
11.39711431702995
 22
13.01545120730776
 32
0.0
 13
11.39711431702995
 23
13.01545120730776
 33
0.0
  0
SOLID
  5
123
330
119
100
AcDbEntity
  8
치수문자_일반주서
 62
     0
100
AcDbTrace
 10
22.69911431702995
 20
13.5657845406411
 30
0.0
 11
22.69911431702995
 21
12.46511787397443
 31
0.0
 12
19.39711431702995
 22
13.01545120730776
 32
0.0
 13
19.39711431702995
 23
13.01545120730776
 33
0.0
  0
MTEXT
  5
153
330
119
100
AcDbEntity
  8
치수문자_일반주서
 62
     0
100
AcDbMText
 10
3.043114317029955
 20
17.39045120730776
 30
0.0
 40
3.5
 41
0.0
 71
     2
 72
     1
  1
\A1;8
  7
SLDTEXTSTYLE0
 73
     1
 44
1.0
  0
POINT
  5
15A
330
119
100
AcDbEntity
  8
Defpoints
 62
     0
100
AcDbPoint
 10
11.39711431702995
 20
0.7255295792008348
 30
0.0
  0
POINT
  5
15B
330
119
100
AcDbEntity
  8
Defpoints
 62
     0
100
AcDbPoint
 10
19.39711431702996
 20
0.7500000000000024
 30
0.0
  0
POINT
  5
15C
330
119
100
AcDbEntity
  8
Defpoints
 62
     0
100
AcDbPoint
 10
19.39711431702996
 20
13.01545120730776
 30
0.0
  0
ENDBLK
  5
11B
330
119
100
AcDbEntity
  8
0
100
AcDbBlockEnd
  0
BLOCK
  5
125
330
124
100
AcDbEntity
  8
0
100
AcDbBlockBegin
  2
SW_DOWELSYMBOL_0
 70
     0
 10
0.0
 20
0.0
 30
0.0
  3
SW_DOWELSYMBOL_0
  1

  0
CIRCLE
  5
127
330
124
100
AcDbEntity
  8
해칭선
 62
     0
100
AcDbCircle
 10
0.0
 20
0.0
 30
0.0
 40
3.000000000000001
  0
HATCH
  5
128
330
124
100
AcDbEntity
  8
0
  6
Continuous
 62
     0
370
    18
100
AcDbHatch
 10
0.0
 20
0.0
 30
0.0
210
0.0
220
0.0
230
1.0
  2
SOLID
 70
     1
 71
     0
 91
        1
 92
        0
 93
        3
 72
     2
 10
0.0
 20
0.0
 40
3.000000000000001
 50
0.0
 51
90.0
 73
     1
 72
     1
 10
0.0
 20
3.000000000000001
 11
0.0
 21
0.0
 72
     1
 10
0.0
 20
0.0
 11
3.000000000000001
 21
0.0
 97
        0
 75
     0
 76
     1
 98
        1
 10
0.0
 20
0.0
  0
HATCH
  5
129
330
124
100
AcDbEntity
  8
0
  6
Continuous
 62
     0
370
    18
100
AcDbHatch
 10
0.0
 20
0.0
 30
0.0
210
0.0
220
0.0
230
1.0
  2
SOLID
 70
     1
 71
     0
 91
        1
 92
        0
 93
        3
 72
     2
 10
0.0
 20
0.0
 40
3.000000000000001
 50
180.0
 51
270.0000000000008
 73
     1
 72
     1
 10
0.0
 20
-3.000000000000001
 11
0.0
 21
0.0
 72
     1
 10
0.0
 20
0.0
 11
-3.000000000000001
 21
0.0
 97
        0
 75
     0
 76
     1
 98
        1
 10
0.0
 20
0.0
  0
ENDBLK
  5
126
330
124
100
AcDbEntity
  8
0
100
AcDbBlockEnd
  0
ENDSEC
  0
SECTION
  2
ENTITIES
  0
LINE
  5
99
330
1F
100
AcDbEntity
  8
0
  6
Continuous
 62
     4
370
    25
100
AcDbLine
 10
2.0
 20
3.0
 30
0.0
 11
-30.10288568297005
 21
2.999999999999998
 31
0.0
  0
LINE
  5
9A
330
1F
100
AcDbEntity
  8
0
  6
Continuous
 62
     4
370
    25
100
AcDbLine
 10
-30.10288568297005
 20
-3.0
 30
0.0
 11
1.999999999999998
 21
-2.999999999999997
 31
0.0
  0
LINE
  5
9B
330
1F
100
AcDbEntity
  8
0
  6
Continuous
 62
     4
370
    25
100
AcDbLine
 10
10.14078054047372
 20
-0.8186844284210614
 30
0.0
 11
10.39711431702995
 21
-0.7499999999999982
 31
0.0
  0
LINE
  5
9C
330
1F
100
AcDbEntity
  8
0
  6
Continuous
 62
     4
370
    25
100
AcDbLine
 10
2.0
 20
-2.999999999999997
 30
0.0
 11
9.956615961677004
 21
-0.8680311785840594
 31
0.0
  0
LINE
  5
9D
330
1F
100
AcDbEntity
  8
0
  6
Continuous
 62
     4
370
    25
100
AcDbLine
 10
9.956615961677004
 20
0.8680311785840626
 30
0.0
 11
2.0
 21
3.0
 31
0.0
  0
LINE
  5
9E
330
1F
100
AcDbEntity
  8
0
  6
Continuous
 62
     4
370
    25
100
AcDbLine
 10
10.39711431702995
 20
0.7500000000000018
 30
0.0
 11
10.14078054047373
 21
0.818684428421062
 31
0.0
  0
LINE
  5
9F
330
1F
100
AcDbEntity
  8
0
  6
Continuous
 62
     4
370
    25
100
AcDbLine
 10
-30.10288568297005
 20
2.999999999999997
 30
0.0
 11
-30.60288568297005
 21
2.499999999999996
 31
0.0
  0
LINE
  5
A0
330
1F
100
AcDbEntity
  8
0
  6
Continuous
 62
     4
370
    25
100
AcDbLine
 10
-30.60288568297005
 20
-2.499999999999999
 30
0.0
 11
-30.10288568297005
 21
-2.999999999999999
 31
0.0
  0
LINE
  5
A1
330
1F
100
AcDbEntity
  8
0
  6
Continuous
 62
     4
370
    25
100
AcDbLine
 10
10.56404650048101
 20
0.7500000000000018
 30
0.0
 11
10.39711431702995
 21
0.7500000000000018
 31
0.0
  0
LINE
  5
A2
330
1F
100
AcDbEntity
  8
0
  6
Continuous
 62
     4
370
    25
100
AcDbLine
 10
10.39711431702995
 20
-0.7499999999999982
 30
0.0
 11
10.564046500481
 21
-0.7499999999999982
 31
0.0
  0
LINE
  5
A3
330
1F
100
AcDbEntity
  8
0
  6
Continuous
 62
     1
370
    25
100
AcDbLine
 10
17.67453529638083
 20
-0.749999999999999
 30
0.0
 11
18.10346408365548
 21
-0.749999999999999
 31
0.0
  0
LINE
  5
A4
330
1F
100
AcDbEntity
  8
0
  6
Continuous
 62
     1
370
    25
100
AcDbLine
 10
11.64295245329857
 20
-0.749999999999999
 30
0.0
 11
12.07188124057322
 21
-0.749999999999999
 31
0.0
  0
LINE
  5
A5
330
1F
100
AcDbEntity
  8
0
  6
Continuous
 62
     1
370
    25
100
AcDbLine
 10
15.08793535471994
 20
0.7500000000000026
 30
0.0
 11
14.65906836401765
 21
0.7500000000000026
 31
0.0
  0
LINE
  5
A6
330
1F
100
AcDbEntity
  8
0
  6
Continuous
 62
     1
370
    25
100
AcDbLine
 10
13.34051825459197
 20
0.1818420033370093
 30
0.0
 11
13.3655314739477
 21
0.1666348592736518
 31
0.0
  0
SPLINE
  5
A7
330
1F
100
AcDbEntity
  8
0
  6
Continuous
 62
     1
370
    25
100
AcDbSpline
210
0.0
220
0.0
230
1.0
 70
     8
 71
     3
 72
     9
 73
     5
 74
     0
 42
0.000000001
 43
0.00000001
 40
0.0
 40
0.0
 40
0.0
 40
0.0
 40
0.4989923570998074
 40
1.0
 40
1.0
 40
1.0
 40
1.0
 10
13.36553147395175
 20
0.1666348592708058
 30
0.0
 10
13.38632006093916
 20
0.1509529690847484
 30
0.0
 10
13.42798119400388
 20
0.1195258540940456
 30
0.0
 10
13.4703838973876
 20
0.0854635643356661
 30
0.0
 10
13.49162797586247
 20
0.068398096832037
 30
0.0
  0
LINE
  5
A8
330
1F
100
AcDbEntity
  8
0
  6
Continuous
 62
     1
370
    25
100
AcDbLine
 10
14.85211167835264
 20
-0.1464553064244852
 30
0.0
 11
14.7954117006332
 21
-0.1066260444189532
 31
0.0
  0
LINE
  5
A9
330
1F
100
AcDbEntity
  8
0
  6
Continuous
 62
     1
370
    25
100
AcDbLine
 10
11.81154089244087
 20
-0.1292219073810452
 30
0.0
 11
11.77962027909206
 21
-0.1066260444189524
 31
0.0
  0
LINE
  5
AA
330
1F
100
AcDbEntity
  8
0
  6
Continuous
 62
     1
370
    25
100
AcDbLine
 10
17.84312373552313
 20
-0.1292219073810442
 30
0.0
 11
17.81120312217433
 21
-0.1066260444189517
 31
0.0
  0
LINE
  5
AB
330
1F
100
AcDbEntity
  8
0
  6
Continuous
 62
     1
370
    25
100
AcDbLine
 10
16.43127445631449
 20
0.1255420203014537
 30
0.0
 11
16.45672746553762
 21
0.1076764228361977
 31
0.0
  0
LINE
  5
AC
330
1F
100
AcDbEntity
  8
0
  6
Continuous
 62
     1
370
    25
100
AcDbLine
 10
16.16797550790326
 20
-0.749999999999999
 30
0.0
 11
16.59631149963091
 21
-0.749999999999999
 31
0.0
  0
LINE
  5
AD
330
1F
100
AcDbEntity
  8
0
  6
Continuous
 62
     1
370
    25
100
AcDbLine
 10
13.57877606885069
 20
0.7500000000000026
 30
0.0
 11
13.14997255416984
 21
0.7500000000000026
 31
0.0
  0
LINE
  5
AE
330
1F
100
AcDbEntity
  8
0
  6
Continuous
 62
     1
370
    25
100
AcDbLine
 10
19.39711431702996
 20
0.7500000000000026
 30
0.0
 11
19.18207692032149
 21
0.7500000000000026
 31
0.0
  0
LINE
  5
AF
330
1F
100
AcDbEntity
  8
0
  6
Continuous
 62
     1
370
    25
100
AcDbLine
 10
19.18207692032149
 20
-0.749999999999999
 30
0.0
 11
19.39711431702996
 21
-0.749999999999999
 31
0.0
  0
LINE
  5
B0
330
1F
100
AcDbEntity
  8
0
  6
Continuous
 62
     1
370
    25
100
AcDbLine
 10
13.14997255416984
 20
-0.749999999999999
 30
0.0
 11
13.57877606885069
 21
-0.749999999999999
 31
0.0
  0
LINE
  5
B1
330
1F
100
AcDbEntity
  8
0
  6
Continuous
 62
     1
370
    25
100
AcDbLine
 10
16.59631149963092
 20
0.7500000000000026
 30
0.0
 11
16.16797550790326
 21
0.7500000000000026
 31
0.0
  0
LINE
  5
B2
330
1F
100
AcDbEntity
  8
0
  6
Continuous
 62
     1
370
    25
100
AcDbLine
 10
14.65906836401766
 20
-0.749999999999999
 30
0.0
 11
15.08793535471994
 21
-0.749999999999999
 31
0.0
  0
LINE
  5
B3
330
1F
100
AcDbEntity
  8
0
  6
Continuous
 62
     1
370
    25
100
AcDbLine
 10
12.07188124057322
 20
0.7500000000000026
 30
0.0
 11
11.64295245329858
 21
0.7500000000000026
 31
0.0
  0
LINE
  5
B4
330
1F
100
AcDbEntity
  8
0
  6
Continuous
 62
     1
370
    25
100
AcDbLine
 10
18.10346408365548
 20
0.7500000000000026
 30
0.0
 11
17.67453529638084
 21
0.7500000000000026
 31
0.0
  0
LINE
  5
B5
330
1F
100
AcDbEntity
  8
0
  6
Continuous
 62
     4
370
    25
100
AcDbLine
 10
2.0
 20
3.000000000000001
 30
0.0
 11
2.0
 21
-3.0
 31
0.0
  0
LINE
  5
B6
330
1F
100
AcDbEntity
  8
0
  6
Continuous
 62
     4
370
    25
100
AcDbLine
 10
-30.10288568297005
 20
2.999999999999997
 30
0.0
 11
-30.10288568297005
 21
-3.000000000000001
 31
0.0
  0
SPLINE
  5
B7
330
1F
100
AcDbEntity
  8
0
  6
Continuous
 62
     4
370
    25
100
AcDbSpline
210
0.0
220
0.0
230
1.0
 70
     8
 71
     3
 72
    12
 73
     8
 74
     0
 42
0.000000001
 43
0.00000001
 40
0.0
 40
0.0
 40
0.0
 40
0.0
 40
0.0197468062629114
 40
0.2671164245649281
 40
0.5217591835388063
 40
0.775942745737438
 40
1.0
 40
1.0
 40
1.0
 40
1.0
 10
9.956602812327377
 20
-0.8679821045431625
 30
0.0
 10
9.957537600943272
 20
-0.8677486338506053
 30
0.0
 10
9.970182551700294
 20
-0.8645904595207295
 30
0.0
 10
10.00434425628506
 20
-0.8547043262768218
 30
0.0
 10
10.05454986762152
 20
-0.8410233814628985
 30
0.0
 10
10.10464953363849
 20
-0.8281002443945809
 30
0.0
 10
10.13146537756064
 20
-0.8210940876483782
 30
0.0
 10
10.14402868071906
 20
-0.8178116822378511
 30
0.0
  0
LINE
  5
B8
330
1F
100
AcDbEntity
  8
0
  6
Continuous
 62
     4
370
    25
100
AcDbLine
 10
10.39711431702995
 20
0.7500000000000018
 30
0.0
 11
10.39711431702995
 21
0.7221720811547435
 31
0.0
  0
SPLINE
  5
B9
330
1F
100
AcDbEntity
  8
0
  6
Continuous
 62
     4
370
    25
100
AcDbSpline
210
0.0
220
0.0
230
1.0
 70
     8
 71
     3
 72
     8
 73
     4
 74
     0
 42
0.000000001
 43
0.00000001
 40
0.0
 40
0.0
 40
0.0
 40
0.0
 40
1.0
 40
1.0
 40
1.0
 40
1.0
 10
10.14402868071915
 20
0.8178116822378286
 30
0.0
 10
10.22757131777435
 20
0.7952548405711792
 30
0.0
 10
10.31195361971126
 20
0.7631130743229942
 30
0.0
 10
10.39711431703068
 20
0.7221720811564035
 30
0.0
  0
SPLINE
  5
BA
330
1F
100
AcDbEntity
  8
0
  6
Continuous
 62
     4
370
    25
100
AcDbSpline
210
0.0
220
0.0
230
1.0
 70
     8
 71
     3
 72
    26
 73
    22
 74
     0
 42
0.000000001
 43
0.00000001
 40
0.0
 40
0.0
 40
0.0
 40
0.0
 40
0.0000473618668704
 40
0.0000473618668704
 40
0.0000473618668704
 40
0.0000946142495857
 40
0.0000946142495857
 40
0.0000946142495857
 40
0.0001434696580766
 40
0.0001434696580766
 40
0.0001434696580766
 40
0.0001951029096828
 40
0.0001951029096828
 40
0.0001951029096828
 40
0.000248300627327
 40
0.000248300627327
 40
0.000248300627327
 40
0.0003014149666
 40
0.0003014149666
 40
0.0003014149666
 40
0.000348083751421
 40
0.000348083751421
 40
0.000348083751421
 40
0.000348083751421
 10
9.897226625700643
 20
0.8756969385743204
 30
0.0
 10
9.897226625700645
 20
0.8778485186447258
 30
0.0
 10
9.89979916503891
 20
0.8789053656221925
 30
0.0
 10
9.904669693726227
 20
0.8788567879658093
 30
0.0
 10
9.909533821231678
 20
0.8788082741535042
 30
0.0
 10
9.91680374226348
 20
0.8776684975214043
 30
0.0
 10
9.925847848371028
 20
0.8757045511386808
 30
0.0
 10
9.935199569463492
 20
0.8736738055245333
 30
0.0
 10
9.946683689684356
 20
0.8707197406175577
 30
0.0
 10
9.959433652159694
 20
0.8672712921534466
 30
0.0
 10
9.972895911468191
 20
0.8636301906580002
 30
0.0
 10
9.988129258075167
 20
0.8593493765504381
 30
0.0
 10
10.00397998186366
 20
0.854946463010278
 30
0.0
 10
10.02029674729727
 20
0.8504140953772368
 30
0.0
 10
10.03772239151825
 20
0.8456341576665466
 30
0.0
 10
10.05483106277566
 20
0.8410735064370326
 30
0.0
 10
10.07190888200058
 20
0.8365210794207106
 30
0.0
 10
10.0891492428431
 20
0.8320606088127664
 30
0.0
 10
10.10504890158055
 20
0.8279720728554731
 30
0.0
 10
10.11906410323089
 20
0.8243681177742762
 30
0.0
 10
10.13237128256386
 20
0.8209592257400798
 30
0.0
 10
10.14402868071894
 20
0.8178116822377665
 30
0.0
  0
LINE
  5
BB
330
1F
100
AcDbEntity
  8
0
  6
Continuous
 62
     4
370
    25
100
AcDbLine
 10
9.897226625700643
 20
0.8756969385743204
 30
0.0
 11
9.897226625700643
 21
0.6132563782195091
 31
0.0
  0
SPLINE
  5
BC
330
1F
100
AcDbEntity
  8
0
  6
Continuous
 62
     4
370
    25
100
AcDbSpline
210
0.0
220
0.0
230
1.0
 70
     8
 71
     3
 72
    14
 73
    10
 74
     0
 42
0.000000001
 43
0.00000001
 40
0.0
 40
0.0
 40
0.0
 40
0.0
 40
0.0000499322584363
 40
0.0000499322584363
 40
0.0000499322584363
 40
0.00010001682627
 40
0.00010001682627
 40
0.00010001682627
 40
0.0001256714947514
 40
0.0001256714947514
 40
0.0001256714947514
 40
0.0001256714947514
 10
9.946072221915916
 20
0.5197642537034672
 30
0.0
 10
9.934178958525154
 20
0.530651971701565
 30
0.0
 10
9.923843578611251
 20
0.5429101922435986
 30
0.0
 10
9.915936418286877
 20
0.5554799903660187
 30
0.0
 10
9.908015180199746
 20
0.5680721675257457
 30
0.0
 10
9.902321886211933
 20
0.5813350151760981
 30
0.0
 10
9.899462270309959
 20
0.5939952776265007
 30
0.0
 10
9.897980520575194
 20
0.6005553686215905
 30
0.0
 10
9.897226625700643
 20
0.6070341022136484
 30
0.0
 10
9.897226625700643
 20
0.6132563782195092
 30
0.0
  0
SPLINE
  5
BD
330
1F
100
AcDbEntity
  8
0
  6
Continuous
 62
     4
370
    25
100
AcDbSpline
210
0.0
220
0.0
230
1.0
 70
     8
 71
     3
 72
     8
 73
     4
 74
     0
 42
0.000000001
 43
0.00000001
 40
0.0
 40
0.0
 40
0.0
 40
0.0
 40
1.0
 40
1.0
 40
1.0
 40
1.0
 10
10.39711431702995
 20
0.1293965029157987
 30
0.0
 10
10.23913243537364
 20
0.2531002214088259
 30
0.0
 10
10.09015111842579
 20
0.387866864136252
 30
0.0
 10
9.946072221915912
 20
0.5197642537034575
 30
0.0
  0
LINE
  5
BE
330
1F
100
AcDbEntity
  8
0
  6
Continuous
 62
     4
370
    25
100
AcDbLine
 10
10.39711431702995
 20
0.1293965029157987
 30
0.0
 11
10.39711431702995
 21
-0.2024042618143889
 31
0.0
  0
SPLINE
  5
BF
330
1F
100
AcDbEntity
  8
0
  6
Continuous
 62
     4
370
    25
100
AcDbSpline
210
0.0
220
0.0
230
1.0
 70
     8
 71
     3
 72
     8
 73
     4
 74
     0
 42
0.000000001
 43
0.00000001
 40
0.0
 40
0.0
 40
0.0
 40
0.0
 40
1.0
 40
1.0
 40
1.0
 40
1.0
 10
10.14402868071915
 20
-0.0019852579556994
 30
0.0
 10
10.22757131777435
 20
-0.0726719070294752
 30
0.0
 10
10.31195361971126
 20
-0.1408819051571696
 30
0.0
 10
10.39711431703068
 20
-0.2024042618151183
 30
0.0
  0
SPLINE
  5
C0
330
1F
100
AcDbEntity
  8
0
  6
Continuous
 62
     4
370
    25
100
AcDbSpline
210
0.0
220
0.0
230
1.0
 70
     8
 71
     3
 72
    26
 73
    22
 74
     0
 42
0.000000001
 43
0.00000001
 40
0.0
 40
0.0
 40
0.0
 40
0.0
 40
0.0000473618668704
 40
0.0000473618668704
 40
0.0000473618668704
 40
0.0000946142495857
 40
0.0000946142495857
 40
0.0000946142495857
 40
0.0001434696580766
 40
0.0001434696580766
 40
0.0001434696580766
 40
0.0001951029096828
 40
0.0001951029096828
 40
0.0001951029096828
 40
0.000248300627327
 40
0.000248300627327
 40
0.000248300627327
 40
0.0003014149666
 40
0.0003014149666
 40
0.0003014149666
 40
0.000348083751421
 40
0.000348083751421
 40
0.000348083751421
 40
0.000348083751421
 10
9.897226625700643
 20
-0.1204689026489178
 30
0.0
 10
9.897226625700645
 20
-0.1048289155707257
 30
0.0
 10
9.89979916503891
 20
-0.0888195257468024
 30
0.0
 10
9.904669693726227
 20
-0.073802399419749
 30
0.0
 10
9.909533821231678
 20
-0.0588050096270552
 30
0.0
 10
9.91680374226348
 20
-0.044390974950165
 30
0.0
 10
9.925847848371028
 20
-0.0316265380297801
 30
0.0
 10
9.935199569463492
 20
-0.0184279474159208
 30
0.0
 10
9.946683689684356
 20
-0.0066446299372124
 30
0.0
 10
9.959433652159694
 20
0.0029119421156041
 30
0.0
 10
9.972895911468191
 20
0.0130024071914158
 30
0.0
 10
9.988129258075167
 20
0.0208771372798407
 30
0.0
 10
10.00397998186366
 20
0.0259443296951937
 30
0.0
 10
10.02029674729727
 20
0.0311605072749384
 30
0.0
 10
10.03772239151825
 20
0.0335373772607604
 30
0.0
 10
10.05483106277566
 20
0.0328434555874646
 30
0.0
 10
10.07190888200058
 20
0.0321507852617269
 30
0.0
 10
10.0891492428431
 20
0.0283711795102482
 30
0.0
 10
10.10504890158055
 20
0.0217877898698822
 30
0.0
 10
10.11906410323089
 20
0.0159846757983097
 30
0.0
 10
10.13237128256386
 20
0.007878237399032
 30
0.0
 10
10.14402868071894
 20
-0.0019852579555323
 30
0.0
  0
LINE
  5
C1
330
1F
100
AcDbEntity
  8
0
  6
Continuous
 62
     4
370
    25
100
AcDbLine
 10
9.897226625700643
 20
-0.1204689026489178
 30
0.0
 11
9.897226625700643
 21
-0.636611733560547
 31
0.0
  0
SPLINE
  5
C2
330
1F
100
AcDbEntity
  8
0
  6
Continuous
 62
     4
370
    25
100
AcDbSpline
210
0.0
220
0.0
230
1.0
 70
     8
 71
     3
 72
    14
 73
    10
 74
     0
 42
0.000000001
 43
0.00000001
 40
0.0
 40
0.0
 40
0.0
 40
0.0
 40
0.0000499322584363
 40
0.0000499322584363
 40
0.0000499322584363
 40
0.00010001682627
 40
0.00010001682627
 40
0.00010001682627
 40
0.0001256714947514
 40
0.0001256714947514
 40
0.0001256714947514
 40
0.0001256714947514
 10
9.946072221915916
 20
-0.6987388133443861
 30
0.0
 10
9.934178958525154
 20
-0.6946116489026781
 30
0.0
 10
9.923843578611251
 20
-0.6886644452096469
 30
0.0
 10
9.915936418286877
 20
-0.6811476244466328
 30
0.0
 10
9.908015180199746
 20
-0.6736174208742335
 30
0.0
 10
9.902321886211935
 20
-0.6642777654977401
 30
0.0
 10
9.899462270309959
 20
-0.6538109963746125
 30
0.0
 10
9.897980520575194
 20
-0.6483874944415907
 30
0.0
 10
9.897226625700643
 20
-0.6426057331154952
 30
0.0
 10
9.897226625700643
 20
-0.636611733560547
 30
0.0
  0
SPLINE
  5
C3
330
1F
100
AcDbEntity
  8
0
  6
Continuous
 62
     4
370
    25
100
AcDbSpline
210
0.0
220
0.0
230
1.0
 70
     8
 71
     3
 72
     8
 73
     4
 74
     0
 42
0.000000001
 43
0.00000001
 40
0.0
 40
0.0
 40
0.0
 40
0.0
 40
1.0
 40
1.0
 40
1.0
 40
1.0
 10
10.39711431702995
 20
-0.7387533722651703
 30
0.0
 10
10.23913243537364
 20
-0.7600615790723699
 30
0.0
 10
10.09015111842579
 20
-0.7487366380741258
 30
0.0
 10
9.946072221915912
 20
-0.6987388133443703
 30
0.0
  0
LINE
  5
C4
330
1F
100
AcDbEntity
  8
0
  6
Continuous
 62
     4
370
    25
100
AcDbLine
 10
10.39711431702995
 20
-0.7387533722651707
 30
0.0
 11
10.39711431702995
 21
-0.7499999999999982
 31
0.0
  0
LINE
  5
C5
330
1F
100
AcDbEntity
  8
0
  6
Continuous
 62
     4
370
    25
100
AcDbLine
 10
-30.60288568297005
 20
2.499999999999997
 30
0.0
 11
-30.60288568297005
 21
-2.499999999999999
 31
0.0
  0
SPLINE
  5
C6
330
1F
100
AcDbEntity
  8
0
  6
Continuous
 62
     4
370
    25
100
AcDbSpline
210
0.0
220
0.0
230
1.0
 70
     8
 71
     3
 72
    14
 73
    10
 74
     0
 42
0.000000001
 43
0.00000001
 40
0.0
 40
0.0
 40
0.0
 40
0.0
 40
0.25
 40
0.25
 40
0.5
 40
0.5
 40
0.75
 40
0.75
 40
1.0
 40
1.0
 40
1.0
 40
1.0
 10
11.39711431702995
 20
0.1900179720574598
 30
0.0
 10
11.31282241774347
 20
0.2532217410455014
 30
0.0
 10
11.23133937243734
 20
0.3135623127038016
 30
0.0
 10
11.06578639680051
 20
0.4265365531286605
 30
0.0
 10
10.98041624683704
 20
0.4793696010188503
 30
0.0
 10
10.81304454514897
 20
0.5723192754209073
 30
0.0
 10
10.7326066822156
 20
0.6123105488810939
 30
0.0
 10
10.5648474205925
 20
0.6787296501531054
 30
0.0
 10
10.47955467269191
 20
0.7046695588360341
 30
0.0
 10
10.39711431702997
 20
0.7221720811547407
 30
0.0
  0
SPLINE
  5
C7
330
1F
100
AcDbEntity
  8
0
  6
Continuous
 62
     4
370
    25
100
AcDbSpline
210
0.0
220
0.0
230
1.0
 70
     8
 71
     3
 72
    14
 73
    10
 74
     0
 42
0.000000001
 43
0.00000001
 40
0.0
 40
0.0
 40
0.0
 40
0.0
 40
0.2499999999999999
 40
0.2499999999999999
 40
0.4999999999999999
 40
0.4999999999999999
 40
0.7499999999999999
 40
0.7499999999999999
 40
1.0
 40
1.0
 40
1.0
 40
1.0
 10
11.39711431702995
 20
-0.5722736584256833
 30
0.0
 10
11.31282241774347
 20
-0.5300433330252612
 30
0.0
 10
11.23133937243735
 20
-0.4818090165168579
 30
0.0
 10
11.06578639680051
 20
-0.375211384278034
 30
0.0
 10
10.98041624683705
 20
-0.3164646801635504
 30
0.0
 10
10.81304454514897
 20
-0.1938842835256518
 30
0.0
 10
10.73260668221561
 20
-0.1305275984212409
 30
0.0
 10
10.5648474205925
 20
-0.0005690604765435
 30
0.0
 10
10.47955467269191
 20
0.0655142147160067
 30
0.0
 10
10.39711431702997
 20
0.1293965029157875
 30
0.0
  0
SPLINE
  5
C8
330
1F
100
AcDbEntity
  8
0
  6
Continuous
 62
     4
370
    25
100
AcDbSpline
210
0.0
220
0.0
230
1.0
 70
     8
 71
     3
 72
    14
 73
    10
 74
     0
 42
0.000000001
 43
0.00000001
 40
0.0
 40
0.0
 40
0.0
 40
0.0
 40
0.25
 40
0.25
 40
0.5
 40
0.5
 40
0.75
 40
0.75
 40
1.0
 40
1.0
 40
1.0
 40
1.0
 10
11.39711431702995
 20
-0.7255295792007159
 30
0.0
 10
11.31282241774347
 20
-0.7089763574523676
 30
0.0
 10
11.23133937243734
 20
-0.684394765933469
 30
0.0
 10
11.06578639680051
 20
-0.6203096713984135
 30
0.0
 10
10.98041624683704
 20
-0.5804765672431831
 30
0.0
 10
10.81304454514897
 20
-0.4890796524913807
 30
0.0
 10
10.7326066822156
 20
-0.4379846993949797
 30
0.0
 10
10.5648474205925
 20
-0.325700579026535
 30
0.0
 10
10.47955467269191
 20
-0.2648527145053236
 30
0.0
 10
10.39711431702997
 20
-0.2024042618144
 30
0.0
  0
SPLINE
  5
C9
330
1F
100
AcDbEntity
  8
0
  6
Continuous
 62
     4
370
    25
100
AcDbSpline
210
0.0
220
0.0
230
1.0
 70
     8
 71
     3
 72
    10
 73
     6
 74
     0
 42
0.000000001
 43
0.00000001
 40
0.0
 40
0.0
 40
0.0
 40
0.0
 40
0.0273476492983193
 40
0.5129434218087588
 40
1.0
 40
1.0
 40
1.0
 40
1.0
 10
11.10453669624052
 20
-0.6326736752091533
 30
0.0
 10
11.09810091929205
 20
-0.6359585154214179
 30
0.0
 10
10.97738891900514
 20
-0.6975702890767711
 30
0.0
 10
10.74154500106719
 20
-0.7532323713885297
 30
0.0
 10
10.51203944153305
 20
-0.7435845352656013
 30
0.0
 10
10.39711431703001
 20
-0.7387533722651791
 30
0.0
  0
SPLINE
  5
CA
330
1F
100
AcDbEntity
  8
0
  6
Continuous
 62
     4
370
    25
100
AcDbSpline
210
0.0
220
0.0
230
1.0
 70
     8
 71
     3
 72
    10
 73
     6
 74
     0
 42
0.000000001
 43
0.00000001
 40
0.0
 40
0.0
 40
0.0
 40
0.0
 40
0.3748211707848655
 40
0.786845229405595
 40
1.0
 40
1.0
 40
1.0
 40
1.0
 10
11.39711431703096
 20
0.484770935464894
 30
0.0
 10
11.29318488394586
 20
0.5410991582626562
 30
0.0
 10
11.07501049842063
 20
0.6593464634949261
 30
0.0
 10
10.79718761624197
 20
0.7462192370821334
 30
0.0
 10
10.62332497990429
 20
0.7401095001245134
 30
0.0
 10
10.56404650048101
 20
0.7380263848321602
 30
0.0
  0
LINE
  5
CB
330
1F
100
AcDbEntity
  8
0
  6
Continuous
 62
     4
370
    25
100
AcDbLine
 10
11.10453669624053
 20
0.6326736752091563
 30
0.0
 11
11.39711431703095
 21
0.7255295792009148
 31
0.0
  0
LINE
  5
CC
330
1F
100
AcDbEntity
  8
0
  6
Continuous
 62
     1
370
    25
100
AcDbLine
 10
11.39711431703095
 20
-0.7255295792009127
 30
0.0
 11
11.64295245329857
 21
-0.7454936633720953
 31
0.0
  0
SPLINE
  5
CD
330
1F
100
AcDbEntity
  8
0
  6
Continuous
 62
     1
370
    25
100
AcDbSpline
210
0.0
220
0.0
230
1.0
 70
     8
 71
     3
 72
    18
 73
    14
 74
     0
 42
0.000000001
 43
0.00000001
 40
0.0
 40
0.0
 40
0.0
 40
0.0
 40
0.037200115155325
 40
0.1486330528810538
 40
0.2600230870009717
 40
0.3713425845368225
 40
0.4826056146825828
 40
0.5938265889528617
 40
0.7050201758407153
 40
0.8162012121163338
 40
0.8736609409987729
 40
0.9307829884234639
 40
1.0
 40
1.0
 40
1.0
 40
1.0
 10
14.11820672098232
 20
0.6226606527940232
 30
0.0
 10
14.16232990841698
 20
0.6442118225327917
 30
0.0
 10
14.33862409524609
 20
0.7303195170400876
 30
0.0
 10
14.64715877695657
 20
0.7669750989153977
 30
0.0
 10
15.04352627291362
 20
0.71190702478025
 30
0.0
 10
15.43961229892937
 20
0.5303307083680198
 30
0.0
 10
15.83542587832549
 20
0.2617982716427111
 30
0.0
 10
16.23105099173717
 20
-0.0511455476269874
 30
0.0
 10
16.62650364234483
 20
-0.3550809640501384
 30
0.0
 10
16.95834536659319
 20
-0.5610044488867796
 30
0.0
 10
17.22576697613449
 20
-0.6735832192344656
 30
0.0
 10
17.4429072344548
 20
-0.7377438049706205
 30
0.0
 10
17.59255061446113
 20
-0.7427506033530092
 30
0.0
 10
17.67453529638083
 20
-0.745493663372095
 30
0.0
  0
SPLINE
  5
CE
330
1F
100
AcDbEntity
  8
0
  6
Continuous
 62
     1
370
    25
100
AcDbSpline
210
0.0
220
0.0
230
1.0
 70
     8
 71
     3
 72
    17
 73
    13
 74
     0
 42
0.000000001
 43
0.00000001
 40
0.0
 40
0.0
 40
0.0
 40
0.0
 40
0.0324672692950482
 40
0.1217623112761811
 40
0.2331097220988406
 40
0.3444250435775226
 40
0.4557230841883241
 40
0.5670187588441776
 40
0.678326997053159
 40
0.7896626508836004
 40
0.9010404039531906
 40
1.0
 40
1.0
 40
1.0
 40
1.0
 10
18.64122208284435
 20
-0.6277417276889263
 30
0.0
 10
18.60277926963629
 20
-0.6457118891252361
 30
0.0
 10
18.45860681874015
 20
-0.7131055578260687
 30
0.0
 10
18.18238367823317
 20
-0.7612227887140682
 30
0.0
 10
17.8129204612058
 20
-0.7376485404943764
 30
0.0
 10
17.41739127117977
 20
-0.5825746314393994
 30
0.0
 10
17.02195651489995
 20
-0.331513435564225
 30
0.0
 10
16.62652958083037
 20
-0.024687937856189
 30
0.0
 10
16.2310443433129
 20
0.2870019425553518
 30
0.0
 10
15.83542652596239
 20
0.5475576930685474
 30
0.0
 10
15.45439308085917
 20
0.721220907726221
 30
0.0
 10
15.20518354974442
 20
0.736521982256204
 30
0.0
 10
15.08793535471994
 20
0.7437208376232137
 30
0.0
  0
SPLINE
  5
CF
330
1F
100
AcDbEntity
  8
0
  6
Continuous
 62
     1
370
    25
100
AcDbSpline
210
0.0
220
0.0
230
1.0
 70
     8
 71
     3
 72
    11
 73
     7
 74
     0
 42
0.000000001
 43
0.00000001
 40
0.0
 40
0.0
 40
0.0
 40
0.0
 40
0.0951380356122945
 40
0.3567970869726157
 40
0.6830756489272757
 40
1.0
 40
1.0
 40
1.0
 40
1.0
 10
12.60963923976209
 20
-0.6277417276889273
 30
0.0
 10
12.57119633955099
 20
-0.645725451121381
 30
0.0
 10
12.42702356236653
 20
-0.7131699815063608
 30
0.0
 10
12.15080682528344
 20
-0.7602890494221578
 30
0.0
 10
11.78505296434318
 20
-0.7421531293788141
 30
0.0
 10
11.52516734567876
 20
-0.6283484550758228
 30
0.0
 10
11.39711431703079
 20
-0.5722736584261028
 30
0.0
  0
SPLINE
  5
D0
330
1F
100
AcDbEntity
  8
0
  6
Continuous
 62
     1
370
    25
100
AcDbSpline
210
0.0
220
0.0
230
1.0
 70
     8
 71
     3
 72
    17
 73
    13
 74
     0
 42
0.000000001
 43
0.00000001
 40
0.0
 40
0.0
 40
0.0
 40
0.0
 40
0.0297177162152824
 40
0.1411828799093985
 40
0.2526606262893223
 40
0.3641658300411816
 40
0.4757131971439315
 40
0.587317175941361
 40
0.6989918715818134
 40
0.8107095804698936
 40
0.922356747899396
 40
0.9999999999999999
 40
0.9999999999999999
 40
0.9999999999999999
 40
0.9999999999999999
 10
17.12737498788839
 20
-0.6277155265074529
 30
0.0
 10
17.09223447643788
 20
-0.6451361199442133
 30
0.0
 10
16.9252889893711
 20
-0.7278978481105179
 30
0.0
 10
16.62653031624222
 20
-0.766109219435818
 30
0.0
 10
16.23104381876828
 20
-0.7177403444122105
 30
0.0
 10
15.83542788909972
 20
-0.5412215894829288
 30
0.0
 10
15.43961143185093
 20
-0.2759712394230198
 30
0.0
 10
15.04352773025278
 20
0.0358657587238294
 30
0.0
 10
14.64715381122016
 20
0.342800091088039
 30
0.0
 10
14.25064381122834
 20
0.5876572267190112
 30
0.0
 10
13.8945182523512
 20
0.734436242611088
 30
0.0
 10
13.67061629943142
 20
0.7359500030231723
 30
0.0
 10
13.57877606885069
 20
0.7365709181312223
 30
0.0
  0
SPLINE
  5
D1
330
1F
100
AcDbEntity
  8
0
  6
Continuous
 62
     1
370
    25
100
AcDbSpline
210
0.0
220
0.0
230
1.0
 70
     8
 71
     3
 72
    15
 73
    11
 74
     0
 42
0.000000001
 43
0.00000001
 40
0.0
 40
0.0
 40
0.0
 40
0.0
 40
0.1231160518480338
 40
0.2468047782768408
 40
0.3706522039077453
 40
0.5250850803038032
 40
0.6794734505038436
 40
0.833837853068591
 40
0.9881989741809426
 40
0.9999999999999999
 40
0.9999999999999999
 40
0.9999999999999999
 40
0.9999999999999999
 10
19.15753148563994
 20
-0.6677577045649181
 30
0.0
 10
19.05262490252557
 20
-0.6232739006990455
 30
0.0
 10
18.84232376309917
 20
-0.5340993764576525
 30
0.0
 10
18.5257565073343
 20
-0.3241064459870682
 30
0.0
 10
18.18240177204304
 20
-0.0643732475772395
 30
0.0
 10
17.81291507233614
 20
0.2291794591262048
 30
0.0
 10
17.41739307851358
 20
0.5077731621296838
 30
0.0
 10
17.02195467312655
 20
0.6882234648189991
 30
0.0
 10
16.74827437851744
 20
0.767566007717786
 30
0.0
 10
16.60638840391151
 20
0.7470106900074752
 30
0.0
 10
16.59631149963092
 20
0.7455508278216643
 30
0.0
  0
SPLINE
  5
D2
330
1F
100
AcDbEntity
  8
0
  6
Continuous
 62
     1
370
    25
100
AcDbSpline
210
0.0
220
0.0
230
1.0
 70
     8
 71
     3
 72
    15
 73
    11
 74
     0
 42
0.000000001
 43
0.00000001
 40
0.0
 40
0.0
 40
0.0
 40
0.0
 40
0.0969107599413594
 40
0.2423467568548603
 40
0.3646067013926353
 40
0.4804831936338417
 40
0.596898685628692
 40
0.7134635448797569
 40
0.8588153469793202
 40
1.0
 40
1.0
 40
1.0
 40
1.0
 10
14.11820672098232
 20
-0.6226606527940196
 30
0.0
 10
14.03024207752432
 20
-0.6594540819362513
 30
0.0
 10
13.81026706058254
 20
-0.7514641769100652
 30
0.0
 10
13.47924554227688
 20
-0.7618632956335505
 30
0.0
 10
13.1316674870311
 20
-0.6831776707885714
 30
0.0
 10
12.8107571210035
 20
-0.5307415124432219
 30
0.0
 10
12.49416805626167
 20
-0.3247990948394539
 30
0.0
 10
12.15082608216485
 20
-0.0649650320259805
 30
0.0
 10
11.78504789093248
 20
0.2303794372283627
 30
0.0
 10
11.52516567101806
 20
0.4007999208801427
 30
0.0
 10
11.39711431703079
 20
0.4847709354649921
 30
0.0
  0
SPLINE
  5
D3
330
1F
100
AcDbEntity
  8
0
  6
Continuous
 62
     1
370
    25
100
AcDbSpline
210
0.0
220
0.0
230
1.0
 70
     8
 71
     3
 72
    17
 73
    13
 74
     0
 42
0.000000001
 43
0.00000001
 40
0.0
 40
0.0
 40
0.0
 40
0.0
 40
0.0893294006941558
 40
0.179192528879144
 40
0.2683383218598613
 40
0.3895643104787526
 40
0.5108142470751791
 40
0.632104203131071
 40
0.7534500050291639
 40
0.8748671395232466
 40
0.9963609883842112
 40
1.0
 40
1.0
 40
1.0
 40
1.0
 10
11.39711431703095
 20
0.7255295792009151
 30
0.0
 10
11.49403977441927
 20
0.7382409211960667
 30
0.0
 10
11.68846980179231
 20
0.7637395532238072
 30
0.0
 10
11.98096201528931
 20
0.7145339332468045
 30
0.0
 10
12.30617666793617
 20
0.5910873591015173
 30
0.0
 10
12.66719770584962
 20
0.37244788047136
 30
0.0
 10
13.06262929982609
 20
0.0703565105558575
 30
0.0
 10
13.45839760650395
 20
-0.2426484918680119
 30
0.0
 10
13.85437091961955
 20
-0.5188657058711758
 30
0.0
 10
14.25063643227859
 20
-0.6936981340417055
 30
0.0
 10
14.51896397366605
 20
-0.7696691119465265
 30
0.0
 10
14.65510910260732
 20
-0.7487762842642862
 30
0.0
 10
14.65906836401766
 20
-0.7481686961189127
 30
0.0
  0
SPLINE
  5
D4
330
1F
100
AcDbEntity
  8
0
  6
Continuous
 62
     1
370
    25
100
AcDbSpline
210
0.0
220
0.0
230
1.0
 70
     8
 71
     3
 72
    15
 73
    11
 74
     0
 42
0.000000001
 43
0.00000001
 40
0.0
 40
0.0
 40
0.0
 40
0.0
 40
0.0435080188498247
 40
0.1329571790493949
 40
0.2612570477564972
 40
0.3903234856610535
 40
0.5183596467271696
 40
0.6924711744306119
 40
0.8666170975553792
 40
1.0
 40
1.0
 40
1.0
 40
1.0
 10
17.1273749878884
 20
0.6277155265074571
 30
0.0
 10
17.16028503886877
 20
0.6422872481184447
 30
0.0
 10
17.26085563841331
 20
0.6868173152303804
 30
0.0
 10
17.45795744362932
 20
0.7378166367132393
 30
0.0
 10
17.72008051404966
 20
0.7611273812979572
 30
0.0
 10
18.0125372171424
 20
0.7152354497380078
 30
0.0
 10
18.33776362542736
 20
0.5907686387789546
 30
0.0
 10
18.69877255571543
 20
0.3728432216616354
 30
0.0
 10
19.06334057940741
 20
0.0928895179884168
 30
0.0
 10
19.29614238306845
 20
-0.0877566659170315
 30
0.0
 10
19.39711431702996
 20
-0.1661074100472492
 30
0.0
  0
LINE
  5
D5
330
1F
100
AcDbEntity
  8
0
  6
Continuous
 62
     1
370
    25
100
AcDbLine
 10
19.39711431702996
 20
-0.499999999999998
 30
0.0
 11
19.39711431702996
 21
-0.1666696716214232
 31
0.0
  0
SPLINE
  5
D6
330
1F
100
AcDbEntity
  8
0
  6
Continuous
 62
     1
370
    25
100
AcDbSpline
210
0.0
220
0.0
230
1.0
 70
    24
 71
     3
 72
     8
 73
     4
 74
     0
 42
0.000000001
 43
0.00000001
 40
0.0
 40
0.0
 40
0.0
 40
0.0
 40
1.0
 40
1.0
 40
1.0
 40
1.0
 10
19.39711431702996
 20
-0.4999999999999978
 30
0.0
 10
19.30729481895331
 20
-0.5628922896314752
 30
0.0
 10
19.22606903602635
 20
-0.6197671951339194
 30
0.0
 10
19.15753148563994
 20
-0.6677577045649165
 30
0.0
  0
SPLINE
  5
D7
330
1F
100
AcDbEntity
  8
0
  6
Continuous
 62
     1
370
    25
100
AcDbSpline
210
0.0
220
0.0
230
1.0
 70
     8
 71
     3
 72
    11
 73
     7
 74
     0
 42
0.000000001
 43
0.00000001
 40
0.0
 40
0.0
 40
0.0
 40
0.0
 40
0.2990685728428276
 40
0.5995282637974204
 40
0.9003734604855909
 40
1.0
 40
1.0
 40
1.0
 40
1.0
 10
19.15753148563994
 20
0.341466906147859
 30
0.0
 10
19.05262467586278
 20
0.411486772338001
 30
0.0
 10
18.84232308205647
 20
0.5518522022769238
 30
0.0
 10
18.52575924775997
 20
0.6859685187584523
 30
0.0
 10
18.2792758219728
 20
0.7564651836064572
 30
0.0
 10
18.13848822979847
 20
0.7413896925746407
 30
0.0
 10
18.10346408365548
 20
0.7376393180357976
 30
0.0
  0
SPLINE
  5
D8
330
1F
100
AcDbEntity
  8
0
  6
Continuous
 62
     1
370
    25
100
AcDbSpline
210
0.0
220
0.0
230
1.0
 70
     8
 71
     3
 72
    18
 73
    14
 74
     0
 42
0.000000001
 43
0.00000001
 40
0.0
 40
0.0
 40
0.0
 40
0.0
 40
0.0530015086704414
 40
0.1643359120073875
 40
0.2757408613733252
 40
0.3871887200899133
 40
0.4985662077383202
 40
0.6098782610856964
 40
0.7034521063334446
 40
0.7921402616718478
 40
0.8812409501561363
 40
0.9704559595537138
 40
1.0
 40
1.0
 40
1.0
 40
1.0
 10
15.62818713654839
 20
-0.6212058252390198
 30
0.0
 10
15.5653486101268
 20
-0.650144338926113
 30
0.0
 10
15.37051214588758
 20
-0.739870785553828
 30
0.0
 10
15.04352493079252
 20
-0.7670876992667524
 30
0.0
 10
14.64715721650896
 20
-0.6926052886120366
 30
0.0
 10
14.25063299023524
 20
-0.4962667520822685
 30
0.0
 10
13.85440534251527
 20
-0.2182088399241528
 30
0.0
 10
13.4792442873536
 20
0.0802911198492867
 30
0.0
 10
13.13166805476498
 20
0.3435758619423514
 30
0.0
 10
12.81075599528263
 20
0.5502785569170008
 30
0.0
 10
12.49417204268732
 20
0.6864041681346053
 30
0.0
 10
12.24769327970877
 20
0.75643513968959
 30
0.0
 10
12.10690544664339
 20
0.7413837074080918
 30
0.0
 10
12.07188124057322
 20
0.7376393180357976
 30
0.0
  0
SPLINE
  5
D9
330
1F
100
AcDbEntity
  8
0
  6
Continuous
 62
     1
370
    25
100
AcDbSpline
210
0.0
220
0.0
230
1.0
 70
     8
 71
     3
 72
    17
 73
    13
 74
     0
 42
0.000000001
 43
0.00000001
 40
0.0
 40
0.0
 40
0.0
 40
0.0
 40
0.0161467672359643
 40
0.1273391248464698
 40
0.2385681823363582
 40
0.3498484533033944
 40
0.4611941398883288
 40
0.5726101774487413
 40
0.6839833179101983
 40
0.7952859324853223
 40
0.9065320882343249
 40
1.0
 40
1.0
 40
1.0
 40
1.0
 10
12.60963923976209
 20
0.6277417276889304
 30
0.0
 10
12.62878424809716
 20
0.6377192655644421
 30
0.0
 10
12.77976856408685
 20
0.7164056628242141
 30
0.0
 10
13.06265763800056
 20
0.7623082260840518
 30
0.0
 10
13.45839043410121
 20
0.7338014267412089
 30
0.0
 10
13.85437125357488
 20
0.572864345370217
 30
0.0
 10
14.25064228009992
 20
0.3182296020949326
 30
0.0
 10
14.64715417896478
 20
0.0098484712052855
 30
0.0
 10
15.04352779015271
 20
-0.3009881655862092
 30
0.0
 10
15.43961082537889
 20
-0.5579014013423431
 30
0.0
 10
15.81439573708215
 20
-0.7246545754076216
 30
0.0
 10
16.05714264368727
 20
-0.7362381981406363
 30
0.0
 10
16.16797550790326
 20
-0.7415270238704981
 30
0.0
  0
SPLINE
  5
DA
330
1F
100
AcDbEntity
  8
0
  6
Continuous
 62
     1
370
    25
100
AcDbSpline
210
0.0
220
0.0
230
1.0
 70
     8
 71
     3
 72
    10
 73
     6
 74
     0
 42
0.000000001
 43
0.00000001
 40
0.0
 40
0.0
 40
0.0
 40
0.0
 40
0.0759832672250689
 40
0.5992309550276376
 40
1.0
 40
1.0
 40
1.0
 40
1.0
 10
18.64122208284435
 20
0.6277417276889307
 30
0.0
 10
18.66036699957516
 20
0.637704980404441
 30
0.0
 10
18.81135059314116
 20
0.7162787198333133
 30
0.0
 10
19.06336092848639
 20
0.7614263540739098
 30
0.0
 10
19.29614853899274
 20
0.7404655123097351
 30
0.0
 10
19.39711431702996
 20
0.7313742737664485
 30
0.0
  0
LINE
  5
DB
330
1F
100
AcDbEntity
  8
0
  6
Continuous
 62
     1
370
    25
100
AcDbLine
 10
19.39711431702996
 20
0.1997949506173569
 30
0.0
 11
19.39711431702996
 21
0.7313742737664485
 31
0.0
  0
SPLINE
  5
DC
330
1F
100
AcDbEntity
  8
0
  6
Continuous
 62
     1
370
    25
100
AcDbSpline
210
0.0
220
0.0
230
1.0
 70
     8
 71
     3
 72
     8
 73
     4
 74
     0
 42
0.000000001
 43
0.00000001
 40
0.0
 40
0.0
 40
0.0
 40
0.0
 40
1.0
 40
1.0
 40
1.0
 40
1.0
 10
19.39711431702996
 20
0.1997949506173572
 30
0.0
 10
19.30729481895331
 20
0.2156915477423456
 30
0.0
 10
19.22606903602635
 20
0.2695069165939505
 30
0.0
 10
19.15753148563994
 20
0.3414669061478585
 30
0.0
  0
SPLINE
  5
DD
330
1F
100
AcDbEntity
  8
0
  6
Continuous
 62
     1
370
    25
100
AcDbSpline
210
0.0
220
0.0
230
1.0
 70
     8
 71
     3
 72
    13
 73
     9
 74
     0
 42
0.000000001
 43
0.00000001
 40
0.0
 40
0.0
 40
0.0
 40
0.0
 40
0.166166997107884
 40
0.3333268128593097
 40
0.49915227020368
 40
0.7246520311301358
 40
0.9501963391316073
 40
1.0
 40
1.0
 40
1.0
 40
1.0
 10
11.39711431703095
 20
0.1900179720567099
 30
0.0
 10
11.49403974804357
 20
0.114823127985449
 30
0.0
 10
11.68846972250763
 20
-0.0360158361528573
 30
0.0
 10
11.98096233357716
 20
-0.2612827108049649
 30
0.0
 10
12.30617530565512
 20
-0.4893053736567761
 30
0.0
 10
12.66720486994803
 20
-0.6689570165659577
 30
0.0
 10
12.95986786331907
 20
-0.7608828119602913
 30
0.0
 10
13.12085411007579
 20
-0.7424433155098766
 30
0.0
 10
13.14997255416984
 20
-0.7391080650935773
 30
0.0
  0
SPLINE
  5
DE
330
1F
100
AcDbEntity
  8
0
  6
Continuous
 62
     1
370
    25
100
AcDbSpline
210
0.0
220
0.0
230
1.0
 70
     8
 71
     3
 72
    19
 73
    15
 74
     0
 42
0.000000001
 43
0.00000001
 40
0.0
 40
0.0
 40
0.0
 40
0.0
 40
0.0582878730171464
 40
0.1695456015334631
 40
0.2807759336168801
 40
0.3919937109405683
 40
0.4494724280491624
 40
0.5066133521092991
 40
0.5885724564581993
 40
0.671021252070839
 40
0.7528118976186273
 40
0.8640358997255204
 40
0.9752818739353775
 40
1.0
 40
1.0
 40
1.0
 40
1.0
 10
15.62818713654839
 20
0.621205825239024
 30
0.0
 10
15.69728234387842
 20
0.6523279154471647
 30
0.0
 10
15.8982639183202
 20
0.7428546962711231
 30
0.0
 10
16.23104974558213
 20
0.7664507885373403
 30
0.0
 10
16.62650224806751
 20
0.6859276614737101
 30
0.0
 10
16.95835086548776
 20
0.5168800233288412
 30
0.0
 10
17.22575702369914
 20
0.3410899980225209
 30
0.0
 10
17.45797341244683
 20
0.1698432074710066
 30
0.0
 10
17.72007556537891
 20
-0.0367968014573215
 30
0.0
 10
18.01253856472254
 20
-0.2611544208385231
 30
0.0
 10
18.33776293699886
 20
-0.4890297432812981
 30
0.0
 10
18.69877375213553
 20
-0.6708001050658255
 30
0.0
 10
18.99166518238728
 20
-0.7563118228158714
 30
0.0
 10
19.15278543333083
 20
-0.7445109960282953
 30
0.0
 10
19.18207692032149
 20
-0.7423656185086913
 30
0.0
  0
LINE
  5
DF
330
1F
100
AcDbEntity
  8
0
  6
Continuous
 62
     1
370
    25
100
AcDbLine
 10
19.39711431702996
 20
0.7313742737664485
 30
0.0
 11
19.39711431702996
 21
0.7500000000000034
 31
0.0
  0
LINE
  5
E0
330
1F
100
AcDbEntity
  8
0
  6
Continuous
 62
     1
370
    25
100
AcDbLine
 10
19.15753148563993
 20
-0.6677577045649196
 30
0.0
 11
19.11737298322209
 21
-0.695876990681108
 31
0.0
  0
ELLIPSE
  5
E1
330
1F
100
AcDbEntity
  8
0
  6
Continuous
 62
     1
370
    25
100
AcDbEllipse
 10
19.15288662405185
 20
0.0000000000000023
 30
0.0
 11
1.041992479244978
 21
-0.4127557545313215
 31
0.0
210
0.0
220
0.0
230
1.0
 40
0.6009688174887236
 41
4.912933762914537
 42
5.176132609328196
  0
LINE
  5
E2
330
1F
100
AcDbEntity
  8
0
  6
Continuous
 62
     1
370
    25
100
AcDbLine
 10
19.39711431702996
 20
-0.7499999999999999
 30
0.0
 11
19.39711431702996
 21
-0.7446933086021934
 31
0.0
  0
ELLIPSE
  5
E3
330
1F
100
AcDbEntity
  8
0
  6
Continuous
 62
     1
370
    25
100
AcDbEllipse
 10
20.11118832040101
 20
0.0000000000000018
 30
0.0
 11
1.071111005056583
 21
0.0
 31
0.0
210
0.0
220
0.0
230
1.0
 40
0.7002075382097126
 41
2.668895638805577
 42
2.759364833374628
  0
ELLIPSE
  5
E4
330
1F
100
AcDbEntity
  8
0
  6
Continuous
 62
     1
370
    25
100
AcDbEllipse
 10
19.15288662405185
 20
0.0000000000000018
 30
0.0
 11
1.064326924485592
 21
-0.7291305528055555
 31
0.0
210
0.0
220
0.0
230
1.0
 40
0.1650759015746653
 41
1.453368357947247
 42
1.716567204360904
  0
LINE
  5
E5
330
1F
100
AcDbEntity
  8
0
  6
Continuous
 62
     1
370
    25
100
AcDbLine
 10
19.39711431702996
 20
-0.1661074100472492
 30
0.0
 11
19.39711431702996
 21
0.0890610808553141
 31
0.0
  0
LINE
  5
E6
330
1F
100
AcDbEntity
  8
0
  6
Continuous
 62
     1
370
    25
100
AcDbLine
 10
19.39711431702996
 20
0.0890610808553137
 30
0.0
 11
19.39711431702996
 21
0.1997949506173569
 31
0.0
  0
LINE
  5
E7
330
1F
100
AcDbEntity
  8
0
  6
Continuous
 62
     1
370
    25
100
AcDbLine
 10
19.39711431702996
 20
-0.4999999999999977
 30
0.0
 11
19.39711431702996
 21
-0.7446933086021934
 31
0.0
  0
LINE
  5
E8
330
1F
100
AcDbEntity
  8
중심선
100
AcDbLine
 10
-33.60288568297004
 20
-0.0000000000000026
 30
0.0
 11
20.89711431702997
 21
0.0000000000000041
 31
0.0
  0
CIRCLE
  5
E9
330
1F
100
AcDbEntity
  8
해칭선
100
AcDbCircle
 10
-0.0077625800465591
 20
-0.0000000000000042
 30
0.0
 40
3.000000000000001
  0
INSERT
  5
EA
330
1F
100
AcDbEntity
  8
0
  6
Continuous
 62
     7
100
AcDbBlockReference
 66
     1
  2
블럭10
 10
-19.44814782084245
 20
-52.04717430164393
 30
0.0
  0
ATTRIB
  5
EB
330
EA
100
AcDbEntity
  8
FORMAT
 62
     2
100
AcDbText
 10
-35.56740886027801
 20
-49.97180738881174
 30
0.0
 40
4.233333333333333
  1
SEME7101508E [ 4 FLUTE ]
 41
0.75
  7
SLDTEXTSTYLE0
 11
-35.56740886027801
 21
-52.08847405547841
 31
0.0
100
AcDbAttribute
  2
AUTOATTR0
 70
     0
 74
     1
  0
SEQEND
  5
EC
330
EA
100
AcDbEntity
  8
0
  6
Continuous
 62
     7
  0
HATCH
  5
ED
330
1F
100
AcDbEntity
  8
중심선
100
AcDbHatch
 10
0.0
 20
0.0
 30
0.0
210
0.0
220
0.0
230
1.0
  2
SOLID
 70
     1
 71
     0
 91
        1
 92
        0
 93
        4
 72
     1
 10
-13.7332385164616
 20
-35.8
 11
-17.17951376029889
 21
-35.8
 72
     1
 10
-17.17951376029889
 20
-35.8
 11
-19.30774361950291
 21
-38.33632558057259
 72
     1
 10
-19.30774361950291
 20
-38.33632558057259
 11
-15.86143529055248
 21
-38.3362861512701
 72
     1
 10
-15.86143529055248
 20
-38.3362861512701
 11
-13.7332385164616
 21
-35.8
 97
        0
 75
     0
 76
     1
 98
        1
 10
0.0
 20
0.0
  0
HATCH
  5
EE
330
1F
100
AcDbEntity
  8
중심선
100
AcDbHatch
 10
0.0
 20
0.0
 30
0.0
210
0.0
220
0.0
230
1.0
  2
SOLID
 70
     1
 71
     0
 91
        1
 92
        0
 93
        4
 72
     1
 10
-8.720474525425653
 20
-35.8
 11
-12.16674976926291
 21
-35.8
 72
     1
 10
-12.16674976926291
 20
-35.8
 11
-16.69788777762032
 21
-41.20000000000002
 72
     1
 10
-16.69788777762032
 20
-41.20000000000002
 11
-13.25161253378304
 21
-41.20000000000002
 72
     1
 10
-13.25161253378304
 20
-41.20000000000002
 11
-8.720474525425653
 21
-35.8
 97
        0
 75
     0
 76
     1
 98
        1
 10
0.0
 20
0.0
  0
HATCH
  5
EF
330
1F
100
AcDbEntity
  8
중심선
100
AcDbHatch
 10
0.0
 20
0.0
 30
0.0
210
0.0
220
0.0
230
1.0
  2
SOLID
 70
     1
 71
     0
 91
        1
 92
        0
 93
        4
 72
     1
 10
-3.707710534389758
 20
-35.8
 11
-7.153985778226874
 21
-35.8
 72
     1
 10
-7.153985778226874
 20
-35.8
 11
-14.20242268011612
 21
-44.20000000000002
 72
     1
 10
-14.20242268011612
 20
-44.20000000000002
 11
-10.75614743627884
 21
-44.20000000000002
 72
     1
 10
-10.75614743627884
 20
-44.20000000000002
 11
-3.707710534389758
 21
-35.8
 97
        0
 75
     0
 76
     1
 98
        1
 10
0.0
 20
0.0
  0
HATCH
  5
F0
330
1F
100
AcDbEntity
  8
중심선
100
AcDbHatch
 10
0.0
 20
0.0
 30
0.0
210
0.0
220
0.0
230
1.0
  2
SOLID
 70
     1
 71
     0
 91
        1
 92
        0
 93
        6
 72
     3
 10
1.092179896622442
 20
-40.00000000005127
 11
3.960054785062284
 21
1.540850780301639E-10
 40
0.3939339440162633
 50
17.09539180608434
 51
320.0019657685086
 73
     0
 72
     1
 10
2.775179552323037
 20
-38.58789400463833
 11
5.080481426024075
 21
-36.65356729459038
 72
     3
 10
1.092179896569595
 20
-40.00000000000015
 11
6.600054785286829
 21
-1.249000902703301E-13
 40
0.6363583540795982
 50
39.99873849337408
 51
368.4976242363725
 73
     1
 72
     1
 10
7.517512388470204
 20
-39.03999999993002
 11
-0.2277527965944826
 21
-39.03999999993002
 72
     1
 10
-0.2277527965944826
 20
-39.03999999993002
 11
-0.2277778410404163
 21
-40.95999999992991
 72
     1
 10
-0.2277778410404163
 20
-40.95999999992991
 11
4.21360192843162
 21
-40.95999999992988
 97
        0
 75
     0
 76
     1
 98
        1
 10
0.0
 20
0.0
  0
DIMENSION
  5
F1
330
1F
100
AcDbEntity
  8
치수문자_일반주서
100
AcDbDimension
  2
_D
 10
33.17142224967824
 20
0.7500000000000586
 30
0.0
 11
33.17142224967819
 21
11.72900000000006
 31
0.0
 70
   160
  1
%%c<>
 71
     2
 42
1.500000000000011
 52
-270.0
  3
SLDDIMSTYLE0
100
AcDbAlignedDimension
 13
19.39711431702997
 23
-0.7500000000000042
 33
0.0
 14
19.39711431702997
 24
0.7500000000000069
 34
0.0
 50
90.0000000000002
100
AcDbRotatedDimension
  0
DIMENSION
  5
FF
330
1F
100
AcDbEntity
  8
치수문자_일반주서
100
AcDbDimension
  2
_D_1
 10
19.39711431702996
 20
20.38913260158165
 30
0.0
 11
-5.602885682970047
 21
20.38913260158165
 31
0.0
 70
   160
  1
<>
 71
     2
 42
50.0
  3
SLDDIMSTYLE1
100
AcDbAlignedDimension
 13
-30.60288568297005
 23
2.499999999999997
 33
0.0
 14
19.39711431702996
 24
0.7500000000000024
 34
0.0
100
AcDbRotatedDimension
  0
DIMENSION
  5
10A
330
1F
100
AcDbEntity
  8
치수문자_일반주서
100
AcDbDimension
  2
_D_2
 10
-36.60827554502733
 20
-3.000000000000025
 30
0.0
 11
-36.60827554502739
 21
12.66649999999998
 31
0.0
 70
   160
  1
%%c<>
 71
     2
 42
6.000000000000005
 52
-270.0
  3
SLDDIMSTYLE2
100
AcDbAlignedDimension
 13
-30.10288568297005
 23
3.000000000000004
 33
0.0
 14
-30.10288568297005
 24
-3.000000000000001
 34
0.0
 50
90.0000000000002
100
AcDbRotatedDimension
  0
DIMENSION
  5
118
330
1F
100
AcDbEntity
  8
치수문자_일반주서
100
AcDbDimension
  2
_D_3
 10
19.39711431702995
 20
13.01545120730776
 30
0.0
 11
3.043114317029955
 21
13.01545120730776
 31
0.0
 70
   160
  1
<>
 71
     2
 42
8.000000000000002
  3
SLDDIMSTYLE2
100
AcDbAlignedDimension
 13
11.39711431702995
 23
0.7255295792008348
 33
0.0
 14
19.39711431702996
 24
0.7500000000000024
 34
0.0
100
AcDbRotatedDimension
  0
INSERT
  5
12A
330
1F
100
AcDbEntity
  8
해칭선
100
AcDbBlockReference
  2
SW_DOWELSYMBOL_0
 10
-0.0077625800465591
 20
-0.0000000000000042
 30
0.0
  0
LINE
  5
15D
330
1F
100
AcDbEntity
  8
0
  6
Continuous
 62
     4
370
    25
100
AcDbLine
 10
11.39711431703095
 20
0.7255295792009148
 30
0.0
 11
11.39711431703095
 21
-0.7255295792009127
 31
0.0
  0
ENDSEC
  0
SECTION
  2
OBJECTS
  0
DICTIONARY
  5
C
330
0
100
AcDbDictionary
281
     1
  3
ACAD_GROUP
350
D
  3
ACAD_IMAGE_VARS
350
14E
  3
ACAD_LAYOUT
350
1A
  3
ACAD_MLINESTYLE
350
17
  3
ACAD_PLOTSETTINGS
350
19
  3
ACAD_PLOTSTYLENAME
350
E
  3
ACAD_SCALELIST
350
47
  3
APPDATA
350
14C
  3
DWGPROPS
350
15F
  0
DICTIONARY
  5
D
102
{ACAD_REACTORS
330
C
102
}
330
C
100
AcDbDictionary
281
     1
  0
RASTERVARIABLES
  5
14E
102
{ACAD_REACTORS
330
C
102
}
330
C
100
AcDbRasterVariables
 90
        0
 70
     1
 71
     1
 72
     1
  0
DICTIONARY
  5
1A
102
{ACAD_REACTORS
330
C
102
}
330
C
100
AcDbDictionary
281
     1
  3
Layout1
350
1E
  3
Layout2
350
26
  3
Model
350
22
  0
DICTIONARY
  5
17
102
{ACAD_REACTORS
330
C
102
}
330
C
100
AcDbDictionary
281
     1
  3
Standard
350
18
  0
DICTIONARY
  5
19
102
{ACAD_REACTORS
330
C
102
}
330
C
100
AcDbDictionary
281
     1
  0
ACDBDICTIONARYWDFLT
  5
E
102
{ACAD_REACTORS
330
C
102
}
330
C
100
AcDbDictionary
281
     1
  3
Normal
350
F
100
AcDbDictionaryWithDefault
340
F
  0
DICTIONARY
  5
47
102
{ACAD_REACTORS
330
C
102
}
330
C
100
AcDbDictionary
281
     1
  3
A0
350
48
  3
A1
350
49
  3
A2
350
4A
  3
A3
350
4B
  3
A4
350
4C
  3
A5
350
4D
  3
A6
350
4E
  3
A7
350
4F
  3
A8
350
50
  3
A9
350
51
  3
B0
350
52
  3
B1
350
53
  3
B2
350
54
  3
B3
350
55
  3
B4
350
56
  3
B5
350
57
  3
B6
350
58
  3
B7
350
59
  3
B8
350
5A
  3
B9
350
5B
  3
C0
350
5C
  3
C1
350
5D
  3
C2
350
5E
  3
C3
350
5F
  3
C4
350
60
  3
C5
350
61
  3
C6
350
62
  3
C7
350
63
  3
C8
350
64
  3
C9
350
65
  3
D0
350
66
  3
D1
350
67
  3
D2
350
68
  0
DICTIONARY
  5
14C
102
{ACAD_REACTORS
330
C
102
}
330
C
100
AcDbDictionary
281
     1
  0
XRECORD
  5
15F
102
{ACAD_REACTORS
330
C
102
}
330
C
100
AcDbXrecord
280
     1
  1
DWGPROPS COOKIE
  2

  3

  4

  6

  7

  8
12014102
  9

300
=
301
=
302
=
303
=
304
=
305
=
306
=
307
=
308
=
309
=
 40
0.0
 41
2458260.109093461
 42
2458266.42835265
  1

 90
        0
  0
LAYOUT
  5
1E
102
{ACAD_REACTORS
330
1A
102
}
330
1A
100
AcDbPlotSettings
  1

  2
none_device
  4

  6

 40
0.0
 41
0.0
 42
0.0
 43
0.0
 44
0.0
 45
0.0
 46
0.0
 47
0.0
 48
0.0
 49
0.0
140
0.0
141
0.0
142
1.0
143
1.0
 70
   688
 72
     1
 73
     0
 74
     5
  7

 75
    16
147
1.0
148
0.0
149
0.0
100
AcDbLayout
  1
Layout1
 70
     1
 71
     1
 10
0.0
 20
0.0
 11
420.0
 21
297.0
 12
0.0
 22
0.0
 32
0.0
 14
1.000000000000000E+20
 24
1.000000000000000E+20
 34
1.000000000000000E+20
 15
-1.000000000000000E+20
 25
-1.000000000000000E+20
 35
-1.000000000000000E+20
146
0.0
 13
0.0
 23
0.0
 33
0.0
 16
1.0
 26
0.0
 36
0.0
 17
0.0
 27
1.0
 37
0.0
 76
     0
330
1B
  0
LAYOUT
  5
26
102
{ACAD_REACTORS
330
1A
102
}
330
1A
100
AcDbPlotSettings
  1

  2
none_device
  4

  6

 40
0.0
 41
0.0
 42
0.0
 43
0.0
 44
0.0
 45
0.0
 46
0.0
 47
0.0
 48
0.0
 49
0.0
140
0.0
141
0.0
142
1.0
143
1.0
 70
   688
 72
     1
 73
     0
 74
     5
  7

 75
    16
147
1.0
148
0.0
149
0.0
100
AcDbLayout
  1
Layout2
 70
     1
 71
     2
 10
0.0
 20
0.0
 11
0.0
 21
0.0
 12
0.0
 22
0.0
 32
0.0
 14
0.0
 24
0.0
 34
0.0
 15
0.0
 25
0.0
 35
0.0
146
0.0
 13
0.0
 23
0.0
 33
0.0
 16
1.0
 26
0.0
 36
0.0
 17
0.0
 27
1.0
 37
0.0
 76
     0
330
23
  0
LAYOUT
  5
22
102
{ACAD_REACTORS
330
1A
102
}
330
1A
100
AcDbPlotSettings
  1

  2
none_device
  4
ANSI_A_(11.00_x_8.50_Inches)
  6

 40
6.35
 41
19.05
 42
6.35000508
 43
19.05000254
 44
279.4
 45
215.9
 46
150.6896472789687
 47
125.3847137330092
 48
0.0
 49
0.0
140
0.0
141
0.0
142
0.1112850254374007
143
1.0
 70
  1696
 72
     0
 73
     0
 74
     0
  7

 75
     0
147
0.0235690232323232
148
0.0
149
0.0
100
AcDbLayout
  1
Model
 70
     1
 71
     0
 10
0.0
 20
0.0
 11
420.0
 21
297.0
 12
0.0
 22
0.0
 32
0.0
 14
-40.9832755450274
 24
-49.97180738881174
 34
0.0
 15
34.28259113972197
 25
24.76413260158165
 35
0.0
146
0.0
 13
0.0
 23
0.0
 33
0.0
 16
1.0
 26
0.0
 36
0.0
 17
0.0
 27
1.0
 37
0.0
 76
     0
330
1F
331
29
  0
MLINESTYLE
  5
18
102
{ACAD_REACTORS
330
17
102
}
330
17
100
AcDbMlineStyle
  2
Standard
 70
     0
  3

 62
   256
 51
90.0
 52
90.0
 71
     2
 49
0.5
 62
   256
  6
BYLAYER
 49
-0.5
 62
   256
  6
BYLAYER
  0
ACDBPLACEHOLDER
  5
F
102
{ACAD_REACTORS
330
E
102
}
330
E
  0
SCALE
  5
48
102
{ACAD_REACTORS
330
47
102
}
330
47
100
AcDbScale
 70
     0
300
1:1
140
1.0
141
1.0
290
     1
  0
SCALE
  5
49
102
{ACAD_REACTORS
330
47
102
}
330
47
100
AcDbScale
 70
     0
300
1:2
140
1.0
141
2.0
290
     0
  0
SCALE
  5
4A
102
{ACAD_REACTORS
330
47
102
}
330
47
100
AcDbScale
 70
     0
300
1:4
140
1.0
141
4.0
290
     0
  0
SCALE
  5
4B
102
{ACAD_REACTORS
330
47
102
}
330
47
100
AcDbScale
 70
     0
300
1:5
140
1.0
141
5.0
290
     0
  0
SCALE
  5
4C
102
{ACAD_REACTORS
330
47
102
}
330
47
100
AcDbScale
 70
     0
300
1:8
140
1.0
141
8.0
290
     0
  0
SCALE
  5
4D
102
{ACAD_REACTORS
330
47
102
}
330
47
100
AcDbScale
 70
     0
300
1:10
140
1.0
141
10.0
290
     0
  0
SCALE
  5
4E
102
{ACAD_REACTORS
330
47
102
}
330
47
100
AcDbScale
 70
     0
300
1:16
140
1.0
141
16.0
290
     0
  0
SCALE
  5
4F
102
{ACAD_REACTORS
330
47
102
}
330
47
100
AcDbScale
 70
     0
300
1:20
140
1.0
141
20.0
290
     0
  0
SCALE
  5
50
102
{ACAD_REACTORS
330
47
102
}
330
47
100
AcDbScale
 70
     0
300
1:30
140
1.0
141
30.0
290
     0
  0
SCALE
  5
51
102
{ACAD_REACTORS
330
47
102
}
330
47
100
AcDbScale
 70
     0
300
1:40
140
1.0
141
40.0
290
     0
  0
SCALE
  5
52
102
{ACAD_REACTORS
330
47
102
}
330
47
100
AcDbScale
 70
     0
300
1:50
140
1.0
141
50.0
290
     0
  0
SCALE
  5
53
102
{ACAD_REACTORS
330
47
102
}
330
47
100
AcDbScale
 70
     0
300
1:100
140
1.0
141
100.0
290
     0
  0
SCALE
  5
54
102
{ACAD_REACTORS
330
47
102
}
330
47
100
AcDbScale
 70
     0
300
2:1
140
2.0
141
1.0
290
     0
  0
SCALE
  5
55
102
{ACAD_REACTORS
330
47
102
}
330
47
100
AcDbScale
 70
     0
300
4:1
140
4.0
141
1.0
290
     0
  0
SCALE
  5
56
102
{ACAD_REACTORS
330
47
102
}
330
47
100
AcDbScale
 70
     0
300
8:1
140
8.0
141
1.0
290
     0
  0
SCALE
  5
57
102
{ACAD_REACTORS
330
47
102
}
330
47
100
AcDbScale
 70
     0
300
10:1
140
10.0
141
1.0
290
     0
  0
SCALE
  5
58
102
{ACAD_REACTORS
330
47
102
}
330
47
100
AcDbScale
 70
     0
300
100:1
140
100.0
141
1.0
290
     0
  0
SCALE
  5
59
102
{ACAD_REACTORS
330
47
102
}
330
47
100
AcDbScale
 70
     0
300
1/128" = 1'-0"
140
0.0078125
141
12.0
290
     0
  0
SCALE
  5
5A
102
{ACAD_REACTORS
330
47
102
}
330
47
100
AcDbScale
 70
     0
300
1/64" = 1'-0"
140
0.015625
141
12.0
290
     0
  0
SCALE
  5
5B
102
{ACAD_REACTORS
330
47
102
}
330
47
100
AcDbScale
 70
     0
300
1/32" = 1'-0"
140
0.03125
141
12.0
290
     0
  0
SCALE
  5
5C
102
{ACAD_REACTORS
330
47
102
}
330
47
100
AcDbScale
 70
     0
300
1/16" = 1'-0"
140
0.0625
141
12.0
290
     0
  0
SCALE
  5
5D
102
{ACAD_REACTORS
330
47
102
}
330
47
100
AcDbScale
 70
     0
300
3/32" = 1'-0"
140
0.09375
141
12.0
290
     0
  0
SCALE
  5
5E
102
{ACAD_REACTORS
330
47
102
}
330
47
100
AcDbScale
 70
     0
300
1/8" = 1'-0"
140
0.125
141
12.0
290
     0
  0
SCALE
  5
5F
102
{ACAD_REACTORS
330
47
102
}
330
47
100
AcDbScale
 70
     0
300
3/16" = 1'-0"
140
0.1875
141
12.0
290
     0
  0
SCALE
  5
60
102
{ACAD_REACTORS
330
47
102
}
330
47
100
AcDbScale
 70
     0
300
1/4" = 1'-0"
140
0.25
141
12.0
290
     0
  0
SCALE
  5
61
102
{ACAD_REACTORS
330
47
102
}
330
47
100
AcDbScale
 70
     0
300
3/8" = 1'-0"
140
0.375
141
12.0
290
     0
  0
SCALE
  5
62
102
{ACAD_REACTORS
330
47
102
}
330
47
100
AcDbScale
 70
     0
300
1/2" = 1'-0"
140
0.5
141
12.0
290
     0
  0
SCALE
  5
63
102
{ACAD_REACTORS
330
47
102
}
330
47
100
AcDbScale
 70
     0
300
3/4" = 1'-0"
140
0.75
141
12.0
290
     0
  0
SCALE
  5
64
102
{ACAD_REACTORS
330
47
102
}
330
47
100
AcDbScale
 70
     0
300
1" = 1'-0"
140
1.0
141
12.0
290
     0
  0
SCALE
  5
65
102
{ACAD_REACTORS
330
47
102
}
330
47
100
AcDbScale
 70
     0
300
1-1/2" = 1'-0"
140
1.5
141
12.0
290
     0
  0
SCALE
  5
66
102
{ACAD_REACTORS
330
47
102
}
330
47
100
AcDbScale
 70
     0
300
3" = 1'-0"
140
3.0
141
12.0
290
     0
  0
SCALE
  5
67
102
{ACAD_REACTORS
330
47
102
}
330
47
100
AcDbScale
 70
     0
300
6" = 1'-0"
140
6.0
141
12.0
290
     0
  0
SCALE
  5
68
102
{ACAD_REACTORS
330
47
102
}
330
47
100
AcDbScale
 70
     0
300
1'-0" = 1'-0"
140
12.0
141
12.0
290
     0
  0
ENDSEC
  0
EOF
