  0
SECTION
  2
HEADER
  9
$ACADVER
  1
AC1015
  9
$ACADMAINTVER
 70
     6
  9
$DWGCODEPAGE
  3
ANSI_949
  9
$INSBASE
 10
0.0
 20
0.0
 30
0.0
  9
$EXTMIN
 10
-38.06585861288293
 20
-49.97180738881174
 30
0.0
  9
$EXTMAX
 10
35.22425780638864
 20
24.76413260158165
 30
0.0
  9
$LIMMIN
 10
0.0
 20
0.0
  9
$LIMMAX
 10
420.0
 20
297.0
  9
$ORTHOMODE
 70
     0
  9
$REGENMODE
 70
     1
  9
$FILLMODE
 70
     1
  9
$QTEXTMODE
 70
     0
  9
$MIRRTEXT
 70
     1
  9
$LTSCALE
 40
1.0
  9
$ATTMODE
 70
     1
  9
$TEXTSIZE
 40
3.5
  9
$TRACEWID
 40
1.0
  9
$TEXTSTYLE
  7
Standard
  9
$CLAYER
  8
0
  9
$CELTYPE
  6
ByLayer
  9
$CECOLOR
 62
   256
  9
$CELTSCALE
 40
1.0
  9
$DISPSILH
 70
     0
  9
$DIMSCALE
 40
1.0
  9
$DIMASZ
 40
3.302
  9
$DIMEXO
 40
1.0
  9
$DIMDLI
 40
3.75
  9
$DIMRND
 40
0.0
  9
$DIMDLE
 40
0.0
  9
$DIMEXE
 40
1.0
  9
$DIMTP
 40
0.0
  9
$DIMTM
 40
0.0
  9
$DIMTXT
 40
3.5
  9
$DIMCEN
 40
2.5
  9
$DIMTSZ
 40
0.0
  9
$DIMTOL
 70
     0
  9
$DIMLIM
 70
     0
  9
$DIMTIH
 70
     1
  9
$DIMTOH
 70
     1
  9
$DIMSE1
 70
     0
  9
$DIMSE2
 70
     0
  9
$DIMTAD
 70
     1
  9
$DIMZIN
 70
     0
  9
$DIMBLK
  1

  9
$DIMASO
 70
     1
  9
$DIMSHO
 70
     1
  9
$DIMPOST
  1

  9
$DIMAPOST
  1

  9
$DIMALT
 70
     0
  9
$DIMALTD
 70
     3
  9
$DIMALTF
 40
0.0393700787401575
  9
$DIMLFAC
 40
1.0
  9
$DIMTOFL
 70
     1
  9
$DIMTVP
 40
0.0
  9
$DIMTIX
 70
     0
  9
$DIMSOXD
 70
     0
  9
$DIMSAH
 70
     0
  9
$DIMBLK1
  1

  9
$DIMBLK2
  1

  9
$DIMSTYLE
  2
ISO-25
  9
$DIMCLRD
 70
     0
  9
$DIMCLRE
 70
     0
  9
$DIMCLRT
 70
     0
  9
$DIMTFAC
 40
1.0
  9
$DIMGAP
 40
1.524
  9
$DIMJUST
 70
     0
  9
$DIMSD1
 70
     0
  9
$DIMSD2
 70
     0
  9
$DIMTOLJ
 70
     0
  9
$DIMTZIN
 70
     0
  9
$DIMALTZ
 70
     0
  9
$DIMALTTZ
 70
     0
  9
$DIMUPT
 70
     0
  9
$DIMDEC
 70
     2
  9
$DIMTDEC
 70
     2
  9
$DIMALTU
 70
     2
  9
$DIMALTTD
 70
     3
  9
$DIMTXSTY
  7
Standard
  9
$DIMAUNIT
 70
     0
  9
$DIMADEC
 70
     2
  9
$DIMALTRND
 40
0.0
  9
$DIMAZIN
 70
     0
  9
$DIMDSEP
 70
    44
  9
$DIMATFIT
 70
     3
  9
$DIMFRAC
 70
     0
  9
$DIMLDRBLK
  1

  9
$DIMLUNIT
 70
     2
  9
$DIMLWD
 70
    -2
  9
$DIMLWE
 70
    -2
  9
$DIMTMOVE
 70
     0
  9
$LUNITS
 70
     2
  9
$LUPREC
 70
     2
  9
$SKETCHINC
 40
1.0
  9
$FILLETRAD
 40
10.0
  9
$AUNITS
 70
     0
  9
$AUPREC
 70
     2
  9
$MENU
  1
.
  9
$ELEVATION
 40
0.0
  9
$PELEVATION
 40
0.0
  9
$THICKNESS
 40
0.0
  9
$LIMCHECK
 70
     0
  9
$CHAMFERA
 40
0.0
  9
$CHAMFERB
 40
0.0
  9
$CHAMFERC
 40
0.0
  9
$CHAMFERD
 40
0.0
  9
$SKPOLY
 70
     0
  9
$TDCREATE
 40
2458260.484471366
  9
$TDUCREATE
 40
2458260.109471366
  9
$TDUPDATE
 40
2458266.804781412
  9
$TDUUPDATE
 40
2458266.429781412
  9
$TDINDWG
 40
0.0013381134
  9
$TDUSRTIMER
 40
2458266.428443414
  9
$USRTIMER
 70
     1
  9
$ANGBASE
 50
0.0
  9
$ANGDIR
 70
     0
  9
$PDMODE
 70
     0
  9
$PDSIZE
 40
-1.0
  9
$PLINEWID
 40
0.0
  9
$SPLFRAME
 70
     0
  9
$SPLINETYPE
 70
     6
  9
$SPLINESEGS
 70
     8
  9
$HANDSEED
  5
15E
  9
$SURFTAB1
 70
     6
  9
$SURFTAB2
 70
     6
  9
$SURFTYPE
 70
     6
  9
$SURFU
 70
     6
  9
$SURFV
 70
     6
  9
$UCSBASE
  2

  9
$UCSNAME
  2

  9
$UCSORG
 10
0.0
 20
0.0
 30
0.0
  9
$UCSXDIR
 10
1.0
 20
0.0
 30
0.0
  9
$UCSYDIR
 10
0.0
 20
1.0
 30
0.0
  9
$UCSORTHOREF
  2

  9
$UCSORTHOVIEW
 70
     0
  9
$UCSORGTOP
 10
0.0
 20
0.0
 30
0.0
  9
$UCSORGBOTTOM
 10
0.0
 20
0.0
 30
0.0
  9
$UCSORGLEFT
 10
0.0
 20
0.0
 30
0.0
  9
$UCSORGRIGHT
 10
0.0
 20
0.0
 30
0.0
  9
$UCSORGFRONT
 10
0.0
 20
0.0
 30
0.0
  9
$UCSORGBACK
 10
0.0
 20
0.0
 30
0.0
  9
$PUCSBASE
  2

  9
$PUCSNAME
  2

  9
$PUCSORG
 10
0.0
 20
0.0
 30
0.0
  9
$PUCSXDIR
 10
1.0
 20
0.0
 30
0.0
  9
$PUCSYDIR
 10
0.0
 20
1.0
 30
0.0
  9
$PUCSORTHOREF
  2

  9
$PUCSORTHOVIEW
 70
     0
  9
$PUCSORGTOP
 10
0.0
 20
0.0
 30
0.0
  9
$PUCSORGBOTTOM
 10
0.0
 20
0.0
 30
0.0
  9
$PUCSORGLEFT
 10
0.0
 20
0.0
 30
0.0
  9
$PUCSORGRIGHT
 10
0.0
 20
0.0
 30
0.0
  9
$PUCSORGFRONT
 10
0.0
 20
0.0
 30
0.0
  9
$PUCSORGBACK
 10
0.0
 20
0.0
 30
0.0
  9
$USERI1
 70
     0
  9
$USERI2
 70
     0
  9
$USERI3
 70
     0
  9
$USERI4
 70
     0
  9
$USERI5
 70
     0
  9
$USERR1
 40
0.0
  9
$USERR2
 40
0.0
  9
$USERR3
 40
0.0
  9
$USERR4
 40
0.0
  9
$USERR5
 40
0.0
  9
$WORLDVIEW
 70
     1
  9
$SHADEDGE
 70
     3
  9
$SHADEDIF
 70
    70
  9
$TILEMODE
 70
     1
  9
$MAXACTVP
 70
    64
  9
$PINSBASE
 10
0.0
 20
0.0
 30
0.0
  9
$PLIMCHECK
 70
     0
  9
$PEXTMIN
 10
1.000000000000000E+20
 20
1.000000000000000E+20
 30
1.000000000000000E+20
  9
$PEXTMAX
 10
-1.000000000000000E+20
 20
-1.000000000000000E+20
 30
-1.000000000000000E+20
  9
$PLIMMIN
 10
0.0
 20
0.0
  9
$PLIMMAX
 10
0.0
 20
0.0
  9
$UNITMODE
 70
     0
  9
$VISRETAIN
 70
     1
  9
$PLINEGEN
 70
     0
  9
$PSLTSCALE
 70
     1
  9
$TREEDEPTH
 70
  3020
  9
$CMLSTYLE
  2
Standard
  9
$CMLJUST
 70
     0
  9
$CMLSCALE
 40
20.0
  9
$PROXYGRAPHICS
 70
     1
  9
$MEASUREMENT
 70
     1
  9
$CELWEIGHT
370
    -1
  9
$ENDCAPS
280
     0
  9
$JOINSTYLE
280
     0
  9
$LWDISPLAY
290
     1
  9
$INSUNITS
 70
     4
  9
$HYPERLINKBASE
  1

  9
$STYLESHEET
  1

  9
$XEDIT
290
     1
  9
$CEPSNTYPE
380
     0
  9
$PSTYLEMODE
290
     1
  9
$FINGERPRINTGUID
  2
{AC6B11A7-B89F-4348-A2DC-BF9CF6A0C10D}
  9
$VERSIONGUID
  2
{FAEB1C32-E019-11D5-929B-00C0DF256EC4}
  9
$EXTNAMES
290
     1
  9
$PSVPSCALE
 40
0.0
  9
$OLESTARTUP
290
     0
  0
ENDSEC
  0
SECTION
  2
CLASSES
  0
CLASS
  1
ACDBDICTIONARYWDFLT
  2
AcDbDictionaryWithDefault
  3
ObjectDBX Classes
 90
        0
280
     0
281
     0
  0
CLASS
  1
VISUALSTYLE
  2
AcDbVisualStyle
  3
ObjectDBX Classes
 90
     4095
280
     0
281
     0
  0
CLASS
  1
MATERIAL
  2
AcDbMaterial
  3
ObjectDBX Classes
 90
     1153
280
     0
281
     0
  0
CLASS
  1
SCALE
  2
AcDbScale
  3
ObjectDBX Classes
 90
     1153
280
     0
281
     0
  0
CLASS
  1
TABLESTYLE
  2
AcDbTableStyle
  3
ObjectDBX Classes
 90
     4095
280
     0
281
     0
  0
CLASS
  1
MLEADERSTYLE
  2
AcDbMLeaderStyle
  3
ACDB_MLEADERSTYLE_CLASS
 90
     4095
280
     0
281
     0
  0
CLASS
  1
SUN
  2
AcDbSun
  3
SCENEOE
 90
     1153
280
     0
281
     0
  0
CLASS
  1
ACDBPLACEHOLDER
  2
AcDbPlaceHolder
  3
ObjectDBX Classes
 90
        0
280
     0
281
     0
  0
CLASS
  1
LAYOUT
  2
AcDbLayout
  3
ObjectDBX Classes
 90
        0
280
     0
281
     0
  0
CLASS
  1
RASTERVARIABLES
  2
AcDbRasterVariables
  3
ISM
 90
        0
280
     0
281
     0
  0
ENDSEC
  0
SECTION
  2
TABLES
  0
TABLE
  2
VPORT
  5
8
330
0
100
AcDbSymbolTable
 70
     1
  0
VPORT
  5
29
330
8
100
AcDbSymbolTableRecord
100
AcDbViewportTableRecord
  2
*Active
 70
     0
 10
0.0
 20
0.0
 11
1.0
 21
1.0
 12
-1.420800403247149
 22
-12.60383739361504
 13
0.0
 23
0.0
 14
10.0
 24
10.0
 15
10.0
 25
10.0
 16
0.0
 26
0.0
 36
1.0
 17
0.0
 27
0.0
 37
0.0
 40
76.23065879020126
 41
1.74031007751938
 42
50.0
 43
0.0
 44
0.0
 50
0.0
 51
0.0
 71
    16
 72
  2000
 73
     1
 74
     3
 75
     0
 76
     0
 77
     0
 78
     0
281
     0
 65
     1
110
0.0
120
0.0
130
0.0
111
1.0
121
0.0
131
0.0
112
0.0
122
1.0
132
0.0
 79
     0
146
0.0
  0
ENDTAB
  0
TABLE
  2
LTYPE
  5
5
330
0
100
AcDbSymbolTable
 70
     6
  0
LTYPE
  5
14
330
5
100
AcDbSymbolTableRecord
100
AcDbLinetypeTableRecord
  2
ByBlock
 70
     0
  3

 72
    65
 73
     0
 40
0.0
  0
LTYPE
  5
15
330
5
100
AcDbSymbolTableRecord
100
AcDbLinetypeTableRecord
  2
ByLayer
 70
     0
  3

 72
    65
 73
     0
 40
0.0
  0
LTYPE
  5
16
330
5
100
AcDbSymbolTableRecord
100
AcDbLinetypeTableRecord
  2
Continuous
 70
     0
  3
Solid line
 72
    65
 73
     0
 40
0.0
  0
LTYPE
  5
6E
330
5
100
AcDbSymbolTableRecord
100
AcDbLinetypeTableRecord
  2
HIDDEN
 70
     0
  3
Hidden __ __ __ __ __ __ __ __ __ __ __ __ __ __
 72
    65
 73
     2
 40
1.905
 49
1.27
 74
     0
 49
-0.635
 74
     0
  0
LTYPE
  5
6F
330
5
100
AcDbSymbolTableRecord
100
AcDbLinetypeTableRecord
  2
PHANTOM
 70
     0
  3
Phantom ______  __  __  ______  __  __  ______
 72
    65
 73
     6
 40
12.7
 49
6.35
 74
     0
 49
-1.27
 74
     0
 49
1.27
 74
     0
 49
-1.27
 74
     0
 49
1.27
 74
     0
 49
-1.27
 74
     0
  0
LTYPE
  5
70
330
5
100
AcDbSymbolTableRecord
100
AcDbLinetypeTableRecord
  2
CENTER
 70
     0
  3
Center ____ _ ____ _ ____ _ ____ _ ____ _ ____
 72
    65
 73
     4
 40
10.16
 49
6.35
 74
     0
 49
-1.27
 74
     0
 49
1.27
 74
     0
 49
-1.27
 74
     0
  0
LTYPE
  5
71
330
5
100
AcDbSymbolTableRecord
100
AcDbLinetypeTableRecord
  2
CENTERX2
 70
     0
  3
Center (2x) ________  __  ________  __  _____
 72
    65
 73
     4
 40
20.32
 49
12.7
 74
     0
 49
-2.54
 74
     0
 49
2.54
 74
     0
 49
-2.54
 74
     0
  0
LTYPE
  5
72
330
5
100
AcDbSymbolTableRecord
100
AcDbLinetypeTableRecord
  2
DOT2
 70
     0
  3
Dot (.5x) ........................................
 72
    65
 73
     2
 40
0.635
 49
0.0
 74
     0
 49
-0.635
 74
     0
  0
ENDTAB
  0
TABLE
  2
LAYER
  5
2
330
0
100
AcDbSymbolTable
 70
    17
  0
LAYER
  5
10
330
2
100
AcDbSymbolTableRecord
100
AcDbLayerTableRecord
  2
0
 70
     0
 62
     7
  6
Continuous
370
    -3
390
F
  0
LAYER
  5
73
330
2
100
AcDbSymbolTableRecord
100
AcDbLayerTableRecord
  2
FORMAT
 70
     0
 62
     2
  6
Continuous
370
    -3
390
F
  0
LAYER
  5
74
330
2
100
AcDbSymbolTableRecord
100
AcDbLayerTableRecord
  2
외형선
 70
     0
 62
   100
  6
Continuous
370
    35
390
F
  0
LAYER
  5
75
330
2
100
AcDbSymbolTableRecord
100
AcDbLayerTableRecord
  2
숨은선
 70
     0
 62
     2
  6
HIDDEN
370
    25
390
F
  0
LAYER
  5
76
330
2
100
AcDbSymbolTableRecord
100
AcDbLayerTableRecord
  2
중심선
 70
     0
 62
     1
  6
CENTERX2
370
    -3
390
F
  0
LAYER
  5
77
330
2
100
AcDbSymbolTableRecord
100
AcDbLayerTableRecord
  2
파단선
 70
     0
 62
     4
  6
Continuous
370
    -3
390
F
  0
LAYER
  5
78
330
2
100
AcDbSymbolTableRecord
100
AcDbLayerTableRecord
  2
해칭선
 70
     0
 62
   100
  6
Continuous
370
    -3
390
F
  0
LAYER
  5
79
330
2
100
AcDbSymbolTableRecord
100
AcDbLayerTableRecord
  2
가는실선
 70
     0
 62
     4
  6
Continuous
370
    -3
390
F
  0
LAYER
  5
7A
330
2
100
AcDbSymbolTableRecord
100
AcDbLayerTableRecord
  2
치수_보조선
 70
     0
 62
     4
  6
Continuous
370
    -3
390
F
  0
LAYER
  5
7B
330
2
100
AcDbSymbolTableRecord
100
AcDbLayerTableRecord
  2
치수문자_일반주서
 70
     0
 62
     7
  6
Continuous
370
    25
390
F
  0
LAYER
  5
7C
330
2
100
AcDbSymbolTableRecord
100
AcDbLayerTableRecord
  2
개별주서
 70
     0
 62
   100
  6
Continuous
370
    35
390
F
  0
LAYER
  5
7D
330
2
100
AcDbSymbolTableRecord
100
AcDbLayerTableRecord
  2
중간선
 70
     0
 62
     2
  6
Continuous
370
    25
390
F
  0
LAYER
  5
7E
330
2
100
AcDbSymbolTableRecord
100
AcDbLayerTableRecord
  2
윤곽선
 70
     0
 62
     3
  6
Continuous
370
    50
390
F
  0
LAYER
  5
7F
330
2
100
AcDbSymbolTableRecord
100
AcDbLayerTableRecord
  2
중심마크
 70
     0
 62
   100
  6
Continuous
370
    35
390
F
  0
LAYER
  5
80
330
2
100
AcDbSymbolTableRecord
100
AcDbLayerTableRecord
  2
가상선
 70
     0
 62
     4
  6
PHANTOM
370
    -3
390
F
  0
LAYER
  5
81
330
2
100
AcDbSymbolTableRecord
100
AcDbLayerTableRecord
  2
특수지정선
 70
     0
 62
     5
  6
CENTERX2
370
    70
390
F
  0
LAYER
  5
14F
330
2
100
AcDbSymbolTableRecord
100
AcDbLayerTableRecord
  2
Defpoints
 70
     0
 62
     7
  6
Continuous
290
     0
370
    -3
390
F
  0
ENDTAB
  0
TABLE
  2
STYLE
  5
3
330
0
100
AcDbSymbolTable
 70
     2
  0
STYLE
  5
11
330
3
100
AcDbSymbolTableRecord
100
AcDbTextStyleTableRecord
  2
Standard
 70
     0
 40
0.0
 41
1.0
 50
0.0
 71
     0
 42
3.5
  3
txt
  4

  0
STYLE
  5
97
330
3
100
AcDbSymbolTableRecord
100
AcDbTextStyleTableRecord
  2
SLDTEXTSTYLE0
 70
     0
 40
0.0
 41
0.75
 50
0.0
 71
     0
 42
3.5
  3
TXT
  4

  0
ENDTAB
  0
TABLE
  2
VIEW
  5
6
330
0
100
AcDbSymbolTable
 70
     0
  0
ENDTAB
  0
TABLE
  2
UCS
  5
7
330
0
100
AcDbSymbolTable
 70
     0
  0
ENDTAB
  0
TABLE
  2
APPID
  5
9
330
0
100
AcDbSymbolTable
 70
     1
  0
APPID
  5
12
330
9
100
AcDbSymbolTableRecord
100
AcDbRegAppTableRecord
  2
ACAD
 70
     0
  0
ENDTAB
  0
TABLE
  2
DIMSTYLE
  5
A
330
0
100
AcDbSymbolTable
 70
     4
100
AcDbDimStyleTable
  0
DIMSTYLE
105
27
330
A
100
AcDbSymbolTableRecord
100
AcDbDimStyleTableRecord
  2
ISO-25
 70
     0
 41
2.5
 42
0.625
 43
3.75
 44
1.25
 73
     0
 74
     0
 77
     1
 78
     8
140
2.5
141
2.5
143
0.03937007874016
147
0.625
171
     3
172
     1
178
     0
271
     2
272
     2
274
     3
278
    44
283
     0
284
     8
340
11
  0
DIMSTYLE
105
F2
102
{ACAD_REACTORS
330
F1
330
118
102
}
330
A
100
AcDbSymbolTableRecord
100
AcDbDimStyleTableRecord
  2
SLDDIMSTYLE0
 70
     0
 41
3.302
 44
0.0
 45
0.000000001
 73
     0
 74
     0
 77
     1
 78
    12
 79
     3
140
3.5
147
0.875
172
     1
173
     1
178
     0
271
     1
272
     1
276
     2
284
    12
289
     0
340
97
  0
DIMSTYLE
105
100
102
{ACAD_REACTORS
330
FF
102
}
330
A
100
AcDbSymbolTableRecord
100
AcDbDimStyleTableRecord
  2
SLDDIMSTYLE1
 70
     0
 41
3.302
 44
0.0
 45
0.000000001
 73
     0
 74
     0
 77
     1
 78
    12
 79
     3
140
3.5
147
0.875
173
     1
178
     0
271
     2
272
     2
276
     2
284
    12
340
97
  0
DIMSTYLE
105
10B
102
{ACAD_REACTORS
330
10A
102
}
330
A
100
AcDbSymbolTableRecord
100
AcDbDimStyleTableRecord
  2
SLDDIMSTYLE2
 70
     0
 41
3.302
 44
0.0
 45
0.000000001
 73
     0
 74
     0
 77
     1
 78
    12
 79
     3
140
3.5
147
0.875
172
     1
173
     1
178
     0
271
     2
272
     2
276
     2
284
    12
289
     0
340
97
  0
ENDTAB
  0
TABLE
  2
BLOCK_RECORD
  5
1
330
0
100
AcDbSymbolTable
 70
     7
  0
BLOCK_RECORD
  5
1F
330
1
100
AcDbSymbolTableRecord
100
AcDbBlockTableRecord
  2
*Model_Space
340
22
  0
BLOCK_RECORD
  5
1B
330
1
100
AcDbSymbolTableRecord
100
AcDbBlockTableRecord
  2
*Paper_Space
340
1E
  0
BLOCK_RECORD
  5
23
330
1
100
AcDbSymbolTableRecord
100
AcDbBlockTableRecord
  2
*Paper_Space0
340
26
  0
BLOCK_RECORD
  5
82
330
1
100
AcDbSymbolTableRecord
100
AcDbBlockTableRecord
  2
블럭10
340
0
102
{BLKREFS
331
EA
102
}
  0
BLOCK_RECORD
  5
F3
330
1
100
AcDbSymbolTableRecord
100
AcDbBlockTableRecord
  2
_D
340
0
  0
BLOCK_RECORD
  5
101
330
1
100
AcDbSymbolTableRecord
100
AcDbBlockTableRecord
  2
_D_1
340
0
  0
BLOCK_RECORD
  5
10C
330
1
100
AcDbSymbolTableRecord
100
AcDbBlockTableRecord
  2
_D_2
340
0
  0
BLOCK_RECORD
  5
119
330
1
100
AcDbSymbolTableRecord
100
AcDbBlockTableRecord
  2
_D_3
340
0
  0
BLOCK_RECORD
  5
124
330
1
100
AcDbSymbolTableRecord
100
AcDbBlockTableRecord
  2
SW_DOWELSYMBOL_0
340
0
102
{BLKREFS
331
12A
102
}
  0
ENDTAB
  0
ENDSEC
  0
SECTION
  2
BLOCKS
  0
BLOCK
  5
20
330
1F
100
AcDbEntity
  8
0
100
AcDbBlockBegin
  2
*Model_Space
 70
     0
 10
0.0
 20
0.0
 30
0.0
  3
*Model_Space
  1

  0
ENDBLK
  5
21
330
1F
100
AcDbEntity
  8
0
100
AcDbBlockEnd
  0
BLOCK
  5
1C
330
1B
100
AcDbEntity
 67
     1
  8
0
100
AcDbBlockBegin
  2
*Paper_Space
 70
     0
 10
0.0
 20
0.0
 30
0.0
  3
*Paper_Space
  1

  0
ENDBLK
  5
1D
330
1B
100
AcDbEntity
 67
     1
  8
0
100
AcDbBlockEnd
  0
BLOCK
  5
24
330
23
100
AcDbEntity
  8
0
100
AcDbBlockBegin
  2
*Paper_Space0
 70
     0
 10
0.0
 20
0.0
 30
0.0
  3
*Paper_Space0
  1

  0
ENDBLK
  5
25
330
23
100
AcDbEntity
  8
0
100
AcDbBlockEnd
  0
BLOCK
  5
83
330
82
100
AcDbEntity
  8
0
100
AcDbBlockBegin
  2
블럭10
 70
     2
 10
0.0
 20
0.0
 30
0.0
  3
블럭10
  1

  0
ELLIPSE
  5
85
330
82
100
AcDbEntity
  8
중심선
100
AcDbEllipse
 10
20.54032771741204
 20
12.0471743016438
 30
0.0
 11
6.600054785286829
 21
-1.261213355974178E-13
 31
0.0
210
0.0
220
0.0
230
1.0
 40
0.636358354079598
 41
0.9219305317359503
 42
6.513795318482858
  0
ELLIPSE
  5
86
330
82
100
AcDbEntity
  8
중심선
100
AcDbEllipse
 10
20.54032771746488
 20
12.04717430159265
 30
0.0
 11
3.960054785062283
 21
1.540847449632565E-10
 31
0.0
210
0.0
220
0.0
230
1.0
 40
0.3939339440162632
 41
1.131841032648279
 42
5.62031148352944
  0
LINE
  5
87
330
82
100
AcDbEntity
  8
중심선
100
AcDbLine
 10
2.268634060543552
 20
16.24717430164393
 30
0.0
 11
5.714909304380834
 21
16.24717430164393
 31
0.0
  0
LINE
  5
88
330
82
100
AcDbEntity
  8
중심선
100
AcDbLine
 10
5.245725140726316
 20
7.84717430164391
 30
0.0
 11
8.692000384563599
 21
7.84717430164391
 31
0.0
  0
LINE
  5
89
330
82
100
AcDbEntity
  8
중심선
100
AcDbLine
 10
15.74043728645272
 20
16.24717430164393
 30
0.0
 11
8.692000384563599
 21
7.84717430164391
 31
0.0
  0
LINE
  5
8A
330
82
100
AcDbEntity
  8
중심선
100
AcDbLine
 10
0.1404042013395286
 20
13.71084872107135
 30
0.0
 11
3.58671253028996
 21
13.71088815037384
 31
0.0
  0
LINE
  5
8B
330
82
100
AcDbEntity
  8
중심선
100
AcDbLine
 10
2.750260043222114
 20
10.84717430164391
 30
0.0
 11
6.196535287059397
 21
10.84717430164391
 31
0.0
  0
LINE
  5
8C
330
82
100
AcDbEntity
  8
중심선
100
AcDbLine
 10
12.29416204261559
 20
16.24717430164393
 30
0.0
 11
5.245725140726316
 21
7.84717430164391
 31
0.0
  0
LINE
  5
8D
330
82
100
AcDbEntity
  8
중심선
100
AcDbLine
 10
10.72767329541681
 20
16.24717430164393
 30
0.0
 11
6.196535287059397
 21
10.84717430164391
 31
0.0
  0
LINE
  5
8E
330
82
100
AcDbEntity
  8
중심선
100
AcDbLine
 10
7.28139805157953
 20
16.24717430164393
 30
0.0
 11
2.750260043222114
 21
10.84717430164391
 31
0.0
  0
LINE
  5
8F
330
82
100
AcDbEntity
  8
중심선
100
AcDbLine
 10
5.714909304380834
 20
16.24717430164393
 30
0.0
 11
3.58671253028996
 21
13.71088815037384
 31
0.0
  0
LINE
  5
90
330
82
100
AcDbEntity
  8
중심선
100
AcDbLine
 10
2.268634060543552
 20
16.24717430164393
 30
0.0
 11
0.1404042013395286
 21
13.71084872107135
 31
0.0
  0
LINE
  5
91
330
82
100
AcDbEntity
  8
중심선
100
AcDbLine
 10
7.28139805157953
 20
16.24717430164393
 30
0.0
 11
10.72767329541681
 21
16.24717430164393
 31
0.0
  0
LINE
  5
92
330
82
100
AcDbEntity
  8
중심선
100
AcDbLine
 10
12.29416204261559
 20
16.24717430164393
 30
0.0
 11
15.74043728645272
 21
16.24717430164393
 31
0.0
  0
LINE
  5
93
330
82
100
AcDbEntity
  8
중심선
100
AcDbLine
 10
19.22036997980202
 20
11.08717430171403
 30
0.0
 11
23.66174974927406
 21
11.08717430171406
 31
0.0
  0
LINE
  5
94
330
82
100
AcDbEntity
  8
중심선
100
AcDbLine
 10
19.22039502424796
 20
13.00717430171391
 30
0.0
 11
19.22036997980202
 21
11.08717430171403
 31
0.0
  0
LINE
  5
95
330
82
100
AcDbEntity
  8
중심선
100
AcDbLine
 10
19.22039502424796
 20
13.00717430171391
 30
0.0
 11
26.96566020931264
 21
13.00717430171391
 31
0.0
  0
LINE
  5
96
330
82
100
AcDbEntity
  8
중심선
100
AcDbLine
 10
22.22332737316547
 20
13.45928029700563
 30
0.0
 11
24.52862924686651
 21
15.39360700705356
 31
0.0
  0
ATTDEF
  5
98
330
82
100
AcDbEntity
  8
FORMAT
 62
     2
100
AcDbText
 10
-16.11926103943555
 20
2.075366912832191
 30
0.0
 40
4.233333333333333
  1
SEME7101510E [ 4 FLUTE ]
 41
0.75
  7
SLDTEXTSTYLE0
 11
-16.11926103943555
 21
-0.0412997538344756
 31
0.0
100
AcDbAttributeDefinition
  3

  2
AUTOATTR0
 70
     0
 74
     1
  0
ENDBLK
  5
84
330
82
100
AcDbEntity
  8
0
100
AcDbBlockEnd
  0
BLOCK
  5
F4
330
F3
100
AcDbEntity
  8
0
100
AcDbBlockBegin
  2
_D
 70
     0
 10
0.0
 20
0.0
 30
0.0
  3
_D
  1

  0
LINE
  5
F6
330
F3
100
AcDbEntity
  8
치수문자_일반주서
 62
     0
370
    -2
100
AcDbLine
 10
21.45961431702997
 20
-0.750000000000004
 30
0.0
 11
30.10569620810621
 21
-0.7499999999999716
 31
0.0
  0
LINE
  5
F7
330
F3
100
AcDbEntity
  8
치수문자_일반주서
 62
     0
370
    -2
100
AcDbLine
 10
21.45961431702997
 20
0.7500000000000071
 30
0.0
 11
30.1056962081062
 21
0.7500000000000391
 31
0.0
  0
LINE
  5
F8
330
F3
100
AcDbEntity
  8
치수문자_일반주서
 62
     0
370
    -2
100
AcDbLine
 10
30.10569620810621
 20
-0.7499999999999716
 30
0.0
 11
30.10569620810617
 21
16.10400000000004
 31
0.0
  0
LINE
  5
F9
330
F3
100
AcDbEntity
  8
치수문자_일반주서
 62
     0
370
    -2
100
AcDbLine
 10
30.10569620810621
 20
-0.7499999999999716
 30
0.0
 11
30.1056962081062
 21
0.7500000000000391
 31
0.0
  0
LINE
  5
FA
330
F3
100
AcDbEntity
  8
치수문자_일반주서
 62
     0
370
    -2
100
AcDbLine
 10
30.10569620810621
 20
-4.051999999999971
 30
0.0
 11
30.10569620810622
 21
-7.353999999999971
 31
0.0
  0
LINE
  5
FB
330
F3
100
AcDbEntity
  8
치수문자_일반주서
 62
     0
370
    -2
100
AcDbLine
 10
30.1056962081062
 20
4.052000000000039
 30
0.0
 11
30.10569620810619
 21
7.354000000000038
 31
0.0
  0
SOLID
  5
FC
330
F3
100
AcDbEntity
  8
치수문자_일반주서
 62
     0
100
AcDbTrace
 10
30.65602954143955
 20
-4.05199999999997
 30
0.0
 11
29.55536287477288
 21
-4.051999999999972
 31
0.0
 12
30.10569620810621
 22
-0.7499999999999716
 32
0.0
 13
30.10569620810621
 23
-0.7499999999999716
 33
0.0
  0
SOLID
  5
FD
330
F3
100
AcDbEntity
  8
치수문자_일반주서
 62
     0
100
AcDbTrace
 10
29.55536287477286
 20
4.052000000000038
 30
0.0
 11
30.65602954143953
 21
4.05200000000004
 31
0.0
 12
30.1056962081062
 22
0.7500000000000391
 32
0.0
 13
30.1056962081062
 23
0.7500000000000391
 33
0.0
  0
MTEXT
  5
FE
330
F3
100
AcDbEntity
  8
치수문자_일반주서
 62
     0
100
AcDbMText
 10
25.73069620810618
 20
11.72900000000003
 30
0.0
 40
3.5
 41
0.0
 71
     2
 72
     1
  1
\A1;%%c1.5
  7
SLDTEXTSTYLE0
 11
-2.368475785866984E-15
 21
1.0
 31
0.0
 73
     1
 44
1.0
  0
POINT
  5
157
330
F3
100
AcDbEntity
  8
Defpoints
 62
     0
100
AcDbPoint
 10
21.39711431702997
 20
-0.7500000000000042
 30
0.0
  0
POINT
  5
158
330
F3
100
AcDbEntity
  8
Defpoints
 62
     0
100
AcDbPoint
 10
21.39711431702997
 20
0.7500000000000069
 30
0.0
  0
POINT
  5
159
330
F3
100
AcDbEntity
  8
Defpoints
 62
     0
100
AcDbPoint
 10
30.10569620810623
 20
0.7500000000000394
 30
0.0
  0
ENDBLK
  5
F5
330
F3
100
AcDbEntity
  8
0
100
AcDbBlockEnd
  0
BLOCK
  5
102
330
101
100
AcDbEntity
  8
0
100
AcDbBlockBegin
  2
_D_1
 70
     0
 10
0.0
 20
0.0
 30
0.0
  3
_D_1
  1

  0
LINE
  5
104
330
101
100
AcDbEntity
  8
치수문자_일반주서
 62
     0
370
    -2
100
AcDbLine
 10
-28.60288568297004
 20
2.562499999999997
 30
0.0
 11
-28.60288568297005
 21
20.38913260158165
 31
0.0
  0
LINE
  5
105
330
101
100
AcDbEntity
  8
치수문자_일반주서
 62
     0
370
    -2
100
AcDbLine
 10
21.39711431702995
 20
0.8125000000000038
 30
0.0
 11
21.39711431702995
 21
20.38913260158165
 31
0.0
  0
LINE
  5
106
330
101
100
AcDbEntity
  8
치수문자_일반주서
 62
     0
370
    -2
100
AcDbLine
 10
-25.30088568297005
 20
20.38913260158165
 30
0.0
 11
18.09511431702995
 21
20.38913260158165
 31
0.0
  0
SOLID
  5
107
330
101
100
AcDbEntity
  8
치수문자_일반주서
 62
     0
100
AcDbTrace
 10
-25.30088568297005
 20
20.93946593491498
 30
0.0
 11
-25.30088568297005
 21
19.83879926824831
 31
0.0
 12
-28.60288568297005
 22
20.38913260158165
 32
0.0
 13
-28.60288568297005
 23
20.38913260158165
 33
0.0
  0
SOLID
  5
108
330
101
100
AcDbEntity
  8
치수문자_일반주서
 62
     0
100
AcDbTrace
 10
18.09511431702995
 20
19.83879926824831
 30
0.0
 11
18.09511431702995
 21
20.93946593491498
 31
0.0
 12
21.39711431702995
 22
20.38913260158165
 32
0.0
 13
21.39711431702995
 23
20.38913260158165
 33
0.0
  0
MTEXT
  5
109
330
101
100
AcDbEntity
  8
치수문자_일반주서
 62
     0
100
AcDbMText
 10
-3.602885682970043
 20
24.76413260158165
 30
0.0
 40
3.5
 41
0.0
 71
     2
 72
     1
  1
\A1;50
  7
SLDTEXTSTYLE0
 73
     1
 44
1.0
  0
POINT
  5
150
330
101
100
AcDbEntity
  8
Defpoints
 62
     0
100
AcDbPoint
 10
-28.60288568297004
 20
2.499999999999997
 30
0.0
  0
POINT
  5
151
330
101
100
AcDbEntity
  8
Defpoints
 62
     0
100
AcDbPoint
 10
21.39711431702995
 20
0.7500000000000038
 30
0.0
  0
POINT
  5
152
330
101
100
AcDbEntity
  8
Defpoints
 62
     0
100
AcDbPoint
 10
21.39711431702995
 20
20.38913260158165
 30
0.0
  0
ENDBLK
  5
103
330
101
100
AcDbEntity
  8
0
100
AcDbBlockEnd
  0
BLOCK
  5
10D
330
10C
100
AcDbEntity
  8
0
100
AcDbBlockBegin
  2
_D_2
 70
     0
 10
0.0
 20
0.0
 30
0.0
  3
_D_2
  1

  0
LINE
  5
10F
330
10C
100
AcDbEntity
  8
치수문자_일반주서
 62
     0
370
    -2
100
AcDbLine
 10
-28.16538568297005
 20
3.000000000000004
 30
0.0
 11
-33.6908586128829
 21
2.999999999999984
 31
0.0
  0
LINE
  5
110
330
10C
100
AcDbEntity
  8
치수문자_일반주서
 62
     0
370
    -2
100
AcDbLine
 10
-28.16538568297005
 20
-3.000000000000001
 30
0.0
 11
-33.69085861288288
 21
-3.000000000000023
 31
0.0
  0
LINE
  5
111
330
10C
100
AcDbEntity
  8
치수문자_일반주서
 62
     0
370
    -2
100
AcDbLine
 10
-33.6908586128829
 20
2.999999999999984
 30
0.0
 11
-33.69085861288295
 21
15.72899999999998
 31
0.0
  0
LINE
  5
112
330
10C
100
AcDbEntity
  8
치수문자_일반주서
 62
     0
370
    -2
100
AcDbLine
 10
-33.6908586128829
 20
2.999999999999984
 30
0.0
 11
-33.69085861288288
 21
-3.000000000000023
 31
0.0
  0
LINE
  5
113
330
10C
100
AcDbEntity
  8
치수문자_일반주서
 62
     0
370
    -2
100
AcDbLine
 10
-33.69085861288291
 20
6.301999999999984
 30
0.0
 11
-33.69085861288293
 21
9.603999999999983
 31
0.0
  0
LINE
  5
114
330
10C
100
AcDbEntity
  8
치수문자_일반주서
 62
     0
370
    -2
100
AcDbLine
 10
-33.69085861288286
 20
-6.302000000000023
 30
0.0
 11
-33.69085861288285
 21
-9.604000000000022
 31
0.0
  0
SOLID
  5
115
330
10C
100
AcDbEntity
  8
치수문자_일반주서
 62
     0
100
AcDbTrace
 10
-34.24119194621625
 20
6.301999999999982
 30
0.0
 11
-33.14052527954958
 21
6.301999999999985
 31
0.0
 12
-33.6908586128829
 22
2.999999999999984
 32
0.0
 13
-33.6908586128829
 23
2.999999999999984
 33
0.0
  0
SOLID
  5
116
330
10C
100
AcDbEntity
  8
치수문자_일반주서
 62
     0
100
AcDbTrace
 10
-33.14052527954953
 20
-6.302000000000021
 30
0.0
 11
-34.2411919462162
 21
-6.302000000000024
 31
0.0
 12
-33.69085861288288
 22
-3.000000000000023
 32
0.0
 13
-33.69085861288288
 23
-3.000000000000023
 33
0.0
  0
MTEXT
  5
117
330
10C
100
AcDbEntity
  8
치수문자_일반주서
 62
     0
100
AcDbMText
 10
-38.06585861288293
 20
12.66649999999997
 30
0.0
 40
3.5
 41
0.0
 71
     2
 72
     1
  1
\A1;%%c6
  7
SLDTEXTSTYLE0
 11
-3.552713678800498E-15
 21
1.0
 31
0.0
 73
     1
 44
1.0
  0
POINT
  5
154
330
10C
100
AcDbEntity
  8
Defpoints
 62
     0
100
AcDbPoint
 10
-28.10288568297005
 20
3.000000000000004
 30
0.0
  0
POINT
  5
155
330
10C
100
AcDbEntity
  8
Defpoints
 62
     0
100
AcDbPoint
 10
-28.10288568297005
 20
-3.000000000000001
 30
0.0
  0
POINT
  5
156
330
10C
100
AcDbEntity
  8
Defpoints
 62
     0
100
AcDbPoint
 10
-33.69085861288286
 20
-3.000000000000022
 30
0.0
  0
ENDBLK
  5
10E
330
10C
100
AcDbEntity
  8
0
100
AcDbBlockEnd
  0
BLOCK
  5
11A
330
119
100
AcDbEntity
  8
0
100
AcDbBlockBegin
  2
_D_3
 70
     0
 10
0.0
 20
0.0
 30
0.0
  3
_D_3
  1

  0
LINE
  5
11C
330
119
100
AcDbEntity
  8
치수문자_일반주서
 62
     0
370
    -2
100
AcDbLine
 10
11.39711431702995
 20
0.7658974749944446
 30
0.0
 11
11.39711431702995
 21
11.54931577758209
 31
0.0
  0
LINE
  5
11D
330
119
100
AcDbEntity
  8
치수문자_일반주서
 62
     0
370
    -2
100
AcDbLine
 10
21.39711431702995
 20
0.8125000000000038
 30
0.0
 11
21.39711431702995
 21
11.54931577758209
 31
0.0
  0
LINE
  5
11E
330
119
100
AcDbEntity
  8
치수문자_일반주서
 62
     0
370
    -2
100
AcDbLine
 10
14.69911431702995
 20
11.54931577758209
 30
0.0
 11
18.09511431702995
 21
11.54931577758209
 31
0.0
  0
SOLID
  5
11F
330
119
100
AcDbEntity
  8
치수문자_일반주서
 62
     0
100
AcDbTrace
 10
14.69911431702995
 20
12.09964911091543
 30
0.0
 11
14.69911431702995
 21
10.99898244424876
 31
0.0
 12
11.39711431702995
 22
11.54931577758209
 32
0.0
 13
11.39711431702995
 23
11.54931577758209
 33
0.0
  0
SOLID
  5
120
330
119
100
AcDbEntity
  8
치수문자_일반주서
 62
     0
100
AcDbTrace
 10
18.09511431702995
 20
10.99898244424876
 30
0.0
 11
18.09511431702995
 21
12.09964911091543
 31
0.0
 12
21.39711431702995
 22
11.54931577758209
 32
0.0
 13
21.39711431702995
 23
11.54931577758209
 33
0.0
  0
MTEXT
  5
121
330
119
100
AcDbEntity
  8
치수문자_일반주서
 62
     0
100
AcDbMText
 10
16.39711431702996
 20
15.92431577758209
 30
0.0
 40
3.5
 41
0.0
 71
     2
 72
     1
  1
\A1;10
  7
SLDTEXTSTYLE0
 73
     1
 44
1.0
  0
POINT
  5
122
330
119
100
AcDbEntity
  8
Defpoints
 62
     0
100
AcDbPoint
 10
11.39711431702995
 20
0.7033974749944446
 30
0.0
  0
POINT
  5
123
330
119
100
AcDbEntity
  8
Defpoints
 62
     0
100
AcDbPoint
 10
21.39711431702995
 20
0.7500000000000038
 30
0.0
  0
POINT
  5
153
330
119
100
AcDbEntity
  8
Defpoints
 62
     0
100
AcDbPoint
 10
21.39711431702995
 20
11.54931577758209
 30
0.0
  0
ENDBLK
  5
11B
330
119
100
AcDbEntity
  8
0
100
AcDbBlockEnd
  0
BLOCK
  5
125
330
124
100
AcDbEntity
  8
0
100
AcDbBlockBegin
  2
SW_DOWELSYMBOL_0
 70
     0
 10
0.0
 20
0.0
 30
0.0
  3
SW_DOWELSYMBOL_0
  1

  0
CIRCLE
  5
127
330
124
100
AcDbEntity
  8
해칭선
 62
     0
100
AcDbCircle
 10
0.0
 20
0.0
 30
0.0
 40
3.000000000000001
  0
HATCH
  5
128
330
124
100
AcDbEntity
  8
0
  6
Continuous
 62
     0
370
    18
100
AcDbHatch
 10
0.0
 20
0.0
 30
0.0
210
0.0
220
0.0
230
1.0
  2
SOLID
 70
     1
 71
     0
 91
        1
 92
        0
 93
        3
 72
     2
 10
0.0
 20
0.0
 40
3.000000000000001
 50
0.0
 51
90.0
 73
     1
 72
     1
 10
0.0
 20
3.000000000000001
 11
0.0
 21
0.0
 72
     1
 10
0.0
 20
0.0
 11
3.000000000000001
 21
0.0
 97
        0
 75
     0
 76
     1
 98
        1
 10
0.0
 20
0.0
  0
HATCH
  5
129
330
124
100
AcDbEntity
  8
0
  6
Continuous
 62
     0
370
    18
100
AcDbHatch
 10
0.0
 20
0.0
 30
0.0
210
0.0
220
0.0
230
1.0
  2
SOLID
 70
     1
 71
     0
 91
        1
 92
        0
 93
        3
 72
     2
 10
0.0
 20
0.0
 40
3.000000000000001
 50
180.0
 51
270.0000000000008
 73
     1
 72
     1
 10
0.0
 20
-3.000000000000001
 11
0.0
 21
0.0
 72
     1
 10
0.0
 20
0.0
 11
-3.000000000000001
 21
0.0
 97
        0
 75
     0
 76
     1
 98
        1
 10
0.0
 20
0.0
  0
ENDBLK
  5
126
330
124
100
AcDbEntity
  8
0
100
AcDbBlockEnd
  0
ENDSEC
  0
SECTION
  2
ENTITIES
  0
LINE
  5
99
330
1F
100
AcDbEntity
  8
0
  6
Continuous
 62
     4
370
    25
100
AcDbLine
 10
2.0
 20
3.0
 30
0.0
 11
-28.10288568297004
 21
2.999999999999998
 31
0.0
  0
LINE
  5
9A
330
1F
100
AcDbEntity
  8
0
  6
Continuous
 62
     4
370
    25
100
AcDbLine
 10
-28.10288568297004
 20
-2.999999999999999
 30
0.0
 11
1.999999999999998
 21
-2.999999999999997
 31
0.0
  0
LINE
  5
9B
330
1F
100
AcDbEntity
  8
0
  6
Continuous
 62
     4
370
    25
100
AcDbLine
 10
2.0
 20
-2.999999999999997
 30
0.0
 11
9.89690503762829
 21
-0.8840306724622276
 31
0.0
  0
LINE
  5
9C
330
1F
100
AcDbEntity
  8
0
  6
Continuous
 62
     4
370
    25
100
AcDbLine
 10
9.89690503762829
 20
0.8840306724622311
 30
0.0
 11
2.0
 21
3.0
 31
0.0
  0
LINE
  5
9D
330
1F
100
AcDbEntity
  8
0
  6
Continuous
 62
     4
370
    25
100
AcDbLine
 10
-28.10288568297004
 20
2.999999999999997
 30
0.0
 11
-28.60288568297004
 21
2.499999999999997
 31
0.0
  0
LINE
  5
9E
330
1F
100
AcDbEntity
  8
0
  6
Continuous
 62
     4
370
    25
100
AcDbLine
 10
-28.60288568297004
 20
-2.499999999999999
 30
0.0
 11
-28.10288568297004
 21
-2.999999999999998
 31
0.0
  0
LINE
  5
9F
330
1F
100
AcDbEntity
  8
0
  6
Continuous
 62
     4
370
    25
100
AcDbLine
 10
11.05647452939125
 20
0.7500000000000018
 30
0.0
 11
10.62716962830534
 21
0.7500000000000018
 31
0.0
  0
LINE
  5
A0
330
1F
100
AcDbEntity
  8
0
  6
Continuous
 62
     4
370
    25
100
AcDbLine
 10
10.62716962830535
 20
-0.7499999999999982
 30
0.0
 11
11.05647452939125
 21
-0.7499999999999982
 31
0.0
  0
LINE
  5
A1
330
1F
100
AcDbEntity
  8
0
  6
Continuous
 62
     1
370
    25
100
AcDbLine
 10
19.67493657022635
 20
-0.7499999999999991
 30
0.0
 11
20.10368668337798
 21
-0.7499999999999991
 31
0.0
  0
LINE
  5
A2
330
1F
100
AcDbEntity
  8
0
  6
Continuous
 62
     1
370
    25
100
AcDbLine
 10
13.64335372714409
 20
-0.7499999999999991
 30
0.0
 11
14.07210384029572
 21
-0.7499999999999991
 31
0.0
  0
LINE
  5
A3
330
1F
100
AcDbEntity
  8
0
  6
Continuous
 62
     1
370
    25
100
AcDbLine
 10
17.08784879415637
 20
0.7500000000000027
 30
0.0
 11
16.6588001163325
 21
0.7500000000000027
 31
0.0
  0
LINE
  5
A4
330
1F
100
AcDbEntity
  8
0
  6
Continuous
 62
     1
370
    25
100
AcDbLine
 10
18.16616583612391
 20
-0.7499999999999991
 30
0.0
 11
18.59472639463074
 21
-0.7499999999999991
 31
0.0
  0
LINE
  5
A5
330
1F
100
AcDbEntity
  8
0
  6
Continuous
 62
     1
370
    25
100
AcDbLine
 10
12.13458299304165
 20
-0.7499999999999991
 30
0.0
 11
12.56314355154848
 21
-0.7499999999999991
 31
0.0
  0
LINE
  5
A6
330
1F
100
AcDbEntity
  8
0
  6
Continuous
 62
     1
370
    25
100
AcDbLine
 10
15.5803625112872
 20
0.7500000000000027
 30
0.0
 11
15.15184242234353
 21
0.7500000000000027
 31
0.0
  0
LINE
  5
A7
330
1F
100
AcDbEntity
  8
0
  6
Continuous
 62
     1
370
    25
100
AcDbLine
 10
21.39711431702995
 20
0.7500000000000027
 30
0.0
 11
21.18342526542579
 21
0.7500000000000027
 31
0.0
  0
LINE
  5
A8
330
1F
100
AcDbEntity
  8
0
  6
Continuous
 62
     1
370
    25
100
AcDbLine
 10
21.18342526542579
 20
-0.7499999999999991
 30
0.0
 11
21.39711431702995
 21
-0.7499999999999991
 31
0.0
  0
LINE
  5
A9
330
1F
100
AcDbEntity
  8
0
  6
Continuous
 62
     1
370
    25
100
AcDbLine
 10
15.15184242234353
 20
-0.7499999999999991
 30
0.0
 11
15.5803625112872
 21
-0.7499999999999991
 31
0.0
  0
LINE
  5
AA
330
1F
100
AcDbEntity
  8
0
  6
Continuous
 62
     1
370
    25
100
AcDbLine
 10
12.56314355154849
 20
0.7500000000000027
 30
0.0
 11
12.13458299304165
 21
0.7500000000000027
 31
0.0
  0
LINE
  5
AB
330
1F
100
AcDbEntity
  8
0
  6
Continuous
 62
     1
370
    25
100
AcDbLine
 10
18.59472639463074
 20
0.7500000000000027
 30
0.0
 11
18.16616583612391
 21
0.7500000000000027
 31
0.0
  0
LINE
  5
AC
330
1F
100
AcDbEntity
  8
0
  6
Continuous
 62
     1
370
    25
100
AcDbLine
 10
16.6588001163325
 20
-0.7499999999999991
 30
0.0
 11
17.08784879415638
 21
-0.7499999999999991
 31
0.0
  0
LINE
  5
AD
330
1F
100
AcDbEntity
  8
0
  6
Continuous
 62
     1
370
    25
100
AcDbLine
 10
14.07210384029572
 20
0.7500000000000027
 30
0.0
 11
13.6433537271441
 21
0.7500000000000027
 31
0.0
  0
LINE
  5
AE
330
1F
100
AcDbEntity
  8
0
  6
Continuous
 62
     1
370
    25
100
AcDbLine
 10
20.10368668337798
 20
0.7500000000000027
 30
0.0
 11
19.67493657022636
 21
0.7500000000000027
 31
0.0
  0
LINE
  5
AF
330
1F
100
AcDbEntity
  8
0
  6
Continuous
 62
     4
370
    25
100
AcDbLine
 10
2.0
 20
3.000000000000001
 30
0.0
 11
2.0
 21
-3.0
 31
0.0
  0
LINE
  5
B0
330
1F
100
AcDbEntity
  8
0
  6
Continuous
 62
     4
370
    25
100
AcDbLine
 10
-28.10288568297004
 20
2.999999999999997
 30
0.0
 11
-28.10288568297004
 21
-3.0
 31
0.0
  0
SPLINE
  5
B1
330
1F
100
AcDbEntity
  8
0
  6
Continuous
 62
     4
370
    25
100
AcDbSpline
210
0.0
220
0.0
230
1.0
 70
     8
 71
     3
 72
     8
 73
     4
 74
     0
 42
0.000000001
 43
0.00000001
 40
0.0
 40
0.0
 40
0.0
 40
0.0
 40
1.0
 40
1.0
 40
1.0
 40
1.0
 10
10.14451937171019
 20
0.3993272986047654
 30
0.0
 10
10.2274331065925
 20
0.3263185952871956
 30
0.0
 10
10.31161643211462
 20
0.2511585358986337
 30
0.0
 10
10.39711431703116
 20
0.1781549147058989
 30
0.0
  0
SPLINE
  5
B2
330
1F
100
AcDbEntity
  8
0
  6
Continuous
 62
     4
370
    25
100
AcDbSpline
210
0.0
220
0.0
230
1.0
 70
     8
 71
     3
 72
    26
 73
    22
 74
     0
 42
0.000000001
 43
0.00000001
 40
0.0
 40
0.0
 40
0.0
 40
0.0
 40
0.0000473737767855
 40
0.0000473737767855
 40
0.0000473737767855
 40
0.0000946375178218
 40
0.0000946375178218
 40
0.0000946375178218
 40
0.000143512104611
 40
0.000143512104611
 40
0.000143512104611
 40
0.0001951657611175
 40
0.0001951657611175
 40
0.0001951657611175
 40
0.0002483763311379
 40
0.0002483763311379
 40
0.0002483763311379
 40
0.0003014916515127
 40
0.0003014916515127
 40
0.0003014916515127
 40
0.0003492006599231
 40
0.0003492006599231
 40
0.0003492006599231
 40
0.0003492006599231
 10
9.89690503762829
 20
0.3252021375314857
 30
0.0
 10
9.89690503762829
 20
0.3398861136406313
 30
0.0
 10
9.89947879013314
 20
0.3543539964522846
 30
0.0
 10
9.904350808911422
 20
0.3674142069914036
 30
0.0
 10
9.909216389822364
 20
0.3804571598172876
 30
0.0
 10
9.916488013379688
 20
0.3924557286700937
 30
0.0
 10
9.925533918228938
 20
0.4026125169620646
 30
0.0
 10
9.934888884508808
 20
0.4131163210111476
 30
0.0
 10
9.9463770285464
 20
0.4219332647033807
 30
0.0
 10
9.959131657856606
 20
0.4285668093342624
 30
0.0
 10
9.972598840437946
 20
0.4355709452078204
 30
0.0
 10
9.987838066858222
 20
0.4403298668857728
 30
0.0
 10
10.00369507708837
 20
0.4425816472030237
 30
0.0
 10
10.02001580402751
 20
0.4448992777747011
 30
0.0
 10
10.03744590721399
 20
0.4446211652587921
 30
0.0
 10
10.05455861030852
 20
0.4417745192364948
 30
0.0
 10
10.07163669431843
 20
0.4389336319934506
 30
0.0
 10
10.08887715597039
 20
0.433448659589068
 30
0.0
 10
10.1047761351214
 20
0.4257037415929495
 30
0.0
 10
10.11909547048206
 20
0.4187283202735144
 30
0.0
 10
10.13267768534565
 20
0.4097543547227837
 30
0.0
 10
10.14451937171023
 20
0.3993272986047832
 30
0.0
  0
LINE
  5
B3
330
1F
100
AcDbEntity
  8
0
  6
Continuous
 62
     4
370
    25
100
AcDbLine
 10
9.89690503762829
 20
0.3252021375314843
 30
0.0
 11
9.89690503762829
 21
-0.2536575612286744
 31
0.0
  0
SPLINE
  5
B4
330
1F
100
AcDbEntity
  8
0
  6
Continuous
 62
     4
370
    25
100
AcDbSpline
210
0.0
220
0.0
230
1.0
 70
     8
 71
     3
 72
    14
 73
    10
 74
     0
 42
0.000000001
 43
0.00000001
 40
0.0000000000000003
 40
0.0000000000000003
 40
0.0000000000000003
 40
0.0000000000000003
 40
0.0000499993134477
 40
0.0000499993134477
 40
0.0000499993134477
 40
0.00010015078082
 40
0.00010015078082
 40
0.00010015078082
 40
0.0001271062344751
 40
0.0001271062344751
 40
0.0001271062344751
 40
0.0001271062344751
 10
9.946794873801126
 20
-0.3544388898458052
 30
0.0
 10
9.934786449861434
 20
-0.3456099708315875
 30
0.0
 10
9.924320574957978
 20
-0.3345086488374978
 30
0.0
 10
9.916276293838889
 20
-0.3218645519465352
 30
0.0
 10
9.908217740085087
 20
-0.3091980211583131
 30
0.0
 10
9.902376145139062
 20
-0.2946051529572847
 30
0.0
 10
9.89937075361481
 20
-0.2792977093020145
 30
0.0
 10
9.897737420819334
 20
-0.2709786102643852
 30
0.0
 10
9.89690503762829
 20
-0.2623497553901419
 30
0.0
 10
9.89690503762829
 20
-0.2536575612286749
 30
0.0
  0
SPLINE
  5
B5
330
1F
100
AcDbEntity
  8
0
  6
Continuous
 62
     4
370
    25
100
AcDbSpline
210
0.0
220
0.0
230
1.0
 70
     8
 71
     3
 72
     8
 73
     4
 74
     0
 42
0.000000001
 43
0.00000001
 40
0.0
 40
0.0
 40
0.0
 40
0.0
 40
1.0
 40
1.0
 40
1.0
 40
1.0
 10
10.39711431702995
 20
-0.5801070176264038
 30
0.0
 10
10.23846798082482
 20
-0.5389639357328034
 30
0.0
 10
10.09173301795912
 20
-0.4610013449463068
 30
0.0
 10
9.946794873802942
 20
-0.3544388898503177
 30
0.0
  0
LINE
  5
B6
330
1F
100
AcDbEntity
  8
0
  6
Continuous
 62
     4
370
    25
100
AcDbLine
 10
10.39711431702995
 20
-0.580107017626404
 30
0.0
 11
10.39711431702995
 21
-0.7285333392275862
 31
0.0
  0
SPLINE
  5
B7
330
1F
100
AcDbEntity
  8
0
  6
Continuous
 62
     4
370
    25
100
AcDbSpline
210
0.0
220
0.0
230
1.0
 70
     8
 71
     3
 72
     8
 73
     4
 74
     0
 42
0.000000001
 43
0.00000001
 40
0.0
 40
0.0
 40
0.0
 40
0.0
 40
1.0
 40
1.0
 40
1.0
 40
1.0
 10
10.14451937171019
 20
-0.7135422635830518
 30
0.0
 10
10.2274331065925
 20
-0.7289417507218369
 30
0.0
 10
10.31161643211462
 20
-0.7342652155650848
 30
0.0
 10
10.39711431703116
 20
-0.7285333392296596
 30
0.0
  0
SPLINE
  5
B8
330
1F
100
AcDbEntity
  8
0
  6
Continuous
 62
     4
370
    25
100
AcDbSpline
210
0.0
220
0.0
230
1.0
 70
     8
 71
     3
 72
    26
 73
    22
 74
     0
 42
0.000000001
 43
0.00000001
 40
0.0
 40
0.0
 40
0.0
 40
0.0
 40
0.0000473737767855
 40
0.0000473737767855
 40
0.0000473737767855
 40
0.0000946375178218
 40
0.0000946375178218
 40
0.0000946375178218
 40
0.000143512104611
 40
0.000143512104611
 40
0.000143512104611
 40
0.0001951657611175
 40
0.0001951657611175
 40
0.0001951657611175
 40
0.0002483763311379
 40
0.0002483763311379
 40
0.0002483763311379
 40
0.0003014916515127
 40
0.0003014916515127
 40
0.0003014916515127
 40
0.0003492006599231
 40
0.0003492006599231
 40
0.0003492006599231
 40
0.0003492006599231
 10
9.896905037628294
 20
-0.8220424560805696
 30
0.0
 10
9.896905037628294
 20
-0.8162334368713632
 30
0.0
 10
9.89947879013314
 20
-0.8092889205428283
 30
0.0
 10
9.904350808911422
 20
-0.8018687997725968
 30
0.0
 10
9.909216389822364
 20
-0.794458483922128
 30
0.0
 10
9.916488013379688
 20
-0.7863840153586081
 30
0.0
 10
9.925533918228938
 20
-0.7784017516400121
 30
0.0
 10
9.934888884508808
 20
-0.7701467667414377
 30
0.0
 10
9.9463770285464
 20
-0.7617824589115562
 30
0.0
 10
9.959131657856606
 20
-0.7540814468959773
 30
0.0
 10
9.972598840437946
 20
-0.7459502082411696
 30
0.0
 10
9.987838066858222
 20
-0.7383501721362662
 30
0.0
 10
10.00369507708837
 20
-0.7320236659883458
 30
0.0
 10
10.02001580402751
 20
-0.7255121497680483
 30
0.0
 10
10.037445907214
 20
-0.7201800503679434
 30
0.0
 10
10.05455861030852
 20
-0.7165483314913909
 30
0.0
 10
10.07163669431843
 20
-0.7129239596004332
 30
0.0
 10
10.08887715597039
 20
-0.7108962443777466
 30
0.0
 10
10.1047761351214
 20
-0.710570096297878
 30
0.0
 10
10.11909547048206
 20
-0.7102763526751893
 30
0.0
 10
10.13267768534565
 20
-0.7113429187202909
 30
0.0
 10
10.14451937171023
 20
-0.7135422635831365
 30
0.0
  0
LINE
  5
B9
330
1F
100
AcDbEntity
  8
0
  6
Continuous
 62
     4
370
    25
100
AcDbLine
 10
9.896905037628294
 20
-0.8220424560805696
 30
0.0
 11
9.89690503762829
 21
-0.8840306724622276
 31
0.0
  0
SPLINE
  5
BA
330
1F
100
AcDbEntity
  8
0
  6
Continuous
 62
     4
370
    25
100
AcDbSpline
210
0.0
220
0.0
230
1.0
 70
     8
 71
     3
 72
    14
 73
    10
 74
     0
 42
0.000000001
 43
0.00000001
 40
0.0000000000000003
 40
0.0000000000000003
 40
0.0000000000000003
 40
0.0000000000000003
 40
0.0000499993134477
 40
0.0000499993134477
 40
0.0000499993134477
 40
0.00010015078082
 40
0.00010015078082
 40
0.00010015078082
 40
0.0001271062344751
 40
0.0001271062344751
 40
0.0001271062344751
 40
0.0001271062344751
 10
9.946794873801126
 20
-0.7952525792224396
 30
0.0
 10
9.934786449861434
 20
-0.8027103331065315
 30
0.0
 10
9.924320574957978
 20
-0.8104865471839442
 30
0.0
 10
9.916276293838889
 20
-0.8177794550100287
 30
0.0
 10
9.908217740085087
 20
-0.8250853023403186
 30
0.0
 10
9.902376145139062
 20
-0.8321041509950108
 30
0.0
 10
9.89937075361481
 20
-0.8380544859899547
 30
0.0
 10
9.897737420819334
 20
-0.8412883000247996
 30
0.0
 10
9.89690503762829
 20
-0.8442542084223092
 30
0.0
 10
9.89690503762829
 20
-0.8468577634322884
 30
0.0
  0
SPLINE
  5
BB
330
1F
100
AcDbEntity
  8
0
  6
Continuous
 62
     4
370
    25
100
AcDbSpline
210
0.0
220
0.0
230
1.0
 70
     8
 71
     3
 72
    10
 73
     6
 74
     0
 42
0.000000001
 43
0.00000001
 40
0.0
 40
0.0
 40
0.0
 40
0.0
 40
0.5192305596950595
 40
0.9674214188427611
 40
1.0
 40
1.0
 40
1.0
 40
1.0
 10
10.06881758583248
 20
-0.7148508462087447
 30
0.0
 10
10.04748630533827
 20
-0.7295149133911115
 30
0.0
 10
10.00774223161971
 20
-0.7568367503182416
 30
0.0
 10
9.967405772790347
 20
-0.7824339764622198
 30
0.0
 10
9.948102902308579
 20
-0.794439072850661
 30
0.0
 10
9.946794873802942
 20
-0.7952525792306491
 30
0.0
  0
SPLINE
  5
BC
330
1F
100
AcDbEntity
  8
0
  6
Continuous
 62
     4
370
    25
100
AcDbSpline
210
0.0
220
0.0
230
1.0
 70
     8
 71
     3
 72
     8
 73
     4
 74
     0
 42
0.000000001
 43
0.00000001
 40
0.0
 40
0.0
 40
0.0
 40
0.0
 40
1.0
 40
1.0
 40
1.0
 40
1.0
 10
10.14451937171019
 20
0.713542263583058
 30
0.0
 10
10.2274331065925
 20
0.7289417507218424
 30
0.0
 10
10.31161643211462
 20
0.7342652155650902
 30
0.0
 10
10.39711431703116
 20
0.7285333392296643
 30
0.0
  0
SPLINE
  5
BD
330
1F
100
AcDbEntity
  8
0
  6
Continuous
 62
     4
370
    25
100
AcDbSpline
210
0.0
220
0.0
230
1.0
 70
     8
 71
     3
 72
     9
 73
     5
 74
     0
 42
0.000000001
 43
0.00000001
 40
0.0
 40
0.0
 40
0.0
 40
0.0
 40
0.4429117701596049
 40
1.0
 40
1.0
 40
1.0
 40
1.0
 10
10.06881758583247
 20
0.7148508462087527
 30
0.0
 10
10.08112567547396
 20
0.7129334959549486
 30
0.0
 10
10.10891470812271
 20
0.708604529368413
 30
0.0
 10
10.13178089059404
 20
0.7117756625900378
 30
0.0
 10
10.1445193717102
 20
0.7135422635830607
 30
0.0
  0
LINE
  5
BE
330
1F
100
AcDbEntity
  8
0
  6
Continuous
 62
     4
370
    25
100
AcDbLine
 10
9.89690503762829
 20
0.8840306724622311
 30
0.0
 11
9.89690503762829
 21
0.8468577634322899
 31
0.0
  0
SPLINE
  5
BF
330
1F
100
AcDbEntity
  8
0
  6
Continuous
 62
     4
370
    25
100
AcDbSpline
210
0.0
220
0.0
230
1.0
 70
     8
 71
     3
 72
    14
 73
    10
 74
     0
 42
0.000000001
 43
0.00000001
 40
0.0000000000000004
 40
0.0000000000000004
 40
0.0000000000000004
 40
0.0000000000000004
 40
0.0000499993134477
 40
0.0000499993134477
 40
0.0000499993134477
 40
0.00010015078082
 40
0.00010015078082
 40
0.00010015078082
 40
0.0001271062344751
 40
0.0001271062344751
 40
0.0001271062344751
 40
0.0001271062344751
 10
9.946794873801126
 20
0.7952525792224412
 30
0.0
 10
9.934786449861434
 20
0.8027103331065331
 30
0.0
 10
9.924320574957978
 20
0.8104865471839454
 30
0.0
 10
9.916276293838889
 20
0.81777945501003
 30
0.0
 10
9.908217740085087
 20
0.8250853023403201
 30
0.0
 10
9.902376145139062
 20
0.8321041509950123
 30
0.0
 10
9.89937075361481
 20
0.8380544859899564
 30
0.0
 10
9.897737420819334
 20
0.8412883000248014
 30
0.0
 10
9.89690503762829
 20
0.844254208422311
 30
0.0
 10
9.89690503762829
 20
0.8468577634322904
 30
0.0
  0
SPLINE
  5
C0
330
1F
100
AcDbEntity
  8
0
  6
Continuous
 62
     4
370
    25
100
AcDbSpline
210
0.0
220
0.0
230
1.0
 70
     8
 71
     3
 72
     8
 73
     4
 74
     0
 42
0.000000001
 43
0.00000001
 40
0.0
 40
0.0
 40
0.0
 40
0.0
 40
1.0
 40
1.0
 40
1.0
 40
1.0
 10
10.39711431702995
 20
0.4753691703303792
 30
0.0
 10
10.23846798082482
 20
0.592644884162957
 30
0.0
 10
10.09173301795913
 20
0.705239683868766
 30
0.0
 10
9.946794873802942
 20
0.79525257923065
 30
0.0
  0
LINE
  5
C1
330
1F
100
AcDbEntity
  8
0
  6
Continuous
 62
     4
370
    25
100
AcDbLine
 10
10.39711431702995
 20
0.4753691703303793
 30
0.0
 11
10.39711431702995
 21
0.1781549147059898
 31
0.0
  0
LINE
  5
C2
330
1F
100
AcDbEntity
  8
0
  6
Continuous
 62
     4
370
    25
100
AcDbLine
 10
-28.60288568297004
 20
2.499999999999997
 30
0.0
 11
-28.60288568297004
 21
-2.499999999999999
 31
0.0
  0
SPLINE
  5
C3
330
1F
100
AcDbEntity
  8
0
  6
Continuous
 62
     4
370
    25
100
AcDbSpline
210
0.0
220
0.0
230
1.0
 70
     8
 71
     3
 72
    14
 73
    10
 74
     0
 42
0.000000001
 43
0.00000001
 40
0.0
 40
0.0
 40
0.0
 40
0.0
 40
0.25
 40
0.25
 40
0.5
 40
0.5
 40
0.75
 40
0.75
 40
1.0
 40
1.0
 40
1.0
 40
1.0
 10
11.39711431702923
 20
0.5219742831442005
 30
0.0
 10
11.31387223046881
 20
0.5686713838931271
 30
0.0
 10
11.22851657776836
 20
0.6097670476480942
 30
0.0
 10
11.06213137135108
 20
0.676645145235518
 30
0.0
 10
10.98140796405829
 20
0.7025778782771808
 30
0.0
 10
10.81324706195788
 20
0.738725746167117
 30
0.0
 10
10.72824372119698
 20
0.7485428695049895
 30
0.0
 10
10.56483142421612
 20
0.7511516141983762
 30
0.0
 10
10.48138944306917
 20
0.7440443327902515
 30
0.0
 10
10.39711431702995
 20
0.728533339227591
 30
0.0
  0
SPLINE
  5
C4
330
1F
100
AcDbEntity
  8
0
  6
Continuous
 62
     4
370
    25
100
AcDbSpline
210
0.0
220
0.0
230
1.0
 70
     8
 71
     3
 72
    14
 73
    10
 74
     0
 42
0.000000001
 43
0.00000001
 40
0.0
 40
0.0
 40
0.0
 40
0.0
 40
0.25
 40
0.25
 40
0.5
 40
0.5
 40
0.75
 40
0.75
 40
1.0
 40
1.0
 40
1.0
 40
1.0
 10
11.39711431702994
 20
-0.2602537073154569
 30
0.0
 10
11.31387223046948
 20
-0.1992635656133884
 30
0.0
 10
11.22851657776896
 20
-0.1347857276455831
 30
0.0
 10
11.06213137135154
 20
-0.0053179924095412
 30
0.0
 10
10.98140796405871
 20
0.0595651262879599
 30
0.0
 10
10.81324706195819
 20
0.1882679880523983
 30
0.0
 10
10.72824372119722
 20
0.2514054404771903
 30
0.0
 10
10.56483142421623
 20
0.3690884637842856
 30
0.0
 10
10.48138944306923
 20
0.4248623615178708
 30
0.0
 10
10.39711431702995
 20
0.4753691703303796
 30
0.0
  0
SPLINE
  5
C5
330
1F
100
AcDbEntity
  8
0
  6
Continuous
 62
     4
370
    25
100
AcDbSpline
210
0.0
220
0.0
230
1.0
 70
     8
 71
     3
 72
    14
 73
    10
 74
     0
 42
0.000000001
 43
0.00000001
 40
0.0
 40
0.0
 40
0.0
 40
0.0
 40
0.2499999999999999
 40
0.2499999999999999
 40
0.4999999999999999
 40
0.4999999999999999
 40
0.7499999999999999
 40
0.7499999999999999
 40
1.0
 40
1.0
 40
1.0
 40
1.0
 10
11.39711431702923
 20
-0.5385562623682776
 30
0.0
 10
11.31387223046882
 20
-0.4932969507763063
 30
0.0
 10
11.22851657776836
 20
-0.4414878262721734
 30
0.0
 10
11.06213137135108
 20
-0.329967726563081
 30
0.0
 10
10.98140796405829
 20
-0.2704471288088814
 30
0.0
 10
10.81324706195788
 20
-0.1450572179357887
 30
0.0
 10
10.72824372119698
 20
-0.0797537886359122
 30
0.0
 10
10.56483142421612
 20
0.0494807717777498
 30
0.0
 10
10.48138944306917
 20
0.1147254215955016
 30
0.0
 10
10.39711431702995
 20
0.1781549147059898
 30
0.0
  0
SPLINE
  5
C6
330
1F
100
AcDbEntity
  8
0
  6
Continuous
 62
     4
370
    25
100
AcDbSpline
210
0.0
220
0.0
230
1.0
 70
     8
 71
     3
 72
    14
 73
    10
 74
     0
 42
0.000000001
 43
0.00000001
 40
0.0
 40
0.0
 40
0.0
 40
0.0
 40
0.25
 40
0.25
 40
0.5
 40
0.5
 40
0.75
 40
0.75
 40
1.0
 40
1.0
 40
1.0
 40
1.0
 10
11.39711431702994
 20
-0.7033974749944455
 30
0.0
 10
11.31387223046948
 20
-0.7259635362214685
 30
0.0
 10
11.22851657776896
 20
-0.7406484731416562
 30
0.0
 10
11.06213137135154
 20
-0.7527941764524656
 30
0.0
 10
10.98140796405871
 20
-0.7504727311873097
 30
0.0
 10
10.81324706195819
 20
-0.7289118528327974
 30
0.0
 10
10.72824372119722
 20
-0.7095578896658246
 30
0.0
 10
10.56483142421623
 20
-0.6560874943099462
 30
0.0
 10
10.48138944306923
 20
-0.6214948634405703
 30
0.0
 10
10.39711431702995
 20
-0.580107017626404
 30
0.0
  0
LINE
  5
C7
330
1F
100
AcDbEntity
  8
0
  6
Continuous
 62
     4
370
    25
100
AcDbLine
 10
10.39711431704112
 20
-0.7285333392296414
 30
0.0
 11
10.62716962830535
 21
-0.7423495471610165
 31
0.0
  0
SPLINE
  5
C8
330
1F
100
AcDbEntity
  8
0
  6
Continuous
 62
     4
370
    25
100
AcDbSpline
210
0.0
220
0.0
230
1.0
 70
     8
 71
     3
 72
     9
 73
     5
 74
     0
 42
0.000000001
 43
0.00000001
 40
0.0
 40
0.0
 40
0.0
 40
0.0
 40
0.1796420418126655
 40
0.9999999999999999
 40
0.9999999999999999
 40
0.9999999999999999
 40
0.9999999999999999
 10
11.39711431702995
 20
0.703397474994445
 30
0.0
 10
11.37672258891174
 20
0.7087004380665327
 30
0.0
 10
11.26320947186824
 20
0.7382200483903661
 30
0.0
 10
11.14964118078177
 20
0.742628727754267
 30
0.0
 10
11.05647452939125
 20
0.7462454229555392
 30
0.0
  0
SPLINE
  5
C9
330
1F
100
AcDbEntity
  8
0
  6
Continuous
 62
     1
370
    25
100
AcDbSpline
210
0.0
220
0.0
230
1.0
 70
     8
 71
     3
 72
    14
 73
    10
 74
     0
 42
0.000000001
 43
0.00000001
 40
0.0
 40
0.0
 40
0.0
 40
0.0
 40
0.1530083859595925
 40
0.3058650721241039
 40
0.4589281182949354
 40
0.6125408064576372
 40
0.7727723097966888
 40
0.9326267508723196
 40
1.0
 40
1.0
 40
1.0
 40
1.0
 10
11.39711431702925
 20
0.5219742831441915
 30
0.0
 10
11.51164052451856
 20
0.4511650101254345
 30
0.0
 10
11.74057939276509
 20
0.3096166677708063
 30
0.0
 10
12.08387832808754
 20
0.0398239949336761
 30
0.0
 10
12.42776234695098
 20
-0.2300606756034239
 30
0.0
 10
12.77779792111261
 20
-0.4766696650562069
 30
0.0
 10
13.13278877332537
 20
-0.6574545539691085
 30
0.0
 10
13.42286811723388
 20
-0.7505288650064236
 30
0.0
 10
13.59293015429573
 20
-0.7402808801981453
 30
0.0
 10
13.64335372714409
 20
-0.7372423419243679
 30
0.0
  0
SPLINE
  5
CA
330
1F
100
AcDbEntity
  8
0
  6
Continuous
 62
     1
370
    25
100
AcDbSpline
210
0.0
220
0.0
230
1.0
 70
     8
 71
     3
 72
    18
 73
    14
 74
     0
 42
0.000000001
 43
0.00000001
 40
0.0
 40
0.0
 40
0.0
 40
0.0
 40
0.0690564926695726
 40
0.1701073129877894
 40
0.2714154276692439
 40
0.368052676879454
 40
0.4647459168016138
 40
0.5613432904443539
 40
0.6580710727406874
 40
0.7551461998224578
 40
0.8564040694371523
 40
0.9574236555638281
 40
1.0
 40
1.0
 40
1.0
 40
1.0
 10
16.11994645401206
 20
0.6250627393077294
 30
0.0
 10
16.20173217459862
 20
0.6590058633096714
 30
0.0
 10
16.40319547851008
 20
0.7426181841092451
 30
0.0
 10
16.72475962528276
 20
0.7637708465688061
 30
0.0
 10
17.07944527985886
 20
0.6950501368885336
 30
0.0
 10
17.42885279091015
 20
0.5331399497957211
 30
0.0
 10
17.77213832628139
 20
0.3066166101541298
 30
0.0
 10
18.11546758330348
 20
0.0406285587022576
 30
0.0
 10
18.45934346626057
 20
-0.2302769663277745
 30
0.0
 10
18.80938124982915
 20
-0.4766087299957433
 30
0.0
 10
19.16437148126573
 20
-0.6574715109270165
 30
0.0
 10
19.4544509726107
 20
-0.7505273223435938
 30
0.0
 10
19.62451300018968
 20
-0.7402805274015539
 30
0.0
 10
19.67493657022635
 20
-0.7372423419243674
 30
0.0
  0
SPLINE
  5
CB
330
1F
100
AcDbEntity
  8
0
  6
Continuous
 62
     1
370
    25
100
AcDbSpline
210
0.0
220
0.0
230
1.0
 70
     8
 71
     3
 72
    17
 73
    13
 74
     0
 42
0.000000001
 43
0.00000001
 40
0.0
 40
0.0
 40
0.0
 40
0.0
 40
0.0770952271268762
 40
0.1896390110583978
 40
0.2909715931428668
 40
0.392553287998078
 40
0.4941520581648053
 40
0.5954952740527625
 40
0.6967062538558881
 40
0.7979119199597593
 40
0.8992393287541165
 40
1.0
 40
1.0
 40
1.0
 40
1.0
 10
20.6329091078161
 20
-0.6266742382349431
 30
0.0
 10
20.54179592146536
 20
-0.6638203705088678
 30
0.0
 10
20.31767550314821
 20
-0.7551925092468287
 30
0.0
 10
19.97366867006809
 20
-0.7603262443823285
 30
0.0
 10
19.60115680791656
 20
-0.6651929896461539
 30
0.0
 10
19.24102102712832
 20
-0.4779107687362198
 30
0.0
 10
18.88087315312438
 20
-0.2253911577646073
 30
0.0
 10
18.52158814636955
 20
0.058648992235721
 30
0.0
 10
18.16289853409239
 20
0.3348427403388162
 30
0.0
 10
17.80423407164814
 20
0.5626812467140394
 30
0.0
 10
17.44598301747217
 20
0.7198459327068524
 30
0.0
 10
17.20700346982922
 20
0.7396918953372121
 30
0.0
 10
17.08784879415637
 20
0.7495870485583104
 30
0.0
  0
SPLINE
  5
CC
330
1F
100
AcDbEntity
  8
0
  6
Continuous
 62
     1
370
    25
100
AcDbSpline
210
0.0
220
0.0
230
1.0
 70
     8
 71
     3
 72
    17
 73
    13
 74
     0
 42
0.000000001
 43
0.00000001
 40
0.0
 40
0.0
 40
0.0
 40
0.0
 40
0.0852898861518242
 40
0.2097962515435249
 40
0.3218997462933556
 40
0.4342788326802743
 40
0.5466768093594911
 40
0.6587920682083804
 40
0.7707610352433565
 40
0.8827241237716941
 40
0.9948218953484943
 40
1.0
 40
1.0
 40
1.0
 40
1.0
 10
14.60132626473383
 20
-0.6266742382349442
 30
0.0
 10
14.51021307528389
 20
-0.6638203941712473
 30
0.0
 10
14.28609264934327
 20
-0.755192591113979
 30
0.0
 10
13.94208589088319
 20
-0.7603257565290625
 30
0.0
 10
13.56957375395167
 20
-0.6651945997247293
 30
0.0
 10
13.20943897560979
 20
-0.4779047251855602
 30
0.0
 10
12.8492873580935
 20
-0.2254136957488881
 30
0.0
 10
12.49001628324793
 20
0.0587328237016792
 30
0.0
 10
12.13127477022531
 20
0.3345303121351025
 30
0.0
 10
11.77280402329749
 20
0.5638478270655799
 30
0.0
 10
11.52754932590919
 20
0.6674559917475447
 30
0.0
 10
11.40262990844923
 20
0.7018776488504067
 30
0.0
 10
11.39711431702995
 20
0.7033974749944457
 30
0.0
  0
SPLINE
  5
CD
330
1F
100
AcDbEntity
  8
0
  6
Continuous
 62
     1
370
    25
100
AcDbSpline
210
0.0
220
0.0
230
1.0
 70
     8
 71
     3
 72
    18
 73
    14
 74
     0
 42
0.000000001
 43
0.00000001
 40
0.0
 40
0.0
 40
0.0
 40
0.0
 40
0.0697063507741897
 40
0.1709538399305914
 40
0.272069217909666
 40
0.373179287208698
 40
0.4744109842025573
 40
0.5758881909014057
 40
0.6773989442164733
 40
0.7786518885226762
 40
0.8797692322061136
 40
0.9808777282047692
 40
1.0
 40
1.0
 40
1.0
 40
1.0
 10
19.12814370842199
 20
-0.6276239227542646
 30
0.0
 10
19.04562968488576
 20
-0.6613431317966851
 30
0.0
 10
18.8432652085508
 20
-0.7440390153309948
 30
0.0
 10
18.52159204327343
 20
-0.7633660822753474
 30
0.0
 10
18.16289724213356
 20
-0.6915595392100891
 30
0.0
 10
17.8042353460276
 20
-0.520733440380024
 30
0.0
 10
17.44501950230317
 20
-0.2785597814120201
 30
0.0
 10
17.08494014873324
 20
0.0024618991156023
 30
0.0
 10
16.72475822212042
 20
0.2825604220523391
 30
0.0
 10
16.36546178298859
 20
0.5254080071626599
 30
0.0
 10
16.00672724868754
 20
0.689066906800283
 30
0.0
 10
15.74520535555544
 20
0.7558580791165231
 30
0.0
 10
15.60298253938914
 20
0.7462289090226496
 30
0.0
 10
15.5803625112872
 20
0.7446974241034714
 30
0.0
  0
SPLINE
  5
CE
330
1F
100
AcDbEntity
  8
0
  6
Continuous
 62
     1
370
    25
100
AcDbSpline
210
0.0
220
0.0
230
1.0
 70
     8
 71
     3
 72
    13
 73
     9
 74
     0
 42
0.000000001
 43
0.00000001
 40
0.0
 40
0.0
 40
0.0
 40
0.0
 40
0.1454982669707529
 40
0.3568324430362596
 40
0.567890863060386
 40
0.7789382022613517
 40
0.9902394153004467
 40
1.0
 40
1.0
 40
1.0
 40
1.0
 10
13.09656086533973
 20
-0.627623922754265
 30
0.0
 10
13.01404632685871
 20
-0.6613431584530497
 30
0.0
 10
12.81168058762892
 20
-0.7440391073617154
 30
0.0
 10
12.49002020000795
 20
-0.7633655128645616
 30
0.0
 10
12.13127371690665
 20
-0.6915616451408029
 30
0.0
 10
11.77280432273941
 20
-0.520725581355628
 30
0.0
 10
11.52754932350063
 20
-0.3557372734002916
 30
0.0
 10
11.40262990834738
 20
-0.2642913375675336
 30
0.0
 10
11.39711431702995
 20
-0.2602537073154681
 30
0.0
  0
SPLINE
  5
CF
330
1F
100
AcDbEntity
  8
0
  6
Continuous
 62
     1
370
    25
100
AcDbSpline
210
0.0
220
0.0
230
1.0
 70
     8
 71
     3
 72
    14
 73
    10
 74
     0
 42
0.000000001
 43
0.00000001
 40
0.0
 40
0.0
 40
0.0
 40
0.0
 40
0.1556863390210546
 40
0.3113763067319222
 40
0.4670849351435816
 40
0.6072824371165474
 40
0.7478245961331725
 40
0.88839037949619
 40
1.0
 40
1.0
 40
1.0
 40
1.0
 10
21.15753148564006
 20
-0.6677577045649647
 30
0.0
 10
21.02453568710152
 20
-0.6091554297164261
 30
0.0
 10
20.75854099019882
 20
-0.4919495141353602
 30
0.0
 10
20.35956574643406
 20
-0.20167761780513
 30
0.0
 10
19.97366982461221
 20
0.1040310597633768
 30
0.0
 10
19.60115550426663
 20
0.3849628711986296
 30
0.0
 10
19.24102518368076
 20
0.5987056730107652
 30
0.0
 10
18.90530889801887
 20
0.7316467303392813
 30
0.0
 10
18.69001342685051
 20
0.7384909493530964
 30
0.0
 10
18.59472639463074
 20
0.7415201134787949
 30
0.0
  0
SPLINE
  5
D0
330
1F
100
AcDbEntity
  8
0
  6
Continuous
 62
     1
370
    25
100
AcDbSpline
210
0.0
220
0.0
230
1.0
 70
     8
 71
     3
 72
    18
 73
    14
 74
     0
 42
0.000000001
 43
0.00000001
 40
0.0
 40
0.0
 40
0.0
 40
0.0
 40
0.0318459455484727
 40
0.1327112659223193
 40
0.2062537132892166
 40
0.2796349463391749
 40
0.3917859443023344
 40
0.5039395562468257
 40
0.6161066107080445
 40
0.7170999917399137
 40
0.8183416516615332
 40
0.9196003297367091
 40
1.0
 40
1.0
 40
1.0
 40
1.0
 10
16.11994645401206
 20
-0.6250627393077246
 30
0.0
 10
16.08221101552459
 20
-0.6434127457040053
 30
0.0
 10
15.9249565291039
 20
-0.7198825297406062
 30
0.0
 10
15.68071824903686
 20
-0.7563886519797163
 30
0.0
 10
15.38667858457492
 20
-0.7446252078882654
 30
0.0
 10
15.08019668198469
 20
-0.6639009202928792
 30
0.0
 10
14.72688793202351
 20
-0.4868012981052048
 30
0.0
 10
14.32800178574409
 20
-0.2030620870191891
 30
0.0
 10
13.94208247999866
 20
0.1043611149490702
 30
0.0
 10
13.56957381688062
 20
0.3848781348021207
 30
0.0
 10
13.20944202965498
 20
0.5987284715911481
 30
0.0
 10
12.87372611430093
 20
0.7316423777090604
 30
0.0
 10
12.65843060198128
 20
0.7384896139616572
 30
0.0
 10
12.56314355154849
 20
0.7415201134787943
 30
0.0
  0
SPLINE
  5
D1
330
1F
100
AcDbEntity
  8
0
  6
Continuous
 62
     1
370
    25
100
AcDbSpline
210
0.0
220
0.0
230
1.0
 70
     8
 71
     3
 72
    18
 73
    14
 74
     0
 42
0.000000001
 43
0.00000001
 40
0.0
 40
0.0
 40
0.0
 40
0.0
 40
0.0102253885749006
 40
0.1110297865373858
 40
0.2117200302488588
 40
0.312422609417987
 40
0.4132637026812666
 40
0.5143634540473845
 40
0.615413947339631
 40
0.7162233015230354
 40
0.8169150142715682
 40
0.9176155382334985
 40
1.0
 40
1.0
 40
1.0
 40
1.0
 10
13.09656086533973
 20
0.627623922754269
 30
0.0
 10
13.10871190530433
 20
0.6339540777596657
 30
0.0
 10
13.24065088870763
 20
0.7026884592307965
 30
0.0
 10
13.49194451368354
 20
0.7528397261139698
 30
0.0
 10
13.85061499126283
 20
0.7512663338434036
 30
0.0
 10
14.20931958926584
 20
0.637401327361942
 30
0.0
 10
14.56864980547769
 20
0.437344981449365
 30
0.0
 10
14.9288506790002
 20
0.1762424882846846
 30
0.0
 10
15.2889060869893
 20
-0.1089808135834404
 30
0.0
 10
15.64809740480322
 20
-0.380037160317365
 30
0.0
 10
16.00676064230113
 20
-0.5953155701965092
 30
0.0
 10
16.34353323963588
 20
-0.7305258639902957
 30
0.0
 10
16.56096176922873
 20
-0.7385743091540801
 30
0.0
 10
16.6588001163325
 20
-0.7421959432287558
 30
0.0
  0
SPLINE
  5
D2
330
1F
100
AcDbEntity
  8
0
  6
Continuous
 62
     1
370
    25
100
AcDbSpline
210
0.0
220
0.0
230
1.0
 70
     8
 71
     3
 72
    15
 73
    11
 74
     0
 42
0.000000001
 43
0.00000001
 40
0.0
 40
0.0
 40
0.0
 40
0.0
 40
0.0160529870034559
 40
0.1743072849726412
 40
0.3323823705143999
 40
0.490476821671457
 40
0.6487887281297893
 40
0.8075067057249578
 40
0.9661473523498768
 40
1.0
 40
1.0
 40
1.0
 40
1.0
 10
19.12814370842199
 20
0.6276239227542697
 30
0.0
 10
19.14029475051518
 20
0.6339540776918623
 30
0.0
 10
19.27223375703133
 20
0.7026884584267612
 30
0.0
 10
19.5235259904044
 20
0.752839769637873
 30
0.0
 10
19.88220267385942
 20
0.7512661796861256
 30
0.0
 10
20.2408844254605
 20
0.637401900951067
 30
0.0
 10
20.60030000867357
 20
0.4373428357688065
 30
0.0
 10
20.96018148120278
 20
0.1762505167630601
 30
0.0
 10
21.22693575479327
 20
-0.0343941495491483
 30
0.0
 10
21.37166214918456
 20
-0.1464081719669602
 30
0.0
 10
21.39711431702995
 20
-0.1661074100472492
 30
0.0
  0
LINE
  5
D3
330
1F
100
AcDbEntity
  8
0
  6
Continuous
 62
     1
370
    25
100
AcDbLine
 10
21.39711431702995
 20
-0.4999999999999982
 30
0.0
 11
21.39711431702995
 21
-0.1666696716209932
 31
0.0
  0
SPLINE
  5
D4
330
1F
100
AcDbEntity
  8
0
  6
Continuous
 62
     1
370
    25
100
AcDbSpline
210
0.0
220
0.0
230
1.0
 70
    24
 71
     3
 72
     8
 73
     4
 74
     0
 42
0.000000001
 43
0.00000001
 40
0.0
 40
0.0
 40
0.0
 40
0.0
 40
1.0
 40
1.0
 40
1.0
 40
1.0
 10
21.39711431702995
 20
-0.4999999999999982
 30
0.0
 10
21.30729481895334
 20
-0.5628922896314529
 30
0.0
 10
21.22606903602635
 20
-0.6197671951339191
 30
0.0
 10
21.15753148563994
 20
-0.6677577045649168
 30
0.0
  0
SPLINE
  5
D5
330
1F
100
AcDbEntity
  8
0
  6
Continuous
 62
     1
370
    25
100
AcDbSpline
210
0.0
220
0.0
230
1.0
 70
     8
 71
     3
 72
    18
 73
    14
 74
     0
 42
0.000000001
 43
0.00000001
 40
0.0
 40
0.0
 40
0.0
 40
0.0
 40
0.0410362366923736
 40
0.137574994528456
 40
0.2342440818854581
 40
0.3312603032572105
 40
0.432456729051187
 40
0.533415015948849
 40
0.6342589743265534
 40
0.7351152869933378
 40
0.836110325211183
 40
0.9373644164017417
 40
1.0
 40
1.0
 40
1.0
 40
1.0
 10
11.59477109951329
 20
0.6241922694842086
 30
0.0
 10
11.6434032042113
 20
0.6468235530783244
 30
0.0
 10
11.80644353336942
 20
0.7226954888986736
 30
0.0
 10
12.08387416596312
 20
0.7621795413449568
 30
0.0
 10
12.42776359407767
 20
0.7315328671116562
 30
0.0
 10
12.77779708165187
 20
0.6014771325504484
 30
0.0
 10
13.13279091943313
 20
0.3899333075727506
 30
0.0
 10
13.491962866991
 20
0.1208554360986066
 30
0.0
 10
13.85060961420188
 20
-0.1643936327250785
 30
0.0
 10
14.20932275491132
 20
-0.4280917024150103
 30
0.0
 10
14.56864250831494
 20
-0.6282940832066021
 30
0.0
 10
14.88309076684079
 20
-0.7411385196347368
 30
0.0
 10
15.0775309883548
 20
-0.738598233636566
 30
0.0
 10
15.15184242234353
 20
-0.7376273836046346
 30
0.0
  0
SPLINE
  5
D6
330
1F
100
AcDbEntity
  8
0
  6
Continuous
 62
     1
370
    25
100
AcDbSpline
210
0.0
220
0.0
230
1.0
 70
     8
 71
     3
 72
    18
 73
    14
 74
     0
 42
0.000000001
 43
0.00000001
 40
0.0
 40
0.0
 40
0.0
 40
0.0
 40
0.0410362366923738
 40
0.1375749945284562
 40
0.2342440818854584
 40
0.3312603032572107
 40
0.4324567290511874
 40
0.5334150159488495
 40
0.6342589743265541
 40
0.7351152869933384
 40
0.8361103252111838
 40
0.9373644164017425
 40
1.0
 40
1.0
 40
1.0
 40
1.0
 10
17.62635394259555
 20
0.6241922694842095
 30
0.0
 10
17.67498604729355
 20
0.6468235530783254
 30
0.0
 10
17.83802637645168
 20
0.722695488898674
 30
0.0
 10
18.11545700904539
 20
0.7621795413449579
 30
0.0
 10
18.45934643715993
 20
0.7315328671116571
 30
0.0
 10
18.80937992473413
 20
0.6014771325504489
 30
0.0
 10
19.16437376251539
 20
0.3899333075727513
 30
0.0
 10
19.52354571007325
 20
0.1208554360986074
 30
0.0
 10
19.88219245728414
 20
-0.1643936327250774
 30
0.0
 10
20.24090559799358
 20
-0.42809170241501
 30
0.0
 10
20.6002253513972
 20
-0.6282940832066011
 30
0.0
 10
20.91467360992305
 20
-0.7411385196347359
 30
0.0
 10
21.10911383143705
 20
-0.738598233636565
 30
0.0
 10
21.18342526542579
 20
-0.7376273836046338
 30
0.0
  0
SPLINE
  5
D7
330
1F
100
AcDbEntity
  8
0
  6
Continuous
 62
     1
370
    25
100
AcDbSpline
210
0.0
220
0.0
230
1.0
 70
     8
 71
     3
 72
    10
 73
     6
 74
     0
 42
0.000000001
 43
0.00000001
 40
0.0
 40
0.0
 40
0.0
 40
0.0
 40
0.3786018432571385
 40
0.7572125108508285
 40
1.0
 40
1.0
 40
1.0
 40
1.0
 10
21.15753148563993
 20
0.341466906147861
 30
0.0
 10
21.02453743091462
 20
0.4272544094415894
 30
0.0
 10
20.75854622167905
 20
0.5988314155380676
 30
0.0
 10
20.40727194793252
 20
0.7372620263337764
 30
0.0
 10
20.18897704254357
 20
0.7357369307155941
 30
0.0
 10
20.10368668337798
 20
0.7351410581146972
 30
0.0
  0
SPLINE
  5
D8
330
1F
100
AcDbEntity
  8
0
  6
Continuous
 62
     1
370
    25
100
AcDbSpline
210
0.0
220
0.0
230
1.0
 70
     8
 71
     3
 72
    18
 73
    14
 74
     0
 42
0.000000001
 43
0.00000001
 40
0.0
 40
0.0
 40
0.0
 40
0.0
 40
0.0509649627662198
 40
0.1522662714152135
 40
0.2536010685315614
 40
0.3546785035187269
 40
0.4556205729298521
 40
0.5565538099925507
 40
0.6301457764557886
 40
0.703576420049986
 40
0.8158029338039411
 40
0.9280320632993273
 40
1.0
 40
1.0
 40
1.0
 40
1.0
 10
17.62635394259555
 20
-0.6241922694842051
 30
0.0
 10
17.56599241952448
 20
-0.6513710515224801
 30
0.0
 10
17.38565236714115
 20
-0.7325721665229585
 30
0.0
 10
17.08493186910038
 20
-0.7648348817486799
 30
0.0
 10
16.72476013657355
 20
-0.7145094724151286
 30
0.0
 10
16.3654623802166
 20
-0.560530627513937
 30
0.0
 10
16.00672295628806
 20
-0.3304222687070079
 30
0.0
 10
15.68071334562642
 20
-0.0786734351823688
 30
0.0
 10
15.38667986711739
 20
0.1511841320376766
 30
0.0
 10
15.08019537754304
 20
0.3804610158237933
 30
0.0
 10
14.72689306358699
 20
0.5958709399843095
 30
0.0
 10
14.37569955618453
 20
0.7377020592614788
 30
0.0
 10
14.15739713569755
 20
0.7358605551823595
 30
0.0
 10
14.07210384029572
 20
0.7351410581146972
 30
0.0
  0
SPLINE
  5
D9
330
1F
100
AcDbEntity
  8
0
  6
Continuous
 62
     1
370
    25
100
AcDbSpline
210
0.0
220
0.0
230
1.0
 70
     8
 71
     3
 72
     9
 73
     5
 74
     0
 42
0.000000001
 43
0.00000001
 40
0.0
 40
0.0
 40
0.0
 40
0.0
 40
0.9160918366662575
 40
1.0
 40
1.0
 40
1.0
 40
1.0
 10
11.59477109951329
 20
-0.6241922694842051
 30
0.0
 10
11.53433381609135
 20
-0.6527928160622577
 30
0.0
 10
11.4683608633775
 20
-0.6840129901030315
 30
0.0
 10
11.40262969836033
 20
-0.7018968713645115
 30
0.0
 10
11.39711431702995
 20
-0.703397474994441
 30
0.0
  0
SPLINE
  5
DA
330
1F
100
AcDbEntity
  8
0
  6
Continuous
 62
     1
370
    25
100
AcDbSpline
210
0.0
220
0.0
230
1.0
 70
     8
 71
     3
 72
    10
 73
     6
 74
     0
 42
0.000000001
 43
0.00000001
 40
0.0
 40
0.0
 40
0.0
 40
0.0
 40
0.4657730243239694
 40
0.9310842591067897
 40
1.0
 40
1.0
 40
1.0
 40
1.0
 10
11.39711431702925
 20
-0.5385562623682866
 30
0.0
 10
11.51164627987443
 20
-0.5924569191390564
 30
0.0
 10
11.74059665312658
 20
-0.700204793004492
 30
0.0
 10
11.98627085379122
 20
-0.7607377349488864
 30
0.0
 10
12.11763668716891
 20
-0.7458869027888254
 30
0.0
 10
12.13458299304165
 20
-0.7439711326241005
 30
0.0
  0
SPLINE
  5
DB
330
1F
100
AcDbEntity
  8
0
  6
Continuous
 62
     1
370
    25
100
AcDbSpline
210
0.0
220
0.0
230
1.0
 70
     8
 71
     3
 72
    18
 73
    14
 74
     0
 42
0.000000001
 43
0.00000001
 40
0.0
 40
0.0
 40
0.0
 40
0.0
 40
0.0918118905352917
 40
0.1927980718260849
 40
0.2935432674772394
 40
0.3941708965645686
 40
0.4948073312575365
 40
0.5955787216635422
 40
0.6966066949517595
 40
0.7929767188393242
 40
0.8894025786110036
 40
0.9857328371966685
 40
1.0
 40
1.0
 40
1.0
 40
1.0
 10
14.60132626473384
 20
0.6266742382349506
 30
0.0
 10
14.71051390482195
 20
0.6672389031335331
 30
0.0
 10
14.93979974517981
 20
0.7524216515893202
 30
0.0
 10
15.28891110843541
 20
0.7585976885992778
 30
0.0
 10
15.64809773312827
 20
0.6677039824172282
 30
0.0
 10
16.00675432654167
 20
0.4822910030981988
 30
0.0
 10
16.36545507995694
 20
0.2307323747005092
 30
0.0
 10
16.72475791798351
 20
-0.0533148410972814
 30
0.0
 10
17.07944694041734
 20
-0.3248480063352151
 30
0.0
 10
17.42884803499287
 20
-0.5516370917056612
 30
0.0
 10
17.77215579451466
 20
-0.6965468231749494
 30
0.0
 10
18.01785435709718
 20
-0.7608396297076618
 30
0.0
 10
18.14921960568905
 20
-0.7458985453944662
 30
0.0
 10
18.16616583612391
 20
-0.7439711326241005
 30
0.0
  0
SPLINE
  5
DC
330
1F
100
AcDbEntity
  8
0
  6
Continuous
 62
     1
370
    25
100
AcDbSpline
210
0.0
220
0.0
230
1.0
 70
     8
 71
     3
 72
    10
 73
     6
 74
     0
 42
0.000000001
 43
0.00000001
 40
0.0
 40
0.0
 40
0.0
 40
0.0
 40
0.4283315535482043
 40
0.8994640797056841
 40
0.9999999999999999
 40
0.9999999999999999
 40
0.9999999999999999
 40
0.9999999999999999
 10
20.6329091078161
 20
0.6266742382349505
 30
0.0
 10
20.74202883131363
 20
0.6671706014355258
 30
0.0
 10
20.97117205193418
 20
0.7522099214573542
 30
0.0
 10
21.22693638738379
 20
0.7575648160779773
 30
0.0
 10
21.37166224379578
 20
0.7352913716083487
 30
0.0
 10
21.39711431702995
 20
0.7313742737664489
 30
0.0
  0
LINE
  5
DD
330
1F
100
AcDbEntity
  8
0
  6
Continuous
 62
     1
370
    25
100
AcDbLine
 10
21.39711431702995
 20
0.1997949506173571
 30
0.0
 11
21.39711431702995
 21
0.7313742737664488
 31
0.0
  0
SPLINE
  5
DE
330
1F
100
AcDbEntity
  8
0
  6
Continuous
 62
     1
370
    25
100
AcDbSpline
210
0.0
220
0.0
230
1.0
 70
     8
 71
     3
 72
     8
 73
     4
 74
     0
 42
0.000000001
 43
0.00000001
 40
0.0
 40
0.0
 40
0.0
 40
0.0
 40
1.0
 40
1.0
 40
1.0
 40
1.0
 10
21.39711431702995
 20
0.199794950617357
 30
0.0
 10
21.30729481895334
 20
0.2156915477424803
 30
0.0
 10
21.22606903602635
 20
0.2695069165939497
 30
0.0
 10
21.15753148563994
 20
0.3414669061478588
 30
0.0
  0
LINE
  5
DF
330
1F
100
AcDbEntity
  8
0
  6
Continuous
 62
     1
370
    25
100
AcDbLine
 10
21.39711431702995
 20
0.7313742737664488
 30
0.0
 11
21.39711431702995
 21
0.7500000000000037
 31
0.0
  0
LINE
  5
E0
330
1F
100
AcDbEntity
  8
0
  6
Continuous
 62
     1
370
    25
100
AcDbLine
 10
21.15753148563993
 20
-0.6677577045649188
 30
0.0
 11
21.11737298322208
 21
-0.6958769906811078
 31
0.0
  0
ELLIPSE
  5
E1
330
1F
100
AcDbEntity
  8
0
  6
Continuous
 62
     1
370
    25
100
AcDbEllipse
 10
21.15288662405186
 20
0.0000000000000024
 30
0.0
 11
1.041992479244971
 21
-0.4127557545313231
 31
0.0
210
0.0
220
0.0
230
1.0
 40
0.6009688174887275
 41
4.91293376291453
 42
5.176132609328194
  0
LINE
  5
E2
330
1F
100
AcDbEntity
  8
0
  6
Continuous
 62
     1
370
    25
100
AcDbLine
 10
21.39711431702995
 20
-0.7500000000000001
 30
0.0
 11
21.39711431702995
 21
-0.7446933086021935
 31
0.0
  0
ELLIPSE
  5
E3
330
1F
100
AcDbEntity
  8
0
  6
Continuous
 62
     1
370
    25
100
AcDbEllipse
 10
22.11118832040101
 20
0.0000000000000018
 30
0.0
 11
1.071111005056583
 21
0.0
 31
0.0
210
0.0
220
0.0
230
1.0
 40
0.7002075382097126
 41
2.668895638805575
 42
2.759364833374629
  0
ELLIPSE
  5
E4
330
1F
100
AcDbEntity
  8
0
  6
Continuous
 62
     1
370
    25
100
AcDbEllipse
 10
21.15288662405186
 20
0.0000000000000018
 30
0.0
 11
1.064326924485584
 21
-0.7291305528055553
 31
0.0
210
0.0
220
0.0
230
1.0
 40
0.1650759015746658
 41
1.45336835794725
 42
1.716567204360916
  0
LINE
  5
E5
330
1F
100
AcDbEntity
  8
0
  6
Continuous
 62
     1
370
    25
100
AcDbLine
 10
21.39711431702995
 20
-0.1661074100472492
 30
0.0
 11
21.39711431702995
 21
0.0890610808553142
 31
0.0
  0
LINE
  5
E6
330
1F
100
AcDbEntity
  8
0
  6
Continuous
 62
     1
370
    25
100
AcDbLine
 10
21.39711431702995
 20
0.0890610808553144
 30
0.0
 11
21.39711431702995
 21
0.1997949506173571
 31
0.0
  0
LINE
  5
E7
330
1F
100
AcDbEntity
  8
0
  6
Continuous
 62
     1
370
    25
100
AcDbLine
 10
21.39711431702995
 20
-0.4999999999999976
 30
0.0
 11
21.39711431702995
 21
-0.7446933086021935
 31
0.0
  0
LINE
  5
E8
330
1F
100
AcDbEntity
  8
중심선
100
AcDbLine
 10
-31.60288568297004
 20
-0.0000000000000026
 30
0.0
 11
22.89711431702996
 21
0.0000000000000041
 31
0.0
  0
CIRCLE
  5
E9
330
1F
100
AcDbEntity
  8
해칭선
100
AcDbCircle
 10
-0.0080841681189114
 20
-0.000000000000004
 30
0.0
 40
3.000000000000001
  0
INSERT
  5
EA
330
1F
100
AcDbEntity
  8
0
  6
Continuous
 62
     7
100
AcDbBlockReference
 66
     1
  2
블럭10
 10
-17.44814782084245
 20
-52.04717430164393
 30
0.0
  0
ATTRIB
  5
EB
330
EA
100
AcDbEntity
  8
FORMAT
 62
     2
100
AcDbText
 10
-33.56740886027801
 20
-49.97180738881174
 30
0.0
 40
4.233333333333333
  1
SEME7101510E [ 4 FLUTE ]
 41
0.75
  7
SLDTEXTSTYLE0
 11
-33.56740886027801
 21
-52.08847405547841
 31
0.0
100
AcDbAttribute
  2
AUTOATTR0
 70
     0
 74
     1
  0
SEQEND
  5
EC
330
EA
100
AcDbEntity
  8
0
  6
Continuous
 62
     7
  0
HATCH
  5
ED
330
1F
100
AcDbEntity
  8
중심선
100
AcDbHatch
 10
0.0
 20
0.0
 30
0.0
210
0.0
220
0.0
230
1.0
  2
SOLID
 70
     1
 71
     0
 91
        1
 92
        0
 93
        4
 72
     1
 10
-11.7332385164616
 20
-35.8
 11
-15.17951376029889
 21
-35.8
 72
     1
 10
-15.17951376029889
 20
-35.8
 11
-17.30774361950291
 21
-38.33632558057259
 72
     1
 10
-17.30774361950291
 20
-38.33632558057259
 11
-13.86143529055248
 21
-38.3362861512701
 72
     1
 10
-13.86143529055248
 20
-38.3362861512701
 11
-11.7332385164616
 21
-35.8
 97
        0
 75
     0
 76
     1
 98
        1
 10
0.0
 20
0.0
  0
HATCH
  5
EE
330
1F
100
AcDbEntity
  8
중심선
100
AcDbHatch
 10
0.0
 20
0.0
 30
0.0
210
0.0
220
0.0
230
1.0
  2
SOLID
 70
     1
 71
     0
 91
        1
 92
        0
 93
        4
 72
     1
 10
-6.720474525425624
 20
-35.80000000000003
 11
-10.16674976926293
 21
-35.80000000000003
 72
     1
 10
-10.16674976926293
 20
-35.80000000000003
 11
-14.69788777762032
 21
-41.20000000000002
 72
     1
 10
-14.69788777762032
 20
-41.20000000000002
 11
-11.25161253378304
 21
-41.20000000000002
 72
     1
 10
-11.25161253378304
 20
-41.20000000000002
 11
-6.720474525425624
 21
-35.80000000000003
 97
        0
 75
     0
 76
     1
 98
        1
 10
0.0
 20
0.0
  0
HATCH
  5
EF
330
1F
100
AcDbEntity
  8
중심선
100
AcDbHatch
 10
0.0
 20
0.0
 30
0.0
210
0.0
220
0.0
230
1.0
  2
SOLID
 70
     1
 71
     0
 91
        1
 92
        0
 93
        4
 72
     1
 10
-1.707710534389756
 20
-35.79999999999997
 11
-5.153985778226872
 21
-35.80000000000003
 72
     1
 10
-5.153985778226872
 20
-35.80000000000003
 11
-12.20242268011612
 21
-44.20000000000002
 72
     1
 10
-12.20242268011612
 20
-44.20000000000002
 11
-8.756147436278837
 21
-44.20000000000002
 72
     1
 10
-8.756147436278837
 20
-44.20000000000002
 11
-1.707710534389756
 21
-35.79999999999997
 97
        0
 75
     0
 76
     1
 98
        1
 10
0.0
 20
0.0
  0
HATCH
  5
F0
330
1F
100
AcDbEntity
  8
중심선
100
AcDbHatch
 10
0.0
 20
0.0
 30
0.0
210
0.0
220
0.0
230
1.0
  2
SOLID
 70
     1
 71
     0
 91
        1
 92
        0
 93
        6
 72
     3
 10
3.092179896622444
 20
-40.00000000005127
 11
3.960054785062284
 21
1.540850780301639E-10
 40
0.3939339440162633
 50
17.09539180608434
 51
320.0019657685081
 73
     0
 72
     1
 10
4.775179552323011
 20
-38.58789400463833
 11
7.080481426024077
 21
-36.65356729459038
 72
     3
 10
3.092179896569597
 20
-40.00000000000015
 11
6.600054785286829
 21
-1.249000902703301E-13
 40
0.6363583540795982
 50
39.99873849337408
 51
368.4976242363725
 73
     1
 72
     1
 10
9.517512388470205
 20
-39.03999999993002
 11
1.772247203405519
 21
-39.03999999993002
 72
     1
 10
1.772247203405519
 20
-39.03999999993002
 11
1.772222158959585
 21
-40.95999999992991
 72
     1
 10
1.772222158959585
 20
-40.95999999992991
 11
6.213601928431622
 21
-40.95999999992988
 97
        0
 75
     0
 76
     1
 98
        1
 10
0.0
 20
0.0
  0
DIMENSION
  5
F1
330
1F
100
AcDbEntity
  8
치수문자_일반주서
100
AcDbDimension
  2
_D
 10
30.1056962081062
 20
0.7500000000000391
 30
0.0
 11
30.10569620810618
 21
11.72900000000004
 31
0.0
 70
   160
  1
%%c<>
 71
     2
 42
1.500000000000011
 52
-270.0
  3
SLDDIMSTYLE0
100
AcDbAlignedDimension
 13
21.39711431702997
 23
-0.7500000000000042
 33
0.0
 14
21.39711431702997
 24
0.7500000000000069
 34
0.0
 50
90.0000000000002
100
AcDbRotatedDimension
  0
DIMENSION
  5
FF
330
1F
100
AcDbEntity
  8
치수문자_일반주서
100
AcDbDimension
  2
_D_1
 10
21.39711431702995
 20
20.38913260158165
 30
0.0
 11
-3.602885682970043
 21
20.38913260158165
 31
0.0
 70
   160
  1
<>
 71
     2
 42
50.0
  3
SLDDIMSTYLE1
100
AcDbAlignedDimension
 13
-28.60288568297004
 23
2.499999999999997
 33
0.0
 14
21.39711431702995
 24
0.7500000000000038
 34
0.0
100
AcDbRotatedDimension
  0
DIMENSION
  5
10A
330
1F
100
AcDbEntity
  8
치수문자_일반주서
100
AcDbDimension
  2
_D_2
 10
-33.69085861288288
 20
-3.000000000000023
 30
0.0
 11
-33.69085861288293
 21
12.66649999999998
 31
0.0
 70
   160
  1
%%c<>
 71
     2
 42
6.000000000000005
 52
-270.0
  3
SLDDIMSTYLE2
100
AcDbAlignedDimension
 13
-28.10288568297005
 23
3.000000000000004
 33
0.0
 14
-28.10288568297005
 24
-3.000000000000001
 34
0.0
 50
90.0000000000002
100
AcDbRotatedDimension
  0
DIMENSION
  5
118
330
1F
100
AcDbEntity
  8
치수문자_일반주서
100
AcDbDimension
  2
_D_3
 10
21.39711431702995
 20
11.54931577758209
 30
0.0
 11
16.39711431702996
 21
11.54931577758209
 31
0.0
 70
   160
  1
<>
 71
     2
 42
9.999999999999998
  3
SLDDIMSTYLE0
100
AcDbAlignedDimension
 13
11.39711431702995
 23
0.7033974749944446
 33
0.0
 14
21.39711431702995
 24
0.7500000000000038
 34
0.0
100
AcDbRotatedDimension
  0
INSERT
  5
12A
330
1F
100
AcDbEntity
  8
해칭선
100
AcDbBlockReference
  2
SW_DOWELSYMBOL_0
 10
-0.0080841681189114
 20
-0.000000000000004
 30
0.0
  0
LINE
  5
15A
330
1F
100
AcDbEntity
  8
0
  6
Continuous
 62
     4
370
    25
100
AcDbLine
 10
11.39711431702995
 20
0.703397474994445
 30
0.0
 11
11.39711431702994
 21
-0.7033974749944455
 31
0.0
  0
ENDSEC
  0
SECTION
  2
OBJECTS
  0
DICTIONARY
  5
C
330
0
100
AcDbDictionary
281
     1
  3
ACAD_GROUP
350
D
  3
ACAD_IMAGE_VARS
350
14E
  3
ACAD_LAYOUT
350
1A
  3
ACAD_MLINESTYLE
350
17
  3
ACAD_PLOTSETTINGS
350
19
  3
ACAD_PLOTSTYLENAME
350
E
  3
ACAD_SCALELIST
350
47
  3
APPDATA
350
14C
  3
DWGPROPS
350
15D
  0
DICTIONARY
  5
D
102
{ACAD_REACTORS
330
C
102
}
330
C
100
AcDbDictionary
281
     1
  0
RASTERVARIABLES
  5
14E
102
{ACAD_REACTORS
330
C
102
}
330
C
100
AcDbRasterVariables
 90
        0
 70
     1
 71
     1
 72
     1
  0
DICTIONARY
  5
1A
102
{ACAD_REACTORS
330
C
102
}
330
C
100
AcDbDictionary
281
     1
  3
Layout1
350
1E
  3
Layout2
350
26
  3
Model
350
22
  0
DICTIONARY
  5
17
102
{ACAD_REACTORS
330
C
102
}
330
C
100
AcDbDictionary
281
     1
  3
Standard
350
18
  0
DICTIONARY
  5
19
102
{ACAD_REACTORS
330
C
102
}
330
C
100
AcDbDictionary
281
     1
  0
ACDBDICTIONARYWDFLT
  5
E
102
{ACAD_REACTORS
330
C
102
}
330
C
100
AcDbDictionary
281
     1
  3
Normal
350
F
100
AcDbDictionaryWithDefault
340
F
  0
DICTIONARY
  5
47
102
{ACAD_REACTORS
330
C
102
}
330
C
100
AcDbDictionary
281
     1
  3
A0
350
48
  3
A1
350
49
  3
A2
350
4A
  3
A3
350
4B
  3
A4
350
4C
  3
A5
350
4D
  3
A6
350
4E
  3
A7
350
4F
  3
A8
350
50
  3
A9
350
51
  3
B0
350
52
  3
B1
350
53
  3
B2
350
54
  3
B3
350
55
  3
B4
350
56
  3
B5
350
57
  3
B6
350
58
  3
B7
350
59
  3
B8
350
5A
  3
B9
350
5B
  3
C0
350
5C
  3
C1
350
5D
  3
C2
350
5E
  3
C3
350
5F
  3
C4
350
60
  3
C5
350
61
  3
C6
350
62
  3
C7
350
63
  3
C8
350
64
  3
C9
350
65
  3
D0
350
66
  3
D1
350
67
  3
D2
350
68
  0
DICTIONARY
  5
14C
102
{ACAD_REACTORS
330
C
102
}
330
C
100
AcDbDictionary
281
     1
  0
XRECORD
  5
15D
102
{ACAD_REACTORS
330
C
102
}
330
C
100
AcDbXrecord
280
     1
  1
DWGPROPS COOKIE
  2

  3

  4

  6

  7

  8
12014102
  9

300
=
301
=
302
=
303
=
304
=
305
=
306
=
307
=
308
=
309
=
 40
0.0
 41
2458260.109471366
 42
2458266.429781412
  1

 90
        0
  0
LAYOUT
  5
1E
102
{ACAD_REACTORS
330
1A
102
}
330
1A
100
AcDbPlotSettings
  1

  2
none_device
  4

  6

 40
0.0
 41
0.0
 42
0.0
 43
0.0
 44
0.0
 45
0.0
 46
0.0
 47
0.0
 48
0.0
 49
0.0
140
0.0
141
0.0
142
1.0
143
1.0
 70
   688
 72
     1
 73
     0
 74
     5
  7

 75
    16
147
1.0
148
0.0
149
0.0
100
AcDbLayout
  1
Layout1
 70
     1
 71
     1
 10
0.0
 20
0.0
 11
420.0
 21
297.0
 12
0.0
 22
0.0
 32
0.0
 14
1.000000000000000E+20
 24
1.000000000000000E+20
 34
1.000000000000000E+20
 15
-1.000000000000000E+20
 25
-1.000000000000000E+20
 35
-1.000000000000000E+20
146
0.0
 13
0.0
 23
0.0
 33
0.0
 16
1.0
 26
0.0
 36
0.0
 17
0.0
 27
1.0
 37
0.0
 76
     0
330
1B
  0
LAYOUT
  5
26
102
{ACAD_REACTORS
330
1A
102
}
330
1A
100
AcDbPlotSettings
  1

  2
none_device
  4

  6

 40
0.0
 41
0.0
 42
0.0
 43
0.0
 44
0.0
 45
0.0
 46
0.0
 47
0.0
 48
0.0
 49
0.0
140
0.0
141
0.0
142
1.0
143
1.0
 70
   688
 72
     1
 73
     0
 74
     5
  7

 75
    16
147
1.0
148
0.0
149
0.0
100
AcDbLayout
  1
Layout2
 70
     1
 71
     2
 10
0.0
 20
0.0
 11
0.0
 21
0.0
 12
0.0
 22
0.0
 32
0.0
 14
0.0
 24
0.0
 34
0.0
 15
0.0
 25
0.0
 35
0.0
146
0.0
 13
0.0
 23
0.0
 33
0.0
 16
1.0
 26
0.0
 36
0.0
 17
0.0
 27
1.0
 37
0.0
 76
     0
330
23
  0
LAYOUT
  5
22
102
{ACAD_REACTORS
330
1A
102
}
330
1A
100
AcDbPlotSettings
  1

  2
none_device
  4
ANSI_A_(11.00_x_8.50_Inches)
  6

 40
6.35
 41
19.05
 42
6.35000508
 43
19.05000254
 44
279.4
 45
215.9
 46
145.0363679867488
 47
125.3847137330092
 48
0.0
 49
0.0
140
0.0
141
0.0
142
0.1112850254374007
143
1.0
 70
  1696
 72
     0
 73
     0
 74
     0
  7

 75
     0
147
0.0235690232323232
148
0.0
149
0.0
100
AcDbLayout
  1
Model
 70
     1
 71
     0
 10
0.0
 20
0.0
 11
420.0
 21
297.0
 12
0.0
 22
0.0
 32
0.0
 14
-38.06585861288293
 24
-49.97180738881174
 34
0.0
 15
35.22425780638864
 25
24.76413260158165
 35
0.0
146
0.0
 13
0.0
 23
0.0
 33
0.0
 16
1.0
 26
0.0
 36
0.0
 17
0.0
 27
1.0
 37
0.0
 76
     0
330
1F
331
29
  0
MLINESTYLE
  5
18
102
{ACAD_REACTORS
330
17
102
}
330
17
100
AcDbMlineStyle
  2
Standard
 70
     0
  3

 62
   256
 51
90.0
 52
90.0
 71
     2
 49
0.5
 62
   256
  6
BYLAYER
 49
-0.5
 62
   256
  6
BYLAYER
  0
ACDBPLACEHOLDER
  5
F
102
{ACAD_REACTORS
330
E
102
}
330
E
  0
SCALE
  5
48
102
{ACAD_REACTORS
330
47
102
}
330
47
100
AcDbScale
 70
     0
300
1:1
140
1.0
141
1.0
290
     1
  0
SCALE
  5
49
102
{ACAD_REACTORS
330
47
102
}
330
47
100
AcDbScale
 70
     0
300
1:2
140
1.0
141
2.0
290
     0
  0
SCALE
  5
4A
102
{ACAD_REACTORS
330
47
102
}
330
47
100
AcDbScale
 70
     0
300
1:4
140
1.0
141
4.0
290
     0
  0
SCALE
  5
4B
102
{ACAD_REACTORS
330
47
102
}
330
47
100
AcDbScale
 70
     0
300
1:5
140
1.0
141
5.0
290
     0
  0
SCALE
  5
4C
102
{ACAD_REACTORS
330
47
102
}
330
47
100
AcDbScale
 70
     0
300
1:8
140
1.0
141
8.0
290
     0
  0
SCALE
  5
4D
102
{ACAD_REACTORS
330
47
102
}
330
47
100
AcDbScale
 70
     0
300
1:10
140
1.0
141
10.0
290
     0
  0
SCALE
  5
4E
102
{ACAD_REACTORS
330
47
102
}
330
47
100
AcDbScale
 70
     0
300
1:16
140
1.0
141
16.0
290
     0
  0
SCALE
  5
4F
102
{ACAD_REACTORS
330
47
102
}
330
47
100
AcDbScale
 70
     0
300
1:20
140
1.0
141
20.0
290
     0
  0
SCALE
  5
50
102
{ACAD_REACTORS
330
47
102
}
330
47
100
AcDbScale
 70
     0
300
1:30
140
1.0
141
30.0
290
     0
  0
SCALE
  5
51
102
{ACAD_REACTORS
330
47
102
}
330
47
100
AcDbScale
 70
     0
300
1:40
140
1.0
141
40.0
290
     0
  0
SCALE
  5
52
102
{ACAD_REACTORS
330
47
102
}
330
47
100
AcDbScale
 70
     0
300
1:50
140
1.0
141
50.0
290
     0
  0
SCALE
  5
53
102
{ACAD_REACTORS
330
47
102
}
330
47
100
AcDbScale
 70
     0
300
1:100
140
1.0
141
100.0
290
     0
  0
SCALE
  5
54
102
{ACAD_REACTORS
330
47
102
}
330
47
100
AcDbScale
 70
     0
300
2:1
140
2.0
141
1.0
290
     0
  0
SCALE
  5
55
102
{ACAD_REACTORS
330
47
102
}
330
47
100
AcDbScale
 70
     0
300
4:1
140
4.0
141
1.0
290
     0
  0
SCALE
  5
56
102
{ACAD_REACTORS
330
47
102
}
330
47
100
AcDbScale
 70
     0
300
8:1
140
8.0
141
1.0
290
     0
  0
SCALE
  5
57
102
{ACAD_REACTORS
330
47
102
}
330
47
100
AcDbScale
 70
     0
300
10:1
140
10.0
141
1.0
290
     0
  0
SCALE
  5
58
102
{ACAD_REACTORS
330
47
102
}
330
47
100
AcDbScale
 70
     0
300
100:1
140
100.0
141
1.0
290
     0
  0
SCALE
  5
59
102
{ACAD_REACTORS
330
47
102
}
330
47
100
AcDbScale
 70
     0
300
1/128" = 1'-0"
140
0.0078125
141
12.0
290
     0
  0
SCALE
  5
5A
102
{ACAD_REACTORS
330
47
102
}
330
47
100
AcDbScale
 70
     0
300
1/64" = 1'-0"
140
0.015625
141
12.0
290
     0
  0
SCALE
  5
5B
102
{ACAD_REACTORS
330
47
102
}
330
47
100
AcDbScale
 70
     0
300
1/32" = 1'-0"
140
0.03125
141
12.0
290
     0
  0
SCALE
  5
5C
102
{ACAD_REACTORS
330
47
102
}
330
47
100
AcDbScale
 70
     0
300
1/16" = 1'-0"
140
0.0625
141
12.0
290
     0
  0
SCALE
  5
5D
102
{ACAD_REACTORS
330
47
102
}
330
47
100
AcDbScale
 70
     0
300
3/32" = 1'-0"
140
0.09375
141
12.0
290
     0
  0
SCALE
  5
5E
102
{ACAD_REACTORS
330
47
102
}
330
47
100
AcDbScale
 70
     0
300
1/8" = 1'-0"
140
0.125
141
12.0
290
     0
  0
SCALE
  5
5F
102
{ACAD_REACTORS
330
47
102
}
330
47
100
AcDbScale
 70
     0
300
3/16" = 1'-0"
140
0.1875
141
12.0
290
     0
  0
SCALE
  5
60
102
{ACAD_REACTORS
330
47
102
}
330
47
100
AcDbScale
 70
     0
300
1/4" = 1'-0"
140
0.25
141
12.0
290
     0
  0
SCALE
  5
61
102
{ACAD_REACTORS
330
47
102
}
330
47
100
AcDbScale
 70
     0
300
3/8" = 1'-0"
140
0.375
141
12.0
290
     0
  0
SCALE
  5
62
102
{ACAD_REACTORS
330
47
102
}
330
47
100
AcDbScale
 70
     0
300
1/2" = 1'-0"
140
0.5
141
12.0
290
     0
  0
SCALE
  5
63
102
{ACAD_REACTORS
330
47
102
}
330
47
100
AcDbScale
 70
     0
300
3/4" = 1'-0"
140
0.75
141
12.0
290
     0
  0
SCALE
  5
64
102
{ACAD_REACTORS
330
47
102
}
330
47
100
AcDbScale
 70
     0
300
1" = 1'-0"
140
1.0
141
12.0
290
     0
  0
SCALE
  5
65
102
{ACAD_REACTORS
330
47
102
}
330
47
100
AcDbScale
 70
     0
300
1-1/2" = 1'-0"
140
1.5
141
12.0
290
     0
  0
SCALE
  5
66
102
{ACAD_REACTORS
330
47
102
}
330
47
100
AcDbScale
 70
     0
300
3" = 1'-0"
140
3.0
141
12.0
290
     0
  0
SCALE
  5
67
102
{ACAD_REACTORS
330
47
102
}
330
47
100
AcDbScale
 70
     0
300
6" = 1'-0"
140
6.0
141
12.0
290
     0
  0
SCALE
  5
68
102
{ACAD_REACTORS
330
47
102
}
330
47
100
AcDbScale
 70
     0
300
1'-0" = 1'-0"
140
12.0
141
12.0
290
     0
  0
ENDSEC
  0
EOF
