  0
SECTION
  2
HEADER
  9
$ACADVER
  1
AC1015
  9
$ACADMAINTVER
 70
     6
  9
$DWGCODEPAGE
  3
ANSI_949
  9
$INSBASE
 10
0.0
 20
0.0
 30
0.0
  9
$EXTMIN
 10
-37.02808742506465
 20
-49.97180738881174
 30
0.0
  9
$EXTMAX
 10
38.28259113972197
 20
24.76413260158165
 30
0.0
  9
$LIMMIN
 10
0.0
 20
0.0
  9
$LIMMAX
 10
420.0
 20
297.0
  9
$ORTHOMODE
 70
     0
  9
$REGENMODE
 70
     1
  9
$FILLMODE
 70
     1
  9
$QTEXTMODE
 70
     0
  9
$MIRRTEXT
 70
     1
  9
$LTSCALE
 40
1.0
  9
$ATTMODE
 70
     1
  9
$TEXTSIZE
 40
3.5
  9
$TRACEWID
 40
1.0
  9
$TEXTSTYLE
  7
Standard
  9
$CLAYER
  8
0
  9
$CELTYPE
  6
ByLayer
  9
$CECOLOR
 62
   256
  9
$CELTSCALE
 40
1.0
  9
$DISPSILH
 70
     0
  9
$DIMSCALE
 40
1.0
  9
$DIMASZ
 40
3.302
  9
$DIMEXO
 40
1.0
  9
$DIMDLI
 40
3.75
  9
$DIMRND
 40
0.0
  9
$DIMDLE
 40
0.0
  9
$DIMEXE
 40
1.0
  9
$DIMTP
 40
0.0
  9
$DIMTM
 40
0.0
  9
$DIMTXT
 40
3.5
  9
$DIMCEN
 40
2.5
  9
$DIMTSZ
 40
0.0
  9
$DIMTOL
 70
     0
  9
$DIMLIM
 70
     0
  9
$DIMTIH
 70
     1
  9
$DIMTOH
 70
     1
  9
$DIMSE1
 70
     0
  9
$DIMSE2
 70
     0
  9
$DIMTAD
 70
     1
  9
$DIMZIN
 70
     0
  9
$DIMBLK
  1

  9
$DIMASO
 70
     1
  9
$DIMSHO
 70
     1
  9
$DIMPOST
  1

  9
$DIMAPOST
  1

  9
$DIMALT
 70
     0
  9
$DIMALTD
 70
     3
  9
$DIMALTF
 40
0.0393700787401575
  9
$DIMLFAC
 40
1.0
  9
$DIMTOFL
 70
     1
  9
$DIMTVP
 40
0.0
  9
$DIMTIX
 70
     0
  9
$DIMSOXD
 70
     0
  9
$DIMSAH
 70
     0
  9
$DIMBLK1
  1

  9
$DIMBLK2
  1

  9
$DIMSTYLE
  2
ISO-25
  9
$DIMCLRD
 70
     0
  9
$DIMCLRE
 70
     0
  9
$DIMCLRT
 70
     0
  9
$DIMTFAC
 40
1.0
  9
$DIMGAP
 40
1.524
  9
$DIMJUST
 70
     0
  9
$DIMSD1
 70
     0
  9
$DIMSD2
 70
     0
  9
$DIMTOLJ
 70
     0
  9
$DIMTZIN
 70
     0
  9
$DIMALTZ
 70
     0
  9
$DIMALTTZ
 70
     0
  9
$DIMUPT
 70
     0
  9
$DIMDEC
 70
     2
  9
$DIMTDEC
 70
     2
  9
$DIMALTU
 70
     2
  9
$DIMALTTD
 70
     3
  9
$DIMTXSTY
  7
Standard
  9
$DIMAUNIT
 70
     0
  9
$DIMADEC
 70
     2
  9
$DIMALTRND
 40
0.0
  9
$DIMAZIN
 70
     0
  9
$DIMDSEP
 70
    44
  9
$DIMATFIT
 70
     3
  9
$DIMFRAC
 70
     0
  9
$DIMLDRBLK
  1

  9
$DIMLUNIT
 70
     2
  9
$DIMLWD
 70
    -2
  9
$DIMLWE
 70
    -2
  9
$DIMTMOVE
 70
     0
  9
$LUNITS
 70
     2
  9
$LUPREC
 70
     2
  9
$SKETCHINC
 40
1.0
  9
$FILLETRAD
 40
10.0
  9
$AUNITS
 70
     0
  9
$AUPREC
 70
     2
  9
$MENU
  1
.
  9
$ELEVATION
 40
0.0
  9
$PELEVATION
 40
0.0
  9
$THICKNESS
 40
0.0
  9
$LIMCHECK
 70
     0
  9
$CHAMFERA
 40
0.0
  9
$CHAMFERB
 40
0.0
  9
$CHAMFERC
 40
0.0
  9
$CHAMFERD
 40
0.0
  9
$SKPOLY
 70
     0
  9
$TDCREATE
 40
2458260.486740058
  9
$TDUCREATE
 40
2458260.111740058
  9
$TDUPDATE
 40
2458266.811789722
  9
$TDUUPDATE
 40
2458266.436789722
  9
$TDINDWG
 40
0.0011803935
  9
$TDUSRTIMER
 40
2458266.435609352
  9
$USRTIMER
 70
     1
  9
$ANGBASE
 50
0.0
  9
$ANGDIR
 70
     0
  9
$PDMODE
 70
     0
  9
$PDSIZE
 40
-1.0
  9
$PLINEWID
 40
0.0
  9
$SPLFRAME
 70
     0
  9
$SPLINETYPE
 70
     6
  9
$SPLINESEGS
 70
     8
  9
$HANDSEED
  5
163
  9
$SURFTAB1
 70
     6
  9
$SURFTAB2
 70
     6
  9
$SURFTYPE
 70
     6
  9
$SURFU
 70
     6
  9
$SURFV
 70
     6
  9
$UCSBASE
  2

  9
$UCSNAME
  2

  9
$UCSORG
 10
0.0
 20
0.0
 30
0.0
  9
$UCSXDIR
 10
1.0
 20
0.0
 30
0.0
  9
$UCSYDIR
 10
0.0
 20
1.0
 30
0.0
  9
$UCSORTHOREF
  2

  9
$UCSORTHOVIEW
 70
     0
  9
$UCSORGTOP
 10
0.0
 20
0.0
 30
0.0
  9
$UCSORGBOTTOM
 10
0.0
 20
0.0
 30
0.0
  9
$UCSORGLEFT
 10
0.0
 20
0.0
 30
0.0
  9
$UCSORGRIGHT
 10
0.0
 20
0.0
 30
0.0
  9
$UCSORGFRONT
 10
0.0
 20
0.0
 30
0.0
  9
$UCSORGBACK
 10
0.0
 20
0.0
 30
0.0
  9
$PUCSBASE
  2

  9
$PUCSNAME
  2

  9
$PUCSORG
 10
0.0
 20
0.0
 30
0.0
  9
$PUCSXDIR
 10
1.0
 20
0.0
 30
0.0
  9
$PUCSYDIR
 10
0.0
 20
1.0
 30
0.0
  9
$PUCSORTHOREF
  2

  9
$PUCSORTHOVIEW
 70
     0
  9
$PUCSORGTOP
 10
0.0
 20
0.0
 30
0.0
  9
$PUCSORGBOTTOM
 10
0.0
 20
0.0
 30
0.0
  9
$PUCSORGLEFT
 10
0.0
 20
0.0
 30
0.0
  9
$PUCSORGRIGHT
 10
0.0
 20
0.0
 30
0.0
  9
$PUCSORGFRONT
 10
0.0
 20
0.0
 30
0.0
  9
$PUCSORGBACK
 10
0.0
 20
0.0
 30
0.0
  9
$USERI1
 70
     0
  9
$USERI2
 70
     0
  9
$USERI3
 70
     0
  9
$USERI4
 70
     0
  9
$USERI5
 70
     0
  9
$USERR1
 40
0.0
  9
$USERR2
 40
0.0
  9
$USERR3
 40
0.0
  9
$USERR4
 40
0.0
  9
$USERR5
 40
0.0
  9
$WORLDVIEW
 70
     1
  9
$SHADEDGE
 70
     3
  9
$SHADEDIF
 70
    70
  9
$TILEMODE
 70
     1
  9
$MAXACTVP
 70
    64
  9
$PINSBASE
 10
0.0
 20
0.0
 30
0.0
  9
$PLIMCHECK
 70
     0
  9
$PEXTMIN
 10
1.000000000000000E+20
 20
1.000000000000000E+20
 30
1.000000000000000E+20
  9
$PEXTMAX
 10
-1.000000000000000E+20
 20
-1.000000000000000E+20
 30
-1.000000000000000E+20
  9
$PLIMMIN
 10
0.0
 20
0.0
  9
$PLIMMAX
 10
0.0
 20
0.0
  9
$UNITMODE
 70
     0
  9
$VISRETAIN
 70
     1
  9
$PLINEGEN
 70
     0
  9
$PSLTSCALE
 70
     1
  9
$TREEDEPTH
 70
  3020
  9
$CMLSTYLE
  2
Standard
  9
$CMLJUST
 70
     0
  9
$CMLSCALE
 40
20.0
  9
$PROXYGRAPHICS
 70
     1
  9
$MEASUREMENT
 70
     1
  9
$CELWEIGHT
370
    -1
  9
$ENDCAPS
280
     0
  9
$JOINSTYLE
280
     0
  9
$LWDISPLAY
290
     1
  9
$INSUNITS
 70
     4
  9
$HYPERLINKBASE
  1

  9
$STYLESHEET
  1

  9
$XEDIT
290
     1
  9
$CEPSNTYPE
380
     0
  9
$PSTYLEMODE
290
     1
  9
$FINGERPRINTGUID
  2
{6F1BC32E-12A1-443A-9EF7-8591D00918C2}
  9
$VERSIONGUID
  2
{FAEB1C32-E019-11D5-929B-00C0DF256EC4}
  9
$EXTNAMES
290
     1
  9
$PSVPSCALE
 40
0.0
  9
$OLESTARTUP
290
     0
  0
ENDSEC
  0
SECTION
  2
CLASSES
  0
CLASS
  1
ACDBDICTIONARYWDFLT
  2
AcDbDictionaryWithDefault
  3
ObjectDBX Classes
 90
        0
280
     0
281
     0
  0
CLASS
  1
VISUALSTYLE
  2
AcDbVisualStyle
  3
ObjectDBX Classes
 90
     4095
280
     0
281
     0
  0
CLASS
  1
MATERIAL
  2
AcDbMaterial
  3
ObjectDBX Classes
 90
     1153
280
     0
281
     0
  0
CLASS
  1
SCALE
  2
AcDbScale
  3
ObjectDBX Classes
 90
     1153
280
     0
281
     0
  0
CLASS
  1
TABLESTYLE
  2
AcDbTableStyle
  3
ObjectDBX Classes
 90
     4095
280
     0
281
     0
  0
CLASS
  1
MLEADERSTYLE
  2
AcDbMLeaderStyle
  3
ACDB_MLEADERSTYLE_CLASS
 90
     4095
280
     0
281
     0
  0
CLASS
  1
SUN
  2
AcDbSun
  3
SCENEOE
 90
     1153
280
     0
281
     0
  0
CLASS
  1
ACDBPLACEHOLDER
  2
AcDbPlaceHolder
  3
ObjectDBX Classes
 90
        0
280
     0
281
     0
  0
CLASS
  1
LAYOUT
  2
AcDbLayout
  3
ObjectDBX Classes
 90
        0
280
     0
281
     0
  0
CLASS
  1
RASTERVARIABLES
  2
AcDbRasterVariables
  3
ISM
 90
        0
280
     0
281
     0
  0
ENDSEC
  0
SECTION
  2
TABLES
  0
TABLE
  2
VPORT
  5
8
330
0
100
AcDbSymbolTable
 70
     1
  0
VPORT
  5
29
330
8
100
AcDbSymbolTableRecord
100
AcDbViewportTableRecord
  2
*Active
 70
     0
 10
0.0
 20
0.0
 11
1.0
 21
1.0
 12
0.627251857328659
 22
-12.60383739361504
 13
0.0
 23
0.0
 14
10.0
 24
10.0
 15
10.0
 25
10.0
 16
0.0
 26
0.0
 36
1.0
 17
0.0
 27
0.0
 37
0.0
 40
76.23065879020126
 41
1.74031007751938
 42
50.0
 43
0.0
 44
0.0
 50
0.0
 51
0.0
 71
    16
 72
  2000
 73
     1
 74
     3
 75
     0
 76
     0
 77
     0
 78
     0
281
     0
 65
     1
110
0.0
120
0.0
130
0.0
111
1.0
121
0.0
131
0.0
112
0.0
122
1.0
132
0.0
 79
     0
146
0.0
  0
ENDTAB
  0
TABLE
  2
LTYPE
  5
5
330
0
100
AcDbSymbolTable
 70
     6
  0
LTYPE
  5
14
330
5
100
AcDbSymbolTableRecord
100
AcDbLinetypeTableRecord
  2
ByBlock
 70
     0
  3

 72
    65
 73
     0
 40
0.0
  0
LTYPE
  5
15
330
5
100
AcDbSymbolTableRecord
100
AcDbLinetypeTableRecord
  2
ByLayer
 70
     0
  3

 72
    65
 73
     0
 40
0.0
  0
LTYPE
  5
16
330
5
100
AcDbSymbolTableRecord
100
AcDbLinetypeTableRecord
  2
Continuous
 70
     0
  3
Solid line
 72
    65
 73
     0
 40
0.0
  0
LTYPE
  5
6E
330
5
100
AcDbSymbolTableRecord
100
AcDbLinetypeTableRecord
  2
HIDDEN
 70
     0
  3
Hidden __ __ __ __ __ __ __ __ __ __ __ __ __ __
 72
    65
 73
     2
 40
1.905
 49
1.27
 74
     0
 49
-0.635
 74
     0
  0
LTYPE
  5
6F
330
5
100
AcDbSymbolTableRecord
100
AcDbLinetypeTableRecord
  2
PHANTOM
 70
     0
  3
Phantom ______  __  __  ______  __  __  ______
 72
    65
 73
     6
 40
12.7
 49
6.35
 74
     0
 49
-1.27
 74
     0
 49
1.27
 74
     0
 49
-1.27
 74
     0
 49
1.27
 74
     0
 49
-1.27
 74
     0
  0
LTYPE
  5
70
330
5
100
AcDbSymbolTableRecord
100
AcDbLinetypeTableRecord
  2
CENTER
 70
     0
  3
Center ____ _ ____ _ ____ _ ____ _ ____ _ ____
 72
    65
 73
     4
 40
10.16
 49
6.35
 74
     0
 49
-1.27
 74
     0
 49
1.27
 74
     0
 49
-1.27
 74
     0
  0
LTYPE
  5
71
330
5
100
AcDbSymbolTableRecord
100
AcDbLinetypeTableRecord
  2
CENTERX2
 70
     0
  3
Center (2x) ________  __  ________  __  _____
 72
    65
 73
     4
 40
20.32
 49
12.7
 74
     0
 49
-2.54
 74
     0
 49
2.54
 74
     0
 49
-2.54
 74
     0
  0
LTYPE
  5
72
330
5
100
AcDbSymbolTableRecord
100
AcDbLinetypeTableRecord
  2
DOT2
 70
     0
  3
Dot (.5x) ........................................
 72
    65
 73
     2
 40
0.635
 49
0.0
 74
     0
 49
-0.635
 74
     0
  0
ENDTAB
  0
TABLE
  2
LAYER
  5
2
330
0
100
AcDbSymbolTable
 70
    17
  0
LAYER
  5
10
330
2
100
AcDbSymbolTableRecord
100
AcDbLayerTableRecord
  2
0
 70
     0
 62
     7
  6
Continuous
370
    -3
390
F
  0
LAYER
  5
73
330
2
100
AcDbSymbolTableRecord
100
AcDbLayerTableRecord
  2
FORMAT
 70
     0
 62
     2
  6
Continuous
370
    -3
390
F
  0
LAYER
  5
74
330
2
100
AcDbSymbolTableRecord
100
AcDbLayerTableRecord
  2
외형선
 70
     0
 62
   100
  6
Continuous
370
    35
390
F
  0
LAYER
  5
75
330
2
100
AcDbSymbolTableRecord
100
AcDbLayerTableRecord
  2
숨은선
 70
     0
 62
     2
  6
HIDDEN
370
    25
390
F
  0
LAYER
  5
76
330
2
100
AcDbSymbolTableRecord
100
AcDbLayerTableRecord
  2
중심선
 70
     0
 62
     1
  6
CENTERX2
370
    -3
390
F
  0
LAYER
  5
77
330
2
100
AcDbSymbolTableRecord
100
AcDbLayerTableRecord
  2
파단선
 70
     0
 62
     4
  6
Continuous
370
    -3
390
F
  0
LAYER
  5
78
330
2
100
AcDbSymbolTableRecord
100
AcDbLayerTableRecord
  2
해칭선
 70
     0
 62
   100
  6
Continuous
370
    -3
390
F
  0
LAYER
  5
79
330
2
100
AcDbSymbolTableRecord
100
AcDbLayerTableRecord
  2
가는실선
 70
     0
 62
     4
  6
Continuous
370
    -3
390
F
  0
LAYER
  5
7A
330
2
100
AcDbSymbolTableRecord
100
AcDbLayerTableRecord
  2
치수_보조선
 70
     0
 62
     4
  6
Continuous
370
    -3
390
F
  0
LAYER
  5
7B
330
2
100
AcDbSymbolTableRecord
100
AcDbLayerTableRecord
  2
치수문자_일반주서
 70
     0
 62
     7
  6
Continuous
370
    25
390
F
  0
LAYER
  5
7C
330
2
100
AcDbSymbolTableRecord
100
AcDbLayerTableRecord
  2
개별주서
 70
     0
 62
   100
  6
Continuous
370
    35
390
F
  0
LAYER
  5
7D
330
2
100
AcDbSymbolTableRecord
100
AcDbLayerTableRecord
  2
중간선
 70
     0
 62
     2
  6
Continuous
370
    25
390
F
  0
LAYER
  5
7E
330
2
100
AcDbSymbolTableRecord
100
AcDbLayerTableRecord
  2
윤곽선
 70
     0
 62
     3
  6
Continuous
370
    50
390
F
  0
LAYER
  5
7F
330
2
100
AcDbSymbolTableRecord
100
AcDbLayerTableRecord
  2
중심마크
 70
     0
 62
   100
  6
Continuous
370
    35
390
F
  0
LAYER
  5
80
330
2
100
AcDbSymbolTableRecord
100
AcDbLayerTableRecord
  2
가상선
 70
     0
 62
     4
  6
PHANTOM
370
    -3
390
F
  0
LAYER
  5
81
330
2
100
AcDbSymbolTableRecord
100
AcDbLayerTableRecord
  2
특수지정선
 70
     0
 62
     5
  6
CENTERX2
370
    70
390
F
  0
LAYER
  5
155
330
2
100
AcDbSymbolTableRecord
100
AcDbLayerTableRecord
  2
Defpoints
 70
     0
 62
     7
  6
Continuous
290
     0
370
    -3
390
F
  0
ENDTAB
  0
TABLE
  2
STYLE
  5
3
330
0
100
AcDbSymbolTable
 70
     2
  0
STYLE
  5
11
330
3
100
AcDbSymbolTableRecord
100
AcDbTextStyleTableRecord
  2
Standard
 70
     0
 40
0.0
 41
1.0
 50
0.0
 71
     0
 42
3.5
  3
txt
  4

  0
STYLE
  5
97
330
3
100
AcDbSymbolTableRecord
100
AcDbTextStyleTableRecord
  2
SLDTEXTSTYLE0
 70
     0
 40
0.0
 41
0.75
 50
0.0
 71
     0
 42
3.5
  3
TXT
  4

  0
ENDTAB
  0
TABLE
  2
VIEW
  5
6
330
0
100
AcDbSymbolTable
 70
     0
  0
ENDTAB
  0
TABLE
  2
UCS
  5
7
330
0
100
AcDbSymbolTable
 70
     0
  0
ENDTAB
  0
TABLE
  2
APPID
  5
9
330
0
100
AcDbSymbolTable
 70
     1
  0
APPID
  5
12
330
9
100
AcDbSymbolTableRecord
100
AcDbRegAppTableRecord
  2
ACAD
 70
     0
  0
ENDTAB
  0
TABLE
  2
DIMSTYLE
  5
A
330
0
100
AcDbSymbolTable
 70
     4
100
AcDbDimStyleTable
  0
DIMSTYLE
105
27
330
A
100
AcDbSymbolTableRecord
100
AcDbDimStyleTableRecord
  2
ISO-25
 70
     0
 41
2.5
 42
0.625
 43
3.75
 44
1.25
 73
     0
 74
     0
 77
     1
 78
     8
140
2.5
141
2.5
143
0.03937007874016
147
0.625
171
     3
172
     1
178
     0
271
     2
272
     2
274
     3
278
    44
283
     0
284
     8
340
11
  0
DIMSTYLE
105
F8
102
{ACAD_REACTORS
330
F7
102
}
330
A
100
AcDbSymbolTableRecord
100
AcDbDimStyleTableRecord
  2
SLDDIMSTYLE0
 70
     0
 41
3.302
 44
0.0
 45
0.000000001
 73
     0
 74
     0
 77
     1
 78
    12
 79
     3
140
3.5
147
0.875
172
     1
173
     1
178
     0
271
     1
272
     1
276
     2
284
    12
289
     0
340
97
  0
DIMSTYLE
105
106
102
{ACAD_REACTORS
330
105
102
}
330
A
100
AcDbSymbolTableRecord
100
AcDbDimStyleTableRecord
  2
SLDDIMSTYLE1
 70
     0
 41
3.302
 44
0.0
 45
0.000000001
 73
     0
 74
     0
 77
     1
 78
    12
 79
     3
140
3.5
147
0.875
173
     1
178
     0
271
     2
272
     2
276
     2
284
    12
340
97
  0
DIMSTYLE
105
111
102
{ACAD_REACTORS
330
110
330
11E
102
}
330
A
100
AcDbSymbolTableRecord
100
AcDbDimStyleTableRecord
  2
SLDDIMSTYLE2
 70
     0
 41
3.302
 44
0.0
 45
0.000000001
 73
     0
 74
     0
 77
     1
 78
    12
 79
     3
140
3.5
147
0.875
172
     1
173
     1
178
     0
271
     2
272
     2
276
     2
284
    12
289
     0
340
97
  0
ENDTAB
  0
TABLE
  2
BLOCK_RECORD
  5
1
330
0
100
AcDbSymbolTable
 70
     7
  0
BLOCK_RECORD
  5
1F
330
1
100
AcDbSymbolTableRecord
100
AcDbBlockTableRecord
  2
*Model_Space
340
22
  0
BLOCK_RECORD
  5
1B
330
1
100
AcDbSymbolTableRecord
100
AcDbBlockTableRecord
  2
*Paper_Space
340
1E
  0
BLOCK_RECORD
  5
23
330
1
100
AcDbSymbolTableRecord
100
AcDbBlockTableRecord
  2
*Paper_Space0
340
26
  0
BLOCK_RECORD
  5
82
330
1
100
AcDbSymbolTableRecord
100
AcDbBlockTableRecord
  2
블럭10
340
0
102
{BLKREFS
331
F0
102
}
  0
BLOCK_RECORD
  5
F9
330
1
100
AcDbSymbolTableRecord
100
AcDbBlockTableRecord
  2
_D
340
0
  0
BLOCK_RECORD
  5
107
330
1
100
AcDbSymbolTableRecord
100
AcDbBlockTableRecord
  2
_D_1
340
0
  0
BLOCK_RECORD
  5
112
330
1
100
AcDbSymbolTableRecord
100
AcDbBlockTableRecord
  2
_D_2
340
0
  0
BLOCK_RECORD
  5
11F
330
1
100
AcDbSymbolTableRecord
100
AcDbBlockTableRecord
  2
_D_3
340
0
  0
BLOCK_RECORD
  5
12A
330
1
100
AcDbSymbolTableRecord
100
AcDbBlockTableRecord
  2
SW_DOWELSYMBOL_0
340
0
102
{BLKREFS
331
130
102
}
  0
ENDTAB
  0
ENDSEC
  0
SECTION
  2
BLOCKS
  0
BLOCK
  5
20
330
1F
100
AcDbEntity
  8
0
100
AcDbBlockBegin
  2
*Model_Space
 70
     0
 10
0.0
 20
0.0
 30
0.0
  3
*Model_Space
  1

  0
ENDBLK
  5
21
330
1F
100
AcDbEntity
  8
0
100
AcDbBlockEnd
  0
BLOCK
  5
1C
330
1B
100
AcDbEntity
 67
     1
  8
0
100
AcDbBlockBegin
  2
*Paper_Space
 70
     0
 10
0.0
 20
0.0
 30
0.0
  3
*Paper_Space
  1

  0
ENDBLK
  5
1D
330
1B
100
AcDbEntity
 67
     1
  8
0
100
AcDbBlockEnd
  0
BLOCK
  5
24
330
23
100
AcDbEntity
  8
0
100
AcDbBlockBegin
  2
*Paper_Space0
 70
     0
 10
0.0
 20
0.0
 30
0.0
  3
*Paper_Space0
  1

  0
ENDBLK
  5
25
330
23
100
AcDbEntity
  8
0
100
AcDbBlockEnd
  0
BLOCK
  5
83
330
82
100
AcDbEntity
  8
0
100
AcDbBlockBegin
  2
블럭10
 70
     2
 10
0.0
 20
0.0
 30
0.0
  3
블럭10
  1

  0
ELLIPSE
  5
85
330
82
100
AcDbEntity
  8
중심선
100
AcDbEllipse
 10
20.54032771741204
 20
12.0471743016438
 30
0.0
 11
6.600054785286829
 21
-1.261213355974178E-13
 31
0.0
210
0.0
220
0.0
230
1.0
 40
0.636358354079598
 41
0.9219305317359503
 42
6.513795318482858
  0
ELLIPSE
  5
86
330
82
100
AcDbEntity
  8
중심선
100
AcDbEllipse
 10
20.54032771746488
 20
12.04717430159265
 30
0.0
 11
3.960054785062283
 21
1.540847449632565E-10
 31
0.0
210
0.0
220
0.0
230
1.0
 40
0.3939339440162632
 41
1.131841032648279
 42
5.62031148352944
  0
LINE
  5
87
330
82
100
AcDbEntity
  8
중심선
100
AcDbLine
 10
2.268634060543552
 20
16.24717430164393
 30
0.0
 11
5.714909304380834
 21
16.24717430164393
 31
0.0
  0
LINE
  5
88
330
82
100
AcDbEntity
  8
중심선
100
AcDbLine
 10
5.245725140726316
 20
7.84717430164391
 30
0.0
 11
8.692000384563599
 21
7.84717430164391
 31
0.0
  0
LINE
  5
89
330
82
100
AcDbEntity
  8
중심선
100
AcDbLine
 10
15.74043728645272
 20
16.24717430164393
 30
0.0
 11
8.692000384563599
 21
7.84717430164391
 31
0.0
  0
LINE
  5
8A
330
82
100
AcDbEntity
  8
중심선
100
AcDbLine
 10
0.1404042013395286
 20
13.71084872107135
 30
0.0
 11
3.58671253028996
 21
13.71088815037384
 31
0.0
  0
LINE
  5
8B
330
82
100
AcDbEntity
  8
중심선
100
AcDbLine
 10
2.750260043222114
 20
10.84717430164391
 30
0.0
 11
6.196535287059397
 21
10.84717430164391
 31
0.0
  0
LINE
  5
8C
330
82
100
AcDbEntity
  8
중심선
100
AcDbLine
 10
12.29416204261559
 20
16.24717430164393
 30
0.0
 11
5.245725140726316
 21
7.84717430164391
 31
0.0
  0
LINE
  5
8D
330
82
100
AcDbEntity
  8
중심선
100
AcDbLine
 10
10.72767329541681
 20
16.24717430164393
 30
0.0
 11
6.196535287059397
 21
10.84717430164391
 31
0.0
  0
LINE
  5
8E
330
82
100
AcDbEntity
  8
중심선
100
AcDbLine
 10
7.28139805157953
 20
16.24717430164393
 30
0.0
 11
2.750260043222114
 21
10.84717430164391
 31
0.0
  0
LINE
  5
8F
330
82
100
AcDbEntity
  8
중심선
100
AcDbLine
 10
5.714909304380834
 20
16.24717430164393
 30
0.0
 11
3.58671253028996
 21
13.71088815037384
 31
0.0
  0
LINE
  5
90
330
82
100
AcDbEntity
  8
중심선
100
AcDbLine
 10
2.268634060543552
 20
16.24717430164393
 30
0.0
 11
0.1404042013395286
 21
13.71084872107135
 31
0.0
  0
LINE
  5
91
330
82
100
AcDbEntity
  8
중심선
100
AcDbLine
 10
7.28139805157953
 20
16.24717430164393
 30
0.0
 11
10.72767329541681
 21
16.24717430164393
 31
0.0
  0
LINE
  5
92
330
82
100
AcDbEntity
  8
중심선
100
AcDbLine
 10
12.29416204261559
 20
16.24717430164393
 30
0.0
 11
15.74043728645272
 21
16.24717430164393
 31
0.0
  0
LINE
  5
93
330
82
100
AcDbEntity
  8
중심선
100
AcDbLine
 10
19.22036997980202
 20
11.08717430171403
 30
0.0
 11
23.66174974927406
 21
11.08717430171406
 31
0.0
  0
LINE
  5
94
330
82
100
AcDbEntity
  8
중심선
100
AcDbLine
 10
19.22039502424796
 20
13.00717430171391
 30
0.0
 11
19.22036997980202
 21
11.08717430171403
 31
0.0
  0
LINE
  5
95
330
82
100
AcDbEntity
  8
중심선
100
AcDbLine
 10
19.22039502424796
 20
13.00717430171391
 30
0.0
 11
26.96566020931264
 21
13.00717430171391
 31
0.0
  0
LINE
  5
96
330
82
100
AcDbEntity
  8
중심선
100
AcDbLine
 10
22.22332737316547
 20
13.45928029700563
 30
0.0
 11
24.52862924686651
 21
15.39360700705356
 31
0.0
  0
ATTDEF
  5
98
330
82
100
AcDbEntity
  8
FORMAT
 62
     2
100
AcDbText
 10
-16.11926103943555
 20
2.075366912832191
 30
0.0
 40
4.233333333333333
  1
SEME7102012E [ 4 FLUTE ]
 41
0.75
  7
SLDTEXTSTYLE0
 11
-16.11926103943555
 21
-0.0412997538344756
 31
0.0
100
AcDbAttributeDefinition
  3

  2
AUTOATTR0
 70
     0
 74
     1
  0
ENDBLK
  5
84
330
82
100
AcDbEntity
  8
0
100
AcDbBlockEnd
  0
BLOCK
  5
FA
330
F9
100
AcDbEntity
  8
0
100
AcDbBlockBegin
  2
_D
 70
     0
 10
0.0
 20
0.0
 30
0.0
  3
_D
  1

  0
LINE
  5
FC
330
F9
100
AcDbEntity
  8
치수문자_일반주서
 62
     0
370
    -2
100
AcDbLine
 10
22.52660161513775
 20
-1.000000000000004
 30
0.0
 11
31.77250467310349
 21
-0.999999999999968
 31
0.0
  0
LINE
  5
FD
330
F9
100
AcDbEntity
  8
치수문자_일반주서
 62
     0
370
    -2
100
AcDbLine
 10
22.52660161513775
 20
1.000000000000007
 30
0.0
 11
31.77250467310349
 21
1.000000000000043
 31
0.0
  0
LINE
  5
FE
330
F9
100
AcDbEntity
  8
치수문자_일반주서
 62
     0
370
    -2
100
AcDbLine
 10
31.77250467310349
 20
-0.999999999999968
 30
0.0
 11
31.77250467310344
 21
13.72900000000005
 31
0.0
  0
LINE
  5
FF
330
F9
100
AcDbEntity
  8
치수문자_일반주서
 62
     0
370
    -2
100
AcDbLine
 10
31.77250467310349
 20
-0.999999999999968
 30
0.0
 11
31.77250467310349
 21
1.000000000000043
 31
0.0
  0
LINE
  5
100
330
F9
100
AcDbEntity
  8
치수문자_일반주서
 62
     0
370
    -2
100
AcDbLine
 10
31.77250467310351
 20
-4.301999999999968
 30
0.0
 11
31.77250467310352
 21
-7.603999999999967
 31
0.0
  0
LINE
  5
101
330
F9
100
AcDbEntity
  8
치수문자_일반주서
 62
     0
370
    -2
100
AcDbLine
 10
31.77250467310348
 20
4.302000000000042
 30
0.0
 11
31.77250467310347
 21
7.604000000000042
 31
0.0
  0
SOLID
  5
102
330
F9
100
AcDbEntity
  8
치수문자_일반주서
 62
     0
100
AcDbTrace
 10
32.32283800643684
 20
-4.301999999999966
 30
0.0
 11
31.22217133977017
 21
-4.301999999999969
 31
0.0
 12
31.77250467310349
 22
-0.999999999999968
 32
0.0
 13
31.77250467310349
 23
-0.999999999999968
 33
0.0
  0
SOLID
  5
103
330
F9
100
AcDbEntity
  8
치수문자_일반주서
 62
     0
100
AcDbTrace
 10
31.22217133977014
 20
4.30200000000004
 30
0.0
 11
32.32283800643681
 21
4.302000000000044
 31
0.0
 12
31.77250467310349
 22
1.000000000000043
 32
0.0
 13
31.77250467310349
 23
1.000000000000043
 33
0.0
  0
MTEXT
  5
104
330
F9
100
AcDbEntity
  8
치수문자_일반주서
 62
     0
100
AcDbMText
 10
27.39750467310345
 20
10.66650000000003
 30
0.0
 40
3.5
 41
0.0
 71
     2
 72
     1
  1
\A1;%%c2
  7
SLDTEXTSTYLE0
 11
-3.552713678800482E-15
 21
1.0
 31
0.0
 73
     1
 44
1.0
  0
POINT
  5
15D
330
F9
100
AcDbEntity
  8
Defpoints
 62
     0
100
AcDbPoint
 10
22.46410161513775
 20
-1.000000000000004
 30
0.0
  0
POINT
  5
15E
330
F9
100
AcDbEntity
  8
Defpoints
 62
     0
100
AcDbPoint
 10
22.46410161513775
 20
1.000000000000007
 30
0.0
  0
POINT
  5
15F
330
F9
100
AcDbEntity
  8
Defpoints
 62
     0
100
AcDbPoint
 10
31.77250467310349
 20
1.000000000000042
 30
0.0
  0
ENDBLK
  5
FB
330
F9
100
AcDbEntity
  8
0
100
AcDbBlockEnd
  0
BLOCK
  5
108
330
107
100
AcDbEntity
  8
0
100
AcDbBlockBegin
  2
_D_1
 70
     0
 10
0.0
 20
0.0
 30
0.0
  3
_D_1
  1

  0
LINE
  5
10A
330
107
100
AcDbEntity
  8
치수문자_일반주서
 62
     0
370
    -2
100
AcDbLine
 10
-27.53589838486226
 20
2.562499999999997
 30
0.0
 11
-27.53589838486226
 21
20.38913260158165
 31
0.0
  0
LINE
  5
10B
330
107
100
AcDbEntity
  8
치수문자_일반주서
 62
     0
370
    -2
100
AcDbLine
 10
22.46410161513774
 20
1.062500000000004
 30
0.0
 11
22.46410161513774
 21
20.38913260158165
 31
0.0
  0
LINE
  5
10C
330
107
100
AcDbEntity
  8
치수문자_일반주서
 62
     0
370
    -2
100
AcDbLine
 10
-24.23389838486226
 20
20.38913260158165
 30
0.0
 11
19.16210161513774
 21
20.38913260158165
 31
0.0
  0
SOLID
  5
10D
330
107
100
AcDbEntity
  8
치수문자_일반주서
 62
     0
100
AcDbTrace
 10
-24.23389838486226
 20
20.93946593491498
 30
0.0
 11
-24.23389838486226
 21
19.83879926824831
 31
0.0
 12
-27.53589838486226
 22
20.38913260158165
 32
0.0
 13
-27.53589838486226
 23
20.38913260158165
 33
0.0
  0
SOLID
  5
10E
330
107
100
AcDbEntity
  8
치수문자_일반주서
 62
     0
100
AcDbTrace
 10
19.16210161513774
 20
19.83879926824831
 30
0.0
 11
19.16210161513774
 21
20.93946593491498
 31
0.0
 12
22.46410161513774
 22
20.38913260158165
 32
0.0
 13
22.46410161513774
 23
20.38913260158165
 33
0.0
  0
MTEXT
  5
10F
330
107
100
AcDbEntity
  8
치수문자_일반주서
 62
     0
100
AcDbMText
 10
-2.535898384862258
 20
24.76413260158165
 30
0.0
 40
3.5
 41
0.0
 71
     2
 72
     1
  1
\A1;50
  7
SLDTEXTSTYLE0
 73
     1
 44
1.0
  0
POINT
  5
156
330
107
100
AcDbEntity
  8
Defpoints
 62
     0
100
AcDbPoint
 10
-27.53589838486226
 20
2.499999999999997
 30
0.0
  0
POINT
  5
157
330
107
100
AcDbEntity
  8
Defpoints
 62
     0
100
AcDbPoint
 10
22.46410161513774
 20
1.000000000000004
 30
0.0
  0
POINT
  5
158
330
107
100
AcDbEntity
  8
Defpoints
 62
     0
100
AcDbPoint
 10
22.46410161513774
 20
20.38913260158165
 30
0.0
  0
ENDBLK
  5
109
330
107
100
AcDbEntity
  8
0
100
AcDbBlockEnd
  0
BLOCK
  5
113
330
112
100
AcDbEntity
  8
0
100
AcDbBlockBegin
  2
_D_2
 70
     0
 10
0.0
 20
0.0
 30
0.0
  3
_D_2
  1

  0
LINE
  5
115
330
112
100
AcDbEntity
  8
치수문자_일반주서
 62
     0
370
    -2
100
AcDbLine
 10
-27.09839838486227
 20
3.000000000000004
 30
0.0
 11
-32.65308742506461
 21
2.999999999999984
 31
0.0
  0
LINE
  5
116
330
112
100
AcDbEntity
  8
치수문자_일반주서
 62
     0
370
    -2
100
AcDbLine
 10
-27.09839838486227
 20
-3.000000000000001
 30
0.0
 11
-32.65308742506459
 21
-3.000000000000023
 31
0.0
  0
LINE
  5
117
330
112
100
AcDbEntity
  8
치수문자_일반주서
 62
     0
370
    -2
100
AcDbLine
 10
-32.65308742506461
 20
2.999999999999984
 30
0.0
 11
-32.65308742506466
 21
15.72899999999998
 31
0.0
  0
LINE
  5
118
330
112
100
AcDbEntity
  8
치수문자_일반주서
 62
     0
370
    -2
100
AcDbLine
 10
-32.65308742506461
 20
2.999999999999984
 30
0.0
 11
-32.65308742506459
 21
-3.000000000000023
 31
0.0
  0
LINE
  5
119
330
112
100
AcDbEntity
  8
치수문자_일반주서
 62
     0
370
    -2
100
AcDbLine
 10
-32.65308742506463
 20
6.301999999999984
 30
0.0
 11
-32.65308742506464
 21
9.603999999999983
 31
0.0
  0
LINE
  5
11A
330
112
100
AcDbEntity
  8
치수문자_일반주서
 62
     0
370
    -2
100
AcDbLine
 10
-32.65308742506458
 20
-6.302000000000023
 30
0.0
 11
-32.65308742506456
 21
-9.604000000000022
 31
0.0
  0
SOLID
  5
11B
330
112
100
AcDbEntity
  8
치수문자_일반주서
 62
     0
100
AcDbTrace
 10
-33.20342075839796
 20
6.301999999999982
 30
0.0
 11
-32.10275409173129
 21
6.301999999999985
 31
0.0
 12
-32.65308742506461
 22
2.999999999999984
 32
0.0
 13
-32.65308742506461
 23
2.999999999999984
 33
0.0
  0
SOLID
  5
11C
330
112
100
AcDbEntity
  8
치수문자_일반주서
 62
     0
100
AcDbTrace
 10
-32.10275409173124
 20
-6.302000000000021
 30
0.0
 11
-33.20342075839791
 21
-6.302000000000024
 31
0.0
 12
-32.65308742506459
 22
-3.000000000000023
 32
0.0
 13
-32.65308742506459
 23
-3.000000000000023
 33
0.0
  0
MTEXT
  5
11D
330
112
100
AcDbEntity
  8
치수문자_일반주서
 62
     0
100
AcDbMText
 10
-37.02808742506465
 20
12.66649999999997
 30
0.0
 40
3.5
 41
0.0
 71
     2
 72
     1
  1
\A1;%%c6
  7
SLDTEXTSTYLE0
 11
-3.552713678800498E-15
 21
1.0
 31
0.0
 73
     1
 44
1.0
  0
POINT
  5
15A
330
112
100
AcDbEntity
  8
Defpoints
 62
     0
100
AcDbPoint
 10
-27.03589838486227
 20
3.000000000000004
 30
0.0
  0
POINT
  5
15B
330
112
100
AcDbEntity
  8
Defpoints
 62
     0
100
AcDbPoint
 10
-27.03589838486227
 20
-3.000000000000001
 30
0.0
  0
POINT
  5
15C
330
112
100
AcDbEntity
  8
Defpoints
 62
     0
100
AcDbPoint
 10
-32.6530874250646
 20
-3.000000000000022
 30
0.0
  0
ENDBLK
  5
114
330
112
100
AcDbEntity
  8
0
100
AcDbBlockEnd
  0
BLOCK
  5
120
330
11F
100
AcDbEntity
  8
0
100
AcDbBlockBegin
  2
_D_3
 70
     0
 10
0.0
 20
0.0
 30
0.0
  3
_D_3
  1

  0
LINE
  5
122
330
11F
100
AcDbEntity
  8
치수문자_일반주서
 62
     0
370
    -2
100
AcDbLine
 10
10.46410161513774
 20
1.025396108206495
 30
0.0
 11
10.46410161513774
 21
11.80881441079415
 31
0.0
  0
LINE
  5
123
330
11F
100
AcDbEntity
  8
치수문자_일반주서
 62
     0
370
    -2
100
AcDbLine
 10
22.46410161513774
 20
1.062500000000004
 30
0.0
 11
22.46410161513774
 21
11.80881441079415
 31
0.0
  0
LINE
  5
124
330
11F
100
AcDbEntity
  8
치수문자_일반주서
 62
     0
370
    -2
100
AcDbLine
 10
13.76610161513774
 20
11.80881441079415
 30
0.0
 11
19.16210161513774
 21
11.80881441079415
 31
0.0
  0
SOLID
  5
125
330
11F
100
AcDbEntity
  8
치수문자_일반주서
 62
     0
100
AcDbTrace
 10
13.76610161513774
 20
12.35914774412748
 30
0.0
 11
13.76610161513774
 21
11.25848107746081
 31
0.0
 12
10.46410161513774
 22
11.80881441079415
 32
0.0
 13
10.46410161513774
 23
11.80881441079415
 33
0.0
  0
SOLID
  5
126
330
11F
100
AcDbEntity
  8
치수문자_일반주서
 62
     0
100
AcDbTrace
 10
19.16210161513774
 20
11.25848107746081
 30
0.0
 11
19.16210161513774
 21
12.35914774412748
 31
0.0
 12
22.46410161513774
 22
11.80881441079415
 32
0.0
 13
22.46410161513774
 23
11.80881441079415
 33
0.0
  0
MTEXT
  5
127
330
11F
100
AcDbEntity
  8
치수문자_일반주서
 62
     0
100
AcDbMText
 10
16.46410161513774
 20
16.18381441079415
 30
0.0
 40
3.5
 41
0.0
 71
     2
 72
     1
  1
\A1;12
  7
SLDTEXTSTYLE0
 73
     1
 44
1.0
  0
POINT
  5
128
330
11F
100
AcDbEntity
  8
Defpoints
 62
     0
100
AcDbPoint
 10
10.46410161513774
 20
0.9628961082064946
 30
0.0
  0
POINT
  5
129
330
11F
100
AcDbEntity
  8
Defpoints
 62
     0
100
AcDbPoint
 10
22.46410161513774
 20
1.000000000000004
 30
0.0
  0
POINT
  5
159
330
11F
100
AcDbEntity
  8
Defpoints
 62
     0
100
AcDbPoint
 10
22.46410161513774
 20
11.80881441079415
 30
0.0
  0
ENDBLK
  5
121
330
11F
100
AcDbEntity
  8
0
100
AcDbBlockEnd
  0
BLOCK
  5
12B
330
12A
100
AcDbEntity
  8
0
100
AcDbBlockBegin
  2
SW_DOWELSYMBOL_0
 70
     0
 10
0.0
 20
0.0
 30
0.0
  3
SW_DOWELSYMBOL_0
  1

  0
CIRCLE
  5
12D
330
12A
100
AcDbEntity
  8
해칭선
 62
     0
100
AcDbCircle
 10
0.0
 20
0.0
 30
0.0
 40
3.000000000000001
  0
HATCH
  5
12E
330
12A
100
AcDbEntity
  8
0
  6
Continuous
 62
     0
370
    18
100
AcDbHatch
 10
0.0
 20
0.0
 30
0.0
210
0.0
220
0.0
230
1.0
  2
SOLID
 70
     1
 71
     0
 91
        1
 92
        0
 93
        3
 72
     2
 10
0.0
 20
0.0
 40
3.000000000000001
 50
0.0
 51
90.0
 73
     1
 72
     1
 10
0.0
 20
3.000000000000001
 11
0.0
 21
0.0
 72
     1
 10
0.0
 20
0.0
 11
3.000000000000001
 21
0.0
 97
        0
 75
     0
 76
     1
 98
        1
 10
0.0
 20
0.0
  0
HATCH
  5
12F
330
12A
100
AcDbEntity
  8
0
  6
Continuous
 62
     0
370
    18
100
AcDbHatch
 10
0.0
 20
0.0
 30
0.0
210
0.0
220
0.0
230
1.0
  2
SOLID
 70
     1
 71
     0
 91
        1
 92
        0
 93
        3
 72
     2
 10
0.0
 20
0.0
 40
3.000000000000001
 50
180.0
 51
270.0000000000008
 73
     1
 72
     1
 10
0.0
 20
-3.000000000000001
 11
0.0
 21
0.0
 72
     1
 10
0.0
 20
0.0
 11
-3.000000000000001
 21
0.0
 97
        0
 75
     0
 76
     1
 98
        1
 10
0.0
 20
0.0
  0
ENDBLK
  5
12C
330
12A
100
AcDbEntity
  8
0
100
AcDbBlockEnd
  0
ENDSEC
  0
SECTION
  2
ENTITIES
  0
LINE
  5
99
330
1F
100
AcDbEntity
  8
0
  6
Continuous
 62
     4
370
    25
100
AcDbLine
 10
2.0
 20
3.0
 30
0.0
 11
-27.03589838486226
 21
2.999999999999998
 31
0.0
  0
LINE
  5
9A
330
1F
100
AcDbEntity
  8
0
  6
Continuous
 62
     4
370
    25
100
AcDbLine
 10
-27.03589838486226
 20
-2.999999999999999
 30
0.0
 11
2.0
 21
-2.999999999999997
 31
0.0
  0
LINE
  5
9B
330
1F
100
AcDbEntity
  8
0
  6
Continuous
 62
     4
370
    25
100
AcDbLine
 10
2.0
 20
-2.999999999999998
 30
0.0
 11
8.96409942575252
 21
-1.133975182859561
 31
0.0
  0
LINE
  5
9C
330
1F
100
AcDbEntity
  8
0
  6
Continuous
 62
     4
370
    25
100
AcDbLine
 10
8.96409942575252
 20
1.133975182859564
 30
0.0
 11
2.0
 21
3.000000000000001
 31
0.0
  0
LINE
  5
9D
330
1F
100
AcDbEntity
  8
0
  6
Continuous
 62
     4
370
    25
100
AcDbLine
 10
-27.03589838486226
 20
2.999999999999997
 30
0.0
 11
-27.53589838486226
 21
2.499999999999996
 31
0.0
  0
LINE
  5
9E
330
1F
100
AcDbEntity
  8
0
  6
Continuous
 62
     4
370
    25
100
AcDbLine
 10
-27.53589838486226
 20
-2.499999999999998
 30
0.0
 11
-27.03589838486226
 21
-2.999999999999998
 31
0.0
  0
LINE
  5
9F
330
1F
100
AcDbEntity
  8
0
  6
Continuous
 62
     4
370
    25
100
AcDbLine
 10
10.11533511373362
 20
-0.9999999999999982
 30
0.0
 11
10.46410161513774
 21
-0.9999999999999982
 31
0.0
  0
LINE
  5
A0
330
1F
100
AcDbEntity
  8
0
  6
Continuous
 62
     4
370
    25
100
AcDbLine
 10
10.46410161513774
 20
1.000000000000002
 30
0.0
 11
10.11533511373362
 21
1.000000000000002
 31
0.0
  0
LINE
  5
A1
330
1F
100
AcDbEntity
  8
0
  6
Continuous
 62
     1
370
    25
100
AcDbLine
 10
20.16774858794451
 20
-0.9999999999999993
 30
0.0
 11
20.73915981297612
 21
-0.9999999999999993
 31
0.0
  0
LINE
  5
A2
330
1F
100
AcDbEntity
  8
0
  6
Continuous
 62
     1
370
    25
100
AcDbLine
 10
12.1256381305015
 20
-0.9999999999999993
 30
0.0
 11
12.69704935553311
 21
-0.9999999999999993
 31
0.0
  0
LINE
  5
A3
330
1F
100
AcDbEntity
  8
0
  6
Continuous
 62
     1
370
    25
100
AcDbLine
 10
16.71859565775909
 20
1.000000000000003
 30
0.0
 11
16.14674818796615
 21
1.000000000000003
 31
0.0
  0
LINE
  5
A4
330
1F
100
AcDbEntity
  8
0
  6
Continuous
 62
     1
370
    25
100
AcDbLine
 10
18.44610800820339
 20
-0.2163486156530942
 30
0.0
 11
18.34250695968447
 21
-0.1435685637815701
 31
0.0
  0
LINE
  5
A5
330
1F
100
AcDbEntity
  8
0
  6
Continuous
 62
     4
370
    25
100
AcDbLine
 10
12.47489390398612
 20
0.1705010490916638
 30
0.0
 11
12.5154841887806
 21
0.1421680592253695
 31
0.0
  0
SPLINE
  5
A6
330
1F
100
AcDbEntity
  8
0
  6
Continuous
 62
     1
370
    25
100
AcDbSpline
210
0.0
220
0.0
230
1.0
 70
     8
 71
     3
 72
     9
 73
     5
 74
     0
 42
0.000000001
 43
0.00000001
 40
0.0
 40
0.0
 40
0.0
 40
0.0
 40
0.3306077544952662
 40
0.9999999999999999
 40
0.9999999999999999
 40
0.9999999999999999
 40
0.9999999999999999
 10
14.39497969522371
 20
-0.2004689904917178
 30
0.0
 10
14.37646861656582
 20
-0.1877985837473172
 30
0.0
 10
14.32047755644637
 20
-0.1494739934371344
 30
0.0
 10
14.28057377222237
 20
-0.1145651629123122
 30
0.0
 10
14.25386248849652
 20
-0.0911974624593573
 30
0.0
  0
LINE
  5
A7
330
1F
100
AcDbEntity
  8
0
  6
Continuous
 62
     4
370
    25
100
AcDbLine
 10
22.31108938636845
 20
-0.1032429970535211
 30
0.0
 11
22.29597294593954
 21
-0.0911974624593571
 31
0.0
  0
SPLINE
  5
A8
330
1F
100
AcDbEntity
  8
0
  6
Continuous
 62
     1
370
    25
100
AcDbSpline
210
0.0
220
0.0
230
1.0
 70
     8
 71
     3
 72
     9
 73
     5
 74
     0
 42
0.000000001
 43
0.00000001
 40
0.0
 40
0.0
 40
0.0
 40
0.0
 40
0.5493952320434495
 40
0.9999999999999999
 40
0.9999999999999999
 40
0.9999999999999999
 40
0.9999999999999999
 10
22.46410161513774
 20
-0.2226300535713981
 30
0.0
 10
22.43643629153305
 20
-0.2016644956284503
 30
0.0
 10
22.38608033285138
 20
-0.1635033381954537
 30
0.0
 10
22.33438400030136
 20
-0.1219618084327874
 30
0.0
 10
22.31108938636845
 20
-0.1032429970535211
 30
0.0
  0
LINE
  5
A9
330
1F
100
AcDbEntity
  8
0
  6
Continuous
 62
     1
370
    25
100
AcDbLine
 10
20.51700436142913
 20
0.1705010490916668
 30
0.0
 11
20.55759464622362
 21
0.14216805922537
 31
0.0
  0
LINE
  5
AA
330
1F
100
AcDbEntity
  8
0
  6
Continuous
 62
     1
370
    25
100
AcDbLine
 10
14.39751422757962
 20
0.2379328422718312
 30
0.0
 11
14.42199115769473
 21
0.2221798123648678
 31
0.0
  0
LINE
  5
AB
330
1F
100
AcDbEntity
  8
0
  6
Continuous
 62
     4
370
    25
100
AcDbLine
 10
14.57445365995317
 20
0.1036559617241142
 30
0.0
 11
14.59011982692405
 21
0.091197462435248
 31
0.0
  0
SPLINE
  5
AC
330
1F
100
AcDbEntity
  8
0
  6
Continuous
 62
     1
370
    25
100
AcDbSpline
210
0.0
220
0.0
230
1.0
 70
     8
 71
     3
 72
     9
 73
     5
 74
     0
 42
0.000000001
 43
0.00000001
 40
0.0
 40
0.0
 40
0.0
 40
0.0
 40
0.549936213543394
 40
1.0
 40
1.0
 40
1.0
 40
1.0
 10
14.42199115771775
 20
0.222179812348718
 30
0.0
 10
14.44970089540691
 20
0.2013003977504715
 30
0.0
 10
14.50008808033262
 20
0.1633334225194452
 30
0.0
 10
14.55137243093507
 20
0.1221783634436237
 30
0.0
 10
14.57445365995317
 20
0.1036559617241142
 30
0.0
  0
LINE
  5
AD
330
1F
100
AcDbEntity
  8
0
  6
Continuous
 62
     1
370
    25
100
AcDbLine
 10
16.35369707826839
 20
-0.1596607803651557
 30
0.0
 11
16.32849812660882
 21
-0.142168059225346
 31
0.0
  0
LINE
  5
AE
330
1F
100
AcDbEntity
  8
0
  6
Continuous
 62
     1
370
    25
100
AcDbLine
 10
18.15691553346221
 20
-0.9999999999999993
 30
0.0
 11
18.72800563095422
 21
-0.9999999999999993
 31
0.0
  0
LINE
  5
AF
330
1F
100
AcDbEntity
  8
0
  6
Continuous
 62
     1
370
    25
100
AcDbLine
 10
10.46410161513774
 20
-0.9999999999999993
 30
0.0
 11
10.6858951735112
 21
-0.9999999999999993
 31
0.0
  0
LINE
  5
B0
330
1F
100
AcDbEntity
  8
0
  6
Continuous
 62
     1
370
    25
100
AcDbLine
 10
14.7084716377493
 20
1.000000000000003
 30
0.0
 11
14.13510881697662
 21
1.000000000000003
 31
0.0
  0
LINE
  5
B1
330
1F
100
AcDbEntity
  8
0
  6
Continuous
 62
     1
370
    25
100
AcDbLine
 10
22.46410161513774
 20
1.000000000000003
 30
0.0
 11
22.17740473935265
 21
1.000000000000003
 31
0.0
  0
LINE
  5
B2
330
1F
100
AcDbEntity
  8
0
  6
Continuous
 62
     1
370
    25
100
AcDbLine
 10
22.17740473935265
 20
-0.9999999999999993
 30
0.0
 11
22.46410161513774
 21
-0.9999999999999993
 31
0.0
  0
LINE
  5
B3
330
1F
100
AcDbEntity
  8
0
  6
Continuous
 62
     1
370
    25
100
AcDbLine
 10
14.13510881697662
 20
-0.9999999999999993
 30
0.0
 11
14.70847163774931
 21
-0.9999999999999993
 31
0.0
  0
LINE
  5
B4
330
1F
100
AcDbEntity
  8
0
  6
Continuous
 62
     1
370
    25
100
AcDbLine
 10
10.68589517351121
 20
1.000000000000003
 30
0.0
 11
10.46410161513773
 21
1.000000000000003
 31
0.0
  0
LINE
  5
B5
330
1F
100
AcDbEntity
  8
0
  6
Continuous
 62
     1
370
    25
100
AcDbLine
 10
18.72800563095423
 20
1.000000000000003
 30
0.0
 11
18.15691553346221
 21
1.000000000000003
 31
0.0
  0
LINE
  5
B6
330
1F
100
AcDbEntity
  8
0
  6
Continuous
 62
     1
370
    25
100
AcDbLine
 10
16.14674818796616
 20
-0.9999999999999993
 30
0.0
 11
16.71859565775909
 21
-0.9999999999999993
 31
0.0
  0
LINE
  5
B7
330
1F
100
AcDbEntity
  8
0
  6
Continuous
 62
     1
370
    25
100
AcDbLine
 10
12.69704935553311
 20
1.000000000000003
 30
0.0
 11
12.12563813050151
 21
1.000000000000003
 31
0.0
  0
LINE
  5
B8
330
1F
100
AcDbEntity
  8
0
  6
Continuous
 62
     1
370
    25
100
AcDbLine
 10
20.73915981297612
 20
1.000000000000003
 30
0.0
 11
20.16774858794453
 21
1.000000000000003
 31
0.0
  0
LINE
  5
B9
330
1F
100
AcDbEntity
  8
0
  6
Continuous
 62
     4
370
    25
100
AcDbLine
 10
2.0
 20
3.000000000000001
 30
0.0
 11
2.0
 21
-3.0
 31
0.0
  0
LINE
  5
BA
330
1F
100
AcDbEntity
  8
0
  6
Continuous
 62
     4
370
    25
100
AcDbLine
 10
-27.03589838486226
 20
2.999999999999997
 30
0.0
 11
-27.03589838486226
 21
-3.0
 31
0.0
  0
SPLINE
  5
BB
330
1F
100
AcDbEntity
  8
0
  6
Continuous
 62
     4
370
    25
100
AcDbSpline
210
0.0
220
0.0
230
1.0
 70
     8
 71
     3
 72
     8
 73
     4
 74
     0
 42
0.000000001
 43
0.00000001
 40
0.0
 40
0.0
 40
0.0
 40
0.0
 40
1.0
 40
1.0
 40
1.0
 40
1.0
 10
9.291273102807256
 20
-0.8341478435882618
 30
0.0
 10
9.348217306725937
 20
-0.8510420602357777
 30
0.0
 10
9.405806729654671
 20
-0.8641842956308442
 30
0.0
 10
9.464101615137736
 20
-0.8736470676914685
 30
0.0
  0
SPLINE
  5
BC
330
1F
100
AcDbEntity
  8
0
  6
Continuous
 62
     4
370
    25
100
AcDbSpline
210
0.0
220
0.0
230
1.0
 70
     8
 71
     3
 72
    12
 73
     8
 74
     0
 42
0.000000001
 43
0.00000001
 40
0.0
 40
0.0
 40
0.0
 40
0.0
 40
0.2500000000000001
 40
0.2500000000000001
 40
0.5000000000000001
 40
0.5000000000000001
 40
1.0
 40
1.0
 40
1.0
 40
1.0
 10
8.96409942575252
 20
-0.9883423529626336
 30
0.0
 10
8.96409942575252
 20
-0.9692559908159075
 30
0.0
 10
8.975577288852909
 20
-0.9461348342825004
 30
0.0
 10
9.017219355232122
 20
-0.9002911606377156
 30
0.0
 10
9.047022126470846
 20
-0.8781443078651704
 30
0.0
 10
9.148454128577852
 20
-0.8272557310570621
 30
0.0
 10
9.233085639715092
 20
-0.816884776585842
 30
0.0
 10
9.291273102807363
 20
-0.8341478435882939
 30
0.0
  0
LINE
  5
BD
330
1F
100
AcDbEntity
  8
0
  6
Continuous
 62
     4
370
    25
100
AcDbLine
 10
8.96409942575252
 20
-0.9883423529626336
 30
0.0
 11
8.96409942575252
 21
-1.133975182859561
 31
0.0
  0
SPLINE
  5
BE
330
1F
100
AcDbEntity
  8
0
  6
Continuous
 62
     4
370
    25
100
AcDbSpline
210
0.0
220
0.0
230
1.0
 70
     8
 71
     3
 72
     8
 73
     4
 74
     0
 42
0.000000001
 43
0.00000001
 40
0.0
 40
0.0
 40
0.0
 40
0.0
 40
1.0
 40
1.0
 40
1.0
 40
1.0
 10
9.033252555600694
 20
-1.070519920182086
 30
0.0
 10
8.990357173602138
 20
-1.092071414929572
 30
0.0
 10
8.964099425752513
 20
-1.112417739471735
 30
0.0
 10
8.964099425752513
 20
-1.121141160022384
 30
0.0
  0
SPLINE
  5
BF
330
1F
100
AcDbEntity
  8
0
  6
Continuous
 62
     4
370
    25
100
AcDbSpline
210
0.0
220
0.0
230
1.0
 70
     8
 71
     3
 72
    11
 73
     7
 74
     0
 42
0.000000001
 43
0.00000001
 40
0.0
 40
0.0
 40
0.0
 40
0.0
 40
0.1539681370513811
 40
0.4971045820929993
 40
0.8460130928032231
 40
1.0
 40
1.0
 40
1.0
 40
1.0
 10
9.39452384356514
 20
-0.8604028770597967
 30
0.0
 10
9.375366471344606
 20
-0.8726303933303917
 30
0.0
 10
9.313514599301028
 20
-0.9121083949619966
 30
0.0
 10
9.211801687437069
 20
-0.9740012876773391
 30
0.0
 10
9.110687183636724
 20
-1.030959961637734
 30
0.0
 10
9.05140484624014
 20
-1.06124624142369
 30
0.0
 10
9.033252555600694
 20
-1.07051992018208
 30
0.0
  0
SPLINE
  5
C0
330
1F
100
AcDbEntity
  8
0
  6
Continuous
 62
     4
370
    25
100
AcDbSpline
210
0.0
220
0.0
230
1.0
 70
     8
 71
     3
 72
     9
 73
     5
 74
     0
 42
0.000000001
 43
0.00000001
 40
0.0
 40
0.0
 40
0.0
 40
0.0
 40
0.0791777559756568
 40
1.0
 40
1.0
 40
1.0
 40
1.0
 10
9.39452384356514
 20
0.8604028770598002
 30
0.0
 10
9.39635155674509
 20
0.8608369455040528
 30
0.0
 10
9.419435226614576
 20
0.8663191474041141
 30
0.0
 10
9.442689012154657
 20
0.8701341387757275
 30
0.0
 10
9.464101615137736
 20
0.8736470676914702
 30
0.0
  0
LINE
  5
C1
330
1F
100
AcDbEntity
  8
0
  6
Continuous
 62
     4
370
    25
100
AcDbLine
 10
8.96409942575252
 20
1.133975182859564
 30
0.0
 11
8.96409942575252
 21
1.121141160022386
 31
0.0
  0
SPLINE
  5
C2
330
1F
100
AcDbEntity
  8
0
  6
Continuous
 62
     4
370
    25
100
AcDbSpline
210
0.0
220
0.0
230
1.0
 70
     8
 71
     3
 72
     8
 73
     4
 74
     0
 42
0.000000001
 43
0.00000001
 40
0.0
 40
0.0
 40
0.0
 40
0.0
 40
1.0
 40
1.0
 40
1.0
 40
1.0
 10
9.033252555600694
 20
1.070519920182089
 30
0.0
 10
8.990357173602138
 20
1.092071414929575
 30
0.0
 10
8.964099425752513
 20
1.112417739471739
 30
0.0
 10
8.964099425752513
 20
1.121141160022387
 30
0.0
  0
SPLINE
  5
C3
330
1F
100
AcDbEntity
  8
0
  6
Continuous
 62
     4
370
    25
100
AcDbSpline
210
0.0
220
0.0
230
1.0
 70
     8
 71
     3
 72
     8
 73
     4
 74
     0
 42
0.000000001
 43
0.00000001
 40
0.0
 40
0.0
 40
0.0
 40
0.0
 40
1.0
 40
1.0
 40
1.0
 40
1.0
 10
9.464101615137736
 20
0.8162009856877303
 30
0.0
 10
9.313994593435655
 20
0.912980892701054
 30
0.0
 10
9.173281330330713
 20
1.00016667322434
 30
0.0
 10
9.033252555600694
 20
1.070519920182082
 30
0.0
  0
LINE
  5
C4
330
1F
100
AcDbEntity
  8
0
  6
Continuous
 62
     4
370
    25
100
AcDbLine
 10
9.464101615137736
 20
0.8162009856877307
 30
0.0
 11
9.464101615137736
 21
0.4865601721412121
 31
0.0
  0
SPLINE
  5
C5
330
1F
100
AcDbEntity
  8
0
  6
Continuous
 62
     4
370
    25
100
AcDbSpline
210
0.0
220
0.0
230
1.0
 70
     8
 71
     3
 72
     8
 73
     4
 74
     0
 42
0.000000001
 43
0.00000001
 40
0.0
 40
0.0
 40
0.0
 40
0.0
 40
1.0
 40
1.0
 40
1.0
 40
1.0
 10
9.291273102807256
 20
0.6316331555922049
 30
0.0
 10
9.348217306725937
 20
0.5840469556385226
 30
0.0
 10
9.405806729654671
 20
0.5356541833627415
 30
0.0
 10
9.464101615137736
 20
0.4865601721412137
 30
0.0
  0
SPLINE
  5
C6
330
1F
100
AcDbEntity
  8
0
  6
Continuous
 62
     4
370
    25
100
AcDbSpline
210
0.0
220
0.0
230
1.0
 70
     8
 71
     3
 72
    12
 73
     8
 74
     0
 42
0.000000001
 43
0.00000001
 40
0.0
 40
0.0
 40
0.0
 40
0.0
 40
0.2499999999999999
 40
0.2499999999999999
 40
0.5
 40
0.5
 40
1.0
 40
1.0
 40
1.0
 40
1.0
 10
8.96409942575252
 20
0.5559488363884303
 30
0.0
 10
8.96409942575252
 20
0.5898797646302022
 30
0.0
 10
8.975577288852909
 20
0.6203163175708095
 30
0.0
 10
9.017219355232122
 20
0.6665783688225566
 30
0.0
 10
9.047022126470846
 20
0.6819932965647632
 30
0.0
 10
9.148454128577852
 20
0.702110248850105
 30
0.0
 10
9.233085639715092
 20
0.6802583020154465
 30
0.0
 10
9.291273102807363
 20
0.6316331555921144
 30
0.0
  0
LINE
  5
C7
330
1F
100
AcDbEntity
  8
0
  6
Continuous
 62
     4
370
    25
100
AcDbLine
 10
8.96409942575252
 20
0.5559488363884303
 30
0.0
 11
8.96409942575252
 21
-0.1701241154129671
 31
0.0
  0
SPLINE
  5
C8
330
1F
100
AcDbEntity
  8
0
  6
Continuous
 62
     4
370
    25
100
AcDbSpline
210
0.0
220
0.0
230
1.0
 70
     8
 71
     3
 72
     8
 73
     4
 74
     0
 42
0.000000001
 43
0.00000001
 40
0.0
 40
0.0
 40
0.0
 40
0.0
 40
1.0
 40
1.0
 40
1.0
 40
1.0
 10
9.033252555600694
 20
-0.3133785497904289
 30
0.0
 10
8.990357173602138
 20
-0.2806685441251945
 30
0.0
 10
8.964099425752513
 20
-0.2276126484864633
 30
0.0
 10
8.964099425752513
 20
-0.1701241154129691
 30
0.0
  0
SPLINE
  5
C9
330
1F
100
AcDbEntity
  8
0
  6
Continuous
 62
     4
370
    25
100
AcDbSpline
210
0.0
220
0.0
230
1.0
 70
     8
 71
     3
 72
     8
 73
     4
 74
     0
 42
0.000000001
 43
0.00000001
 40
0.0
 40
0.0
 40
0.0
 40
0.0
 40
1.0
 40
1.0
 40
1.0
 40
1.0
 10
9.464101615137736
 20
-0.5777680771402903
 30
0.0
 10
9.313994593435652
 20
-0.5106636423511157
 30
0.0
 10
9.173281330330713
 20
-0.4201579232639904
 30
0.0
 10
9.033252555600694
 20
-0.3133785497904268
 30
0.0
  0
LINE
  5
CA
330
1F
100
AcDbEntity
  8
0
  6
Continuous
 62
     4
370
    25
100
AcDbLine
 10
9.464101615137736
 20
-0.5777680771402904
 30
0.0
 11
9.464101615137736
 21
-0.8736470676914666
 31
0.0
  0
LINE
  5
CB
330
1F
100
AcDbEntity
  8
0
  6
Continuous
 62
     4
370
    25
100
AcDbLine
 10
-27.53589838486226
 20
2.499999999999997
 30
0.0
 11
-27.53589838486226
 21
-2.499999999999998
 31
0.0
  0
SPLINE
  5
CC
330
1F
100
AcDbEntity
  8
0
  6
Continuous
 62
     4
370
    25
100
AcDbSpline
210
0.0
220
0.0
230
1.0
 70
     8
 71
     3
 72
    14
 73
    10
 74
     0
 42
0.000000001
 43
0.00000001
 40
0.0
 40
0.0
 40
0.0
 40
0.0
 40
0.25
 40
0.25
 40
0.4999999999999999
 40
0.4999999999999999
 40
0.75
 40
0.75
 40
1.0
 40
1.0
 40
1.0
 40
1.0
 10
10.46410161513774
 20
0.9628961082063225
 30
0.0
 10
10.38160276240117
 20
0.9804110497625002
 30
0.0
 10
10.30029558398559
 20
0.9918036403254851
 30
0.0
 10
10.13227294958831
 20
1.002041083687857
 30
0.0
 10
10.0472780674722
 20
1.000743132976737
 30
0.0
 10
9.880167313473892
 20
0.985456604190669
 30
0.0
 10
9.799646347077033
 20
0.9716543110221624
 30
0.0
 10
9.633212535469728
 20
0.9316716149096512
 30
0.0
 10
9.548298061949167
 20
0.9054397458412056
 30
0.0
 10
9.464101615137736
 20
0.8736470676914702
 30
0.0
  0
SPLINE
  5
CD
330
1F
100
AcDbEntity
  8
0
  6
Continuous
 62
     4
370
    25
100
AcDbSpline
210
0.0
220
0.0
230
1.0
 70
     8
 71
     3
 72
    14
 73
    10
 74
     0
 42
0.000000001
 43
0.00000001
 40
0.0
 40
0.0
 40
0.0
 40
0.0
 40
0.2500000000000001
 40
0.2500000000000001
 40
0.5000000000000001
 40
0.5000000000000001
 40
0.75
 40
0.75
 40
1.0
 40
1.0
 40
1.0
 40
1.0
 10
10.46410161513775
 20
0.1725286705543797
 30
0.0
 10
10.38160276240118
 20
0.2364562876097924
 30
0.0
 10
10.3002955839856
 20
0.2990008753839068
 30
0.0
 10
10.13227294958832
 20
0.4208370213561363
 30
0.0
 10
10.04727806747221
 20
0.4796644532119134
 30
0.0
 10
9.880167313473896
 20
0.5898136269324987
 30
0.0
 10
9.79964634707704
 20
0.6408559936588071
 30
0.0
 10
9.633212535469728
 20
0.735315263052113
 30
0.0
 10
9.548298061949167
 20
0.7784486262192672
 30
0.0
 10
9.464101615137736
 20
0.8162009856877307
 30
0.0
  0
SPLINE
  5
CE
330
1F
100
AcDbEntity
  8
0
  6
Continuous
 62
     4
370
    25
100
AcDbSpline
210
0.0
220
0.0
230
1.0
 70
     8
 71
     3
 72
    14
 73
    10
 74
     0
 42
0.000000001
 43
0.00000001
 40
0.0
 40
0.0
 40
0.0
 40
0.0
 40
0.25
 40
0.25
 40
0.5
 40
0.5
 40
0.75
 40
0.75
 40
1.0
 40
1.0
 40
1.0
 40
1.0
 10
10.46410161513774
 20
-0.2698723490858602
 30
0.0
 10
10.38160276240117
 20
-0.2073795849437313
 30
0.0
 10
10.30029558398559
 20
-0.1434880606975792
 30
0.0
 10
10.13227294958831
 20
-0.0133022978202749
 30
0.0
 10
10.0472780674722
 20
0.0525457232187617
 30
0.0
 10
9.880167313473892
 20
0.1819976716490338
 30
0.0
 10
9.799646347077033
 20
0.2452026159105673
 30
0.0
 10
9.633212535469728
 20
0.3690859316595256
 30
0.0
 10
9.548298061949167
 20
0.4294745707502426
 30
0.0
 10
9.464101615137736
 20
0.4865601721412122
 30
0.0
  0
SPLINE
  5
CF
330
1F
100
AcDbEntity
  8
0
  6
Continuous
 62
     4
370
    25
100
AcDbSpline
210
0.0
220
0.0
230
1.0
 70
     8
 71
     3
 72
    14
 73
    10
 74
     0
 42
0.000000001
 43
0.00000001
 40
0.0
 40
0.0
 40
0.0
 40
0.0
 40
0.25
 40
0.25
 40
0.5
 40
0.5
 40
0.75
 40
0.75
 40
1.0
 40
1.0
 40
1.0
 40
1.0
 10
10.46410161513775
 20
-0.9850044963535648
 30
0.0
 10
10.38160276240118
 20
-0.9738072410891381
 30
0.0
 10
10.3002955839856
 20
-0.956484062096854
 30
0.0
 10
10.13227294958832
 20
-0.9094830872433735
 30
0.0
 10
10.04727806747221
 20
-0.8798692423045624
 30
0.0
 10
9.880167313473896
 20
-0.8101652650622722
 30
0.0
 10
9.79964634707704
 20
-0.7704154842479084
 30
0.0
 10
9.633212535469728
 20
-0.6808435113151616
 30
0.0
 10
9.548298061949167
 20
-0.6311000527709127
 30
0.0
 10
9.464101615137736
 20
-0.5777680771402904
 30
0.0
  0
SPLINE
  5
D0
330
1F
100
AcDbEntity
  8
0
  6
Continuous
 62
     4
370
    25
100
AcDbSpline
210
0.0
220
0.0
230
1.0
 70
     8
 71
     3
 72
     9
 73
     5
 74
     0
 42
0.000000001
 43
0.00000001
 40
0.0
 40
0.0
 40
0.0
 40
0.0
 40
0.5139002517114692
 40
1.0
 40
1.0
 40
1.0
 40
1.0
 10
9.464101615137736
 20
-0.8736470676914666
 30
0.0
 10
9.575774521515994
 20
-0.9112343531254258
 30
0.0
 10
9.793079156036695
 20
-0.9843755615774176
 30
0.0
 10
10.0099259444626
 20
-0.9938079895733468
 30
0.0
 10
10.11533511373362
 20
-0.9983930904479178
 30
0.0
  0
SPLINE
  5
D1
330
1F
100
AcDbEntity
  8
0
  6
Continuous
 62
     1
370
    25
100
AcDbSpline
210
0.0
220
0.0
230
1.0
 70
     8
 71
     3
 72
    12
 73
     8
 74
     0
 42
0.000000001
 43
0.00000001
 40
0.0
 40
0.0
 40
0.0
 40
0.0
 40
0.1126337419350366
 40
0.3661424636910824
 40
0.6211158226137495
 40
0.8749969482643802
 40
1.0
 40
1.0
 40
1.0
 40
1.0
 10
10.46410161513773
 20
-0.2698723490858468
 30
0.0
 10
10.52645845722989
 20
-0.3160334048745873
 30
0.0
 10
10.7291640354996
 20
-0.4660907713680059
 30
0.0
 10
11.07265952458047
 20
-0.6945275437303828
 30
0.0
 10
11.49596120671273
 20
-0.8934739361203333
 30
0.0
 10
11.84689612098103
 20
-0.9971663576949292
 30
0.0
 10
12.05648852752843
 20
-0.9891393865000797
 30
0.0
 10
12.1256381305015
 20
-0.9864910946065727
 30
0.0
  0
SPLINE
  5
D2
330
1F
100
AcDbEntity
  8
0
  6
Continuous
 62
     1
370
    25
100
AcDbSpline
210
0.0
220
0.0
230
1.0
 70
     8
 71
     3
 72
    20
 73
    16
 74
     0
 42
0.000000001
 43
0.00000001
 40
0.0
 40
0.0
 40
0.0
 40
0.0
 40
0.0601983366616025
 40
0.1494377129384167
 40
0.2385943468633402
 40
0.3273270237906014
 40
0.4161524185351872
 40
0.4943612642980275
 40
0.5718910430046686
 40
0.6495274547317008
 40
0.6890024889507659
 40
0.7778503359123207
 40
0.8672114979895555
 40
0.9561898622919134
 40
0.9999999999999999
 40
0.9999999999999999
 40
0.9999999999999999
 40
0.9999999999999999
 10
15.42760876392487
 20
0.8361778691334504
 30
0.0
 10
15.52261518867754
 20
0.8757917481619066
 30
0.0
 10
15.7584612870391
 20
0.9741301377408256
 30
0.0
 10
16.13612816332748
 20
1.015988920278401
 30
0.0
 10
16.55862313649137
 20
0.96688307675176
 30
0.0
 10
16.97954492057683
 20
0.8099986834372983
 30
0.0
 10
17.38312250072314
 20
0.5762997580650551
 30
0.0
 10
17.7708276714674
 20
0.3028160062492834
 30
0.0
 10
18.13857769379864
 20
0.0144817582119456
 30
0.0
 10
18.44591663466027
 20
-0.2267205511295524
 30
0.0
 10
18.77128103936815
 20
-0.4653877408008094
 30
0.0
 10
19.114767671549
 20
-0.6947756690902629
 30
0.0
 10
19.53807229313998
 20
-0.8934063885488736
 30
0.0
 10
19.88900650991074
 20
-0.9971737154428768
 30
0.0
 10
20.09859896797484
 20
-0.9891412117913234
 30
0.0
 10
20.16774858794451
 20
-0.9864910946065722
 30
0.0
  0
SPLINE
  5
D3
330
1F
100
AcDbEntity
  8
0
  6
Continuous
 62
     1
370
    25
100
AcDbSpline
210
0.0
220
0.0
230
1.0
 70
     8
 71
     3
 72
    19
 73
    15
 74
     0
 42
0.000000001
 43
0.00000001
 40
0.0
 40
0.0
 40
0.0
 40
0.0
 40
0.0586390801236291
 40
0.1445240179564018
 40
0.2335261075244212
 40
0.3221931129694187
 40
0.4110427787202949
 40
0.5003729996969114
 40
0.5892505208755854
 40
0.6779137924014526
 40
0.7668807926551784
 40
0.8561821677182129
 40
0.9449630579017593
 40
1.0
 40
1.0
 40
1.0
 40
1.0
 10
21.46153389502933
 20
-0.8358158629877166
 30
0.0
 10
21.36897634154529
 20
-0.8744191853245983
 30
0.0
 10
21.14085561568248
 20
-0.9695623430758752
 30
0.0
 10
20.77077188894164
 20
-1.015110186340131
 30
0.0
 10
20.35404831142984
 20
-0.9732926220919975
 30
0.0
 10
19.93326263840078
 20
-0.8224946530975342
 30
0.0
 10
19.51171617099481
 20
-0.5837571040456572
 30
0.0
 10
19.08840622858231
 20
-0.283312378644936
 30
0.0
 10
18.6667529627637
 20
0.0489460524161208
 30
0.0
 10
18.24599065624918
 20
0.3756246581061149
 30
0.0
 10
17.82400744460291
 20
0.6627774299827097
 30
0.0
 10
17.40078589804746
 20
0.8734178093322323
 30
0.0
 10
17.03270097116893
 20
0.9908284754900855
 30
0.0
 10
16.80553043717681
 20
0.988259361639785
 30
0.0
 10
16.71859565775909
 20
0.9872762000388944
 30
0.0
  0
SPLINE
  5
D4
330
1F
100
AcDbEntity
  8
0
  6
Continuous
 62
     1
370
    25
100
AcDbSpline
210
0.0
220
0.0
230
1.0
 70
     8
 71
     3
 72
    15
 73
    11
 74
     0
 42
0.000000001
 43
0.00000001
 40
0.0
 40
0.0
 40
0.0
 40
0.0
 40
0.0941134372534356
 40
0.231955413810683
 40
0.3748002973648696
 40
0.5171073839665775
 40
0.6597076332372728
 40
0.8030791549083733
 40
0.9457241110545975
 40
1.0
 40
1.0
 40
1.0
 40
1.0
 10
13.41942343758632
 20
-0.8358158629877174
 30
0.0
 10
13.32686588647627
 20
-0.8744191265311502
 30
0.0
 10
13.09874516646452
 20
-0.9695621393779473
 30
0.0
 10
12.7286613792738
 20
-1.01511147971774
 30
0.0
 10
12.31193805483705
 20
-0.9732876479215972
 30
0.0
 10
11.89115143516987
 20
-0.8225131229609935
 30
0.0
 10
11.46960850963191
 20
-0.5836878575246475
 30
0.0
 10
11.04628529639359
 20
-0.2835717917053651
 30
0.0
 10
10.71132679613461
 20
-0.0186270606013861
 30
0.0
 10
10.51751937361188
 20
0.1312257958364766
 30
0.0
 10
10.46410161513769
 20
0.1725286705544291
 30
0.0
  0
SPLINE
  5
D5
330
1F
100
AcDbEntity
  8
0
  6
Continuous
 62
     1
370
    25
100
AcDbSpline
210
0.0
220
0.0
230
1.0
 70
     8
 71
     3
 72
    19
 73
    15
 74
     0
 42
0.000000001
 43
0.00000001
 40
0.0
 40
0.0
 40
0.0
 40
0.0
 40
0.0763127442474889
 40
0.1652156592969924
 40
0.2539042634787954
 40
0.3428966831690959
 40
0.4322235732054688
 40
0.52102982965067
 40
0.6097433882555063
 40
0.6988808125123263
 40
0.7881009612933885
 40
0.8768388392919995
 40
0.9656059547645116
 40
0.9999999999999999
 40
0.9999999999999999
 40
0.9999999999999999
 40
0.9999999999999999
 10
19.45030103724134
 20
-0.8395780229659978
 30
0.0
 10
19.32946314464205
 20
-0.8856716387751921
 30
0.0
 10
19.06785137467209
 20
-0.9854634520613312
 30
0.0
 10
18.66673934316568
 20
-1.015555413477235
 30
0.0
 10
18.245995218457
 20
-0.9468141310419778
 30
0.0
 10
17.82400282529028
 20
-0.7735599992334685
 30
0.0
 10
17.40079980737756
 20
-0.5186384194062112
 30
0.0
 10
16.97951643511384
 20
-0.2065623779023017
 30
0.0
 10
16.55863387105733
 20
0.1278462786026446
 30
0.0
 10
16.13611376808085
 20
0.4472677059222377
 30
0.0
 10
15.71330300412208
 20
0.7202533276079497
 30
0.0
 10
15.29227968391045
 20
0.9097206024811093
 30
0.0
 10
14.95786320906379
 20
1.002228076673238
 30
0.0
 10
14.76291341219765
 20
0.9904253274076497
 30
0.0
 10
14.7084716377493
 20
0.9871292859461195
 30
0.0
  0
SPLINE
  5
D6
330
1F
100
AcDbEntity
  8
0
  6
Continuous
 62
     1
370
    25
100
AcDbSpline
210
0.0
220
0.0
230
1.0
 70
     8
 71
     3
 72
    10
 73
     6
 74
     0
 42
0.000000001
 43
0.00000001
 40
0.0
 40
0.0
 40
0.0
 40
0.0
 40
0.3833984816931326
 40
0.8300505184424831
 40
1.0
 40
1.0
 40
1.0
 40
1.0
 10
11.40819057979832
 20
-0.8395780229659984
 30
0.0
 10
11.28735044394933
 20
-0.8855404795486068
 30
0.0
 10
11.02573381738584
 20
-0.9850483355703736
 30
0.0
 10
10.71132264440158
 20
-1.01051809479861
 30
0.0
 10
10.51751847655006
 20
-0.9905172003348006
 30
0.0
 10
10.46410161513769
 20
-0.985004496353557
 30
0.0
  0
SPLINE
  5
D7
330
1F
100
AcDbEntity
  8
0
  6
Continuous
 62
     1
370
    25
100
AcDbSpline
210
0.0
220
0.0
230
1.0
 70
     8
 71
     3
 72
    15
 73
    11
 74
     0
 42
0.000000001
 43
0.00000001
 40
0.0
 40
0.0
 40
0.0
 40
0.0
 40
0.1240189084298237
 40
0.2479507722890948
 40
0.3727294955336212
 40
0.5020370013970619
 40
0.6308576772050206
 40
0.7599437327213443
 40
0.8897279673250547
 40
1.0
 40
1.0
 40
1.0
 40
1.0
 10
21.99238840094018
 20
-0.8302971484545446
 30
0.0
 10
21.85751291110053
 20
-0.7634322835775135
 30
0.0
 10
21.58785659584975
 20
-0.629749483953074
 30
0.0
 10
21.1830825603659
 20
-0.3432029827534909
 30
0.0
 10
20.77077943600441
 20
-0.0259825111048519
 30
0.0
 10
20.35404688745666
 20
0.3011538603135189
 30
0.0
 10
19.93326072284308
 20
0.6006173477988292
 30
0.0
 10
19.5117253029883
 20
0.8325093101014094
 30
0.0
 10
19.10894413853415
 20
0.9774749794422345
 30
0.0
 10
18.84791276823249
 20
0.9882977130609363
 30
0.0
 10
18.72800563095423
 20
0.9932692343161945
 30
0.0
  0
SPLINE
  5
D8
330
1F
100
AcDbEntity
  8
0
  6
Continuous
 62
     1
370
    25
100
AcDbSpline
210
0.0
220
0.0
230
1.0
 70
     8
 71
     3
 72
    20
 73
    16
 74
     0
 42
0.000000001
 43
0.00000001
 40
0.0
 40
0.0
 40
0.0
 40
0.0
 40
0.0285518119339826
 40
0.1173167520325361
 40
0.2065955889721025
 40
0.2956578891865896
 40
0.3115222764508316
 40
0.3969065322036494
 40
0.4822308597086858
 40
0.568138231035449
 40
0.6571635683101313
 40
0.7458537339364602
 40
0.8347266075802802
 40
0.9240801619728138
 40
1.0
 40
1.0
 40
1.0
 40
1.0
 10
15.42760876392487
 20
-0.8361778691334459
 30
0.0
 10
15.38251633330581
 20
-0.8577117085998247
 30
0.0
 10
15.19723571035575
 20
-0.9461922614567442
 30
0.0
 10
14.8711880216349
 20
-1.006123815434443
 30
0.0
 10
14.44815112869334
 20
-0.9986809916033386
 30
0.0
 10
14.14099107754696
 20
-0.90999263092424
 30
0.0
 10
13.84052005283477
 20
-0.7852046356337502
 30
0.0
 10
13.54572257333394
 20
-0.6259343149440557
 30
0.0
 10
13.14097845586513
 20
-0.3442315197136488
 30
0.0
 10
12.72866720209671
 20
-0.0256949027003907
 30
0.0
 10
12.31193691110808
 20
0.3010759714567662
 30
0.0
 10
11.89115013641881
 20
0.6006382297769101
 30
0.0
 10
11.46961488036613
 20
0.832503672630509
 30
0.0
 10
11.06683367387866
 20
0.9774761471363408
 30
0.0
 10
10.80580230851922
 20
0.9882980806133221
 30
0.0
 10
10.68589517351121
 20
0.9932692343161938
 30
0.0
  0
SPLINE
  5
D9
330
1F
100
AcDbEntity
  8
0
  6
Continuous
 62
     1
370
    25
100
AcDbSpline
210
0.0
220
0.0
230
1.0
 70
     8
 71
     3
 72
    20
 73
    16
 74
     0
 42
0.000000001
 43
0.00000001
 40
0.0
 40
0.0
 40
0.0
 40
0.0
 40
0.0185811310237665
 40
0.1075992273621217
 40
0.1963447635564444
 40
0.2853363213529394
 40
0.3747459419013785
 40
0.4636538607263043
 40
0.5524106084145937
 40
0.6415340643010874
 40
0.73087420560014
 40
0.8197000971848925
 40
0.90849673193649
 40
0.9977759568005246
 40
1.0
 40
1.0
 40
1.0
 40
1.0
 10
11.40819057979833
 20
0.8395780229660024
 30
0.0
 10
11.43758471450101
 20
0.8539790262089145
 30
0.0
 10
11.60779965884106
 20
0.9373720564929595
 30
0.0
 10
11.91780991516402
 20
1.000074787415945
 30
0.0
 10
12.33857184682956
 20
1.005397591501173
 30
0.0
 10
12.76033478834044
 20
0.8947686690113505
 30
0.0
 10
13.18362560464508
 20
0.6907128638823739
 30
0.0
 10
13.60507448698078
 20
0.4107924224141038
 30
0.0
 10
14.02588135712665
 20
0.0867666438921666
 30
0.0
 10
14.44813518353508
 20
-0.2464229019023889
 30
0.0
 10
14.87116915233551
 20
-0.5515403797274824
 30
0.0
 10
15.29230818769536
 20
-0.8018258596514702
 30
0.0
 10
15.71326075160037
 20
-0.9528960023830436
 30
0.0
 10
15.99860947142647
 20
-1.017051324398613
 30
0.0
 10
16.14323302359561
 20
-0.9991239498030382
 30
0.0
 10
16.14674818796616
 20
-0.9986882139391992
 30
0.0
  0
SPLINE
  5
DA
330
1F
100
AcDbEntity
  8
0
  6
Continuous
 62
     1
370
    25
100
AcDbSpline
210
0.0
220
0.0
230
1.0
 70
     8
 71
     3
 72
    15
 73
    11
 74
     0
 42
0.000000001
 43
0.00000001
 40
0.0
 40
0.0
 40
0.0
 40
0.0
 40
0.0292132145794308
 40
0.1691672758504378
 40
0.308692818644112
 40
0.4486051560761883
 40
0.589174770875535
 40
0.7289556112948338
 40
0.8684987807754185
 40
1.0
 40
1.0
 40
1.0
 40
1.0
 10
19.45030103724135
 20
0.8395780229660033
 30
0.0
 10
19.47969517145424
 20
0.8539790157601695
 30
0.0
 10
19.64991011295808
 20
0.937371985537834
 30
0.0
 10
19.95992045401563
 20
1.000076524142833
 30
0.0
 10
20.38068201294066
 20
1.005391376383826
 30
0.0
 10
20.80244633548942
 20
0.8947919162088861
 30
0.0
 10
21.22573198488271
 20
0.6906258829881771
 30
0.0
 10
21.64720005221055
 20
0.4111147237643555
 30
0.0
 10
22.05929040175901
 20
0.0922530031212868
 30
0.0
 10
22.33186028132004
 20
-0.1189892322503106
 30
0.0
 10
22.46410161513774
 20
-0.2214765467296661
 30
0.0
  0
LINE
  5
DB
330
1F
100
AcDbEntity
  8
0
  6
Continuous
 62
     1
370
    25
100
AcDbLine
 10
22.46410161513774
 20
-0.4999999999999982
 30
0.0
 11
22.46410161513774
 21
-0.222100809005401
 31
0.0
  0
SPLINE
  5
DC
330
1F
100
AcDbEntity
  8
0
  6
Continuous
 62
     1
370
    25
100
AcDbSpline
210
0.0
220
0.0
230
1.0
 70
    24
 71
     3
 72
    10
 73
     6
 74
     0
 42
0.000000001
 43
0.00000001
 40
0.0
 40
0.0
 40
0.0
 40
0.0
 40
0.5
 40
0.5
 40
1.0
 40
1.0
 40
1.0
 40
1.0
 10
22.46410161513774
 20
-0.4999999999999982
 30
0.0
 10
22.37926583492351
 20
-0.5594026528159032
 30
0.0
 10
22.28991306764881
 20
-0.6219681340215477
 30
0.0
 10
22.12735110485254
 20
-0.7357952457976634
 30
0.0
 10
22.05477662535276
 20
-0.786612443425055
 30
0.0
 10
21.99238840093993
 20
-0.8302971484544346
 30
0.0
  0
SPLINE
  5
DD
330
1F
100
AcDbEntity
  8
0
  6
Continuous
 62
     1
370
    25
100
AcDbSpline
210
0.0
220
0.0
230
1.0
 70
     8
 71
     3
 72
    11
 73
     7
 74
     0
 42
0.000000001
 43
0.00000001
 40
0.0
 40
0.0
 40
0.0
 40
0.0
 40
0.3229914189129215
 40
0.645756141351026
 40
0.9707264009763742
 40
1.0
 40
1.0
 40
1.0
 40
1.0
 10
21.99238840094018
 20
0.5573209535521285
 30
0.0
 10
21.857508585913
 20
0.6400942605184743
 30
0.0
 10
21.58784362332286
 20
0.8055827787377826
 30
0.0
 10
21.18313455559639
 20
0.9493698180076675
 30
0.0
 10
20.89943415527214
 20
1.014124597502937
 30
0.0
 10
20.75139343294904
 20
0.9971209114911933
 30
0.0
 10
20.73915981297612
 20
0.9957157803249687
 30
0.0
  0
SPLINE
  5
DE
330
1F
100
AcDbEntity
  8
0
  6
Continuous
 62
     1
370
    25
100
AcDbSpline
210
0.0
220
0.0
230
1.0
 70
     8
 71
     3
 72
    21
 73
    17
 74
     0
 42
0.000000001
 43
0.00000001
 40
0.0
 40
0.0
 40
0.0
 40
0.0
 40
0.0077170463492622
 40
0.0965527790369985
 40
0.1852957831164473
 40
0.2744627935357915
 40
0.3637125559369945
 40
0.4524798874822207
 40
0.5412764662057418
 40
0.6305871249393221
 40
0.719681169767303
 40
0.735551211599648
 40
0.8209659009948806
 40
0.9063206407820134
 40
0.9922586322060847
 40
1.0
 40
1.0
 40
1.0
 40
1.0
 10
17.43685263634142
 20
-0.8428046857466043
 30
0.0
 10
17.42464178887541
 20
-0.8489821641630018
 30
0.0
 10
17.27186426184241
 20
-0.9262724487550178
 30
0.0
 10
16.97955586478698
 20
-0.9914644877248753
 30
0.0
 10
16.55862289368121
 20
-1.01175259197372
 30
0.0
 10
16.13611807425699
 20
-0.9141921330556592
 30
0.0
 10
15.71329680520507
 20
-0.7210508870680049
 30
0.0
 10
15.29230007093197
 20
-0.4489187045539589
 30
0.0
 10
14.87116563933611
 20
-0.1283439387196542
 30
0.0
 10
14.44815753687178
 20
0.2045133375789912
 30
0.0
 10
14.14099047185621
 20
0.4318050596108146
 30
0.0
 10
13.8405207538625
 20
0.6299984733150515
 30
0.0
 10
13.54570776602858
 20
0.8034171325558586
 30
0.0
 10
13.14103132128909
 20
0.9499856781614832
 30
0.0
 10
12.85732358003453
 20
1.014114554081314
 30
0.0
 10
12.70928296651486
 20
0.9971201448843764
 30
0.0
 10
12.69704935553311
 20
0.9957157803249687
 30
0.0
  0
SPLINE
  5
DF
330
1F
100
AcDbEntity
  8
0
  6
Continuous
 62
     1
370
    25
100
AcDbSpline
210
0.0
220
0.0
230
1.0
 70
     8
 71
     3
 72
    20
 73
    16
 74
     0
 42
0.000000001
 43
0.00000001
 40
0.0
 40
0.0
 40
0.0
 40
0.0
 40
0.0392443315180118
 40
0.1280111102493812
 40
0.217144638623305
 40
0.3064948768989761
 40
0.3953308073412611
 40
0.4841374776438647
 40
0.5734267925999098
 40
0.6626333189011437
 40
0.7514156509568388
 40
0.8402907527150858
 40
0.9185433644322004
 40
0.9961165290847236
 40
1.0
 40
1.0
 40
1.0
 40
1.0
 10
13.41942343758632
 20
0.8358158629877216
 30
0.0
 10
13.48138505616831
 20
0.8641234292450207
 30
0.0
 10
13.68349769972011
 20
0.9564598978479222
 30
0.0
 10
14.02585285055201
 20
1.011308915644781
 30
0.0
 10
14.44814219987083
 20
0.9888966728721903
 30
0.0
 10
14.87116973732057
 20
0.8553469366643338
 30
0.0
 10
15.29229893693246
 20
0.6304882078647063
 30
0.0
 10
15.71329725756339
 20
0.3371102264099437
 30
0.0
 10
16.13611740194926
 20
0.0086462118635593
 30
0.0
 10
16.5586251219933
 20
-0.3212808150882073
 30
0.0
 10
16.97954766132137
 20
-0.6164751894293309
 30
0.0
 10
17.38311015888756
 20
-0.8385545670523572
 30
0.0
 10
17.7708680495237
 20
-0.9617557365299085
 30
0.0
 10
18.02226522147452
 20
-1.012249369922407
 30
0.0
 10
18.15078816156304
 20
-0.9986919539635638
 30
0.0
 10
18.15691553346221
 20
-0.998045599861219
 30
0.0
  0
SPLINE
  5
E0
330
1F
100
AcDbEntity
  8
0
  6
Continuous
 62
     1
370
    25
100
AcDbSpline
210
0.0
220
0.0
230
1.0
 70
     8
 71
     3
 72
    10
 73
     6
 74
     0
 42
0.000000001
 43
0.00000001
 40
0.0
 40
0.0
 40
0.0
 40
0.0
 40
0.1854101942182471
 40
0.6047896319125171
 40
1.0
 40
1.0
 40
1.0
 40
1.0
 10
21.46153389502933
 20
0.8358158629877217
 30
0.0
 10
21.52349679138582
 20
0.8640154394993553
 30
0.0
 10
21.72561360291109
 20
0.955999656281333
 30
0.0
 10
22.05926448555162
 20
1.014580973379427
 30
0.0
 10
22.33185181516664
 20
0.9880416473648838
 30
0.0
 10
22.46410161513774
 20
0.9751656983552643
 30
0.0
  0
LINE
  5
E1
330
1F
100
AcDbEntity
  8
0
  6
Continuous
 62
     1
370
    25
100
AcDbLine
 10
22.46410161513774
 20
0.3586687346939975
 30
0.0
 11
22.46410161513774
 21
0.9751656983552643
 31
0.0
  0
SPLINE
  5
E2
330
1F
100
AcDbEntity
  8
0
  6
Continuous
 62
     1
370
    25
100
AcDbSpline
210
0.0
220
0.0
230
1.0
 70
     8
 71
     3
 72
    10
 73
     6
 74
     0
 42
0.000000001
 43
0.00000001
 40
0.0
 40
0.0
 40
0.0
 40
0.0
 40
0.5
 40
0.5
 40
1.0
 40
1.0
 40
1.0
 40
1.0
 10
22.46410161513774
 20
0.3586687346939983
 30
0.0
 10
22.37926583492351
 20
0.3298670698906209
 30
0.0
 10
22.28991306764881
 20
0.3463552612098304
 30
0.0
 10
22.12735110485254
 20
0.4226817069182759
 30
0.0
 10
22.05477662535276
 20
0.4827139696688059
 30
0.0
 10
21.99238840093993
 20
0.5573209535522888
 30
0.0
  0
SPLINE
  5
E3
330
1F
100
AcDbEntity
  8
0
  6
Continuous
 62
     1
370
    25
100
AcDbSpline
210
0.0
220
0.0
230
1.0
 70
     8
 71
     3
 72
    17
 73
    13
 74
     0
 42
0.000000001
 43
0.00000001
 40
0.0
 40
0.0
 40
0.0
 40
0.0
 40
0.0509748379775463
 40
0.1657056974464839
 40
0.2810994101686455
 40
0.3959988090811154
 40
0.5105464031583327
 40
0.6254115476592482
 40
0.7408163033278021
 40
0.8555734914922621
 40
0.970135556716029
 40
1.0
 40
1.0
 40
1.0
 40
1.0
 10
10.46410161513773
 20
0.9628961082063264
 30
0.0
 10
10.52645846358087
 20
0.9477252235700646
 30
0.0
 10
10.72916406249594
 20
0.8984086956658611
 30
0.0
 10
11.07265924505432
 20
0.7446561918344619
 30
0.0
 10
11.49596223266287
 20
0.4819943911748934
 30
0.0
 10
11.91781522695039
 20
0.1652235717491371
 30
0.0
 10
12.33856978424361
 20
-0.1693223195717135
 30
0.0
 10
12.76033773458786
 20
-0.4850126941200468
 30
0.0
 10
13.18361586876789
 20
-0.7496826359792518
 30
0.0
 10
13.60511022255269
 20
-0.9264462733143614
 30
0.0
 10
13.92170962437333
 20
-1.007684288381357
 30
0.0
 10
14.09854324648181
 20
-0.9926896292503724
 30
0.0
 10
14.13510881697662
 20
-0.9895890409178931
 30
0.0
  0
SPLINE
  5
E4
330
1F
100
AcDbEntity
  8
0
  6
Continuous
 62
     1
370
    25
100
AcDbSpline
210
0.0
220
0.0
230
1.0
 70
     8
 71
     3
 72
    20
 73
    16
 74
     0
 42
0.000000001
 43
0.00000001
 40
0.0
 40
0.0
 40
0.0
 40
0.0
 40
0.0704866981707486
 40
0.1480089605238158
 40
0.2256378455594205
 40
0.2651090527546055
 40
0.3539482860990033
 40
0.4433007847942299
 40
0.5322705228260413
 40
0.6209678487797474
 40
0.7099110626865307
 40
0.7992721122363043
 40
0.8881317326076621
 40
0.9768402639647883
 40
1.0
 40
1.0
 40
1.0
 40
1.0
 10
17.43685263634142
 20
0.8428046857466085
 30
0.0
 10
17.5484980070643
 20
0.8848107233367166
 30
0.0
 10
17.78293252729052
 20
0.9730155920677694
 30
0.0
 10
18.13859274523749
 20
1.012799884206871
 30
0.0
 10
18.44591479498659
 20
0.9823706852730913
 30
0.0
 10
18.77128194078764
 20
0.8961139526393639
 30
0.0
 10
19.11476709037878
 20
0.7454648201126232
 30
0.0
 10
19.53807337667947
 20
0.4817787283132447
 30
0.0
 10
19.95992554501947
 20
0.1652791199489255
 30
0.0
 10
20.38068011670178
 20
-0.1693300379992946
 30
0.0
 10
20.80244883505183
 20
-0.4850375905274157
 30
0.0
 10
21.22572387290942
 20
-0.7495749658070258
 30
0.0
 10
21.64722978304007
 20
-0.9268490708465252
 30
0.0
 10
21.96385178347726
 20
-1.006665530324354
 30
0.0
 10
22.14077655881181
 20
-0.9932354551476837
 30
0.0
 10
22.17740473935265
 20
-0.9904550688658987
 30
0.0
  0
LINE
  5
E5
330
1F
100
AcDbEntity
  8
0
  6
Continuous
 62
     1
370
    25
100
AcDbLine
 10
22.46410161513774
 20
0.9751656983552643
 30
0.0
 11
22.46410161513774
 21
1.000000000000004
 31
0.0
  0
LINE
  5
E6
330
1F
100
AcDbEntity
  8
0
  6
Continuous
 62
     1
370
    25
100
AcDbLine
 10
21.99238840093993
 20
-0.8302971484544369
 30
0.0
 11
21.9517320281009
 21
-0.8587650471925931
 31
0.0
  0
ELLIPSE
  5
E7
330
1F
100
AcDbEntity
  8
0
  6
Continuous
 62
     1
370
    25
100
AcDbEllipse
 10
22.21987392215964
 20
0.0000000000000025
 30
0.0
 11
1.389323305659964
 21
-0.5503410060417625
 31
0.0
210
0.0
220
0.0
230
1.0
 40
0.600968817488728
 41
4.757219760849907
 42
5.117950484049577
  0
LINE
  5
E8
330
1F
100
AcDbEntity
  8
0
  6
Continuous
 62
     1
370
    25
100
AcDbLine
 10
22.46410161513774
 20
-1.0
 30
0.0
 11
22.46410161513774
 21
-0.9843391617328144
 31
0.0
  0
ELLIPSE
  5
E9
330
1F
100
AcDbEntity
  8
0
  6
Continuous
 62
     1
370
    25
100
AcDbEllipse
 10
23.1781756185088
 20
0.0000000000000018
 30
0.0
 11
1.428148006742109
 21
0.0
 31
0.0
210
0.0
220
0.0
230
1.0
 40
0.7002075382097132
 41
2.55043697254673
 42
2.60365083131
  0
ELLIPSE
  5
EA
330
1F
100
AcDbEntity
  8
0
  6
Continuous
 62
     1
370
    25
100
AcDbEllipse
 10
22.21987392215964
 20
0.0000000000000018
 30
0.0
 11
1.419102565980783
 21
-0.9721740704074063
 31
0.0
210
0.0
220
0.0
230
1.0
 40
0.1650759015746642
 41
1.511550483225868
 42
1.872281206425534
  0
LINE
  5
EB
330
1F
100
AcDbEntity
  8
0
  6
Continuous
 62
     1
370
    25
100
AcDbLine
 10
22.46410161513774
 20
-0.2214765467296661
 30
0.0
 11
22.46410161513774
 21
0.1762850381601893
 31
0.0
  0
LINE
  5
EC
330
1F
100
AcDbEntity
  8
0
  6
Continuous
 62
     1
370
    25
100
AcDbLine
 10
22.46410161513774
 20
0.1762850381601886
 30
0.0
 11
22.46410161513774
 21
0.3586687346939975
 31
0.0
  0
LINE
  5
ED
330
1F
100
AcDbEntity
  8
0
  6
Continuous
 62
     1
370
    25
100
AcDbLine
 10
22.46410161513774
 20
-0.4999999999999975
 30
0.0
 11
22.46410161513774
 21
-0.9843391617328144
 31
0.0
  0
LINE
  5
EE
330
1F
100
AcDbEntity
  8
중심선
100
AcDbLine
 10
-30.53589838486226
 20
-0.0000000000000026
 30
0.0
 11
23.96410161513775
 21
0.0000000000000041
 31
0.0
  0
CIRCLE
  5
EF
330
1F
100
AcDbEntity
  8
해칭선
100
AcDbCircle
 10
-0.0078770781024636
 20
-0.0000000000000042
 30
0.0
 40
3.000000000000001
  0
INSERT
  5
F0
330
1F
100
AcDbEntity
  8
0
  6
Continuous
 62
     7
100
AcDbBlockReference
 66
     1
  2
블럭10
 10
-15.44814782084245
 20
-52.04717430164393
 30
0.0
  0
ATTRIB
  5
F1
330
F0
100
AcDbEntity
  8
FORMAT
 62
     2
100
AcDbText
 10
-31.56740886027801
 20
-49.97180738881174
 30
0.0
 40
4.233333333333333
  1
SEME7102012E [ 4 FLUTE ]
 41
0.75
  7
SLDTEXTSTYLE0
 11
-31.56740886027801
 21
-52.08847405547841
 31
0.0
100
AcDbAttribute
  2
AUTOATTR0
 70
     0
 74
     1
  0
SEQEND
  5
F2
330
F0
100
AcDbEntity
  8
0
  6
Continuous
 62
     7
  0
HATCH
  5
F3
330
1F
100
AcDbEntity
  8
중심선
100
AcDbHatch
 10
0.0
 20
0.0
 30
0.0
210
0.0
220
0.0
230
1.0
  2
SOLID
 70
     1
 71
     0
 91
        1
 92
        0
 93
        4
 72
     1
 10
-9.7332385164616
 20
-35.8
 11
-13.17951376029888
 21
-35.8
 72
     1
 10
-13.17951376029888
 20
-35.8
 11
-15.30774361950291
 21
-38.33632558057259
 72
     1
 10
-15.30774361950291
 20
-38.33632558057259
 11
-11.86143529055247
 21
-38.3362861512701
 72
     1
 10
-11.86143529055247
 20
-38.3362861512701
 11
-9.7332385164616
 21
-35.8
 97
        0
 75
     0
 76
     1
 98
        1
 10
0.0
 20
0.0
  0
HATCH
  5
F4
330
1F
100
AcDbEntity
  8
중심선
100
AcDbHatch
 10
0.0
 20
0.0
 30
0.0
210
0.0
220
0.0
230
1.0
  2
SOLID
 70
     1
 71
     0
 91
        1
 92
        0
 93
        4
 72
     1
 10
-4.72047452542565
 20
-35.80000000000003
 11
-8.166749769262932
 21
-35.8
 72
     1
 10
-8.166749769262932
 20
-35.8
 11
-12.69788777762032
 21
-41.20000000000002
 72
     1
 10
-12.69788777762032
 20
-41.20000000000002
 11
-9.251612533783039
 21
-41.20000000000002
 72
     1
 10
-9.251612533783039
 20
-41.20000000000002
 11
-4.72047452542565
 21
-35.80000000000003
 97
        0
 75
     0
 76
     1
 98
        1
 10
0.0
 20
0.0
  0
HATCH
  5
F5
330
1F
100
AcDbEntity
  8
중심선
100
AcDbHatch
 10
0.0
 20
0.0
 30
0.0
210
0.0
220
0.0
230
1.0
  2
SOLID
 70
     1
 71
     0
 91
        1
 92
        0
 93
        4
 72
     1
 10
0.2922894656102459
 20
-35.8
 11
-3.153985778226843
 21
-35.8
 72
     1
 10
-3.153985778226842
 20
-35.8
 11
-10.20242268011612
 21
-44.20000000000002
 72
     1
 10
-10.20242268011612
 20
-44.20000000000002
 11
-6.756147436278837
 21
-44.20000000000002
 72
     1
 10
-6.756147436278837
 20
-44.20000000000002
 11
0.2922894656102457
 21
-35.8
 97
        0
 75
     0
 76
     1
 98
        1
 10
0.0
 20
0.0
  0
HATCH
  5
F6
330
1F
100
AcDbEntity
  8
중심선
100
AcDbHatch
 10
0.0
 20
0.0
 30
0.0
210
0.0
220
0.0
230
1.0
  2
SOLID
 70
     1
 71
     0
 91
        1
 92
        0
 93
        6
 72
     3
 10
5.092179896622445
 20
-40.00000000005127
 11
3.960054785062284
 21
1.540850780301639E-10
 40
0.3939339440162633
 50
17.09539180608434
 51
320.0019657685079
 73
     0
 72
     1
 10
6.77517955232304
 20
-38.5878940046383
 11
9.080481426024106
 21
-36.65356729459035
 72
     3
 10
5.092179896569599
 20
-40.00000000000015
 11
6.600054785286829
 21
-1.249000902703301E-13
 40
0.6363583540795982
 50
39.99873849337413
 51
368.4976242363725
 73
     1
 72
     1
 10
11.51751238847021
 20
-39.03999999993002
 11
3.772247203405549
 21
-39.03999999993002
 72
     1
 10
3.772247203405549
 20
-39.03999999993002
 11
3.772222158959587
 21
-40.95999999992991
 72
     1
 10
3.772222158959587
 20
-40.95999999992991
 11
8.213601928431624
 21
-40.95999999992988
 97
        0
 75
     0
 76
     1
 98
        1
 10
0.0
 20
0.0
  0
DIMENSION
  5
F7
330
1F
100
AcDbEntity
  8
치수문자_일반주서
100
AcDbDimension
  2
_D
 10
31.77250467310349
 20
1.000000000000043
 30
0.0
 11
31.77250467310345
 21
10.66650000000004
 31
0.0
 70
   160
  1
%%c<>
 71
     2
 42
2.000000000000011
 52
-270.0
  3
SLDDIMSTYLE0
100
AcDbAlignedDimension
 13
22.46410161513775
 23
-1.000000000000004
 33
0.0
 14
22.46410161513775
 24
1.000000000000007
 34
0.0
 50
90.0000000000002
100
AcDbRotatedDimension
  0
DIMENSION
  5
105
330
1F
100
AcDbEntity
  8
치수문자_일반주서
100
AcDbDimension
  2
_D_1
 10
22.46410161513774
 20
20.38913260158165
 30
0.0
 11
-2.535898384862258
 21
20.38913260158165
 31
0.0
 70
   160
  1
<>
 71
     2
 42
50.0
  3
SLDDIMSTYLE1
100
AcDbAlignedDimension
 13
-27.53589838486226
 23
2.499999999999997
 33
0.0
 14
22.46410161513774
 24
1.000000000000004
 34
0.0
100
AcDbRotatedDimension
  0
DIMENSION
  5
110
330
1F
100
AcDbEntity
  8
치수문자_일반주서
100
AcDbDimension
  2
_D_2
 10
-32.65308742506459
 20
-3.000000000000023
 30
0.0
 11
-32.65308742506465
 21
12.66649999999998
 31
0.0
 70
   160
  1
%%c<>
 71
     2
 42
6.000000000000005
 52
-270.0
  3
SLDDIMSTYLE2
100
AcDbAlignedDimension
 13
-27.03589838486227
 23
3.000000000000004
 33
0.0
 14
-27.03589838486227
 24
-3.000000000000001
 34
0.0
 50
90.0000000000002
100
AcDbRotatedDimension
  0
DIMENSION
  5
11E
330
1F
100
AcDbEntity
  8
치수문자_일반주서
100
AcDbDimension
  2
_D_3
 10
22.46410161513774
 20
11.80881441079415
 30
0.0
 11
16.46410161513774
 21
11.80881441079415
 31
0.0
 70
   160
  1
<>
 71
     2
 42
12.0
  3
SLDDIMSTYLE2
100
AcDbAlignedDimension
 13
10.46410161513774
 23
0.9628961082064946
 33
0.0
 14
22.46410161513774
 24
1.000000000000004
 34
0.0
100
AcDbRotatedDimension
  0
INSERT
  5
130
330
1F
100
AcDbEntity
  8
해칭선
100
AcDbBlockReference
  2
SW_DOWELSYMBOL_0
 10
-0.0078770781024636
 20
-0.0000000000000042
 30
0.0
  0
LINE
  5
160
330
1F
100
AcDbEntity
  8
0
  6
Continuous
 62
     4
370
    25
100
AcDbLine
 10
10.46410161513774
 20
1.000000000000002
 30
0.0
 11
10.46410161513774
 21
-0.9999999999999993
 31
0.0
  0
ENDSEC
  0
SECTION
  2
OBJECTS
  0
DICTIONARY
  5
C
330
0
100
AcDbDictionary
281
     1
  3
ACAD_GROUP
350
D
  3
ACAD_IMAGE_VARS
350
154
  3
ACAD_LAYOUT
350
1A
  3
ACAD_MLINESTYLE
350
17
  3
ACAD_PLOTSETTINGS
350
19
  3
ACAD_PLOTSTYLENAME
350
E
  3
ACAD_SCALELIST
350
47
  3
APPDATA
350
152
  3
DWGPROPS
350
162
  0
DICTIONARY
  5
D
102
{ACAD_REACTORS
330
C
102
}
330
C
100
AcDbDictionary
281
     1
  0
RASTERVARIABLES
  5
154
102
{ACAD_REACTORS
330
C
102
}
330
C
100
AcDbRasterVariables
 90
        0
 70
     1
 71
     1
 72
     1
  0
DICTIONARY
  5
1A
102
{ACAD_REACTORS
330
C
102
}
330
C
100
AcDbDictionary
281
     1
  3
Layout1
350
1E
  3
Layout2
350
26
  3
Model
350
22
  0
DICTIONARY
  5
17
102
{ACAD_REACTORS
330
C
102
}
330
C
100
AcDbDictionary
281
     1
  3
Standard
350
18
  0
DICTIONARY
  5
19
102
{ACAD_REACTORS
330
C
102
}
330
C
100
AcDbDictionary
281
     1
  0
ACDBDICTIONARYWDFLT
  5
E
102
{ACAD_REACTORS
330
C
102
}
330
C
100
AcDbDictionary
281
     1
  3
Normal
350
F
100
AcDbDictionaryWithDefault
340
F
  0
DICTIONARY
  5
47
102
{ACAD_REACTORS
330
C
102
}
330
C
100
AcDbDictionary
281
     1
  3
A0
350
48
  3
A1
350
49
  3
A2
350
4A
  3
A3
350
4B
  3
A4
350
4C
  3
A5
350
4D
  3
A6
350
4E
  3
A7
350
4F
  3
A8
350
50
  3
A9
350
51
  3
B0
350
52
  3
B1
350
53
  3
B2
350
54
  3
B3
350
55
  3
B4
350
56
  3
B5
350
57
  3
B6
350
58
  3
B7
350
59
  3
B8
350
5A
  3
B9
350
5B
  3
C0
350
5C
  3
C1
350
5D
  3
C2
350
5E
  3
C3
350
5F
  3
C4
350
60
  3
C5
350
61
  3
C6
350
62
  3
C7
350
63
  3
C8
350
64
  3
C9
350
65
  3
D0
350
66
  3
D1
350
67
  3
D2
350
68
  0
DICTIONARY
  5
152
102
{ACAD_REACTORS
330
C
102
}
330
C
100
AcDbDictionary
281
     1
  0
XRECORD
  5
162
102
{ACAD_REACTORS
330
C
102
}
330
C
100
AcDbXrecord
280
     1
  1
DWGPROPS COOKIE
  2

  3

  4

  6

  7

  8
12014102
  9

300
=
301
=
302
=
303
=
304
=
305
=
306
=
307
=
308
=
309
=
 40
0.0
 41
2458260.111740058
 42
2458266.436789722
  1

 90
        0
  0
LAYOUT
  5
1E
102
{ACAD_REACTORS
330
1A
102
}
330
1A
100
AcDbPlotSettings
  1

  2
none_device
  4

  6

 40
0.0
 41
0.0
 42
0.0
 43
0.0
 44
0.0
 45
0.0
 46
0.0
 47
0.0
 48
0.0
 49
0.0
140
0.0
141
0.0
142
1.0
143
1.0
 70
   688
 72
     1
 73
     0
 74
     5
  7

 75
    16
147
1.0
148
0.0
149
0.0
100
AcDbLayout
  1
Layout1
 70
     1
 71
     1
 10
0.0
 20
0.0
 11
420.0
 21
297.0
 12
0.0
 22
0.0
 32
0.0
 14
1.000000000000000E+20
 24
1.000000000000000E+20
 34
1.000000000000000E+20
 15
-1.000000000000000E+20
 25
-1.000000000000000E+20
 35
-1.000000000000000E+20
146
0.0
 13
0.0
 23
0.0
 33
0.0
 16
1.0
 26
0.0
 36
0.0
 17
0.0
 27
1.0
 37
0.0
 76
     0
330
1B
  0
LAYOUT
  5
26
102
{ACAD_REACTORS
330
1A
102
}
330
1A
100
AcDbPlotSettings
  1

  2
none_device
  4

  6

 40
0.0
 41
0.0
 42
0.0
 43
0.0
 44
0.0
 45
0.0
 46
0.0
 47
0.0
 48
0.0
 49
0.0
140
0.0
141
0.0
142
1.0
143
1.0
 70
   688
 72
     1
 73
     0
 74
     5
  7

 75
    16
147
1.0
148
0.0
149
0.0
100
AcDbLayout
  1
Layout2
 70
     1
 71
     2
 10
0.0
 20
0.0
 11
0.0
 21
0.0
 12
0.0
 22
0.0
 32
0.0
 14
0.0
 24
0.0
 34
0.0
 15
0.0
 25
0.0
 35
0.0
146
0.0
 13
0.0
 23
0.0
 33
0.0
 16
1.0
 26
0.0
 36
0.0
 17
0.0
 27
1.0
 37
0.0
 76
     0
330
23
  0
LAYOUT
  5
22
102
{ACAD_REACTORS
330
1A
102
}
330
1A
100
AcDbPlotSettings
  1

  2
none_device
  4
ANSI_A_(11.00_x_8.50_Inches)
  6

 40
6.35
 41
19.05
 42
6.35000508
 43
19.05000254
 44
279.4
 45
215.9
 46
139.3830886945288
 47
125.3847137330092
 48
0.0
 49
0.0
140
0.0
141
0.0
142
0.1112850254374007
143
1.0
 70
  1696
 72
     0
 73
     0
 74
     0
  7

 75
     0
147
0.0235690232323232
148
0.0
149
0.0
100
AcDbLayout
  1
Model
 70
     1
 71
     0
 10
0.0
 20
0.0
 11
420.0
 21
297.0
 12
0.0
 22
0.0
 32
0.0
 14
-37.02808742506465
 24
-49.97180738881174
 34
0.0
 15
38.28259113972197
 25
24.76413260158165
 35
0.0
146
0.0
 13
0.0
 23
0.0
 33
0.0
 16
1.0
 26
0.0
 36
0.0
 17
0.0
 27
1.0
 37
0.0
 76
     0
330
1F
331
29
  0
MLINESTYLE
  5
18
102
{ACAD_REACTORS
330
17
102
}
330
17
100
AcDbMlineStyle
  2
Standard
 70
     0
  3

 62
   256
 51
90.0
 52
90.0
 71
     2
 49
0.5
 62
   256
  6
BYLAYER
 49
-0.5
 62
   256
  6
BYLAYER
  0
ACDBPLACEHOLDER
  5
F
102
{ACAD_REACTORS
330
E
102
}
330
E
  0
SCALE
  5
48
102
{ACAD_REACTORS
330
47
102
}
330
47
100
AcDbScale
 70
     0
300
1:1
140
1.0
141
1.0
290
     1
  0
SCALE
  5
49
102
{ACAD_REACTORS
330
47
102
}
330
47
100
AcDbScale
 70
     0
300
1:2
140
1.0
141
2.0
290
     0
  0
SCALE
  5
4A
102
{ACAD_REACTORS
330
47
102
}
330
47
100
AcDbScale
 70
     0
300
1:4
140
1.0
141
4.0
290
     0
  0
SCALE
  5
4B
102
{ACAD_REACTORS
330
47
102
}
330
47
100
AcDbScale
 70
     0
300
1:5
140
1.0
141
5.0
290
     0
  0
SCALE
  5
4C
102
{ACAD_REACTORS
330
47
102
}
330
47
100
AcDbScale
 70
     0
300
1:8
140
1.0
141
8.0
290
     0
  0
SCALE
  5
4D
102
{ACAD_REACTORS
330
47
102
}
330
47
100
AcDbScale
 70
     0
300
1:10
140
1.0
141
10.0
290
     0
  0
SCALE
  5
4E
102
{ACAD_REACTORS
330
47
102
}
330
47
100
AcDbScale
 70
     0
300
1:16
140
1.0
141
16.0
290
     0
  0
SCALE
  5
4F
102
{ACAD_REACTORS
330
47
102
}
330
47
100
AcDbScale
 70
     0
300
1:20
140
1.0
141
20.0
290
     0
  0
SCALE
  5
50
102
{ACAD_REACTORS
330
47
102
}
330
47
100
AcDbScale
 70
     0
300
1:30
140
1.0
141
30.0
290
     0
  0
SCALE
  5
51
102
{ACAD_REACTORS
330
47
102
}
330
47
100
AcDbScale
 70
     0
300
1:40
140
1.0
141
40.0
290
     0
  0
SCALE
  5
52
102
{ACAD_REACTORS
330
47
102
}
330
47
100
AcDbScale
 70
     0
300
1:50
140
1.0
141
50.0
290
     0
  0
SCALE
  5
53
102
{ACAD_REACTORS
330
47
102
}
330
47
100
AcDbScale
 70
     0
300
1:100
140
1.0
141
100.0
290
     0
  0
SCALE
  5
54
102
{ACAD_REACTORS
330
47
102
}
330
47
100
AcDbScale
 70
     0
300
2:1
140
2.0
141
1.0
290
     0
  0
SCALE
  5
55
102
{ACAD_REACTORS
330
47
102
}
330
47
100
AcDbScale
 70
     0
300
4:1
140
4.0
141
1.0
290
     0
  0
SCALE
  5
56
102
{ACAD_REACTORS
330
47
102
}
330
47
100
AcDbScale
 70
     0
300
8:1
140
8.0
141
1.0
290
     0
  0
SCALE
  5
57
102
{ACAD_REACTORS
330
47
102
}
330
47
100
AcDbScale
 70
     0
300
10:1
140
10.0
141
1.0
290
     0
  0
SCALE
  5
58
102
{ACAD_REACTORS
330
47
102
}
330
47
100
AcDbScale
 70
     0
300
100:1
140
100.0
141
1.0
290
     0
  0
SCALE
  5
59
102
{ACAD_REACTORS
330
47
102
}
330
47
100
AcDbScale
 70
     0
300
1/128" = 1'-0"
140
0.0078125
141
12.0
290
     0
  0
SCALE
  5
5A
102
{ACAD_REACTORS
330
47
102
}
330
47
100
AcDbScale
 70
     0
300
1/64" = 1'-0"
140
0.015625
141
12.0
290
     0
  0
SCALE
  5
5B
102
{ACAD_REACTORS
330
47
102
}
330
47
100
AcDbScale
 70
     0
300
1/32" = 1'-0"
140
0.03125
141
12.0
290
     0
  0
SCALE
  5
5C
102
{ACAD_REACTORS
330
47
102
}
330
47
100
AcDbScale
 70
     0
300
1/16" = 1'-0"
140
0.0625
141
12.0
290
     0
  0
SCALE
  5
5D
102
{ACAD_REACTORS
330
47
102
}
330
47
100
AcDbScale
 70
     0
300
3/32" = 1'-0"
140
0.09375
141
12.0
290
     0
  0
SCALE
  5
5E
102
{ACAD_REACTORS
330
47
102
}
330
47
100
AcDbScale
 70
     0
300
1/8" = 1'-0"
140
0.125
141
12.0
290
     0
  0
SCALE
  5
5F
102
{ACAD_REACTORS
330
47
102
}
330
47
100
AcDbScale
 70
     0
300
3/16" = 1'-0"
140
0.1875
141
12.0
290
     0
  0
SCALE
  5
60
102
{ACAD_REACTORS
330
47
102
}
330
47
100
AcDbScale
 70
     0
300
1/4" = 1'-0"
140
0.25
141
12.0
290
     0
  0
SCALE
  5
61
102
{ACAD_REACTORS
330
47
102
}
330
47
100
AcDbScale
 70
     0
300
3/8" = 1'-0"
140
0.375
141
12.0
290
     0
  0
SCALE
  5
62
102
{ACAD_REACTORS
330
47
102
}
330
47
100
AcDbScale
 70
     0
300
1/2" = 1'-0"
140
0.5
141
12.0
290
     0
  0
SCALE
  5
63
102
{ACAD_REACTORS
330
47
102
}
330
47
100
AcDbScale
 70
     0
300
3/4" = 1'-0"
140
0.75
141
12.0
290
     0
  0
SCALE
  5
64
102
{ACAD_REACTORS
330
47
102
}
330
47
100
AcDbScale
 70
     0
300
1" = 1'-0"
140
1.0
141
12.0
290
     0
  0
SCALE
  5
65
102
{ACAD_REACTORS
330
47
102
}
330
47
100
AcDbScale
 70
     0
300
1-1/2" = 1'-0"
140
1.5
141
12.0
290
     0
  0
SCALE
  5
66
102
{ACAD_REACTORS
330
47
102
}
330
47
100
AcDbScale
 70
     0
300
3" = 1'-0"
140
3.0
141
12.0
290
     0
  0
SCALE
  5
67
102
{ACAD_REACTORS
330
47
102
}
330
47
100
AcDbScale
 70
     0
300
6" = 1'-0"
140
6.0
141
12.0
290
     0
  0
SCALE
  5
68
102
{ACAD_REACTORS
330
47
102
}
330
47
100
AcDbScale
 70
     0
300
1'-0" = 1'-0"
140
12.0
141
12.0
290
     0
  0
ENDSEC
  0
EOF
