  0
SECTION
  2
HEADER
  9
$ACADVER
  1
AC1015
  9
$ACADMAINTVER
 70
     6
  9
$DWGCODEPAGE
  3
ANSI_949
  9
$INSBASE
 10
0.0
 20
0.0
 30
0.0
  9
$EXTMIN
 10
-37.49635671380126
 20
-49.97180738881174
 30
0.0
  9
$EXTMAX
 10
37.3409244730553
 20
24.76413260158165
 30
0.0
  9
$LIMMIN
 10
0.0
 20
0.0
  9
$LIMMAX
 10
420.0
 20
297.0
  9
$ORTHOMODE
 70
     0
  9
$REGENMODE
 70
     1
  9
$FILLMODE
 70
     1
  9
$QTEXTMODE
 70
     0
  9
$MIRRTEXT
 70
     1
  9
$LTSCALE
 40
1.0
  9
$ATTMODE
 70
     1
  9
$TEXTSIZE
 40
3.5
  9
$TRACEWID
 40
1.0
  9
$TEXTSTYLE
  7
Standard
  9
$CLAYER
  8
0
  9
$CELTYPE
  6
ByLayer
  9
$CECOLOR
 62
   256
  9
$CELTSCALE
 40
1.0
  9
$DISPSILH
 70
     0
  9
$DIMSCALE
 40
1.0
  9
$DIMASZ
 40
3.302
  9
$DIMEXO
 40
1.0
  9
$DIMDLI
 40
3.75
  9
$DIMRND
 40
0.0
  9
$DIMDLE
 40
0.0
  9
$DIMEXE
 40
1.0
  9
$DIMTP
 40
0.0
  9
$DIMTM
 40
0.0
  9
$DIMTXT
 40
3.5
  9
$DIMCEN
 40
2.5
  9
$DIMTSZ
 40
0.0
  9
$DIMTOL
 70
     0
  9
$DIMLIM
 70
     0
  9
$DIMTIH
 70
     1
  9
$DIMTOH
 70
     1
  9
$DIMSE1
 70
     0
  9
$DIMSE2
 70
     0
  9
$DIMTAD
 70
     1
  9
$DIMZIN
 70
     0
  9
$DIMBLK
  1

  9
$DIMASO
 70
     1
  9
$DIMSHO
 70
     1
  9
$DIMPOST
  1

  9
$DIMAPOST
  1

  9
$DIMALT
 70
     0
  9
$DIMALTD
 70
     3
  9
$DIMALTF
 40
0.0393700787401575
  9
$DIMLFAC
 40
1.0
  9
$DIMTOFL
 70
     1
  9
$DIMTVP
 40
0.0
  9
$DIMTIX
 70
     0
  9
$DIMSOXD
 70
     0
  9
$DIMSAH
 70
     0
  9
$DIMBLK1
  1

  9
$DIMBLK2
  1

  9
$DIMSTYLE
  2
ISO-25
  9
$DIMCLRD
 70
     0
  9
$DIMCLRE
 70
     0
  9
$DIMCLRT
 70
     0
  9
$DIMTFAC
 40
1.0
  9
$DIMGAP
 40
1.524
  9
$DIMJUST
 70
     0
  9
$DIMSD1
 70
     0
  9
$DIMSD2
 70
     0
  9
$DIMTOLJ
 70
     0
  9
$DIMTZIN
 70
     0
  9
$DIMALTZ
 70
     0
  9
$DIMALTTZ
 70
     0
  9
$DIMUPT
 70
     0
  9
$DIMDEC
 70
     2
  9
$DIMTDEC
 70
     2
  9
$DIMALTU
 70
     2
  9
$DIMALTTD
 70
     3
  9
$DIMTXSTY
  7
Standard
  9
$DIMAUNIT
 70
     0
  9
$DIMADEC
 70
     2
  9
$DIMALTRND
 40
0.0
  9
$DIMAZIN
 70
     0
  9
$DIMDSEP
 70
    44
  9
$DIMATFIT
 70
     3
  9
$DIMFRAC
 70
     0
  9
$DIMLDRBLK
  1

  9
$DIMLUNIT
 70
     2
  9
$DIMLWD
 70
    -2
  9
$DIMLWE
 70
    -2
  9
$DIMTMOVE
 70
     0
  9
$LUNITS
 70
     2
  9
$LUPREC
 70
     2
  9
$SKETCHINC
 40
1.0
  9
$FILLETRAD
 40
10.0
  9
$AUNITS
 70
     0
  9
$AUPREC
 70
     2
  9
$MENU
  1
.
  9
$ELEVATION
 40
0.0
  9
$PELEVATION
 40
0.0
  9
$THICKNESS
 40
0.0
  9
$LIMCHECK
 70
     0
  9
$CHAMFERA
 40
0.0
  9
$CHAMFERB
 40
0.0
  9
$CHAMFERC
 40
0.0
  9
$CHAMFERD
 40
0.0
  9
$SKPOLY
 70
     0
  9
$TDCREATE
 40
2458260.48787412
  9
$TDUCREATE
 40
2458260.11287412
  9
$TDUPDATE
 40
2458266.813115266
  9
$TDUUPDATE
 40
2458266.438115266
  9
$TDINDWG
 40
0.0012165162
  9
$TDUSRTIMER
 40
2458266.436898785
  9
$USRTIMER
 70
     1
  9
$ANGBASE
 50
0.0
  9
$ANGDIR
 70
     0
  9
$PDMODE
 70
     0
  9
$PDSIZE
 40
-1.0
  9
$PLINEWID
 40
0.0
  9
$SPLFRAME
 70
     0
  9
$SPLINETYPE
 70
     6
  9
$SPLINESEGS
 70
     8
  9
$HANDSEED
  5
14C
  9
$SURFTAB1
 70
     6
  9
$SURFTAB2
 70
     6
  9
$SURFTYPE
 70
     6
  9
$SURFU
 70
     6
  9
$SURFV
 70
     6
  9
$UCSBASE
  2

  9
$UCSNAME
  2

  9
$UCSORG
 10
0.0
 20
0.0
 30
0.0
  9
$UCSXDIR
 10
1.0
 20
0.0
 30
0.0
  9
$UCSYDIR
 10
0.0
 20
1.0
 30
0.0
  9
$UCSORTHOREF
  2

  9
$UCSORTHOVIEW
 70
     0
  9
$UCSORGTOP
 10
0.0
 20
0.0
 30
0.0
  9
$UCSORGBOTTOM
 10
0.0
 20
0.0
 30
0.0
  9
$UCSORGLEFT
 10
0.0
 20
0.0
 30
0.0
  9
$UCSORGRIGHT
 10
0.0
 20
0.0
 30
0.0
  9
$UCSORGFRONT
 10
0.0
 20
0.0
 30
0.0
  9
$UCSORGBACK
 10
0.0
 20
0.0
 30
0.0
  9
$PUCSBASE
  2

  9
$PUCSNAME
  2

  9
$PUCSORG
 10
0.0
 20
0.0
 30
0.0
  9
$PUCSXDIR
 10
1.0
 20
0.0
 30
0.0
  9
$PUCSYDIR
 10
0.0
 20
1.0
 30
0.0
  9
$PUCSORTHOREF
  2

  9
$PUCSORTHOVIEW
 70
     0
  9
$PUCSORGTOP
 10
0.0
 20
0.0
 30
0.0
  9
$PUCSORGBOTTOM
 10
0.0
 20
0.0
 30
0.0
  9
$PUCSORGLEFT
 10
0.0
 20
0.0
 30
0.0
  9
$PUCSORGRIGHT
 10
0.0
 20
0.0
 30
0.0
  9
$PUCSORGFRONT
 10
0.0
 20
0.0
 30
0.0
  9
$PUCSORGBACK
 10
0.0
 20
0.0
 30
0.0
  9
$USERI1
 70
     0
  9
$USERI2
 70
     0
  9
$USERI3
 70
     0
  9
$USERI4
 70
     0
  9
$USERI5
 70
     0
  9
$USERR1
 40
0.0
  9
$USERR2
 40
0.0
  9
$USERR3
 40
0.0
  9
$USERR4
 40
0.0
  9
$USERR5
 40
0.0
  9
$WORLDVIEW
 70
     1
  9
$SHADEDGE
 70
     3
  9
$SHADEDIF
 70
    70
  9
$TILEMODE
 70
     1
  9
$MAXACTVP
 70
    64
  9
$PINSBASE
 10
0.0
 20
0.0
 30
0.0
  9
$PLIMCHECK
 70
     0
  9
$PEXTMIN
 10
1.000000000000000E+20
 20
1.000000000000000E+20
 30
1.000000000000000E+20
  9
$PEXTMAX
 10
-1.000000000000000E+20
 20
-1.000000000000000E+20
 30
-1.000000000000000E+20
  9
$PLIMMIN
 10
0.0
 20
0.0
  9
$PLIMMAX
 10
0.0
 20
0.0
  9
$UNITMODE
 70
     0
  9
$VISRETAIN
 70
     1
  9
$PLINEGEN
 70
     0
  9
$PSLTSCALE
 70
     1
  9
$TREEDEPTH
 70
  3020
  9
$CMLSTYLE
  2
Standard
  9
$CMLJUST
 70
     0
  9
$CMLSCALE
 40
20.0
  9
$PROXYGRAPHICS
 70
     1
  9
$MEASUREMENT
 70
     1
  9
$CELWEIGHT
370
    -1
  9
$ENDCAPS
280
     0
  9
$JOINSTYLE
280
     0
  9
$LWDISPLAY
290
     1
  9
$INSUNITS
 70
     4
  9
$HYPERLINKBASE
  1

  9
$STYLESHEET
  1

  9
$XEDIT
290
     1
  9
$CEPSNTYPE
380
     0
  9
$PSTYLEMODE
290
     1
  9
$FINGERPRINTGUID
  2
{B3364EE4-04D6-408A-B8EC-36461221B1C6}
  9
$VERSIONGUID
  2
{FAEB1C32-E019-11D5-929B-00C0DF256EC4}
  9
$EXTNAMES
290
     1
  9
$PSVPSCALE
 40
0.0
  9
$OLESTARTUP
290
     0
  0
ENDSEC
  0
SECTION
  2
CLASSES
  0
CLASS
  1
ACDBDICTIONARYWDFLT
  2
AcDbDictionaryWithDefault
  3
ObjectDBX Classes
 90
        0
280
     0
281
     0
  0
CLASS
  1
VISUALSTYLE
  2
AcDbVisualStyle
  3
ObjectDBX Classes
 90
     4095
280
     0
281
     0
  0
CLASS
  1
MATERIAL
  2
AcDbMaterial
  3
ObjectDBX Classes
 90
     1153
280
     0
281
     0
  0
CLASS
  1
SCALE
  2
AcDbScale
  3
ObjectDBX Classes
 90
     1153
280
     0
281
     0
  0
CLASS
  1
TABLESTYLE
  2
AcDbTableStyle
  3
ObjectDBX Classes
 90
     4095
280
     0
281
     0
  0
CLASS
  1
MLEADERSTYLE
  2
AcDbMLeaderStyle
  3
ACDB_MLEADERSTYLE_CLASS
 90
     4095
280
     0
281
     0
  0
CLASS
  1
SUN
  2
AcDbSun
  3
SCENEOE
 90
     1153
280
     0
281
     0
  0
CLASS
  1
ACDBPLACEHOLDER
  2
AcDbPlaceHolder
  3
ObjectDBX Classes
 90
        0
280
     0
281
     0
  0
CLASS
  1
LAYOUT
  2
AcDbLayout
  3
ObjectDBX Classes
 90
        0
280
     0
281
     0
  0
CLASS
  1
RASTERVARIABLES
  2
AcDbRasterVariables
  3
ISM
 90
        0
280
     0
281
     0
  0
ENDSEC
  0
SECTION
  2
TABLES
  0
TABLE
  2
VPORT
  5
8
330
0
100
AcDbSymbolTable
 70
     1
  0
VPORT
  5
29
330
8
100
AcDbSymbolTableRecord
100
AcDbViewportTableRecord
  2
*Active
 70
     0
 10
0.0
 20
0.0
 11
1.0
 21
1.0
 12
-0.0777161203729761
 22
-12.60383739361504
 13
0.0
 23
0.0
 14
10.0
 24
10.0
 15
10.0
 25
10.0
 16
0.0
 26
0.0
 36
1.0
 17
0.0
 27
0.0
 37
0.0
 40
76.23065879020126
 41
1.74031007751938
 42
50.0
 43
0.0
 44
0.0
 50
0.0
 51
0.0
 71
    16
 72
  2000
 73
     1
 74
     3
 75
     0
 76
     0
 77
     0
 78
     0
281
     0
 65
     1
110
0.0
120
0.0
130
0.0
111
1.0
121
0.0
131
0.0
112
0.0
122
1.0
132
0.0
 79
     0
146
0.0
  0
ENDTAB
  0
TABLE
  2
LTYPE
  5
5
330
0
100
AcDbSymbolTable
 70
     6
  0
LTYPE
  5
14
330
5
100
AcDbSymbolTableRecord
100
AcDbLinetypeTableRecord
  2
ByBlock
 70
     0
  3

 72
    65
 73
     0
 40
0.0
  0
LTYPE
  5
15
330
5
100
AcDbSymbolTableRecord
100
AcDbLinetypeTableRecord
  2
ByLayer
 70
     0
  3

 72
    65
 73
     0
 40
0.0
  0
LTYPE
  5
16
330
5
100
AcDbSymbolTableRecord
100
AcDbLinetypeTableRecord
  2
Continuous
 70
     0
  3
Solid line
 72
    65
 73
     0
 40
0.0
  0
LTYPE
  5
6E
330
5
100
AcDbSymbolTableRecord
100
AcDbLinetypeTableRecord
  2
HIDDEN
 70
     0
  3
Hidden __ __ __ __ __ __ __ __ __ __ __ __ __ __
 72
    65
 73
     2
 40
1.905
 49
1.27
 74
     0
 49
-0.635
 74
     0
  0
LTYPE
  5
6F
330
5
100
AcDbSymbolTableRecord
100
AcDbLinetypeTableRecord
  2
PHANTOM
 70
     0
  3
Phantom ______  __  __  ______  __  __  ______
 72
    65
 73
     6
 40
12.7
 49
6.35
 74
     0
 49
-1.27
 74
     0
 49
1.27
 74
     0
 49
-1.27
 74
     0
 49
1.27
 74
     0
 49
-1.27
 74
     0
  0
LTYPE
  5
70
330
5
100
AcDbSymbolTableRecord
100
AcDbLinetypeTableRecord
  2
CENTER
 70
     0
  3
Center ____ _ ____ _ ____ _ ____ _ ____ _ ____
 72
    65
 73
     4
 40
10.16
 49
6.35
 74
     0
 49
-1.27
 74
     0
 49
1.27
 74
     0
 49
-1.27
 74
     0
  0
LTYPE
  5
71
330
5
100
AcDbSymbolTableRecord
100
AcDbLinetypeTableRecord
  2
CENTERX2
 70
     0
  3
Center (2x) ________  __  ________  __  _____
 72
    65
 73
     4
 40
20.32
 49
12.7
 74
     0
 49
-2.54
 74
     0
 49
2.54
 74
     0
 49
-2.54
 74
     0
  0
LTYPE
  5
72
330
5
100
AcDbSymbolTableRecord
100
AcDbLinetypeTableRecord
  2
DOT2
 70
     0
  3
Dot (.5x) ........................................
 72
    65
 73
     2
 40
0.635
 49
0.0
 74
     0
 49
-0.635
 74
     0
  0
ENDTAB
  0
TABLE
  2
LAYER
  5
2
330
0
100
AcDbSymbolTable
 70
    17
  0
LAYER
  5
10
330
2
100
AcDbSymbolTableRecord
100
AcDbLayerTableRecord
  2
0
 70
     0
 62
     7
  6
Continuous
370
    -3
390
F
  0
LAYER
  5
73
330
2
100
AcDbSymbolTableRecord
100
AcDbLayerTableRecord
  2
FORMAT
 70
     0
 62
     2
  6
Continuous
370
    -3
390
F
  0
LAYER
  5
74
330
2
100
AcDbSymbolTableRecord
100
AcDbLayerTableRecord
  2
외형선
 70
     0
 62
   100
  6
Continuous
370
    35
390
F
  0
LAYER
  5
75
330
2
100
AcDbSymbolTableRecord
100
AcDbLayerTableRecord
  2
숨은선
 70
     0
 62
     2
  6
HIDDEN
370
    25
390
F
  0
LAYER
  5
76
330
2
100
AcDbSymbolTableRecord
100
AcDbLayerTableRecord
  2
중심선
 70
     0
 62
     1
  6
CENTERX2
370
    -3
390
F
  0
LAYER
  5
77
330
2
100
AcDbSymbolTableRecord
100
AcDbLayerTableRecord
  2
파단선
 70
     0
 62
     4
  6
Continuous
370
    -3
390
F
  0
LAYER
  5
78
330
2
100
AcDbSymbolTableRecord
100
AcDbLayerTableRecord
  2
해칭선
 70
     0
 62
   100
  6
Continuous
370
    -3
390
F
  0
LAYER
  5
79
330
2
100
AcDbSymbolTableRecord
100
AcDbLayerTableRecord
  2
가는실선
 70
     0
 62
     4
  6
Continuous
370
    -3
390
F
  0
LAYER
  5
7A
330
2
100
AcDbSymbolTableRecord
100
AcDbLayerTableRecord
  2
치수_보조선
 70
     0
 62
     4
  6
Continuous
370
    -3
390
F
  0
LAYER
  5
7B
330
2
100
AcDbSymbolTableRecord
100
AcDbLayerTableRecord
  2
치수문자_일반주서
 70
     0
 62
     7
  6
Continuous
370
    25
390
F
  0
LAYER
  5
7C
330
2
100
AcDbSymbolTableRecord
100
AcDbLayerTableRecord
  2
개별주서
 70
     0
 62
   100
  6
Continuous
370
    35
390
F
  0
LAYER
  5
7D
330
2
100
AcDbSymbolTableRecord
100
AcDbLayerTableRecord
  2
중간선
 70
     0
 62
     2
  6
Continuous
370
    25
390
F
  0
LAYER
  5
7E
330
2
100
AcDbSymbolTableRecord
100
AcDbLayerTableRecord
  2
윤곽선
 70
     0
 62
     3
  6
Continuous
370
    50
390
F
  0
LAYER
  5
7F
330
2
100
AcDbSymbolTableRecord
100
AcDbLayerTableRecord
  2
중심마크
 70
     0
 62
   100
  6
Continuous
370
    35
390
F
  0
LAYER
  5
80
330
2
100
AcDbSymbolTableRecord
100
AcDbLayerTableRecord
  2
가상선
 70
     0
 62
     4
  6
PHANTOM
370
    -3
390
F
  0
LAYER
  5
81
330
2
100
AcDbSymbolTableRecord
100
AcDbLayerTableRecord
  2
특수지정선
 70
     0
 62
     5
  6
CENTERX2
370
    70
390
F
  0
LAYER
  5
13B
330
2
100
AcDbSymbolTableRecord
100
AcDbLayerTableRecord
  2
Defpoints
 70
     0
 62
     7
  6
Continuous
290
     0
370
    -3
390
F
  0
ENDTAB
  0
TABLE
  2
STYLE
  5
3
330
0
100
AcDbSymbolTable
 70
     2
  0
STYLE
  5
11
330
3
100
AcDbSymbolTableRecord
100
AcDbTextStyleTableRecord
  2
Standard
 70
     0
 40
0.0
 41
1.0
 50
0.0
 71
     0
 42
3.5
  3
txt
  4

  0
STYLE
  5
97
330
3
100
AcDbSymbolTableRecord
100
AcDbTextStyleTableRecord
  2
SLDTEXTSTYLE0
 70
     0
 40
0.0
 41
0.75
 50
0.0
 71
     0
 42
3.5
  3
TXT
  4

  0
ENDTAB
  0
TABLE
  2
VIEW
  5
6
330
0
100
AcDbSymbolTable
 70
     0
  0
ENDTAB
  0
TABLE
  2
UCS
  5
7
330
0
100
AcDbSymbolTable
 70
     0
  0
ENDTAB
  0
TABLE
  2
APPID
  5
9
330
0
100
AcDbSymbolTable
 70
     1
  0
APPID
  5
12
330
9
100
AcDbSymbolTableRecord
100
AcDbRegAppTableRecord
  2
ACAD
 70
     0
  0
ENDTAB
  0
TABLE
  2
DIMSTYLE
  5
A
330
0
100
AcDbSymbolTable
 70
     4
100
AcDbDimStyleTable
  0
DIMSTYLE
105
27
330
A
100
AcDbSymbolTableRecord
100
AcDbDimStyleTableRecord
  2
ISO-25
 70
     0
 41
2.5
 42
0.625
 43
3.75
 44
1.25
 73
     0
 74
     0
 77
     1
 78
     8
140
2.5
141
2.5
143
0.03937007874016
147
0.625
171
     3
172
     1
178
     0
271
     2
272
     2
274
     3
278
    44
283
     0
284
     8
340
11
  0
DIMSTYLE
105
DE
102
{ACAD_REACTORS
330
DD
102
}
330
A
100
AcDbSymbolTableRecord
100
AcDbDimStyleTableRecord
  2
SLDDIMSTYLE0
 70
     0
 41
3.302
 44
0.0
 45
0.000000001
 73
     0
 74
     0
 77
     1
 78
    12
 79
     3
140
3.5
147
0.875
172
     1
173
     1
178
     0
271
     1
272
     1
276
     2
284
    12
289
     0
340
97
  0
DIMSTYLE
105
EC
102
{ACAD_REACTORS
330
EB
102
}
330
A
100
AcDbSymbolTableRecord
100
AcDbDimStyleTableRecord
  2
SLDDIMSTYLE1
 70
     0
 41
3.302
 44
0.0
 45
0.000000001
 73
     0
 74
     0
 77
     1
 78
    12
 79
     3
140
3.5
147
0.875
173
     1
178
     0
271
     2
272
     2
276
     2
284
    12
340
97
  0
DIMSTYLE
105
F7
102
{ACAD_REACTORS
330
F6
330
104
102
}
330
A
100
AcDbSymbolTableRecord
100
AcDbDimStyleTableRecord
  2
SLDDIMSTYLE2
 70
     0
 41
3.302
 44
0.0
 45
0.000000001
 73
     0
 74
     0
 77
     1
 78
    12
 79
     3
140
3.5
147
0.875
172
     1
173
     1
178
     0
271
     2
272
     2
276
     2
284
    12
289
     0
340
97
  0
ENDTAB
  0
TABLE
  2
BLOCK_RECORD
  5
1
330
0
100
AcDbSymbolTable
 70
     7
  0
BLOCK_RECORD
  5
1F
330
1
100
AcDbSymbolTableRecord
100
AcDbBlockTableRecord
  2
*Model_Space
340
22
  0
BLOCK_RECORD
  5
1B
330
1
100
AcDbSymbolTableRecord
100
AcDbBlockTableRecord
  2
*Paper_Space
340
1E
  0
BLOCK_RECORD
  5
23
330
1
100
AcDbSymbolTableRecord
100
AcDbBlockTableRecord
  2
*Paper_Space0
340
26
  0
BLOCK_RECORD
  5
82
330
1
100
AcDbSymbolTableRecord
100
AcDbBlockTableRecord
  2
블럭10
340
0
102
{BLKREFS
331
D6
102
}
  0
BLOCK_RECORD
  5
DF
330
1
100
AcDbSymbolTableRecord
100
AcDbBlockTableRecord
  2
_D
340
0
  0
BLOCK_RECORD
  5
ED
330
1
100
AcDbSymbolTableRecord
100
AcDbBlockTableRecord
  2
_D_1
340
0
  0
BLOCK_RECORD
  5
F8
330
1
100
AcDbSymbolTableRecord
100
AcDbBlockTableRecord
  2
_D_2
340
0
  0
BLOCK_RECORD
  5
105
330
1
100
AcDbSymbolTableRecord
100
AcDbBlockTableRecord
  2
_D_3
340
0
  0
BLOCK_RECORD
  5
110
330
1
100
AcDbSymbolTableRecord
100
AcDbBlockTableRecord
  2
SW_DOWELSYMBOL_0
340
0
102
{BLKREFS
331
116
102
}
  0
ENDTAB
  0
ENDSEC
  0
SECTION
  2
BLOCKS
  0
BLOCK
  5
20
330
1F
100
AcDbEntity
  8
0
100
AcDbBlockBegin
  2
*Model_Space
 70
     0
 10
0.0
 20
0.0
 30
0.0
  3
*Model_Space
  1

  0
ENDBLK
  5
21
330
1F
100
AcDbEntity
  8
0
100
AcDbBlockEnd
  0
BLOCK
  5
1C
330
1B
100
AcDbEntity
 67
     1
  8
0
100
AcDbBlockBegin
  2
*Paper_Space
 70
     0
 10
0.0
 20
0.0
 30
0.0
  3
*Paper_Space
  1

  0
ENDBLK
  5
1D
330
1B
100
AcDbEntity
 67
     1
  8
0
100
AcDbBlockEnd
  0
BLOCK
  5
24
330
23
100
AcDbEntity
  8
0
100
AcDbBlockBegin
  2
*Paper_Space0
 70
     0
 10
0.0
 20
0.0
 30
0.0
  3
*Paper_Space0
  1

  0
ENDBLK
  5
25
330
23
100
AcDbEntity
  8
0
100
AcDbBlockEnd
  0
BLOCK
  5
83
330
82
100
AcDbEntity
  8
0
100
AcDbBlockBegin
  2
블럭10
 70
     2
 10
0.0
 20
0.0
 30
0.0
  3
블럭10
  1

  0
ELLIPSE
  5
85
330
82
100
AcDbEntity
  8
중심선
100
AcDbEllipse
 10
20.54032771741204
 20
12.0471743016438
 30
0.0
 11
6.600054785286829
 21
-1.261213355974178E-13
 31
0.0
210
0.0
220
0.0
230
1.0
 40
0.636358354079598
 41
0.9219305317359503
 42
6.513795318482858
  0
ELLIPSE
  5
86
330
82
100
AcDbEntity
  8
중심선
100
AcDbEllipse
 10
20.54032771746488
 20
12.04717430159265
 30
0.0
 11
3.960054785062283
 21
1.540847449632565E-10
 31
0.0
210
0.0
220
0.0
230
1.0
 40
0.3939339440162632
 41
1.131841032648279
 42
5.62031148352944
  0
LINE
  5
87
330
82
100
AcDbEntity
  8
중심선
100
AcDbLine
 10
2.268634060543552
 20
16.24717430164393
 30
0.0
 11
5.714909304380834
 21
16.24717430164393
 31
0.0
  0
LINE
  5
88
330
82
100
AcDbEntity
  8
중심선
100
AcDbLine
 10
5.245725140726316
 20
7.84717430164391
 30
0.0
 11
8.692000384563599
 21
7.84717430164391
 31
0.0
  0
LINE
  5
89
330
82
100
AcDbEntity
  8
중심선
100
AcDbLine
 10
15.74043728645272
 20
16.24717430164393
 30
0.0
 11
8.692000384563599
 21
7.84717430164391
 31
0.0
  0
LINE
  5
8A
330
82
100
AcDbEntity
  8
중심선
100
AcDbLine
 10
0.1404042013395286
 20
13.71084872107135
 30
0.0
 11
3.58671253028996
 21
13.71088815037384
 31
0.0
  0
LINE
  5
8B
330
82
100
AcDbEntity
  8
중심선
100
AcDbLine
 10
2.750260043222114
 20
10.84717430164391
 30
0.0
 11
6.196535287059397
 21
10.84717430164391
 31
0.0
  0
LINE
  5
8C
330
82
100
AcDbEntity
  8
중심선
100
AcDbLine
 10
12.29416204261559
 20
16.24717430164393
 30
0.0
 11
5.245725140726316
 21
7.84717430164391
 31
0.0
  0
LINE
  5
8D
330
82
100
AcDbEntity
  8
중심선
100
AcDbLine
 10
10.72767329541681
 20
16.24717430164393
 30
0.0
 11
6.196535287059397
 21
10.84717430164391
 31
0.0
  0
LINE
  5
8E
330
82
100
AcDbEntity
  8
중심선
100
AcDbLine
 10
7.28139805157953
 20
16.24717430164393
 30
0.0
 11
2.750260043222114
 21
10.84717430164391
 31
0.0
  0
LINE
  5
8F
330
82
100
AcDbEntity
  8
중심선
100
AcDbLine
 10
5.714909304380834
 20
16.24717430164393
 30
0.0
 11
3.58671253028996
 21
13.71088815037384
 31
0.0
  0
LINE
  5
90
330
82
100
AcDbEntity
  8
중심선
100
AcDbLine
 10
2.268634060543552
 20
16.24717430164393
 30
0.0
 11
0.1404042013395286
 21
13.71084872107135
 31
0.0
  0
LINE
  5
91
330
82
100
AcDbEntity
  8
중심선
100
AcDbLine
 10
7.28139805157953
 20
16.24717430164393
 30
0.0
 11
10.72767329541681
 21
16.24717430164393
 31
0.0
  0
LINE
  5
92
330
82
100
AcDbEntity
  8
중심선
100
AcDbLine
 10
12.29416204261559
 20
16.24717430164393
 30
0.0
 11
15.74043728645272
 21
16.24717430164393
 31
0.0
  0
LINE
  5
93
330
82
100
AcDbEntity
  8
중심선
100
AcDbLine
 10
19.22036997980202
 20
11.08717430171403
 30
0.0
 11
23.66174974927406
 21
11.08717430171406
 31
0.0
  0
LINE
  5
94
330
82
100
AcDbEntity
  8
중심선
100
AcDbLine
 10
19.22039502424796
 20
13.00717430171391
 30
0.0
 11
19.22036997980202
 21
11.08717430171403
 31
0.0
  0
LINE
  5
95
330
82
100
AcDbEntity
  8
중심선
100
AcDbLine
 10
19.22039502424796
 20
13.00717430171391
 30
0.0
 11
26.96566020931264
 21
13.00717430171391
 31
0.0
  0
LINE
  5
96
330
82
100
AcDbEntity
  8
중심선
100
AcDbLine
 10
22.22332737316547
 20
13.45928029700563
 30
0.0
 11
24.52862924686651
 21
15.39360700705356
 31
0.0
  0
ATTDEF
  5
98
330
82
100
AcDbEntity
  8
FORMAT
 62
     2
100
AcDbText
 10
-16.11926103943555
 20
2.075366912832191
 30
0.0
 40
4.233333333333333
  1
SEME7102505E [ 4 FLUTE ]
 41
0.75
  7
SLDTEXTSTYLE0
 11
-16.11926103943555
 21
-0.0412997538344756
 31
0.0
100
AcDbAttributeDefinition
  3

  2
AUTOATTR0
 70
     0
 74
     1
  0
ENDBLK
  5
84
330
82
100
AcDbEntity
  8
0
100
AcDbBlockEnd
  0
BLOCK
  5
E0
330
DF
100
AcDbEntity
  8
0
100
AcDbBlockBegin
  2
_D
 70
     0
 10
0.0
 20
0.0
 30
0.0
  3
_D
  1

  0
LINE
  5
E2
330
DF
100
AcDbEntity
  8
치수문자_일반주서
 62
     0
370
    -2
100
AcDbLine
 10
14.59358891324553
 20
-1.250000000000005
 30
0.0
 11
27.5310889132455
 21
-1.249999999999957
 31
0.0
  0
LINE
  5
E3
330
DF
100
AcDbEntity
  8
치수문자_일반주서
 62
     0
370
    -2
100
AcDbLine
 10
14.59358891324553
 20
1.218957122944072
 30
0.0
 11
27.5310889132455
 21
1.218957122944119
 31
0.0
  0
LINE
  5
E4
330
DF
100
AcDbEntity
  8
치수문자_일반주서
 62
     0
370
    -2
100
AcDbLine
 10
27.5310889132455
 20
-1.249999999999957
 30
0.0
 11
27.53108891324545
 21
18.28100000000004
 31
0.0
  0
LINE
  5
E5
330
DF
100
AcDbEntity
  8
치수문자_일반주서
 62
     0
370
    -2
100
AcDbLine
 10
27.5310889132455
 20
-1.249999999999957
 30
0.0
 11
27.5310889132455
 21
1.218957122944119
 31
0.0
  0
LINE
  5
E6
330
DF
100
AcDbEntity
  8
치수문자_일반주서
 62
     0
370
    -2
100
AcDbLine
 10
27.53108891324552
 20
-4.551999999999957
 30
0.0
 11
27.53108891324553
 21
-7.853999999999957
 31
0.0
  0
LINE
  5
E7
330
DF
100
AcDbEntity
  8
치수문자_일반주서
 62
     0
370
    -2
100
AcDbLine
 10
27.53108891324549
 20
4.520957122944118
 30
0.0
 11
27.53108891324548
 21
7.822957122944118
 31
0.0
  0
SOLID
  5
E8
330
DF
100
AcDbEntity
  8
치수문자_일반주서
 62
     0
100
AcDbTrace
 10
28.08142224657885
 20
-4.551999999999955
 30
0.0
 11
26.98075557991218
 21
-4.551999999999959
 31
0.0
 12
27.5310889132455
 22
-1.249999999999957
 32
0.0
 13
27.5310889132455
 23
-1.249999999999957
 33
0.0
  0
SOLID
  5
E9
330
DF
100
AcDbEntity
  8
치수문자_일반주서
 62
     0
100
AcDbTrace
 10
26.98075557991215
 20
4.520957122944116
 30
0.0
 11
28.08142224657882
 21
4.52095712294412
 31
0.0
 12
27.5310889132455
 22
1.218957122944119
 32
0.0
 13
27.5310889132455
 23
1.218957122944119
 33
0.0
  0
MTEXT
  5
EA
330
DF
100
AcDbEntity
  8
치수문자_일반주서
 62
     0
100
AcDbMText
 10
23.15608891324546
 20
13.46850000000003
 30
0.0
 40
3.5
 41
0.0
 71
     2
 72
     1
  1
\A1;%%c2.5
  7
SLDTEXTSTYLE0
 11
-2.877906340118303E-15
 21
1.0
 31
0.0
 73
     1
 44
1.0
  0
POINT
  5
143
330
DF
100
AcDbEntity
  8
Defpoints
 62
     0
100
AcDbPoint
 10
14.53108891324553
 20
-1.250000000000005
 30
0.0
  0
POINT
  5
144
330
DF
100
AcDbEntity
  8
Defpoints
 62
     0
100
AcDbPoint
 10
14.53108891324553
 20
1.218957122944071
 30
0.0
  0
POINT
  5
145
330
DF
100
AcDbEntity
  8
Defpoints
 62
     0
100
AcDbPoint
 10
27.5310889132455
 20
1.21895712294412
 30
0.0
  0
ENDBLK
  5
E1
330
DF
100
AcDbEntity
  8
0
100
AcDbBlockEnd
  0
BLOCK
  5
EE
330
ED
100
AcDbEntity
  8
0
100
AcDbBlockBegin
  2
_D_1
 70
     0
 10
0.0
 20
0.0
 30
0.0
  3
_D_1
  1

  0
LINE
  5
F0
330
ED
100
AcDbEntity
  8
치수문자_일반주서
 62
     0
370
    -2
100
AcDbLine
 10
-25.46891108675448
 20
2.562499999999996
 30
0.0
 11
-25.46891108675448
 21
20.38913260158165
 31
0.0
  0
LINE
  5
F1
330
ED
100
AcDbEntity
  8
치수문자_일반주서
 62
     0
370
    -2
100
AcDbLine
 10
14.53108891324552
 20
1.312500000000002
 30
0.0
 11
14.53108891324553
 21
20.38913260158165
 31
0.0
  0
LINE
  5
F2
330
ED
100
AcDbEntity
  8
치수문자_일반주서
 62
     0
370
    -2
100
AcDbLine
 10
-22.16691108675448
 20
20.38913260158165
 30
0.0
 11
11.22908891324553
 21
20.38913260158165
 31
0.0
  0
SOLID
  5
F3
330
ED
100
AcDbEntity
  8
치수문자_일반주서
 62
     0
100
AcDbTrace
 10
-22.16691108675448
 20
20.93946593491498
 30
0.0
 11
-22.16691108675448
 21
19.83879926824831
 31
0.0
 12
-25.46891108675448
 22
20.38913260158165
 32
0.0
 13
-25.46891108675448
 23
20.38913260158165
 33
0.0
  0
SOLID
  5
F4
330
ED
100
AcDbEntity
  8
치수문자_일반주서
 62
     0
100
AcDbTrace
 10
11.22908891324553
 20
19.83879926824831
 30
0.0
 11
11.22908891324553
 21
20.93946593491498
 31
0.0
 12
14.53108891324553
 22
20.38913260158165
 32
0.0
 13
14.53108891324553
 23
20.38913260158165
 33
0.0
  0
MTEXT
  5
F5
330
ED
100
AcDbEntity
  8
치수문자_일반주서
 62
     0
100
AcDbMText
 10
-5.46891108675448
 20
24.76413260158165
 30
0.0
 40
3.5
 41
0.0
 71
     2
 72
     1
  1
\A1;40
  7
SLDTEXTSTYLE0
 73
     1
 44
1.0
  0
POINT
  5
13C
330
ED
100
AcDbEntity
  8
Defpoints
 62
     0
100
AcDbPoint
 10
-25.46891108675448
 20
2.499999999999996
 30
0.0
  0
POINT
  5
13D
330
ED
100
AcDbEntity
  8
Defpoints
 62
     0
100
AcDbPoint
 10
14.53108891324552
 20
1.250000000000002
 30
0.0
  0
POINT
  5
13E
330
ED
100
AcDbEntity
  8
Defpoints
 62
     0
100
AcDbPoint
 10
14.53108891324552
 20
20.38913260158165
 30
0.0
  0
ENDBLK
  5
EF
330
ED
100
AcDbEntity
  8
0
100
AcDbBlockEnd
  0
BLOCK
  5
F9
330
F8
100
AcDbEntity
  8
0
100
AcDbBlockBegin
  2
_D_2
 70
     0
 10
0.0
 20
0.0
 30
0.0
  3
_D_2
  1

  0
LINE
  5
FB
330
F8
100
AcDbEntity
  8
치수문자_일반주서
 62
     0
370
    -2
100
AcDbLine
 10
-25.03141108675448
 20
3.000000000000003
 30
0.0
 11
-33.12135671380121
 21
2.999999999999973
 31
0.0
  0
LINE
  5
FC
330
F8
100
AcDbEntity
  8
치수문자_일반주서
 62
     0
370
    -2
100
AcDbLine
 10
-25.03141108675448
 20
-3.000000000000003
 30
0.0
 11
-33.12135671380119
 21
-3.000000000000032
 31
0.0
  0
LINE
  5
FD
330
F8
100
AcDbEntity
  8
치수문자_일반주서
 62
     0
370
    -2
100
AcDbLine
 10
-33.12135671380121
 20
2.999999999999973
 30
0.0
 11
-33.12135671380126
 21
15.72899999999997
 31
0.0
  0
LINE
  5
FE
330
F8
100
AcDbEntity
  8
치수문자_일반주서
 62
     0
370
    -2
100
AcDbLine
 10
-33.12135671380121
 20
2.999999999999973
 30
0.0
 11
-33.12135671380119
 21
-3.000000000000032
 31
0.0
  0
LINE
  5
FF
330
F8
100
AcDbEntity
  8
치수문자_일반주서
 62
     0
370
    -2
100
AcDbLine
 10
-33.12135671380123
 20
6.301999999999973
 30
0.0
 11
-33.12135671380124
 21
9.603999999999973
 31
0.0
  0
LINE
  5
100
330
F8
100
AcDbEntity
  8
치수문자_일반주서
 62
     0
370
    -2
100
AcDbLine
 10
-33.12135671380118
 20
-6.302000000000032
 30
0.0
 11
-33.12135671380116
 21
-9.604000000000031
 31
0.0
  0
SOLID
  5
101
330
F8
100
AcDbEntity
  8
치수문자_일반주서
 62
     0
100
AcDbTrace
 10
-33.67169004713456
 20
6.301999999999971
 30
0.0
 11
-32.57102338046789
 21
6.301999999999975
 31
0.0
 12
-33.12135671380121
 22
2.999999999999973
 32
0.0
 13
-33.12135671380121
 23
2.999999999999973
 33
0.0
  0
SOLID
  5
102
330
F8
100
AcDbEntity
  8
치수문자_일반주서
 62
     0
100
AcDbTrace
 10
-32.57102338046784
 20
-6.30200000000003
 30
0.0
 11
-33.67169004713451
 21
-6.302000000000033
 31
0.0
 12
-33.12135671380119
 22
-3.000000000000032
 32
0.0
 13
-33.12135671380119
 23
-3.000000000000032
 33
0.0
  0
MTEXT
  5
103
330
F8
100
AcDbEntity
  8
치수문자_일반주서
 62
     0
100
AcDbMText
 10
-37.49635671380125
 20
12.66649999999996
 30
0.0
 40
3.5
 41
0.0
 71
     2
 72
     1
  1
\A1;%%c6
  7
SLDTEXTSTYLE0
 11
-3.552713678800498E-15
 21
1.0
 31
0.0
 73
     1
 44
1.0
  0
POINT
  5
140
330
F8
100
AcDbEntity
  8
Defpoints
 62
     0
100
AcDbPoint
 10
-24.96891108675448
 20
3.000000000000003
 30
0.0
  0
POINT
  5
141
330
F8
100
AcDbEntity
  8
Defpoints
 62
     0
100
AcDbPoint
 10
-24.96891108675448
 20
-3.000000000000002
 30
0.0
  0
POINT
  5
142
330
F8
100
AcDbEntity
  8
Defpoints
 62
     0
100
AcDbPoint
 10
-33.12135671380119
 20
-3.000000000000033
 30
0.0
  0
ENDBLK
  5
FA
330
F8
100
AcDbEntity
  8
0
100
AcDbBlockEnd
  0
BLOCK
  5
106
330
105
100
AcDbEntity
  8
0
100
AcDbBlockBegin
  2
_D_3
 70
     0
 10
0.0
 20
0.0
 30
0.0
  3
_D_3
  1

  0
LINE
  5
108
330
105
100
AcDbEntity
  8
치수문자_일반주서
 62
     0
370
    -2
100
AcDbLine
 10
9.531088913245522
 20
1.312500000000001
 30
0.0
 11
9.531088913245522
 21
14.25798915901846
 31
0.0
  0
LINE
  5
109
330
105
100
AcDbEntity
  8
치수문자_일반주서
 62
     0
370
    -2
100
AcDbLine
 10
14.53108891324552
 20
1.312500000000002
 30
0.0
 11
14.53108891324552
 21
14.25798915901846
 31
0.0
  0
LINE
  5
10A
330
105
100
AcDbEntity
  8
치수문자_일반주서
 62
     0
370
    -2
100
AcDbLine
 10
9.531088913245522
 20
14.25798915901846
 30
0.0
 11
-0.5729110867544804
 21
14.25798915901846
 31
0.0
  0
LINE
  5
10B
330
105
100
AcDbEntity
  8
치수문자_일반주서
 62
     0
370
    -2
100
AcDbLine
 10
9.531088913245522
 20
14.25798915901846
 30
0.0
 11
14.53108891324552
 21
14.25798915901846
 31
0.0
  0
LINE
  5
10C
330
105
100
AcDbEntity
  8
치수문자_일반주서
 62
     0
370
    -2
100
AcDbLine
 10
6.229088913245523
 20
14.25798915901846
 30
0.0
 11
2.927088913245523
 21
14.25798915901846
 31
0.0
  0
LINE
  5
10D
330
105
100
AcDbEntity
  8
치수문자_일반주서
 62
     0
370
    -2
100
AcDbLine
 10
17.83308891324552
 20
14.25798915901846
 30
0.0
 11
21.13508891324552
 21
14.25798915901846
 31
0.0
  0
SOLID
  5
10E
330
105
100
AcDbEntity
  8
치수문자_일반주서
 62
     0
100
AcDbTrace
 10
6.229088913245523
 20
13.70765582568512
 30
0.0
 11
6.229088913245523
 21
14.80832249235179
 31
0.0
 12
9.531088913245522
 22
14.25798915901846
 32
0.0
 13
9.531088913245522
 23
14.25798915901846
 33
0.0
  0
SOLID
  5
10F
330
105
100
AcDbEntity
  8
치수문자_일반주서
 62
     0
100
AcDbTrace
 10
17.83308891324552
 20
14.80832249235179
 30
0.0
 11
17.83308891324552
 21
13.70765582568512
 31
0.0
 12
14.53108891324552
 22
14.25798915901846
 32
0.0
 13
14.53108891324552
 23
14.25798915901846
 33
0.0
  0
MTEXT
  5
13F
330
105
100
AcDbEntity
  8
치수문자_일반주서
 62
     0
100
AcDbMText
 10
1.17708891324552
 20
18.63298915901846
 30
0.0
 40
3.5
 41
0.0
 71
     2
 72
     1
  1
\A1;5
  7
SLDTEXTSTYLE0
 73
     1
 44
1.0
  0
POINT
  5
146
330
105
100
AcDbEntity
  8
Defpoints
 62
     0
100
AcDbPoint
 10
9.531088913245522
 20
1.250000000000001
 30
0.0
  0
POINT
  5
147
330
105
100
AcDbEntity
  8
Defpoints
 62
     0
100
AcDbPoint
 10
14.53108891324552
 20
1.250000000000002
 30
0.0
  0
POINT
  5
148
330
105
100
AcDbEntity
  8
Defpoints
 62
     0
100
AcDbPoint
 10
14.53108891324552
 20
14.25798915901846
 30
0.0
  0
ENDBLK
  5
107
330
105
100
AcDbEntity
  8
0
100
AcDbBlockEnd
  0
BLOCK
  5
111
330
110
100
AcDbEntity
  8
0
100
AcDbBlockBegin
  2
SW_DOWELSYMBOL_0
 70
     0
 10
0.0
 20
0.0
 30
0.0
  3
SW_DOWELSYMBOL_0
  1

  0
CIRCLE
  5
113
330
110
100
AcDbEntity
  8
해칭선
 62
     0
100
AcDbCircle
 10
0.0
 20
0.0
 30
0.0
 40
3.000000000000001
  0
HATCH
  5
114
330
110
100
AcDbEntity
  8
0
  6
Continuous
 62
     0
370
    18
100
AcDbHatch
 10
0.0
 20
0.0
 30
0.0
210
0.0
220
0.0
230
1.0
  2
SOLID
 70
     1
 71
     0
 91
        1
 92
        0
 93
        3
 72
     2
 10
0.0
 20
0.0
 40
3.000000000000001
 50
0.0
 51
90.0
 73
     1
 72
     1
 10
0.0
 20
3.000000000000001
 11
0.0
 21
0.0
 72
     1
 10
0.0
 20
0.0
 11
3.000000000000001
 21
0.0
 97
        0
 75
     0
 76
     1
 98
        1
 10
0.0
 20
0.0
  0
HATCH
  5
115
330
110
100
AcDbEntity
  8
0
  6
Continuous
 62
     0
370
    18
100
AcDbHatch
 10
0.0
 20
0.0
 30
0.0
210
0.0
220
0.0
230
1.0
  2
SOLID
 70
     1
 71
     0
 91
        1
 92
        0
 93
        3
 72
     2
 10
0.0
 20
0.0
 40
3.000000000000001
 50
180.0
 51
270.0000000000008
 73
     1
 72
     1
 10
0.0
 20
-3.000000000000001
 11
0.0
 21
0.0
 72
     1
 10
0.0
 20
0.0
 11
-3.000000000000001
 21
0.0
 97
        0
 75
     0
 76
     1
 98
        1
 10
0.0
 20
0.0
  0
ENDBLK
  5
112
330
110
100
AcDbEntity
  8
0
100
AcDbBlockEnd
  0
ENDSEC
  0
SECTION
  2
ENTITIES
  0
LINE
  5
99
330
1F
100
AcDbEntity
  8
0
  6
Continuous
 62
     4
370
    25
100
AcDbLine
 10
2.0
 20
2.999999999999999
 30
0.0
 11
-24.96891108675448
 21
2.999999999999997
 31
0.0
  0
LINE
  5
9A
330
1F
100
AcDbEntity
  8
0
  6
Continuous
 62
     4
370
    25
100
AcDbLine
 10
-24.96891108675448
 20
-3.000000000000001
 30
0.0
 11
2.000000000000002
 21
-2.999999999999999
 31
0.0
  0
LINE
  5
9B
330
1F
100
AcDbEntity
  8
0
  6
Continuous
 62
     4
370
    25
100
AcDbLine
 10
2.0
 20
-3.0
 30
0.0
 11
8.031287587310853
 21
-1.383921361660198
 31
0.0
  0
LINE
  5
9C
330
1F
100
AcDbEntity
  8
0
  6
Continuous
 62
     4
370
    25
100
AcDbLine
 10
8.03128758731085
 20
1.383921361660199
 30
0.0
 11
2.0
 21
3.0
 31
0.0
  0
LINE
  5
9D
330
1F
100
AcDbEntity
  8
0
  6
Continuous
 62
     4
370
    25
100
AcDbLine
 10
-24.96891108675448
 20
2.999999999999997
 30
0.0
 11
-25.46891108675448
 21
2.499999999999996
 31
0.0
  0
LINE
  5
9E
330
1F
100
AcDbEntity
  8
0
  6
Continuous
 62
     4
370
    25
100
AcDbLine
 10
-25.46891108675448
 20
-2.5
 30
0.0
 11
-24.96891108675448
 21
-3.0
 31
0.0
  0
LINE
  5
9F
330
1F
100
AcDbEntity
  8
0
  6
Continuous
 62
     4
370
    25
100
AcDbLine
 10
9.147631974654775
 20
-1.25
 30
0.0
 11
9.531088913245522
 21
-1.25
 31
0.0
  0
LINE
  5
A0
330
1F
100
AcDbEntity
  8
0
  6
Continuous
 62
     4
370
    25
100
AcDbLine
 10
9.531088913245522
 20
1.25
 30
0.0
 11
9.147631974654775
 21
1.25
 31
0.0
  0
LINE
  5
A1
330
1F
100
AcDbEntity
  8
0
  6
Continuous
 62
     1
370
    25
100
AcDbLine
 10
14.1731240566052
 20
-1.25
 30
0.0
 11
14.53108891324552
 21
-1.25
 31
0.0
  0
LINE
  5
A2
330
1F
100
AcDbEntity
  8
0
  6
Continuous
 62
     1
370
    25
100
AcDbLine
 10
9.862028860901045
 20
1.250000000000001
 30
0.0
 11
9.531088913245522
 21
1.250000000000001
 31
0.0
  0
LINE
  5
A3
330
1F
100
AcDbEntity
  8
0
  6
Continuous
 62
     1
370
    25
100
AcDbLine
 10
11.66068356344163
 20
-1.25
 30
0.0
 11
12.37575754522218
 21
-1.25
 31
0.0
  0
LINE
  5
A4
330
1F
100
AcDbEntity
  8
0
  6
Continuous
 62
     1
370
    25
100
AcDbLine
 10
12.37575754522218
 20
1.250000000000001
 30
0.0
 11
11.66068356344163
 21
1.250000000000001
 31
0.0
  0
LINE
  5
A5
330
1F
100
AcDbEntity
  8
0
  6
Continuous
 62
     1
370
    25
100
AcDbLine
 10
9.531088913245522
 20
-1.25
 30
0.0
 11
9.862028860901038
 21
-1.25
 31
0.0
  0
LINE
  5
A6
330
1F
100
AcDbEntity
  8
0
  6
Continuous
 62
     1
370
    25
100
AcDbLine
 10
14.53108891324552
 20
1.250000000000001
 30
0.0
 11
14.1731240566052
 21
1.250000000000001
 31
0.0
  0
LINE
  5
A7
330
1F
100
AcDbEntity
  8
0
  6
Continuous
 62
     4
370
    25
100
AcDbLine
 10
2.0
 20
3.0
 30
0.0
 11
2.0
 21
-3.0
 31
0.0
  0
LINE
  5
A8
330
1F
100
AcDbEntity
  8
0
  6
Continuous
 62
     4
370
    25
100
AcDbLine
 10
-24.96891108675448
 20
2.999999999999997
 30
0.0
 11
-24.96891108675448
 21
-3.0
 31
0.0
  0
SPLINE
  5
A9
330
1F
100
AcDbEntity
  8
0
  6
Continuous
 62
     4
370
    25
100
AcDbSpline
210
0.0
220
0.0
230
1.0
 70
     8
 71
     3
 72
     8
 73
     4
 74
     0
 42
0.000000001
 43
0.00000001
 40
0.0
 40
0.0
 40
0.0
 40
0.0
 40
1.0
 40
1.0
 40
1.0
 40
1.0
 10
8.436210597978508
 20
-1.15027194628673
 30
0.0
 10
8.467705981801995
 20
-1.153878915389895
 30
0.0
 10
8.49932988921072
 20
-1.156600372490813
 30
0.0
 10
8.531088913245519
 20
-1.158438897927819
 30
0.0
  0
SPLINE
  5
AA
330
1F
100
AcDbEntity
  8
0
  6
Continuous
 62
     4
370
    25
100
AcDbSpline
210
0.0
220
0.0
230
1.0
 70
     8
 71
     3
 72
    14
 73
    10
 74
     0
 42
0.000000001
 43
0.00000001
 40
0.0
 40
0.0
 40
0.0
 40
0.0
 40
0.25
 40
0.25
 40
0.5
 40
0.5
 40
0.75
 40
0.75
 40
1.0
 40
1.0
 40
1.0
 40
1.0
 10
8.031287587310853
 20
-1.318698930998731
 30
0.0
 10
8.031287587310853
 20
-1.304086971977267
 30
0.0
 10
8.045251560827005
 20
-1.283707199438225
 30
0.0
 10
8.096579983130809
 20
-1.239679728727787
 30
0.0
 10
8.133485032625995
 20
-1.216636937149657
 30
0.0
 10
8.217194225720473
 20
-1.178844758481708
 30
0.0
 10
8.26472627757812
 20
-1.163919916150021
 30
0.0
 10
8.35591727213562
 20
-1.147653189174428
 30
0.0
 10
8.399860728221817
 20
-1.146109023305671
 30
0.0
 10
8.436210597978697
 20
-1.150271946286752
 30
0.0
  0
LINE
  5
AB
330
1F
100
AcDbEntity
  8
0
  6
Continuous
 62
     4
370
    25
100
AcDbLine
 10
8.031287587310853
 20
-1.318698930998731
 30
0.0
 11
8.031287587310853
 21
-1.383921361660198
 31
0.0
  0
SPLINE
  5
AC
330
1F
100
AcDbEntity
  8
0
  6
Continuous
 62
     4
370
    25
100
AcDbSpline
210
0.0
220
0.0
230
1.0
 70
     8
 71
     3
 72
     8
 73
     4
 74
     0
 42
0.000000001
 43
0.00000001
 40
0.0
 40
0.0
 40
0.0
 40
0.0
 40
1.0
 40
1.0
 40
1.0
 40
1.0
 10
8.436210597978512
 20
1.150271946286731
 30
0.0
 10
8.467705981801998
 20
1.153878915389897
 30
0.0
 10
8.49932988921072
 20
1.156600372490814
 30
0.0
 10
8.531088913245519
 20
1.15843889792782
 30
0.0
  0
SPLINE
  5
AD
330
1F
100
AcDbEntity
  8
0
  6
Continuous
 62
     4
370
    25
100
AcDbSpline
210
0.0
220
0.0
230
1.0
 70
     8
 71
     3
 72
    14
 73
    10
 74
     0
 42
0.000000001
 43
0.00000001
 40
0.0
 40
0.0
 40
0.0
 40
0.0
 40
0.25
 40
0.25
 40
0.5
 40
0.5
 40
0.75
 40
0.75
 40
1.0
 40
1.0
 40
1.0
 40
1.0
 10
8.031287587310853
 20
1.318698930998732
 30
0.0
 10
8.031287587310853
 20
1.304086971977269
 30
0.0
 10
8.045251560827005
 20
1.283707199438226
 30
0.0
 10
8.096579983130809
 20
1.239679728727788
 30
0.0
 10
8.133485032625995
 20
1.216636937149657
 30
0.0
 10
8.217194225720473
 20
1.178844758481709
 30
0.0
 10
8.264726277578124
 20
1.163919916150022
 30
0.0
 10
8.355917272135624
 20
1.147653189174429
 30
0.0
 10
8.399860728221821
 20
1.146109023305672
 30
0.0
 10
8.436210597978697
 20
1.150271946286753
 30
0.0
  0
LINE
  5
AE
330
1F
100
AcDbEntity
  8
0
  6
Continuous
 62
     4
370
    25
100
AcDbLine
 10
8.03128758731085
 20
1.383921361660199
 30
0.0
 11
8.03128758731085
 21
1.300242132786686
 31
0.0
  0
SPLINE
  5
AF
330
1F
100
AcDbEntity
  8
0
  6
Continuous
 62
     4
370
    25
100
AcDbSpline
210
0.0
220
0.0
230
1.0
 70
     8
 71
     3
 72
     8
 73
     4
 74
     0
 42
0.000000001
 43
0.00000001
 40
0.0
 40
0.0
 40
0.0
 40
0.0
 40
1.0
 40
1.0
 40
1.0
 40
1.0
 10
8.119331696710496
 20
1.201829403451045
 30
0.0
 10
8.06462927173056
 20
1.236501767366834
 30
0.0
 10
8.031287587310825
 20
1.275156147177931
 30
0.0
 10
8.031287587310825
 20
1.300242132786691
 30
0.0
  0
SPLINE
  5
B0
330
1F
100
AcDbEntity
  8
0
  6
Continuous
 62
     4
370
    25
100
AcDbSpline
210
0.0
220
0.0
230
1.0
 70
     8
 71
     3
 72
     8
 73
     4
 74
     0
 42
0.000000001
 43
0.00000001
 40
0.0
 40
0.0
 40
0.0
 40
0.0
 40
1.0
 40
1.0
 40
1.0
 40
1.0
 10
8.531088913245519
 20
0.9239166109330876
 30
0.0
 10
8.38919080352678
 20
1.022530956497278
 30
0.0
 10
8.25353846788461
 20
1.116764326138309
 30
0.0
 10
8.119331696710496
 20
1.201829403451035
 30
0.0
  0
LINE
  5
B1
330
1F
100
AcDbEntity
  8
0
  6
Continuous
 62
     4
370
    25
100
AcDbLine
 10
8.531088913245519
 20
0.923916610932504
 30
0.0
 11
8.531088913245519
 21
0.4695948464024768
 31
0.0
  0
SPLINE
  5
B2
330
1F
100
AcDbEntity
  8
0
  6
Continuous
 62
     4
370
    25
100
AcDbSpline
210
0.0
220
0.0
230
1.0
 70
     8
 71
     3
 72
     8
 73
     4
 74
     0
 42
0.000000001
 43
0.00000001
 40
0.0
 40
0.0
 40
0.0
 40
0.0
 40
1.0
 40
1.0
 40
1.0
 40
1.0
 10
8.436210597978512
 20
0.5509783810955752
 30
0.0
 10
8.467705981801998
 20
0.5239129019508508
 30
0.0
 10
8.49932988921072
 20
0.4967822730363536
 30
0.0
 10
8.531088913245519
 20
0.4695948464024788
 30
0.0
  0
SPLINE
  5
B3
330
1F
100
AcDbEntity
  8
0
  6
Continuous
 62
     4
370
    25
100
AcDbSpline
210
0.0
220
0.0
230
1.0
 70
     8
 71
     3
 72
    14
 73
    10
 74
     0
 42
0.000000001
 43
0.00000001
 40
0.0
 40
0.0
 40
0.0
 40
0.0
 40
0.25
 40
0.25
 40
0.5
 40
0.5
 40
0.75
 40
0.75
 40
1.0
 40
1.0
 40
1.0
 40
1.0
 10
8.031287587310853
 20
0.4198469538319601
 30
0.0
 10
8.03128758731085
 20
0.4657417127804288
 30
0.0
 10
8.04525156082699
 20
0.508499540750393
 30
0.0
 10
8.096579983130788
 20
0.5761032285128453
 30
0.0
 10
8.133485032625973
 20
0.6003098320934666
 30
0.0
 10
8.217194225720458
 20
0.6249413558850886
 30
0.0
 10
8.264726277578106
 20
0.6255760348217015
 30
0.0
 10
8.355917272135617
 20
0.6041273864226021
 30
0.0
 10
8.399860728221817
 20
0.5822155505590917
 30
0.0
 10
8.4362105979787
 20
0.5509783810954153
 30
0.0
  0
LINE
  5
B4
330
1F
100
AcDbEntity
  8
0
  6
Continuous
 62
     4
370
    25
100
AcDbLine
 10
8.031287587310853
 20
0.4198469538321569
 30
0.0
 11
8.03128758731085
 21
-0.4739290362340786
 31
0.0
  0
SPLINE
  5
B5
330
1F
100
AcDbEntity
  8
0
  6
Continuous
 62
     4
370
    25
100
AcDbSpline
210
0.0
220
0.0
230
1.0
 70
     8
 71
     3
 72
     8
 73
     4
 74
     0
 42
0.000000001
 43
0.00000001
 40
0.0
 40
0.0
 40
0.0
 40
0.0
 40
1.0
 40
1.0
 40
1.0
 40
1.0
 10
8.119331696710496
 20
-0.6372627645114612
 30
0.0
 10
8.06462927173056
 20
-0.6031618088719102
 30
0.0
 10
8.031287587310825
 20
-0.5427533810984068
 30
0.0
 10
8.031287587310825
 20
-0.4739290362340874
 30
0.0
  0
SPLINE
  5
B6
330
1F
100
AcDbEntity
  8
0
  6
Continuous
 62
     4
370
    25
100
AcDbSpline
210
0.0
220
0.0
230
1.0
 70
     8
 71
     3
 72
     8
 73
     4
 74
     0
 42
0.000000001
 43
0.00000001
 40
0.0
 40
0.0
 40
0.0
 40
0.0
 40
1.0
 40
1.0
 40
1.0
 40
1.0
 10
8.531088913245519
 20
-0.8419489866038438
 30
0.0
 10
8.38919080352678
 20
-0.7901826946393654
 30
0.0
 10
8.25353846788461
 20
-0.7209259504125265
 30
0.0
 10
8.119331696710496
 20
-0.6372627645114562
 30
0.0
  0
LINE
  5
B7
330
1F
100
AcDbEntity
  8
0
  6
Continuous
 62
     4
370
    25
100
AcDbLine
 10
8.531088913245519
 20
-0.8419489866037095
 30
0.0
 11
8.531088913245519
 21
-1.158438897927816
 31
0.0
  0
LINE
  5
B8
330
1F
100
AcDbEntity
  8
0
  6
Continuous
 62
     4
370
    25
100
AcDbLine
 10
-25.46891108675448
 20
2.499999999999996
 30
0.0
 11
-25.46891108675448
 21
-2.5
 31
0.0
  0
SPLINE
  5
B9
330
1F
100
AcDbEntity
  8
0
  6
Continuous
 62
     4
370
    25
100
AcDbSpline
210
0.0
220
0.0
230
1.0
 70
     8
 71
     3
 72
    12
 73
     8
 74
     0
 42
0.000000001
 43
0.00000001
 40
0.0
 40
0.0
 40
0.0
 40
0.0
 40
0.5
 40
0.5
 40
0.75
 40
0.75
 40
1.0
 40
1.0
 40
1.0
 40
1.0
 10
9.531088913245508
 20
1.214182434300532
 30
0.0
 10
9.366823611109997
 20
1.244985012192498
 30
0.0
 10
9.197375591592394
 20
1.256166346787428
 30
0.0
 10
8.946789767467791
 20
1.241958605455142
 30
0.0
 10
8.865483906583748
 20
1.232224801224939
 30
0.0
 10
8.699538337522121
 20
1.202761187900804
 30
0.0
 10
8.615219811968284
 20
1.182978430505563
 30
0.0
 10
8.531088913245519
 20
1.158438897927817
 30
0.0
  0
SPLINE
  5
BA
330
1F
100
AcDbEntity
  8
0
  6
Continuous
 62
     4
370
    25
100
AcDbSpline
210
0.0
220
0.0
230
1.0
 70
     8
 71
     3
 72
    12
 73
     8
 74
     0
 42
0.000000001
 43
0.00000001
 40
0.0
 40
0.0
 40
0.0
 40
0.0
 40
0.4999999999999998
 40
0.4999999999999998
 40
0.7499999999999998
 40
0.7499999999999998
 40
1.0
 40
1.0
 40
1.0
 40
1.0
 10
9.531088913245522
 20
0.2565271739175343
 30
0.0
 10
9.366823611110007
 20
0.3833709270687291
 30
0.0
 10
9.197375591592404
 20
0.5073038331110757
 30
0.0
 10
8.946789767467795
 20
0.6770164751004628
 30
0.0
 10
8.865483906583751
 20
0.7305768158146747
 30
0.0
 10
8.699538337522124
 20
0.8320832040810224
 30
0.0
 10
8.615219811968288
 20
0.8799190356953739
 30
0.0
 10
8.531088913245519
 20
0.923916610932504
 30
0.0
  0
SPLINE
  5
BB
330
1F
100
AcDbEntity
  8
0
  6
Continuous
 62
     4
370
    25
100
AcDbSpline
210
0.0
220
0.0
230
1.0
 70
     8
 71
     3
 72
    12
 73
     8
 74
     0
 42
0.000000001
 43
0.00000001
 40
0.0
 40
0.0
 40
0.0
 40
0.0
 40
0.5
 40
0.5
 40
0.75
 40
0.75
 40
1.0
 40
1.0
 40
1.0
 40
1.0
 10
9.531088913245508
 20
-0.2970875565149662
 30
0.0
 10
9.366823611109997
 20
-0.1711989146400723
 30
0.0
 10
9.197375591592394
 20
-0.0391403823776809
 30
0.0
 10
8.946789767467791
 20
0.1558373749117735
 30
0.0
 10
8.865483906583748
 20
0.2198856305117406
 30
0.0
 10
8.699538337522121
 20
0.3465446235895615
 30
0.0
 10
8.615219811968284
 20
0.4090585153656097
 30
0.0
 10
8.531088913245519
 20
0.4695948464024768
 30
0.0
  0
SPLINE
  5
BC
330
1F
100
AcDbEntity
  8
0
  6
Continuous
 62
     4
370
    25
100
AcDbSpline
210
0.0
220
0.0
230
1.0
 70
     8
 71
     3
 72
    12
 73
     8
 74
     0
 42
0.000000001
 43
0.00000001
 40
0.0
 40
0.0
 40
0.0
 40
0.0
 40
0.5
 40
0.5
 40
0.75
 40
0.75
 40
1.0
 40
1.0
 40
1.0
 40
1.0
 10
9.531088913245522
 20
-1.223394380010751
 30
0.0
 10
9.366823611110007
 20
-1.196797176315339
 30
0.0
 10
9.197375591592404
 20
-1.149838545729257
 30
0.0
 10
8.946789767467799
 20
-1.052803475263094
 30
0.0
 10
8.865483906583751
 20
-1.016358778903153
 30
0.0
 10
8.699538337522124
 20
-0.9350749663773902
 30
0.0
 10
8.615219811968288
 20
-0.890229929094433
 30
0.0
 10
8.531088913245519
 20
-0.8419489866037095
 30
0.0
  0
SPLINE
  5
BD
330
1F
100
AcDbEntity
  8
0
  6
Continuous
 62
     4
370
    25
100
AcDbSpline
210
0.0
220
0.0
230
1.0
 70
     8
 71
     3
 72
     9
 73
     5
 74
     0
 42
0.000000001
 43
0.00000001
 40
0.0
 40
0.0
 40
0.0
 40
0.0
 40
0.5414372366405606
 40
1.0
 40
1.0
 40
1.0
 40
1.0
 10
8.531088913247881
 20
-1.158438897928505
 30
0.0
 10
8.642401936912638
 20
-1.187281481704213
 30
0.0
 10
8.847989983193717
 20
-1.240551892056236
 30
0.0
 10
9.053426457364296
 20
-1.244639554645782
 30
0.0
 10
9.147631974654775
 20
-1.246514004498526
 30
0.0
  0
SPLINE
  5
BE
330
1F
100
AcDbEntity
  8
0
  6
Continuous
 62
     1
370
    25
100
AcDbSpline
210
0.0
220
0.0
230
1.0
 70
     8
 71
     3
 72
    20
 73
    16
 74
     0
 42
0.000000001
 43
0.00000001
 40
0.0
 40
0.0
 40
0.0
 40
0.0
 40
0.0266366183308406
 40
0.1144946575139757
 40
0.2018964081505604
 40
0.2891999154828336
 40
0.3770883706708889
 40
0.4644001498414253
 40
0.551790271008172
 40
0.6396544713735801
 40
0.7269061494858465
 40
0.8144125674251648
 40
0.9021979128338559
 40
0.9894195043302165
 40
1.0
 40
1.0
 40
1.0
 40
1.0
 10
9.531088913245508
 20
1.214182434300532
 30
0.0
 10
9.572187703236427
 20
1.205754781127587
 30
0.0
 10
9.748846460207869
 20
1.169529414540205
 30
0.0
 10
10.0624749631318
 20
1.062557175141754
 30
0.0
 10
10.4682660988518
 20
0.8571716953897128
 30
0.0
 10
10.87391701700038
 20
0.5953881164919511
 30
0.0
 10
11.28132505630781
 20
0.2979589409361799
 30
0.0
 10
11.68696990779608
 20
-0.020996553190581
 30
0.0
 10
12.09284737783469
 20
-0.3381724266685304
 30
0.0
 10
12.5001893468421
 20
-0.6319732478694885
 30
0.0
 10
12.90566557767596
 20
-0.8870593606333008
 30
0.0
 10
13.31187994976978
 20
-1.086182424221559
 30
0.0
 10
13.71906025759616
 20
-1.207441716112109
 30
0.0
 10
14.00530345254243
 20
-1.259898427968501
 30
0.0
 10
14.15674111823886
 20
-1.247114994380168
 30
0.0
 10
14.1731240566052
 20
-1.245732047782141
 30
0.0
  0
SPLINE
  5
BF
330
1F
100
AcDbEntity
  8
0
  6
Continuous
 62
     1
370
    25
100
AcDbSpline
210
0.0
220
0.0
230
1.0
 70
     8
 71
     3
 72
    18
 73
    14
 74
     0
 42
0.000000001
 43
0.00000001
 40
0.0
 40
0.0
 40
0.0
 40
0.0
 40
0.078134705983694
 40
0.155710539088965
 40
0.2338123309788672
 40
0.3357798934596894
 40
0.4384632863115656
 40
0.5405926416783609
 40
0.6426304418731953
 40
0.7453421803706479
 40
0.8473703135974288
 40
0.9495132598626228
 40
1.0
 40
1.0
 40
1.0
 40
1.0
 10
13.83414354134791
 20
-0.9880064031230686
 30
0.0
 10
13.73051363171421
 20
-0.93514253417213
 30
0.0
 10
13.52399504446602
 20
-0.8297929148314379
 30
0.0
 10
13.21547313920663
 20
-0.6292348925380395
 30
0.0
 10
12.87348547987682
 20
-0.3875721309302535
 30
0.0
 10
12.50026633224927
 20
-0.0971095409986897
 30
0.0
 10
12.09282697842906
 20
0.2207632011900855
 30
0.0
 10
11.68697474045781
 20
0.526864502287095
 30
0.0
 10
11.28132604874097
 20
0.7988929860821566
 30
0.0
 10
10.87390813236546
 20
1.01908620187074
 30
0.0
 10
10.46830037931307
 20
1.171374018960729
 30
0.0
 10
10.13139202690034
 20
1.247971065431385
 30
0.0
 10
9.928981930113853
 20
1.241910411742463
 30
0.0
 10
9.862028860901045
 20
1.239905672985101
 30
0.0
  0
LINE
  5
C0
330
1F
100
AcDbEntity
  8
0
  6
Continuous
 62
     1
370
    25
100
AcDbLine
 10
13.83414354134791
 20
-0.9880064031230753
 30
0.0
 11
13.798598192221
 21
-1.012895524530039
 31
0.0
  0
ELLIPSE
  5
C1
330
1F
100
AcDbEntity
  8
0
  6
Continuous
 62
     1
370
    25
100
AcDbEllipse
 10
14.28686122026742
 20
0.0000000000000008
 30
0.0
 11
1.73665413207495
 21
-0.6879262575522042
 31
0.0
210
0.0
220
0.0
230
1.0
 40
0.6009688174887279
 41
4.669057142141529
 42
5.083334185035834
  0
LINE
  5
C2
330
1F
100
AcDbEntity
  8
0
  6
Continuous
 62
     1
370
    25
100
AcDbLine
 10
14.53108891324552
 20
-1.250000000000001
 30
0.0
 11
14.53108891324552
 21
-1.222060428378375
 31
0.0
  0
SPLINE
  5
C3
330
1F
100
AcDbEntity
  8
0
  6
Continuous
 62
     1
370
    25
100
AcDbSpline
210
0.0
220
0.0
230
1.0
 70
     8
 71
     3
 72
    18
 73
    14
 74
     0
 42
0.000000001
 43
0.00000001
 40
0.0
 40
0.0
 40
0.0
 40
0.0
 40
0.015616528014929
 40
0.0984986370285082
 40
0.2067072507476143
 40
0.3156755081242252
 40
0.4240558174637308
 40
0.5323389678833242
 40
0.641337305835936
 40
0.7496101976086961
 40
0.8580049296944077
 40
0.96696554603755
 40
1.0
 40
1.0
 40
1.0
 40
1.0
 10
13.27422533022026
 20
-1.055023606813355
 30
0.0
 10
13.25477660205661
 20
-1.06406332601379
 30
0.0
 10
13.13210700390866
 20
-1.121079842073703
 30
0.0
 10
12.87344669640398
 20
-1.196632544336112
 30
0.0
 10
12.50027800171997
 20
-1.260666991649509
 30
0.0
 10
12.09282369529875
 20
-1.243765565186993
 30
0.0
 10
11.68697623139397
 20
-1.148590869928592
 30
0.0
 10
11.28132334969654
 20
-0.9786656523404532
 30
0.0
 10
10.87391747221447
 20
-0.7478722578530314
 30
0.0
 10
10.46826597681058
 20
-0.4671710821851232
 30
0.0
 10
10.06247499708777
 20
-0.1568224247723173
 30
0.0
 10
9.748846458087826
 20
0.0883571555343231
 30
0.0
 10
9.57218770283627
 20
0.2247873588584977
 30
0.0
 10
9.531088913245469
 20
0.2565271739175746
 30
0.0
  0
SPLINE
  5
C4
330
1F
100
AcDbEntity
  8
0
  6
Continuous
 62
     1
370
    25
100
AcDbSpline
210
0.0
220
0.0
230
1.0
 70
     8
 71
     3
 72
    17
 73
    13
 74
     0
 42
0.000000001
 43
0.00000001
 40
0.0
 40
0.0
 40
0.0
 40
0.0
 40
0.0299635737987786
 40
0.1381728190650529
 40
0.2456720543933283
 40
0.3532677452602115
 40
0.4614471277185992
 40
0.5688723659542967
 40
0.6766112427033297
 40
0.7846935380604184
 40
0.8920817333193924
 40
1.0
 40
1.0
 40
1.0
 40
1.0
 10
10.7604466053202
 20
1.050865389770002
 30
0.0
 10
10.7980607264017
 20
1.068518168636857
 30
0.0
 10
10.97151297149729
 20
1.149921483099453
 30
0.0
 10
11.28137450640423
 20
1.224650366710235
 30
0.0
 10
11.6869567599377
 20
1.264256614681801
 30
0.0
 10
12.09285063802341
 20
1.21712367206999
 30
0.0
 10
12.50018955048585
 20
1.094201960783883
 30
0.0
 10
12.90566155278524
 20
0.8994953992016187
 30
0.0
 10
13.31189593033599
 20
0.6475827911553168
 30
0.0
 10
13.71900033499663
 20
0.355712719440562
 30
0.0
 10
14.12439841360996
 20
0.0372583801306775
 30
0.0
 10
14.39530309641307
 20
-0.171972624226374
 30
0.0
 10
14.53108891324552
 20
-0.2768456834120844
 30
0.0
  0
LINE
  5
C5
330
1F
100
AcDbEntity
  8
0
  6
Continuous
 62
     1
370
    25
100
AcDbLine
 10
14.53108891324552
 20
-0.5000000000000012
 30
0.0
 11
14.53108891324552
 21
-0.2777678882984976
 31
0.0
  0
SPLINE
  5
C6
330
1F
100
AcDbEntity
  8
0
  6
Continuous
 62
     1
370
    25
100
AcDbSpline
210
0.0
220
0.0
230
1.0
 70
    24
 71
     3
 72
    12
 73
     8
 74
     0
 42
0.000000001
 43
0.00000001
 40
0.0
 40
0.0
 40
0.0
 40
0.0
 40
0.25
 40
0.25
 40
0.5
 40
0.5
 40
1.0
 40
1.0
 40
1.0
 40
1.0
 10
14.53108891324552
 20
-0.500000000000001
 30
0.0
 10
14.47730889414945
 20
-0.5376571747761324
 30
0.0
 10
14.41376227319173
 20
-0.5821529978008837
 30
0.0
 10
14.28462884741782
 20
-0.6725731959626221
 30
0.0
 10
14.21938122997418
 20
-0.7182600695445066
 30
0.0
 10
14.03359326303699
 20
-0.8483502045025826
 30
0.0
 10
13.92354142750246
 20
-0.925409329337649
 30
0.0
 10
13.83414354134793
 20
-0.9880064031230649
 30
0.0
  0
SPLINE
  5
C7
330
1F
100
AcDbEntity
  8
0
  6
Continuous
 62
     1
370
    25
100
AcDbSpline
210
0.0
220
0.0
230
1.0
 70
     8
 71
     3
 72
    13
 73
     9
 74
     0
 42
0.000000001
 43
0.00000001
 40
0.0
 40
0.0
 40
0.0
 40
0.0
 40
0.0580635334285381
 40
0.2495798937905921
 40
0.4401016186870393
 40
0.630409189019526
 40
0.8219918513684356
 40
0.9999999999999999
 40
0.9999999999999999
 40
0.9999999999999999
 40
0.9999999999999999
 10
9.531088913245508
 20
-0.2970875565149665
 30
0.0
 10
9.572187702961944
 20
-0.3282445457863724
 30
0.0
 10
9.748846458753558
 20
-0.4621695347428684
 30
0.0
 10
10.06247498642513
 20
-0.6826949538617323
 30
0.0
 10
10.46826601513319
 20
-0.9288259426474641
 30
0.0
 10
10.87391732927101
 20
-1.113234801096217
 30
0.0
 10
11.27255409839595
 20
-1.229544268621441
 30
0.0
 10
11.53451420849784
 20
-1.241714576540831
 30
0.0
 10
11.66068356344163
 20
-1.247576231962565
 30
0.0
  0
SPLINE
  5
C8
330
1F
100
AcDbEntity
  8
0
  6
Continuous
 62
     1
370
    25
100
AcDbSpline
210
0.0
220
0.0
230
1.0
 70
     8
 71
     3
 72
    12
 73
     8
 74
     0
 42
0.000000001
 43
0.00000001
 40
0.0
 40
0.0
 40
0.0
 40
0.0
 40
0.2127756346137714
 40
0.4240293523037151
 40
0.6367153555928896
 40
0.9143923820016636
 40
1.0
 40
1.0
 40
1.0
 40
1.0
 10
13.83414354134793
 20
0.7657305971344037
 30
0.0
 10
13.73051312442276
 20
0.8265805911970875
 30
0.0
 10
13.52399352622015
 20
0.9478453385302137
 30
0.0
 10
13.21547917854767
 20
1.08912948048199
 30
0.0
 10
12.87345970870852
 20
1.196846537032192
 30
0.0
 10
12.59439917662485
 20
1.25429945165616
 30
0.0
 10
12.4174543861509
 20
1.243880456623268
 30
0.0
 10
12.37575754522218
 20
1.241425232158281
 30
0.0
  0
ELLIPSE
  5
C9
330
1F
100
AcDbEntity
  8
0
  6
Continuous
 62
     1
370
    25
100
AcDbEllipse
 10
15.24516291661658
 20
0.0000000000000004
 30
0.0
 11
1.785185008427639
 21
0.0
 31
0.0
210
0.0
220
0.0
230
1.0
 40
0.7002075382097115
 41
2.482266375605877
 42
2.515488212601625
  0
ELLIPSE
  5
CA
330
1F
100
AcDbEntity
  8
0
  6
Continuous
 62
     1
370
    25
100
AcDbEllipse
 10
14.28686122026742
 20
0.0000000000000004
 30
0.0
 11
1.773878207475978
 21
-1.215217588009257
 31
0.0
210
0.0
220
0.0
230
1.0
 40
0.165075901574665
 41
1.546166782239612
 42
1.960443825133916
  0
LINE
  5
CB
330
1F
100
AcDbEntity
  8
0
  6
Continuous
 62
     1
370
    25
100
AcDbLine
 10
14.53108891324552
 20
-0.276845683412085
 30
0.0
 11
14.53108891324552
 21
0.2628085032712294
 31
0.0
  0
SPLINE
  5
CC
330
1F
100
AcDbEntity
  8
0
  6
Continuous
 62
     1
370
    25
100
AcDbSpline
210
0.0
220
0.0
230
1.0
 70
     8
 71
     3
 72
    11
 73
     7
 74
     0
 42
0.000000001
 43
0.00000001
 40
0.0
 40
0.0
 40
0.0
 40
0.0
 40
0.029755022980208
 40
0.3540282137107771
 40
0.6762189352195517
 40
1.0
 40
1.0
 40
1.0
 40
1.0
 10
13.27422533022026
 20
1.055023606813357
 30
0.0
 10
13.28668812175209
 20
1.061100917212208
 30
0.0
 10
13.43497165111786
 20
1.13340935891976
 30
0.0
 10
13.71905917035975
 20
1.207222060031397
 30
0.0
 10
14.12438365974979
 20
1.267551410676992
 30
0.0
 10
14.39529817039449
 20
1.23518178287372
 30
0.0
 10
14.53108891324552
 20
1.218957122944072
 30
0.0
  0
SPLINE
  5
CD
330
1F
100
AcDbEntity
  8
0
  6
Continuous
 62
     1
370
    25
100
AcDbSpline
210
0.0
220
0.0
230
1.0
 70
     8
 71
     3
 72
    10
 73
     6
 74
     0
 42
0.000000001
 43
0.00000001
 40
0.0
 40
0.0
 40
0.0
 40
0.0
 40
0.2983864439601244
 40
0.5951291480541517
 40
1.0
 40
1.0
 40
1.0
 40
1.0
 10
14.53108891324552
 20
0.5622257016814709
 30
0.0
 10
14.49496090968716
 20
0.5383975444545622
 30
0.0
 10
14.422903923139
 20
0.4908724936447956
 30
0.0
 10
14.28293994048702
 20
0.4750301923634548
 30
0.0
 10
14.19009013146092
 20
0.5065233138159341
 30
0.0
 10
14.13651052063415
 20
0.524696632736492
 30
0.0
  0
SPLINE
  5
CE
330
1F
100
AcDbEntity
  8
0
  6
Continuous
 62
     1
370
    25
100
AcDbSpline
210
0.0
220
0.0
230
1.0
 70
     8
 71
     3
 72
     9
 73
     5
 74
     0
 42
0.000000001
 43
0.00000001
 40
0.0
 40
0.0
 40
0.0
 40
0.0
 40
0.5912297553915103
 40
1.0
 40
1.0
 40
1.0
 40
1.0
 10
14.04948219610358
 20
0.5785454771582287
 30
0.0
 10
14.00212401075616
 20
0.6073561074979671
 30
0.0
 10
13.92202285732882
 20
0.656086114871598
 30
0.0
 10
13.85964269539879
 20
0.7339160397173405
 30
0.0
 10
13.83414354134793
 20
0.7657305971343952
 30
0.0
  0
LINE
  5
CF
330
1F
100
AcDbEntity
  8
0
  6
Continuous
 62
     1
370
    25
100
AcDbLine
 10
14.53108891324552
 20
0.5622257016814709
 30
0.0
 11
14.53108891324552
 21
1.218957122944077
 31
0.0
  0
SPLINE
  5
D0
330
1F
100
AcDbEntity
  8
0
  6
Continuous
 62
     1
370
    25
100
AcDbSpline
210
0.0
220
0.0
230
1.0
 70
     8
 71
     3
 72
    11
 73
     7
 74
     0
 42
0.000000001
 43
0.00000001
 40
0.0
 40
0.0
 40
0.0
 40
0.0
 40
0.2377334031308303
 40
0.5677216165341663
 40
0.8994325625049387
 40
1.0
 40
1.0
 40
1.0
 40
1.0
 10
10.76044660532019
 20
-1.050865389770001
 30
0.0
 10
10.66308246836921
 20
-1.090868996291546
 30
0.0
 10
10.43057107327577
 20
-1.186400006500952
 30
0.0
 10
10.06250108131165
 20
-1.251694428921836
 30
0.0
 10
9.748844829527549
 20
-1.254524103611497
 30
0.0
 10
9.572187395467562
 20
-1.229269694049636
 30
0.0
 10
9.531088913245465
 20
-1.223394380010743
 30
0.0
  0
LINE
  5
D1
330
1F
100
AcDbEntity
  8
0
  6
Continuous
 62
     1
370
    25
100
AcDbLine
 10
14.53108891324552
 20
0.262808503271229
 30
0.0
 11
14.53108891324552
 21
0.5622257016814709
 31
0.0
  0
LINE
  5
D2
330
1F
100
AcDbEntity
  8
0
  6
Continuous
 62
     1
370
    25
100
AcDbLine
 10
14.53108891324552
 20
-0.4999999999999993
 30
0.0
 11
14.53108891324552
 21
-1.222060428378375
 31
0.0
  0
LINE
  5
D3
330
1F
100
AcDbEntity
  8
0
  6
Continuous
 62
     1
370
    25
100
AcDbLine
 10
14.53108891324552
 20
1.218957122944077
 30
0.0
 11
14.53108891324552
 21
1.250000000000002
 31
0.0
  0
LINE
  5
D4
330
1F
100
AcDbEntity
  8
중심선
100
AcDbLine
 10
-28.46891108675448
 20
-0.0000000000000039
 30
0.0
 11
16.03108891324552
 21
0.0000000000000015
 31
0.0
  0
CIRCLE
  5
D5
330
1F
100
AcDbEntity
  8
해칭선
100
AcDbCircle
 10
-0.0076762146519176
 20
-0.0000000000000042
 30
0.0
 40
3.000000000000001
  0
INSERT
  5
D6
330
1F
100
AcDbEntity
  8
0
  6
Continuous
 62
     7
100
AcDbBlockReference
 66
     1
  2
블럭10
 10
-17.44814782084246
 20
-52.04717430164393
 30
0.0
  0
ATTRIB
  5
D7
330
D6
100
AcDbEntity
  8
FORMAT
 62
     2
100
AcDbText
 10
-33.56740886027801
 20
-49.97180738881174
 30
0.0
 40
4.233333333333333
  1
SEME7102505E [ 4 FLUTE ]
 41
0.75
  7
SLDTEXTSTYLE0
 11
-33.56740886027801
 21
-52.08847405547841
 31
0.0
100
AcDbAttribute
  2
AUTOATTR0
 70
     0
 74
     1
  0
SEQEND
  5
D8
330
D6
100
AcDbEntity
  8
0
  6
Continuous
 62
     7
  0
HATCH
  5
D9
330
1F
100
AcDbEntity
  8
중심선
100
AcDbHatch
 10
0.0
 20
0.0
 30
0.0
210
0.0
220
0.0
230
1.0
  2
SOLID
 70
     1
 71
     0
 91
        1
 92
        0
 93
        4
 72
     1
 10
-11.7332385164616
 20
-35.8
 11
-15.17951376029889
 21
-35.8
 72
     1
 10
-15.17951376029889
 20
-35.8
 11
-17.30774361950291
 21
-38.33632558057259
 72
     1
 10
-17.30774361950291
 20
-38.33632558057259
 11
-13.86143529055248
 21
-38.3362861512701
 72
     1
 10
-13.86143529055248
 20
-38.3362861512701
 11
-11.7332385164616
 21
-35.8
 97
        0
 75
     0
 76
     1
 98
        1
 10
0.0
 20
0.0
  0
HATCH
  5
DA
330
1F
100
AcDbEntity
  8
중심선
100
AcDbHatch
 10
0.0
 20
0.0
 30
0.0
210
0.0
220
0.0
230
1.0
  2
SOLID
 70
     1
 71
     0
 91
        1
 92
        0
 93
        4
 72
     1
 10
-6.720474525425624
 20
-35.80000000000003
 11
-10.16674976926293
 21
-35.80000000000003
 72
     1
 10
-10.16674976926293
 20
-35.80000000000003
 11
-14.69788777762032
 21
-41.20000000000002
 72
     1
 10
-14.69788777762032
 20
-41.20000000000002
 11
-11.25161253378304
 21
-41.20000000000002
 72
     1
 10
-11.25161253378304
 20
-41.20000000000002
 11
-6.720474525425624
 21
-35.80000000000003
 97
        0
 75
     0
 76
     1
 98
        1
 10
0.0
 20
0.0
  0
HATCH
  5
DB
330
1F
100
AcDbEntity
  8
중심선
100
AcDbHatch
 10
0.0
 20
0.0
 30
0.0
210
0.0
220
0.0
230
1.0
  2
SOLID
 70
     1
 71
     0
 91
        1
 92
        0
 93
        4
 72
     1
 10
-1.707710534389756
 20
-35.79999999999997
 11
-5.153985778226872
 21
-35.80000000000003
 72
     1
 10
-5.153985778226872
 20
-35.80000000000003
 11
-12.20242268011612
 21
-44.20000000000002
 72
     1
 10
-12.20242268011612
 20
-44.20000000000002
 11
-8.756147436278837
 21
-44.20000000000002
 72
     1
 10
-8.756147436278837
 20
-44.20000000000002
 11
-1.707710534389756
 21
-35.79999999999997
 97
        0
 75
     0
 76
     1
 98
        1
 10
0.0
 20
0.0
  0
HATCH
  5
DC
330
1F
100
AcDbEntity
  8
중심선
100
AcDbHatch
 10
0.0
 20
0.0
 30
0.0
210
0.0
220
0.0
230
1.0
  2
SOLID
 70
     1
 71
     0
 91
        1
 92
        0
 93
        6
 72
     3
 10
3.092179896622444
 20
-40.00000000005127
 11
3.960054785062284
 21
1.540850780301639E-10
 40
0.3939339440162633
 50
17.09539180608434
 51
320.0019657685081
 73
     0
 72
     1
 10
4.775179552323011
 20
-38.58789400463833
 11
7.080481426024077
 21
-36.65356729459038
 72
     3
 10
3.092179896569597
 20
-40.00000000000015
 11
6.600054785286829
 21
-1.249000902703301E-13
 40
0.6363583540795982
 50
39.99873849337408
 51
368.4976242363725
 73
     1
 72
     1
 10
9.517512388470205
 20
-39.03999999993002
 11
1.772247203405519
 21
-39.03999999993002
 72
     1
 10
1.772247203405519
 20
-39.03999999993002
 11
1.772222158959585
 21
-40.95999999992991
 72
     1
 10
1.772222158959585
 20
-40.95999999992991
 11
6.213601928431622
 21
-40.95999999992988
 97
        0
 75
     0
 76
     1
 98
        1
 10
0.0
 20
0.0
  0
DIMENSION
  5
DD
330
1F
100
AcDbEntity
  8
치수문자_일반주서
100
AcDbDimension
  2
_D
 10
27.5310889132455
 20
1.218957122944119
 30
0.0
 11
27.53108891324546
 21
13.46850000000004
 31
0.0
 70
   160
  1
%%c<>
 71
     2
 42
2.468957122944076
 52
-270.0
  3
SLDDIMSTYLE0
100
AcDbAlignedDimension
 13
14.53108891324553
 23
-1.250000000000005
 33
0.0
 14
14.53108891324553
 24
1.218957122944071
 34
0.0
 50
90.0000000000002
100
AcDbRotatedDimension
  0
DIMENSION
  5
EB
330
1F
100
AcDbEntity
  8
치수문자_일반주서
100
AcDbDimension
  2
_D_1
 10
14.53108891324553
 20
20.38913260158165
 30
0.0
 11
-5.46891108675448
 21
20.38913260158165
 31
0.0
 70
   160
  1
<>
 71
     2
 42
40.0
  3
SLDDIMSTYLE1
100
AcDbAlignedDimension
 13
-25.46891108675448
 23
2.499999999999996
 33
0.0
 14
14.53108891324552
 24
1.250000000000002
 34
0.0
100
AcDbRotatedDimension
  0
DIMENSION
  5
F6
330
1F
100
AcDbEntity
  8
치수문자_일반주서
100
AcDbDimension
  2
_D_2
 10
-33.12135671380119
 20
-3.000000000000032
 30
0.0
 11
-33.12135671380125
 21
12.66649999999997
 31
0.0
 70
   160
  1
%%c<>
 71
     2
 42
6.000000000000005
 52
-270.0
  3
SLDDIMSTYLE2
100
AcDbAlignedDimension
 13
-24.96891108675448
 23
3.000000000000003
 33
0.0
 14
-24.96891108675448
 24
-3.000000000000002
 34
0.0
 50
90.0000000000002
100
AcDbRotatedDimension
  0
DIMENSION
  5
104
330
1F
100
AcDbEntity
  8
치수문자_일반주서
100
AcDbDimension
  2
_D_3
 10
14.53108891324552
 20
14.25798915901846
 30
0.0
 11
1.17708891324552
 21
14.25798915901846
 31
0.0
 70
   160
  1
<>
 71
     2
 42
5.0
  3
SLDDIMSTYLE2
100
AcDbAlignedDimension
 13
9.531088913245522
 23
1.250000000000001
 33
0.0
 14
14.53108891324552
 24
1.250000000000002
 34
0.0
 50
0.0000000000000814
100
AcDbRotatedDimension
  0
INSERT
  5
116
330
1F
100
AcDbEntity
  8
해칭선
100
AcDbBlockReference
  2
SW_DOWELSYMBOL_0
 10
-0.0076762146519176
 20
-0.0000000000000042
 30
0.0
  0
LINE
  5
149
330
1F
100
AcDbEntity
  8
0
  6
Continuous
 62
     4
370
    25
100
AcDbLine
 10
9.531088913245522
 20
1.250000000000001
 30
0.0
 11
9.531088913245522
 21
-1.25
 31
0.0
  0
ENDSEC
  0
SECTION
  2
OBJECTS
  0
DICTIONARY
  5
C
330
0
100
AcDbDictionary
281
     1
  3
ACAD_GROUP
350
D
  3
ACAD_IMAGE_VARS
350
13A
  3
ACAD_LAYOUT
350
1A
  3
ACAD_MLINESTYLE
350
17
  3
ACAD_PLOTSETTINGS
350
19
  3
ACAD_PLOTSTYLENAME
350
E
  3
ACAD_SCALELIST
350
47
  3
APPDATA
350
138
  3
DWGPROPS
350
14B
  0
DICTIONARY
  5
D
102
{ACAD_REACTORS
330
C
102
}
330
C
100
AcDbDictionary
281
     1
  0
RASTERVARIABLES
  5
13A
102
{ACAD_REACTORS
330
C
102
}
330
C
100
AcDbRasterVariables
 90
        0
 70
     1
 71
     1
 72
     1
  0
DICTIONARY
  5
1A
102
{ACAD_REACTORS
330
C
102
}
330
C
100
AcDbDictionary
281
     1
  3
Layout1
350
1E
  3
Layout2
350
26
  3
Model
350
22
  0
DICTIONARY
  5
17
102
{ACAD_REACTORS
330
C
102
}
330
C
100
AcDbDictionary
281
     1
  3
Standard
350
18
  0
DICTIONARY
  5
19
102
{ACAD_REACTORS
330
C
102
}
330
C
100
AcDbDictionary
281
     1
  0
ACDBDICTIONARYWDFLT
  5
E
102
{ACAD_REACTORS
330
C
102
}
330
C
100
AcDbDictionary
281
     1
  3
Normal
350
F
100
AcDbDictionaryWithDefault
340
F
  0
DICTIONARY
  5
47
102
{ACAD_REACTORS
330
C
102
}
330
C
100
AcDbDictionary
281
     1
  3
A0
350
48
  3
A1
350
49
  3
A2
350
4A
  3
A3
350
4B
  3
A4
350
4C
  3
A5
350
4D
  3
A6
350
4E
  3
A7
350
4F
  3
A8
350
50
  3
A9
350
51
  3
B0
350
52
  3
B1
350
53
  3
B2
350
54
  3
B3
350
55
  3
B4
350
56
  3
B5
350
57
  3
B6
350
58
  3
B7
350
59
  3
B8
350
5A
  3
B9
350
5B
  3
C0
350
5C
  3
C1
350
5D
  3
C2
350
5E
  3
C3
350
5F
  3
C4
350
60
  3
C5
350
61
  3
C6
350
62
  3
C7
350
63
  3
C8
350
64
  3
C9
350
65
  3
D0
350
66
  3
D1
350
67
  3
D2
350
68
  0
DICTIONARY
  5
138
102
{ACAD_REACTORS
330
C
102
}
330
C
100
AcDbDictionary
281
     1
  0
XRECORD
  5
14B
102
{ACAD_REACTORS
330
C
102
}
330
C
100
AcDbXrecord
280
     1
  1
DWGPROPS COOKIE
  2

  3

  4

  6

  7

  8
12014102
  9

300
=
301
=
302
=
303
=
304
=
305
=
306
=
307
=
308
=
309
=
 40
0.0
 41
2458260.11287412
 42
2458266.438115266
  1

 90
        0
  0
LAYOUT
  5
1E
102
{ACAD_REACTORS
330
1A
102
}
330
1A
100
AcDbPlotSettings
  1

  2
none_device
  4

  6

 40
0.0
 41
0.0
 42
0.0
 43
0.0
 44
0.0
 45
0.0
 46
0.0
 47
0.0
 48
0.0
 49
0.0
140
0.0
141
0.0
142
1.0
143
1.0
 70
   688
 72
     1
 73
     0
 74
     5
  7

 75
    16
147
1.0
148
0.0
149
0.0
100
AcDbLayout
  1
Layout1
 70
     1
 71
     1
 10
0.0
 20
0.0
 11
420.0
 21
297.0
 12
0.0
 22
0.0
 32
0.0
 14
1.000000000000000E+20
 24
1.000000000000000E+20
 34
1.000000000000000E+20
 15
-1.000000000000000E+20
 25
-1.000000000000000E+20
 35
-1.000000000000000E+20
146
0.0
 13
0.0
 23
0.0
 33
0.0
 16
1.0
 26
0.0
 36
0.0
 17
0.0
 27
1.0
 37
0.0
 76
     0
330
1B
  0
LAYOUT
  5
26
102
{ACAD_REACTORS
330
1A
102
}
330
1A
100
AcDbPlotSettings
  1

  2
none_device
  4

  6

 40
0.0
 41
0.0
 42
0.0
 43
0.0
 44
0.0
 45
0.0
 46
0.0
 47
0.0
 48
0.0
 49
0.0
140
0.0
141
0.0
142
1.0
143
1.0
 70
   688
 72
     1
 73
     0
 74
     5
  7

 75
    16
147
1.0
148
0.0
149
0.0
100
AcDbLayout
  1
Layout2
 70
     1
 71
     2
 10
0.0
 20
0.0
 11
0.0
 21
0.0
 12
0.0
 22
0.0
 32
0.0
 14
0.0
 24
0.0
 34
0.0
 15
0.0
 25
0.0
 35
0.0
146
0.0
 13
0.0
 23
0.0
 33
0.0
 16
1.0
 26
0.0
 36
0.0
 17
0.0
 27
1.0
 37
0.0
 76
     0
330
23
  0
LAYOUT
  5
22
102
{ACAD_REACTORS
330
1A
102
}
330
1A
100
AcDbPlotSettings
  1

  2
none_device
  4
ANSI_A_(11.00_x_8.50_Inches)
  6

 40
6.35
 41
19.05
 42
6.35000508
 43
19.05000254
 44
279.4
 45
215.9
 46
142.0956312330492
 47
125.3847137330092
 48
0.0
 49
0.0
140
0.0
141
0.0
142
0.1112850254374007
143
1.0
 70
  1696
 72
     0
 73
     0
 74
     0
  7

 75
     0
147
0.0235690232323232
148
0.0
149
0.0
100
AcDbLayout
  1
Model
 70
     1
 71
     0
 10
0.0
 20
0.0
 11
420.0
 21
297.0
 12
0.0
 22
0.0
 32
0.0
 14
-37.49635671380126
 24
-49.97180738881174
 34
0.0
 15
37.3409244730553
 25
24.76413260158165
 35
0.0
146
0.0
 13
0.0
 23
0.0
 33
0.0
 16
1.0
 26
0.0
 36
0.0
 17
0.0
 27
1.0
 37
0.0
 76
     0
330
1F
331
29
  0
MLINESTYLE
  5
18
102
{ACAD_REACTORS
330
17
102
}
330
17
100
AcDbMlineStyle
  2
Standard
 70
     0
  3

 62
   256
 51
90.0
 52
90.0
 71
     2
 49
0.5
 62
   256
  6
BYLAYER
 49
-0.5
 62
   256
  6
BYLAYER
  0
ACDBPLACEHOLDER
  5
F
102
{ACAD_REACTORS
330
E
102
}
330
E
  0
SCALE
  5
48
102
{ACAD_REACTORS
330
47
102
}
330
47
100
AcDbScale
 70
     0
300
1:1
140
1.0
141
1.0
290
     1
  0
SCALE
  5
49
102
{ACAD_REACTORS
330
47
102
}
330
47
100
AcDbScale
 70
     0
300
1:2
140
1.0
141
2.0
290
     0
  0
SCALE
  5
4A
102
{ACAD_REACTORS
330
47
102
}
330
47
100
AcDbScale
 70
     0
300
1:4
140
1.0
141
4.0
290
     0
  0
SCALE
  5
4B
102
{ACAD_REACTORS
330
47
102
}
330
47
100
AcDbScale
 70
     0
300
1:5
140
1.0
141
5.0
290
     0
  0
SCALE
  5
4C
102
{ACAD_REACTORS
330
47
102
}
330
47
100
AcDbScale
 70
     0
300
1:8
140
1.0
141
8.0
290
     0
  0
SCALE
  5
4D
102
{ACAD_REACTORS
330
47
102
}
330
47
100
AcDbScale
 70
     0
300
1:10
140
1.0
141
10.0
290
     0
  0
SCALE
  5
4E
102
{ACAD_REACTORS
330
47
102
}
330
47
100
AcDbScale
 70
     0
300
1:16
140
1.0
141
16.0
290
     0
  0
SCALE
  5
4F
102
{ACAD_REACTORS
330
47
102
}
330
47
100
AcDbScale
 70
     0
300
1:20
140
1.0
141
20.0
290
     0
  0
SCALE
  5
50
102
{ACAD_REACTORS
330
47
102
}
330
47
100
AcDbScale
 70
     0
300
1:30
140
1.0
141
30.0
290
     0
  0
SCALE
  5
51
102
{ACAD_REACTORS
330
47
102
}
330
47
100
AcDbScale
 70
     0
300
1:40
140
1.0
141
40.0
290
     0
  0
SCALE
  5
52
102
{ACAD_REACTORS
330
47
102
}
330
47
100
AcDbScale
 70
     0
300
1:50
140
1.0
141
50.0
290
     0
  0
SCALE
  5
53
102
{ACAD_REACTORS
330
47
102
}
330
47
100
AcDbScale
 70
     0
300
1:100
140
1.0
141
100.0
290
     0
  0
SCALE
  5
54
102
{ACAD_REACTORS
330
47
102
}
330
47
100
AcDbScale
 70
     0
300
2:1
140
2.0
141
1.0
290
     0
  0
SCALE
  5
55
102
{ACAD_REACTORS
330
47
102
}
330
47
100
AcDbScale
 70
     0
300
4:1
140
4.0
141
1.0
290
     0
  0
SCALE
  5
56
102
{ACAD_REACTORS
330
47
102
}
330
47
100
AcDbScale
 70
     0
300
8:1
140
8.0
141
1.0
290
     0
  0
SCALE
  5
57
102
{ACAD_REACTORS
330
47
102
}
330
47
100
AcDbScale
 70
     0
300
10:1
140
10.0
141
1.0
290
     0
  0
SCALE
  5
58
102
{ACAD_REACTORS
330
47
102
}
330
47
100
AcDbScale
 70
     0
300
100:1
140
100.0
141
1.0
290
     0
  0
SCALE
  5
59
102
{ACAD_REACTORS
330
47
102
}
330
47
100
AcDbScale
 70
     0
300
1/128" = 1'-0"
140
0.0078125
141
12.0
290
     0
  0
SCALE
  5
5A
102
{ACAD_REACTORS
330
47
102
}
330
47
100
AcDbScale
 70
     0
300
1/64" = 1'-0"
140
0.015625
141
12.0
290
     0
  0
SCALE
  5
5B
102
{ACAD_REACTORS
330
47
102
}
330
47
100
AcDbScale
 70
     0
300
1/32" = 1'-0"
140
0.03125
141
12.0
290
     0
  0
SCALE
  5
5C
102
{ACAD_REACTORS
330
47
102
}
330
47
100
AcDbScale
 70
     0
300
1/16" = 1'-0"
140
0.0625
141
12.0
290
     0
  0
SCALE
  5
5D
102
{ACAD_REACTORS
330
47
102
}
330
47
100
AcDbScale
 70
     0
300
3/32" = 1'-0"
140
0.09375
141
12.0
290
     0
  0
SCALE
  5
5E
102
{ACAD_REACTORS
330
47
102
}
330
47
100
AcDbScale
 70
     0
300
1/8" = 1'-0"
140
0.125
141
12.0
290
     0
  0
SCALE
  5
5F
102
{ACAD_REACTORS
330
47
102
}
330
47
100
AcDbScale
 70
     0
300
3/16" = 1'-0"
140
0.1875
141
12.0
290
     0
  0
SCALE
  5
60
102
{ACAD_REACTORS
330
47
102
}
330
47
100
AcDbScale
 70
     0
300
1/4" = 1'-0"
140
0.25
141
12.0
290
     0
  0
SCALE
  5
61
102
{ACAD_REACTORS
330
47
102
}
330
47
100
AcDbScale
 70
     0
300
3/8" = 1'-0"
140
0.375
141
12.0
290
     0
  0
SCALE
  5
62
102
{ACAD_REACTORS
330
47
102
}
330
47
100
AcDbScale
 70
     0
300
1/2" = 1'-0"
140
0.5
141
12.0
290
     0
  0
SCALE
  5
63
102
{ACAD_REACTORS
330
47
102
}
330
47
100
AcDbScale
 70
     0
300
3/4" = 1'-0"
140
0.75
141
12.0
290
     0
  0
SCALE
  5
64
102
{ACAD_REACTORS
330
47
102
}
330
47
100
AcDbScale
 70
     0
300
1" = 1'-0"
140
1.0
141
12.0
290
     0
  0
SCALE
  5
65
102
{ACAD_REACTORS
330
47
102
}
330
47
100
AcDbScale
 70
     0
300
1-1/2" = 1'-0"
140
1.5
141
12.0
290
     0
  0
SCALE
  5
66
102
{ACAD_REACTORS
330
47
102
}
330
47
100
AcDbScale
 70
     0
300
3" = 1'-0"
140
3.0
141
12.0
290
     0
  0
SCALE
  5
67
102
{ACAD_REACTORS
330
47
102
}
330
47
100
AcDbScale
 70
     0
300
6" = 1'-0"
140
6.0
141
12.0
290
     0
  0
SCALE
  5
68
102
{ACAD_REACTORS
330
47
102
}
330
47
100
AcDbScale
 70
     0
300
1'-0" = 1'-0"
140
12.0
141
12.0
290
     0
  0
ENDSEC
  0
EOF
