  0
SECTION
  2
HEADER
  9
$ACADVER
  1
AC1015
  9
$ACADMAINTVER
 70
     6
  9
$DWGCODEPAGE
  3
ANSI_949
  9
$INSBASE
 10
0.0
 20
0.0
 30
0.0
  9
$EXTMIN
 10
-42.50931233750878
 20
-49.97180738881174
 30
0.0
  9
$EXTMAX
 10
40.28259113972197
 20
24.76413260158165
 30
0.0
  9
$LIMMIN
 10
0.0
 20
0.0
  9
$LIMMAX
 10
420.0
 20
297.0
  9
$ORTHOMODE
 70
     0
  9
$REGENMODE
 70
     1
  9
$FILLMODE
 70
     1
  9
$QTEXTMODE
 70
     0
  9
$MIRRTEXT
 70
     1
  9
$LTSCALE
 40
1.0
  9
$ATTMODE
 70
     1
  9
$TEXTSIZE
 40
3.5
  9
$TRACEWID
 40
1.0
  9
$TEXTSTYLE
  7
Standard
  9
$CLAYER
  8
0
  9
$CELTYPE
  6
ByLayer
  9
$CECOLOR
 62
   256
  9
$CELTSCALE
 40
1.0
  9
$DISPSILH
 70
     0
  9
$DIMSCALE
 40
1.0
  9
$DIMASZ
 40
3.302
  9
$DIMEXO
 40
1.0
  9
$DIMDLI
 40
3.75
  9
$DIMRND
 40
0.0
  9
$DIMDLE
 40
0.0
  9
$DIMEXE
 40
1.0
  9
$DIMTP
 40
0.0
  9
$DIMTM
 40
0.0
  9
$DIMTXT
 40
3.5
  9
$DIMCEN
 40
2.5
  9
$DIMTSZ
 40
0.0
  9
$DIMTOL
 70
     0
  9
$DIMLIM
 70
     0
  9
$DIMTIH
 70
     1
  9
$DIMTOH
 70
     1
  9
$DIMSE1
 70
     0
  9
$DIMSE2
 70
     0
  9
$DIMTAD
 70
     1
  9
$DIMZIN
 70
     0
  9
$DIMBLK
  1

  9
$DIMASO
 70
     1
  9
$DIMSHO
 70
     1
  9
$DIMPOST
  1

  9
$DIMAPOST
  1

  9
$DIMALT
 70
     0
  9
$DIMALTD
 70
     3
  9
$DIMALTF
 40
0.0393700787401575
  9
$DIMLFAC
 40
1.0
  9
$DIMTOFL
 70
     1
  9
$DIMTVP
 40
0.0
  9
$DIMTIX
 70
     0
  9
$DIMSOXD
 70
     0
  9
$DIMSAH
 70
     0
  9
$DIMBLK1
  1

  9
$DIMBLK2
  1

  9
$DIMSTYLE
  2
ISO-25
  9
$DIMCLRD
 70
     0
  9
$DIMCLRE
 70
     0
  9
$DIMCLRT
 70
     0
  9
$DIMTFAC
 40
1.0
  9
$DIMGAP
 40
1.524
  9
$DIMJUST
 70
     0
  9
$DIMSD1
 70
     0
  9
$DIMSD2
 70
     0
  9
$DIMTOLJ
 70
     0
  9
$DIMTZIN
 70
     0
  9
$DIMALTZ
 70
     0
  9
$DIMALTTZ
 70
     0
  9
$DIMUPT
 70
     0
  9
$DIMDEC
 70
     2
  9
$DIMTDEC
 70
     2
  9
$DIMALTU
 70
     2
  9
$DIMALTTD
 70
     3
  9
$DIMTXSTY
  7
Standard
  9
$DIMAUNIT
 70
     0
  9
$DIMADEC
 70
     2
  9
$DIMALTRND
 40
0.0
  9
$DIMAZIN
 70
     0
  9
$DIMDSEP
 70
    44
  9
$DIMATFIT
 70
     3
  9
$DIMFRAC
 70
     0
  9
$DIMLDRBLK
  1

  9
$DIMLUNIT
 70
     2
  9
$DIMLWD
 70
    -2
  9
$DIMLWE
 70
    -2
  9
$DIMTMOVE
 70
     0
  9
$LUNITS
 70
     2
  9
$LUPREC
 70
     2
  9
$SKETCHINC
 40
1.0
  9
$FILLETRAD
 40
10.0
  9
$AUNITS
 70
     0
  9
$AUPREC
 70
     2
  9
$MENU
  1
.
  9
$ELEVATION
 40
0.0
  9
$PELEVATION
 40
0.0
  9
$THICKNESS
 40
0.0
  9
$LIMCHECK
 70
     0
  9
$CHAMFERA
 40
0.0
  9
$CHAMFERB
 40
0.0
  9
$CHAMFERC
 40
0.0
  9
$CHAMFERD
 40
0.0
  9
$SKPOLY
 70
     0
  9
$TDCREATE
 40
2458260.490898796
  9
$TDUCREATE
 40
2458260.115898796
  9
$TDUPDATE
 40
2458267.669678542
  9
$TDUUPDATE
 40
2458267.294678542
  9
$TDINDWG
 40
0.0018548495
  9
$TDUSRTIMER
 40
2458267.292823727
  9
$USRTIMER
 70
     1
  9
$ANGBASE
 50
0.0
  9
$ANGDIR
 70
     0
  9
$PDMODE
 70
     0
  9
$PDSIZE
 40
-1.0
  9
$PLINEWID
 40
0.0
  9
$SPLFRAME
 70
     0
  9
$SPLINETYPE
 70
     6
  9
$SPLINESEGS
 70
     8
  9
$HANDSEED
  5
159
  9
$SURFTAB1
 70
     6
  9
$SURFTAB2
 70
     6
  9
$SURFTYPE
 70
     6
  9
$SURFU
 70
     6
  9
$SURFV
 70
     6
  9
$UCSBASE
  2

  9
$UCSNAME
  2

  9
$UCSORG
 10
0.0
 20
0.0
 30
0.0
  9
$UCSXDIR
 10
1.0
 20
0.0
 30
0.0
  9
$UCSYDIR
 10
0.0
 20
1.0
 30
0.0
  9
$UCSORTHOREF
  2

  9
$UCSORTHOVIEW
 70
     0
  9
$UCSORGTOP
 10
0.0
 20
0.0
 30
0.0
  9
$UCSORGBOTTOM
 10
0.0
 20
0.0
 30
0.0
  9
$UCSORGLEFT
 10
0.0
 20
0.0
 30
0.0
  9
$UCSORGRIGHT
 10
0.0
 20
0.0
 30
0.0
  9
$UCSORGFRONT
 10
0.0
 20
0.0
 30
0.0
  9
$UCSORGBACK
 10
0.0
 20
0.0
 30
0.0
  9
$PUCSBASE
  2

  9
$PUCSNAME
  2

  9
$PUCSORG
 10
0.0
 20
0.0
 30
0.0
  9
$PUCSXDIR
 10
1.0
 20
0.0
 30
0.0
  9
$PUCSYDIR
 10
0.0
 20
1.0
 30
0.0
  9
$PUCSORTHOREF
  2

  9
$PUCSORTHOVIEW
 70
     0
  9
$PUCSORGTOP
 10
0.0
 20
0.0
 30
0.0
  9
$PUCSORGBOTTOM
 10
0.0
 20
0.0
 30
0.0
  9
$PUCSORGLEFT
 10
0.0
 20
0.0
 30
0.0
  9
$PUCSORGRIGHT
 10
0.0
 20
0.0
 30
0.0
  9
$PUCSORGFRONT
 10
0.0
 20
0.0
 30
0.0
  9
$PUCSORGBACK
 10
0.0
 20
0.0
 30
0.0
  9
$USERI1
 70
     0
  9
$USERI2
 70
     0
  9
$USERI3
 70
     0
  9
$USERI4
 70
     0
  9
$USERI5
 70
     0
  9
$USERR1
 40
0.0
  9
$USERR2
 40
0.0
  9
$USERR3
 40
0.0
  9
$USERR4
 40
0.0
  9
$USERR5
 40
0.0
  9
$WORLDVIEW
 70
     1
  9
$SHADEDGE
 70
     3
  9
$SHADEDIF
 70
    70
  9
$TILEMODE
 70
     1
  9
$MAXACTVP
 70
    64
  9
$PINSBASE
 10
0.0
 20
0.0
 30
0.0
  9
$PLIMCHECK
 70
     0
  9
$PEXTMIN
 10
1.000000000000000E+20
 20
1.000000000000000E+20
 30
1.000000000000000E+20
  9
$PEXTMAX
 10
-1.000000000000000E+20
 20
-1.000000000000000E+20
 30
-1.000000000000000E+20
  9
$PLIMMIN
 10
0.0
 20
0.0
  9
$PLIMMAX
 10
0.0
 20
0.0
  9
$UNITMODE
 70
     0
  9
$VISRETAIN
 70
     1
  9
$PLINEGEN
 70
     0
  9
$PSLTSCALE
 70
     1
  9
$TREEDEPTH
 70
  3020
  9
$CMLSTYLE
  2
Standard
  9
$CMLJUST
 70
     0
  9
$CMLSCALE
 40
20.0
  9
$PROXYGRAPHICS
 70
     1
  9
$MEASUREMENT
 70
     1
  9
$CELWEIGHT
370
    -1
  9
$ENDCAPS
280
     0
  9
$JOINSTYLE
280
     0
  9
$LWDISPLAY
290
     1
  9
$INSUNITS
 70
     4
  9
$HYPERLINKBASE
  1

  9
$STYLESHEET
  1

  9
$XEDIT
290
     1
  9
$CEPSNTYPE
380
     0
  9
$PSTYLEMODE
290
     1
  9
$FINGERPRINTGUID
  2
{7F2E277F-BA00-4FB1-B929-BCD68D7EF69F}
  9
$VERSIONGUID
  2
{FAEB1C32-E019-11D5-929B-00C0DF256EC4}
  9
$EXTNAMES
290
     1
  9
$PSVPSCALE
 40
0.0
  9
$OLESTARTUP
290
     0
  0
ENDSEC
  0
SECTION
  2
CLASSES
  0
CLASS
  1
ACDBDICTIONARYWDFLT
  2
AcDbDictionaryWithDefault
  3
ObjectDBX Classes
 90
        0
280
     0
281
     0
  0
CLASS
  1
VISUALSTYLE
  2
AcDbVisualStyle
  3
ObjectDBX Classes
 90
     4095
280
     0
281
     0
  0
CLASS
  1
MATERIAL
  2
AcDbMaterial
  3
ObjectDBX Classes
 90
     1153
280
     0
281
     0
  0
CLASS
  1
SCALE
  2
AcDbScale
  3
ObjectDBX Classes
 90
     1153
280
     0
281
     0
  0
CLASS
  1
TABLESTYLE
  2
AcDbTableStyle
  3
ObjectDBX Classes
 90
     4095
280
     0
281
     0
  0
CLASS
  1
MLEADERSTYLE
  2
AcDbMLeaderStyle
  3
ACDB_MLEADERSTYLE_CLASS
 90
     4095
280
     0
281
     0
  0
CLASS
  1
SUN
  2
AcDbSun
  3
SCENEOE
 90
     1153
280
     0
281
     0
  0
CLASS
  1
ACDBPLACEHOLDER
  2
AcDbPlaceHolder
  3
ObjectDBX Classes
 90
        0
280
     0
281
     0
  0
CLASS
  1
LAYOUT
  2
AcDbLayout
  3
ObjectDBX Classes
 90
        0
280
     0
281
     0
  0
CLASS
  1
RASTERVARIABLES
  2
AcDbRasterVariables
  3
ISM
 90
        0
280
     0
281
     0
  0
ENDSEC
  0
SECTION
  2
TABLES
  0
TABLE
  2
VPORT
  5
8
330
0
100
AcDbSymbolTable
 70
     1
  0
VPORT
  5
29
330
8
100
AcDbSymbolTableRecord
100
AcDbViewportTableRecord
  2
*Active
 70
     0
 10
0.0
 20
0.0
 11
1.0
 21
1.0
 12
-1.113360598893401
 22
-12.60383739361504
 13
0.0
 23
0.0
 14
10.0
 24
10.0
 15
10.0
 25
10.0
 16
0.0
 26
0.0
 36
1.0
 17
0.0
 27
0.0
 37
0.0
 40
76.23065879020126
 41
1.739018087855297
 42
50.0
 43
0.0
 44
0.0
 50
0.0
 51
0.0
 71
    16
 72
  2000
 73
     1
 74
     3
 75
     0
 76
     0
 77
     0
 78
     0
281
     0
 65
     1
110
0.0
120
0.0
130
0.0
111
1.0
121
0.0
131
0.0
112
0.0
122
1.0
132
0.0
 79
     0
146
0.0
  0
ENDTAB
  0
TABLE
  2
LTYPE
  5
5
330
0
100
AcDbSymbolTable
 70
     6
  0
LTYPE
  5
14
330
5
100
AcDbSymbolTableRecord
100
AcDbLinetypeTableRecord
  2
ByBlock
 70
     0
  3

 72
    65
 73
     0
 40
0.0
  0
LTYPE
  5
15
330
5
100
AcDbSymbolTableRecord
100
AcDbLinetypeTableRecord
  2
ByLayer
 70
     0
  3

 72
    65
 73
     0
 40
0.0
  0
LTYPE
  5
16
330
5
100
AcDbSymbolTableRecord
100
AcDbLinetypeTableRecord
  2
Continuous
 70
     0
  3
Solid line
 72
    65
 73
     0
 40
0.0
  0
LTYPE
  5
6E
330
5
100
AcDbSymbolTableRecord
100
AcDbLinetypeTableRecord
  2
HIDDEN
 70
     0
  3
Hidden __ __ __ __ __ __ __ __ __ __ __ __ __ __
 72
    65
 73
     2
 40
1.905
 49
1.27
 74
     0
 49
-0.635
 74
     0
  0
LTYPE
  5
6F
330
5
100
AcDbSymbolTableRecord
100
AcDbLinetypeTableRecord
  2
PHANTOM
 70
     0
  3
Phantom ______  __  __  ______  __  __  ______
 72
    65
 73
     6
 40
12.7
 49
6.35
 74
     0
 49
-1.27
 74
     0
 49
1.27
 74
     0
 49
-1.27
 74
     0
 49
1.27
 74
     0
 49
-1.27
 74
     0
  0
LTYPE
  5
70
330
5
100
AcDbSymbolTableRecord
100
AcDbLinetypeTableRecord
  2
CENTER
 70
     0
  3
Center ____ _ ____ _ ____ _ ____ _ ____ _ ____
 72
    65
 73
     4
 40
10.16
 49
6.35
 74
     0
 49
-1.27
 74
     0
 49
1.27
 74
     0
 49
-1.27
 74
     0
  0
LTYPE
  5
71
330
5
100
AcDbSymbolTableRecord
100
AcDbLinetypeTableRecord
  2
CENTERX2
 70
     0
  3
Center (2x) ________  __  ________  __  _____
 72
    65
 73
     4
 40
20.32
 49
12.7
 74
     0
 49
-2.54
 74
     0
 49
2.54
 74
     0
 49
-2.54
 74
     0
  0
LTYPE
  5
72
330
5
100
AcDbSymbolTableRecord
100
AcDbLinetypeTableRecord
  2
DOT2
 70
     0
  3
Dot (.5x) ........................................
 72
    65
 73
     2
 40
0.635
 49
0.0
 74
     0
 49
-0.635
 74
     0
  0
ENDTAB
  0
TABLE
  2
LAYER
  5
2
330
0
100
AcDbSymbolTable
 70
    17
  0
LAYER
  5
10
330
2
100
AcDbSymbolTableRecord
100
AcDbLayerTableRecord
  2
0
 70
     0
 62
     7
  6
Continuous
370
    -3
390
F
  0
LAYER
  5
73
330
2
100
AcDbSymbolTableRecord
100
AcDbLayerTableRecord
  2
FORMAT
 70
     0
 62
     2
  6
Continuous
370
    -3
390
F
  0
LAYER
  5
74
330
2
100
AcDbSymbolTableRecord
100
AcDbLayerTableRecord
  2
외형선
 70
     0
 62
   100
  6
Continuous
370
    35
390
F
  0
LAYER
  5
75
330
2
100
AcDbSymbolTableRecord
100
AcDbLayerTableRecord
  2
숨은선
 70
     0
 62
     2
  6
HIDDEN
370
    25
390
F
  0
LAYER
  5
76
330
2
100
AcDbSymbolTableRecord
100
AcDbLayerTableRecord
  2
중심선
 70
     0
 62
     1
  6
CENTERX2
370
    -3
390
F
  0
LAYER
  5
77
330
2
100
AcDbSymbolTableRecord
100
AcDbLayerTableRecord
  2
파단선
 70
     0
 62
     4
  6
Continuous
370
    -3
390
F
  0
LAYER
  5
78
330
2
100
AcDbSymbolTableRecord
100
AcDbLayerTableRecord
  2
해칭선
 70
     0
 62
   100
  6
Continuous
370
    -3
390
F
  0
LAYER
  5
79
330
2
100
AcDbSymbolTableRecord
100
AcDbLayerTableRecord
  2
가는실선
 70
     0
 62
     4
  6
Continuous
370
    -3
390
F
  0
LAYER
  5
7A
330
2
100
AcDbSymbolTableRecord
100
AcDbLayerTableRecord
  2
치수_보조선
 70
     0
 62
     4
  6
Continuous
370
    -3
390
F
  0
LAYER
  5
7B
330
2
100
AcDbSymbolTableRecord
100
AcDbLayerTableRecord
  2
치수문자_일반주서
 70
     0
 62
     7
  6
Continuous
370
    25
390
F
  0
LAYER
  5
7C
330
2
100
AcDbSymbolTableRecord
100
AcDbLayerTableRecord
  2
개별주서
 70
     0
 62
   100
  6
Continuous
370
    35
390
F
  0
LAYER
  5
7D
330
2
100
AcDbSymbolTableRecord
100
AcDbLayerTableRecord
  2
중간선
 70
     0
 62
     2
  6
Continuous
370
    25
390
F
  0
LAYER
  5
7E
330
2
100
AcDbSymbolTableRecord
100
AcDbLayerTableRecord
  2
윤곽선
 70
     0
 62
     3
  6
Continuous
370
    50
390
F
  0
LAYER
  5
7F
330
2
100
AcDbSymbolTableRecord
100
AcDbLayerTableRecord
  2
중심마크
 70
     0
 62
   100
  6
Continuous
370
    35
390
F
  0
LAYER
  5
80
330
2
100
AcDbSymbolTableRecord
100
AcDbLayerTableRecord
  2
가상선
 70
     0
 62
     4
  6
PHANTOM
370
    -3
390
F
  0
LAYER
  5
81
330
2
100
AcDbSymbolTableRecord
100
AcDbLayerTableRecord
  2
특수지정선
 70
     0
 62
     5
  6
CENTERX2
370
    70
390
F
  0
LAYER
  5
14B
330
2
100
AcDbSymbolTableRecord
100
AcDbLayerTableRecord
  2
Defpoints
 70
     0
 62
     7
  6
Continuous
290
     0
370
    -3
390
F
  0
ENDTAB
  0
TABLE
  2
STYLE
  5
3
330
0
100
AcDbSymbolTable
 70
     2
  0
STYLE
  5
11
330
3
100
AcDbSymbolTableRecord
100
AcDbTextStyleTableRecord
  2
Standard
 70
     0
 40
0.0
 41
1.0
 50
0.0
 71
     0
 42
3.5
  3
txt
  4

  0
STYLE
  5
97
330
3
100
AcDbSymbolTableRecord
100
AcDbTextStyleTableRecord
  2
SLDTEXTSTYLE0
 70
     0
 40
0.0
 41
0.75
 50
0.0
 71
     0
 42
3.5
  3
TXT
  4

  0
ENDTAB
  0
TABLE
  2
VIEW
  5
6
330
0
100
AcDbSymbolTable
 70
     0
  0
ENDTAB
  0
TABLE
  2
UCS
  5
7
330
0
100
AcDbSymbolTable
 70
     0
  0
ENDTAB
  0
TABLE
  2
APPID
  5
9
330
0
100
AcDbSymbolTable
 70
     1
  0
APPID
  5
12
330
9
100
AcDbSymbolTableRecord
100
AcDbRegAppTableRecord
  2
ACAD
 70
     0
  0
ENDTAB
  0
TABLE
  2
DIMSTYLE
  5
A
330
0
100
AcDbSymbolTable
 70
     4
100
AcDbDimStyleTable
  0
DIMSTYLE
105
27
330
A
100
AcDbSymbolTableRecord
100
AcDbDimStyleTableRecord
  2
ISO-25
 70
     0
 41
2.5
 42
0.625
 43
3.75
 44
1.25
 73
     0
 74
     0
 77
     1
 78
     8
140
2.5
141
2.5
143
0.03937007874016
147
0.625
171
     3
172
     1
178
     0
271
     2
272
     2
274
     3
278
    44
283
     0
284
     8
340
11
  0
DIMSTYLE
105
EE
102
{ACAD_REACTORS
330
ED
102
}
330
A
100
AcDbSymbolTableRecord
100
AcDbDimStyleTableRecord
  2
SLDDIMSTYLE0
 70
     0
 41
3.302
 44
0.0
 45
0.000000001
 73
     0
 74
     0
 77
     1
 78
    12
 79
     3
140
3.5
147
0.875
172
     1
173
     1
178
     0
271
     1
272
     1
276
     2
284
    12
289
     0
340
97
  0
DIMSTYLE
105
FC
102
{ACAD_REACTORS
330
FB
102
}
330
A
100
AcDbSymbolTableRecord
100
AcDbDimStyleTableRecord
  2
SLDDIMSTYLE1
 70
     0
 41
3.302
 44
0.0
 45
0.000000001
 73
     0
 74
     0
 77
     1
 78
    12
 79
     3
140
3.5
147
0.875
173
     1
178
     0
271
     2
272
     2
276
     2
284
    12
340
97
  0
DIMSTYLE
105
107
102
{ACAD_REACTORS
330
106
330
114
102
}
330
A
100
AcDbSymbolTableRecord
100
AcDbDimStyleTableRecord
  2
SLDDIMSTYLE2
 70
     0
 41
3.302
 44
0.0
 45
0.000000001
 73
     0
 74
     0
 77
     1
 78
    12
 79
     3
140
3.5
147
0.875
172
     1
173
     1
178
     0
271
     2
272
     2
276
     2
284
    12
289
     0
340
97
  0
ENDTAB
  0
TABLE
  2
BLOCK_RECORD
  5
1
330
0
100
AcDbSymbolTable
 70
     7
  0
BLOCK_RECORD
  5
1F
330
1
100
AcDbSymbolTableRecord
100
AcDbBlockTableRecord
  2
*Model_Space
340
22
  0
BLOCK_RECORD
  5
1B
330
1
100
AcDbSymbolTableRecord
100
AcDbBlockTableRecord
  2
*Paper_Space
340
1E
  0
BLOCK_RECORD
  5
23
330
1
100
AcDbSymbolTableRecord
100
AcDbBlockTableRecord
  2
*Paper_Space0
340
26
  0
BLOCK_RECORD
  5
82
330
1
100
AcDbSymbolTableRecord
100
AcDbBlockTableRecord
  2
블럭10
340
0
102
{BLKREFS
331
E6
102
}
  0
BLOCK_RECORD
  5
EF
330
1
100
AcDbSymbolTableRecord
100
AcDbBlockTableRecord
  2
_D
340
0
  0
BLOCK_RECORD
  5
FD
330
1
100
AcDbSymbolTableRecord
100
AcDbBlockTableRecord
  2
_D_1
340
0
  0
BLOCK_RECORD
  5
108
330
1
100
AcDbSymbolTableRecord
100
AcDbBlockTableRecord
  2
_D_2
340
0
  0
BLOCK_RECORD
  5
115
330
1
100
AcDbSymbolTableRecord
100
AcDbBlockTableRecord
  2
_D_3
340
0
  0
BLOCK_RECORD
  5
120
330
1
100
AcDbSymbolTableRecord
100
AcDbBlockTableRecord
  2
SW_DOWELSYMBOL_0
340
0
102
{BLKREFS
331
126
102
}
  0
ENDTAB
  0
ENDSEC
  0
SECTION
  2
BLOCKS
  0
BLOCK
  5
20
330
1F
100
AcDbEntity
  8
0
100
AcDbBlockBegin
  2
*Model_Space
 70
     0
 10
0.0
 20
0.0
 30
0.0
  3
*Model_Space
  1

  0
ENDBLK
  5
21
330
1F
100
AcDbEntity
  8
0
100
AcDbBlockEnd
  0
BLOCK
  5
1C
330
1B
100
AcDbEntity
 67
     1
  8
0
100
AcDbBlockBegin
  2
*Paper_Space
 70
     0
 10
0.0
 20
0.0
 30
0.0
  3
*Paper_Space
  1

  0
ENDBLK
  5
1D
330
1B
100
AcDbEntity
 67
     1
  8
0
100
AcDbBlockEnd
  0
BLOCK
  5
24
330
23
100
AcDbEntity
  8
0
100
AcDbBlockBegin
  2
*Paper_Space0
 70
     0
 10
0.0
 20
0.0
 30
0.0
  3
*Paper_Space0
  1

  0
ENDBLK
  5
25
330
23
100
AcDbEntity
  8
0
100
AcDbBlockEnd
  0
BLOCK
  5
83
330
82
100
AcDbEntity
  8
0
100
AcDbBlockBegin
  2
블럭10
 70
     2
 10
0.0
 20
0.0
 30
0.0
  3
블럭10
  1

  0
ELLIPSE
  5
85
330
82
100
AcDbEntity
  8
중심선
100
AcDbEllipse
 10
20.54032771741204
 20
12.0471743016438
 30
0.0
 11
6.600054785286829
 21
-1.261213355974178E-13
 31
0.0
210
0.0
220
0.0
230
1.0
 40
0.636358354079598
 41
0.9219305317359503
 42
6.513795318482858
  0
ELLIPSE
  5
86
330
82
100
AcDbEntity
  8
중심선
100
AcDbEllipse
 10
20.54032771746488
 20
12.04717430159265
 30
0.0
 11
3.960054785062283
 21
1.540847449632565E-10
 31
0.0
210
0.0
220
0.0
230
1.0
 40
0.3939339440162632
 41
1.131841032648279
 42
5.62031148352944
  0
LINE
  5
87
330
82
100
AcDbEntity
  8
중심선
100
AcDbLine
 10
2.268634060543552
 20
16.24717430164393
 30
0.0
 11
5.714909304380834
 21
16.24717430164393
 31
0.0
  0
LINE
  5
88
330
82
100
AcDbEntity
  8
중심선
100
AcDbLine
 10
5.245725140726316
 20
7.84717430164391
 30
0.0
 11
8.692000384563599
 21
7.84717430164391
 31
0.0
  0
LINE
  5
89
330
82
100
AcDbEntity
  8
중심선
100
AcDbLine
 10
15.74043728645272
 20
16.24717430164393
 30
0.0
 11
8.692000384563599
 21
7.84717430164391
 31
0.0
  0
LINE
  5
8A
330
82
100
AcDbEntity
  8
중심선
100
AcDbLine
 10
0.1404042013395286
 20
13.71084872107135
 30
0.0
 11
3.58671253028996
 21
13.71088815037384
 31
0.0
  0
LINE
  5
8B
330
82
100
AcDbEntity
  8
중심선
100
AcDbLine
 10
2.750260043222114
 20
10.84717430164391
 30
0.0
 11
6.196535287059397
 21
10.84717430164391
 31
0.0
  0
LINE
  5
8C
330
82
100
AcDbEntity
  8
중심선
100
AcDbLine
 10
12.29416204261559
 20
16.24717430164393
 30
0.0
 11
5.245725140726316
 21
7.84717430164391
 31
0.0
  0
LINE
  5
8D
330
82
100
AcDbEntity
  8
중심선
100
AcDbLine
 10
10.72767329541681
 20
16.24717430164393
 30
0.0
 11
6.196535287059397
 21
10.84717430164391
 31
0.0
  0
LINE
  5
8E
330
82
100
AcDbEntity
  8
중심선
100
AcDbLine
 10
7.28139805157953
 20
16.24717430164393
 30
0.0
 11
2.750260043222114
 21
10.84717430164391
 31
0.0
  0
LINE
  5
8F
330
82
100
AcDbEntity
  8
중심선
100
AcDbLine
 10
5.714909304380834
 20
16.24717430164393
 30
0.0
 11
3.58671253028996
 21
13.71088815037384
 31
0.0
  0
LINE
  5
90
330
82
100
AcDbEntity
  8
중심선
100
AcDbLine
 10
2.268634060543552
 20
16.24717430164393
 30
0.0
 11
0.1404042013395286
 21
13.71084872107135
 31
0.0
  0
LINE
  5
91
330
82
100
AcDbEntity
  8
중심선
100
AcDbLine
 10
7.28139805157953
 20
16.24717430164393
 30
0.0
 11
10.72767329541681
 21
16.24717430164393
 31
0.0
  0
LINE
  5
92
330
82
100
AcDbEntity
  8
중심선
100
AcDbLine
 10
12.29416204261559
 20
16.24717430164393
 30
0.0
 11
15.74043728645272
 21
16.24717430164393
 31
0.0
  0
LINE
  5
93
330
82
100
AcDbEntity
  8
중심선
100
AcDbLine
 10
19.22036997980202
 20
11.08717430171403
 30
0.0
 11
23.66174974927406
 21
11.08717430171406
 31
0.0
  0
LINE
  5
94
330
82
100
AcDbEntity
  8
중심선
100
AcDbLine
 10
19.22039502424796
 20
13.00717430171391
 30
0.0
 11
19.22036997980202
 21
11.08717430171403
 31
0.0
  0
LINE
  5
95
330
82
100
AcDbEntity
  8
중심선
100
AcDbLine
 10
19.22039502424796
 20
13.00717430171391
 30
0.0
 11
26.96566020931264
 21
13.00717430171391
 31
0.0
  0
LINE
  5
96
330
82
100
AcDbEntity
  8
중심선
100
AcDbLine
 10
22.22332737316547
 20
13.45928029700563
 30
0.0
 11
24.52862924686651
 21
15.39360700705356
 31
0.0
  0
ATTDEF
  5
98
330
82
100
AcDbEntity
  8
FORMAT
 62
     2
100
AcDbText
 10
-16.11926103943555
 20
2.075366912832191
 30
0.0
 40
4.233333333333333
  1
SEME7104014E [ 4 FLUTE ]
 41
0.75
  7
SLDTEXTSTYLE0
 11
-16.11926103943555
 21
-0.0412997538344756
 31
0.0
100
AcDbAttributeDefinition
  3

  2
AUTOATTR0
 70
     0
 74
     1
  0
ENDBLK
  5
84
330
82
100
AcDbEntity
  8
0
100
AcDbBlockEnd
  0
BLOCK
  5
F0
330
EF
100
AcDbEntity
  8
0
100
AcDbBlockBegin
  2
_D
 70
     0
 10
0.0
 20
0.0
 30
0.0
  3
_D
  1

  0
LINE
  5
F2
330
EF
100
AcDbEntity
  8
치수문자_일반주서
 62
     0
370
    -2
100
AcDbLine
 10
20.79455080756889
 20
-2.000000000000005
 30
0.0
 11
33.75182442918315
 21
-1.999999999999957
 31
0.0
  0
LINE
  5
F3
330
EF
100
AcDbEntity
  8
치수문자_일반주서
 62
     0
370
    -2
100
AcDbLine
 10
20.79455080756889
 20
2.000000000000008
 30
0.0
 11
33.75182442918314
 21
2.000000000000055
 31
0.0
  0
LINE
  5
F4
330
EF
100
AcDbEntity
  8
치수문자_일반주서
 62
     0
370
    -2
100
AcDbLine
 10
33.75182442918315
 20
-1.999999999999957
 30
0.0
 11
33.75182442918309
 21
14.72900000000006
 31
0.0
  0
LINE
  5
F5
330
EF
100
AcDbEntity
  8
치수문자_일반주서
 62
     0
370
    -2
100
AcDbLine
 10
33.75182442918315
 20
-1.999999999999957
 30
0.0
 11
33.75182442918314
 21
2.000000000000055
 31
0.0
  0
LINE
  5
F6
330
EF
100
AcDbEntity
  8
치수문자_일반주서
 62
     0
370
    -2
100
AcDbLine
 10
33.75182442918317
 20
-5.301999999999957
 30
0.0
 11
33.75182442918318
 21
-8.603999999999957
 31
0.0
  0
LINE
  5
F7
330
EF
100
AcDbEntity
  8
치수문자_일반주서
 62
     0
370
    -2
100
AcDbLine
 10
33.75182442918312
 20
5.302000000000055
 30
0.0
 11
33.75182442918311
 21
8.604000000000054
 31
0.0
  0
SOLID
  5
F8
330
EF
100
AcDbEntity
  8
치수문자_일반주서
 62
     0
100
AcDbTrace
 10
34.3021577625165
 20
-5.301999999999955
 30
0.0
 11
33.20149109584983
 21
-5.301999999999959
 31
0.0
 12
33.75182442918315
 22
-1.999999999999957
 32
0.0
 13
33.75182442918315
 23
-1.999999999999957
 33
0.0
  0
SOLID
  5
F9
330
EF
100
AcDbEntity
  8
치수문자_일반주서
 62
     0
100
AcDbTrace
 10
33.20149109584979
 20
5.302000000000053
 30
0.0
 11
34.30215776251646
 21
5.302000000000056
 31
0.0
 12
33.75182442918314
 22
2.000000000000055
 32
0.0
 13
33.75182442918314
 23
2.000000000000055
 33
0.0
  0
MTEXT
  5
FA
330
EF
100
AcDbEntity
  8
치수문자_일반주서
 62
     0
100
AcDbMText
 10
29.3768244291831
 20
11.66650000000004
 30
0.0
 40
3.5
 41
0.0
 71
     2
 72
     1
  1
\A1;%%c4
  7
SLDTEXTSTYLE0
 11
-3.552713678800489E-15
 21
1.0
 31
0.0
 73
     1
 44
1.0
  0
POINT
  5
153
330
EF
100
AcDbEntity
  8
Defpoints
 62
     0
100
AcDbPoint
 10
20.73205080756889
 20
-2.000000000000005
 30
0.0
  0
POINT
  5
154
330
EF
100
AcDbEntity
  8
Defpoints
 62
     0
100
AcDbPoint
 10
20.73205080756889
 20
2.000000000000008
 30
0.0
  0
POINT
  5
155
330
EF
100
AcDbEntity
  8
Defpoints
 62
     0
100
AcDbPoint
 10
33.75182442918314
 20
2.000000000000057
 30
0.0
  0
ENDBLK
  5
F1
330
EF
100
AcDbEntity
  8
0
100
AcDbBlockEnd
  0
BLOCK
  5
FE
330
FD
100
AcDbEntity
  8
0
100
AcDbBlockBegin
  2
_D_1
 70
     0
 10
0.0
 20
0.0
 30
0.0
  3
_D_1
  1

  0
LINE
  5
100
330
FD
100
AcDbEntity
  8
치수문자_일반주서
 62
     0
370
    -2
100
AcDbLine
 10
-29.26794919243113
 20
2.562499999999998
 30
0.0
 11
-29.26794919243113
 21
20.38913260158165
 31
0.0
  0
LINE
  5
101
330
FD
100
AcDbEntity
  8
치수문자_일반주서
 62
     0
370
    -2
100
AcDbLine
 10
20.73205080756887
 20
2.062500000000003
 30
0.0
 11
20.73205080756887
 21
20.38913260158165
 31
0.0
  0
LINE
  5
102
330
FD
100
AcDbEntity
  8
치수문자_일반주서
 62
     0
370
    -2
100
AcDbLine
 10
-25.96594919243113
 20
20.38913260158165
 30
0.0
 11
17.43005080756888
 21
20.38913260158165
 31
0.0
  0
SOLID
  5
103
330
FD
100
AcDbEntity
  8
치수문자_일반주서
 62
     0
100
AcDbTrace
 10
-25.96594919243113
 20
20.93946593491498
 30
0.0
 11
-25.96594919243113
 21
19.83879926824831
 31
0.0
 12
-29.26794919243113
 22
20.38913260158165
 32
0.0
 13
-29.26794919243113
 23
20.38913260158165
 33
0.0
  0
SOLID
  5
104
330
FD
100
AcDbEntity
  8
치수문자_일반주서
 62
     0
100
AcDbTrace
 10
17.43005080756888
 20
19.83879926824831
 30
0.0
 11
17.43005080756888
 21
20.93946593491498
 31
0.0
 12
20.73205080756887
 22
20.38913260158165
 32
0.0
 13
20.73205080756887
 23
20.38913260158165
 33
0.0
  0
MTEXT
  5
105
330
FD
100
AcDbEntity
  8
치수문자_일반주서
 62
     0
100
AcDbMText
 10
-4.26794919243113
 20
24.76413260158165
 30
0.0
 40
3.5
 41
0.0
 71
     2
 72
     1
  1
\A1;50
  7
SLDTEXTSTYLE0
 73
     1
 44
1.0
  0
POINT
  5
14C
330
FD
100
AcDbEntity
  8
Defpoints
 62
     0
100
AcDbPoint
 10
-29.26794919243113
 20
2.499999999999998
 30
0.0
  0
POINT
  5
14D
330
FD
100
AcDbEntity
  8
Defpoints
 62
     0
100
AcDbPoint
 10
20.73205080756887
 20
2.000000000000003
 30
0.0
  0
POINT
  5
14E
330
FD
100
AcDbEntity
  8
Defpoints
 62
     0
100
AcDbPoint
 10
20.73205080756887
 20
20.38913260158165
 30
0.0
  0
ENDBLK
  5
FF
330
FD
100
AcDbEntity
  8
0
100
AcDbBlockEnd
  0
BLOCK
  5
109
330
108
100
AcDbEntity
  8
0
100
AcDbBlockBegin
  2
_D_2
 70
     0
 10
0.0
 20
0.0
 30
0.0
  3
_D_2
  1

  0
LINE
  5
10B
330
108
100
AcDbEntity
  8
치수문자_일반주서
 62
     0
370
    -2
100
AcDbLine
 10
-28.83044919243113
 20
3.000000000000004
 30
0.0
 11
-38.13431233750874
 21
2.999999999999972
 31
0.0
  0
LINE
  5
10C
330
108
100
AcDbEntity
  8
치수문자_일반주서
 62
     0
370
    -2
100
AcDbLine
 10
-28.83044919243113
 20
-3.000000000000001
 30
0.0
 11
-38.13431233750872
 21
-3.000000000000036
 31
0.0
  0
LINE
  5
10D
330
108
100
AcDbEntity
  8
치수문자_일반주서
 62
     0
370
    -2
100
AcDbLine
 10
-38.13431233750874
 20
2.999999999999972
 30
0.0
 11
-38.13431233750879
 21
15.72899999999997
 31
0.0
  0
LINE
  5
10E
330
108
100
AcDbEntity
  8
치수문자_일반주서
 62
     0
370
    -2
100
AcDbLine
 10
-38.13431233750874
 20
2.999999999999972
 30
0.0
 11
-38.13431233750872
 21
-3.000000000000036
 31
0.0
  0
LINE
  5
10F
330
108
100
AcDbEntity
  8
치수문자_일반주서
 62
     0
370
    -2
100
AcDbLine
 10
-38.13431233750875
 20
6.301999999999971
 30
0.0
 11
-38.13431233750877
 21
9.60399999999997
 31
0.0
  0
LINE
  5
110
330
108
100
AcDbEntity
  8
치수문자_일반주서
 62
     0
370
    -2
100
AcDbLine
 10
-38.1343123375087
 20
-6.302000000000035
 30
0.0
 11
-38.13431233750869
 21
-9.604000000000035
 31
0.0
  0
SOLID
  5
111
330
108
100
AcDbEntity
  8
치수문자_일반주서
 62
     0
100
AcDbTrace
 10
-38.68464567084209
 20
6.301999999999969
 30
0.0
 11
-37.58397900417542
 21
6.301999999999973
 31
0.0
 12
-38.13431233750874
 22
2.999999999999972
 32
0.0
 13
-38.13431233750874
 23
2.999999999999972
 33
0.0
  0
SOLID
  5
112
330
108
100
AcDbEntity
  8
치수문자_일반주서
 62
     0
100
AcDbTrace
 10
-37.58397900417537
 20
-6.302000000000033
 30
0.0
 11
-38.68464567084204
 21
-6.302000000000037
 31
0.0
 12
-38.13431233750872
 22
-3.000000000000036
 32
0.0
 13
-38.13431233750872
 23
-3.000000000000036
 33
0.0
  0
MTEXT
  5
113
330
108
100
AcDbEntity
  8
치수문자_일반주서
 62
     0
100
AcDbMText
 10
-42.50931233750877
 20
12.66649999999996
 30
0.0
 40
3.5
 41
0.0
 71
     2
 72
     1
  1
\A1;%%c6
  7
SLDTEXTSTYLE0
 11
-3.552713678800497E-15
 21
1.0
 31
0.0
 73
     1
 44
1.0
  0
POINT
  5
150
330
108
100
AcDbEntity
  8
Defpoints
 62
     0
100
AcDbPoint
 10
-28.76794919243113
 20
3.000000000000004
 30
0.0
  0
POINT
  5
151
330
108
100
AcDbEntity
  8
Defpoints
 62
     0
100
AcDbPoint
 10
-28.76794919243113
 20
-3.000000000000001
 30
0.0
  0
POINT
  5
152
330
108
100
AcDbEntity
  8
Defpoints
 62
     0
100
AcDbPoint
 10
-38.13431233750872
 20
-3.000000000000036
 30
0.0
  0
ENDBLK
  5
10A
330
108
100
AcDbEntity
  8
0
100
AcDbBlockEnd
  0
BLOCK
  5
116
330
115
100
AcDbEntity
  8
0
100
AcDbBlockBegin
  2
_D_3
 70
     0
 10
0.0
 20
0.0
 30
0.0
  3
_D_3
  1

  0
LINE
  5
118
330
115
100
AcDbEntity
  8
치수문자_일반주서
 62
     0
370
    -2
100
AcDbLine
 10
6.732050807568871
 20
1.78505440084106
 30
0.0
 11
6.732050807568871
 21
12.56847270342871
 31
0.0
  0
LINE
  5
119
330
115
100
AcDbEntity
  8
치수문자_일반주서
 62
     0
370
    -2
100
AcDbLine
 10
20.73205080756887
 20
2.062500000000003
 30
0.0
 11
20.73205080756887
 21
12.56847270342871
 31
0.0
  0
LINE
  5
11A
330
115
100
AcDbEntity
  8
치수문자_일반주서
 62
     0
370
    -2
100
AcDbLine
 10
10.03405080756887
 20
12.56847270342871
 30
0.0
 11
17.43005080756887
 21
12.56847270342871
 31
0.0
  0
SOLID
  5
11B
330
115
100
AcDbEntity
  8
치수문자_일반주서
 62
     0
100
AcDbTrace
 10
10.03405080756887
 20
13.11880603676204
 30
0.0
 11
10.03405080756887
 21
12.01813937009538
 31
0.0
 12
6.732050807568871
 22
12.56847270342871
 32
0.0
 13
6.732050807568871
 23
12.56847270342871
 33
0.0
  0
SOLID
  5
11C
330
115
100
AcDbEntity
  8
치수문자_일반주서
 62
     0
100
AcDbTrace
 10
17.43005080756887
 20
12.01813937009538
 30
0.0
 11
17.43005080756887
 21
13.11880603676204
 31
0.0
 12
20.73205080756887
 22
12.56847270342871
 32
0.0
 13
20.73205080756887
 23
12.56847270342871
 33
0.0
  0
MTEXT
  5
11D
330
115
100
AcDbEntity
  8
치수문자_일반주서
 62
     0
100
AcDbMText
 10
13.73205080756887
 20
16.94347270342871
 30
0.0
 40
3.5
 41
0.0
 71
     2
 72
     1
  1
\A1;14
  7
SLDTEXTSTYLE0
 73
     1
 44
1.0
  0
POINT
  5
11E
330
115
100
AcDbEntity
  8
Defpoints
 62
     0
100
AcDbPoint
 10
6.732050807568871
 20
1.72255440084106
 30
0.0
  0
POINT
  5
11F
330
115
100
AcDbEntity
  8
Defpoints
 62
     0
100
AcDbPoint
 10
20.73205080756887
 20
2.000000000000003
 30
0.0
  0
POINT
  5
14F
330
115
100
AcDbEntity
  8
Defpoints
 62
     0
100
AcDbPoint
 10
20.73205080756887
 20
12.56847270342871
 30
0.0
  0
ENDBLK
  5
117
330
115
100
AcDbEntity
  8
0
100
AcDbBlockEnd
  0
BLOCK
  5
121
330
120
100
AcDbEntity
  8
0
100
AcDbBlockBegin
  2
SW_DOWELSYMBOL_0
 70
     0
 10
0.0
 20
0.0
 30
0.0
  3
SW_DOWELSYMBOL_0
  1

  0
CIRCLE
  5
123
330
120
100
AcDbEntity
  8
해칭선
 62
     0
100
AcDbCircle
 10
0.0
 20
0.0
 30
0.0
 40
3.000000000000001
  0
HATCH
  5
124
330
120
100
AcDbEntity
  8
0
  6
Continuous
 62
     0
370
    18
100
AcDbHatch
 10
0.0
 20
0.0
 30
0.0
210
0.0
220
0.0
230
1.0
  2
SOLID
 70
     1
 71
     0
 91
        1
 92
        0
 93
        3
 72
     2
 10
0.0
 20
0.0
 40
3.000000000000001
 50
0.0
 51
90.0
 73
     1
 72
     1
 10
0.0
 20
3.000000000000002
 11
0.0
 21
0.0
 72
     1
 10
0.0
 20
0.0
 11
3.000000000000001
 21
0.0
 97
        0
 75
     0
 76
     1
 98
        1
 10
0.0
 20
0.0
  0
HATCH
  5
125
330
120
100
AcDbEntity
  8
0
  6
Continuous
 62
     0
370
    18
100
AcDbHatch
 10
0.0
 20
0.0
 30
0.0
210
0.0
220
0.0
230
1.0
  2
SOLID
 70
     1
 71
     0
 91
        1
 92
        0
 93
        3
 72
     2
 10
0.0
 20
0.0
 40
3.000000000000001
 50
180.0
 51
270.0000000000008
 73
     1
 72
     1
 10
0.0
 20
-3.000000000000001
 11
0.0
 21
0.0
 72
     1
 10
0.0
 20
0.0
 11
-3.000000000000001
 21
0.0
 97
        0
 75
     0
 76
     1
 98
        1
 10
0.0
 20
0.0
  0
ENDBLK
  5
122
330
120
100
AcDbEntity
  8
0
100
AcDbBlockEnd
  0
ENDSEC
  0
SECTION
  2
ENTITIES
  0
LINE
  5
99
330
1F
100
AcDbEntity
  8
0
  6
Continuous
 62
     4
370
    25
100
AcDbLine
 10
2.0
 20
-2.999999999999999
 30
0.0
 11
5.268905996104458
 21
-2.124099278210553
 31
0.0
  0
LINE
  5
9A
330
1F
100
AcDbEntity
  8
0
  6
Continuous
 62
     4
370
    25
100
AcDbLine
 10
5.268905996104451
 20
2.124099278210558
 30
0.0
 11
2.0
 21
3.000000000000002
 31
0.0
  0
LINE
  5
9B
330
1F
100
AcDbEntity
  8
0
  6
Continuous
 62
     4
370
    25
100
AcDbLine
 10
2.0
 20
3.0
 30
0.0
 11
-28.76794919243113
 21
2.999999999999999
 31
0.0
  0
LINE
  5
9C
330
1F
100
AcDbEntity
  8
0
  6
Continuous
 62
     4
370
    25
100
AcDbLine
 10
-28.76794919243113
 20
-3.0
 30
0.0
 11
2.0
 21
-2.999999999999998
 31
0.0
  0
LINE
  5
9D
330
1F
100
AcDbEntity
  8
0
  6
Continuous
 62
     4
370
    25
100
AcDbLine
 10
-28.76794919243113
 20
2.999999999999997
 30
0.0
 11
-29.26794919243113
 21
2.499999999999998
 31
0.0
  0
LINE
  5
9E
330
1F
100
AcDbEntity
  8
0
  6
Continuous
 62
     4
370
    25
100
AcDbLine
 10
-29.26794919243113
 20
-2.5
 30
0.0
 11
-28.76794919243113
 21
-2.999999999999998
 31
0.0
  0
LINE
  5
9F
330
1F
100
AcDbEntity
  8
0
  6
Continuous
 62
     1
370
    25
100
AcDbLine
 10
16.13986615400797
 20
-2.0
 30
0.0
 11
17.28276307274178
 21
-2.0
 31
0.0
  0
LINE
  5
A0
330
1F
100
AcDbEntity
  8
0
  6
Continuous
 62
     1
370
    25
100
AcDbLine
 10
9.240484514024322
 20
2.000000000000003
 30
0.0
 11
8.097221891301734
 21
2.000000000000003
 31
0.0
  0
LINE
  5
A1
330
1F
100
AcDbEntity
  8
0
  6
Continuous
 62
     4
370
    25
100
AcDbLine
 10
8.791640573626152
 20
0.346429233566635
 30
0.0
 11
8.874480695148028
 21
0.2856909439556176
 31
0.0
  0
LINE
  5
A2
330
1F
100
AcDbEntity
  8
0
  6
Continuous
 62
     1
370
    25
100
AcDbLine
 10
12.53530578986684
 20
-0.3217035331759369
 30
0.0
 11
12.48607724565636
 21
-0.2857200724355449
 31
0.0
  0
LINE
  5
A3
330
1F
100
AcDbEntity
  8
0
  6
Continuous
 62
     1
370
    25
100
AcDbLine
 10
20.52651393803905
 20
-0.2845119383584175
 30
0.0
 11
20.5144475364795
 21
-0.2751002058587784
 31
0.0
  0
SPLINE
  5
A4
330
1F
100
AcDbEntity
  8
0
  6
Continuous
 62
     1
370
    25
100
AcDbSpline
210
0.0
220
0.0
230
1.0
 70
     8
 71
     3
 72
     9
 73
     5
 74
     0
 42
0.000000001
 43
0.00000001
 40
0.0
 40
0.0
 40
0.0
 40
0.0
 40
0.5331952527610847
 40
1.0
 40
1.0
 40
1.0
 40
1.0
 10
20.73205080756887
 20
-0.4452605203043228
 30
0.0
 10
20.69617549936279
 20
-0.4170960525379338
 30
0.0
 10
20.62889187667428
 20
-0.3642739997898218
 30
0.0
 10
20.55909530775265
 20
-0.3098958955591484
 30
0.0
 10
20.52651393803905
 20
-0.2845119383584175
 30
0.0
  0
LINE
  5
A5
330
1F
100
AcDbEntity
  8
0
  6
Continuous
 62
     4
370
    25
100
AcDbLine
 10
16.52888505304059
 20
-0.302745120708739
 30
0.0
 11
16.50513002908011
 21
-0.2854825681405042
 31
0.0
  0
LINE
  5
A6
330
1F
100
AcDbEntity
  8
0
  6
Continuous
 62
     4
370
    25
100
AcDbLine
 10
16.58469324288563
 20
-0.3433004075626183
 30
0.0
 11
16.55691697292549
 21
-0.3231156533340374
 31
0.0
  0
LINE
  5
A7
330
1F
100
AcDbEntity
  8
0
  6
Continuous
 62
     1
370
    25
100
AcDbLine
 10
12.85740832880986
 20
0.312095884293032
 30
0.0
 11
12.89338646685148
 21
0.2860423209856811
 31
0.0
  0
LINE
  5
A8
330
1F
100
AcDbEntity
  8
0
  6
Continuous
 62
     1
370
    25
100
AcDbLine
 10
20.15936639202841
 20
-2.0
 30
0.0
 11
20.73205080756887
 21
-2.0
 31
0.0
  0
LINE
  5
A9
330
1F
100
AcDbEntity
  8
0
  6
Continuous
 62
     1
370
    25
100
AcDbLine
 10
13.26096327946671
 20
2.000000000000003
 30
0.0
 11
12.11904004968619
 21
2.000000000000003
 31
0.0
  0
LINE
  5
AA
330
1F
100
AcDbEntity
  8
0
  6
Continuous
 62
     1
370
    25
100
AcDbLine
 10
12.11904004968619
 20
-2.0
 30
0.0
 11
13.26096327946669
 21
-2.0
 31
0.0
  0
LINE
  5
AB
330
1F
100
AcDbEntity
  8
0
  6
Continuous
 62
     1
370
    25
100
AcDbLine
 10
20.73205080756887
 20
2.000000000000003
 30
0.0
 11
20.1593663920284
 21
2.000000000000003
 31
0.0
  0
LINE
  5
AC
330
1F
100
AcDbEntity
  8
0
  6
Continuous
 62
     1
370
    25
100
AcDbLine
 10
8.097221891301754
 20
-2.0
 30
0.0
 11
9.240484514024322
 21
-2.0
 31
0.0
  0
LINE
  5
AD
330
1F
100
AcDbEntity
  8
0
  6
Continuous
 62
     1
370
    25
100
AcDbLine
 10
17.28276307274178
 20
2.000000000000003
 30
0.0
 11
16.13986615400799
 21
2.000000000000003
 31
0.0
  0
SPLINE
  5
AE
330
1F
100
AcDbEntity
  8
0
  6
Continuous
 62
     4
370
    25
100
AcDbSpline
210
0.0
220
0.0
230
1.0
 70
     8
 71
     3
 72
    12
 73
     8
 74
     0
 42
0.000000001
 43
0.00000001
 40
0.0
 40
0.0
 40
0.0
 40
0.0
 40
0.2500000000000002
 40
0.2500000000000002
 40
0.5000000000000003
 40
0.5000000000000003
 40
1.0
 40
1.0
 40
1.0
 40
1.0
 10
5.232273395902409
 20
1.412383543972065
 30
0.0
 10
5.232273395902409
 20
1.459165500541999
 30
0.0
 10
5.246574857129206
 20
1.500820641827032
 30
0.0
 10
5.301246872694675
 20
1.565818611261436
 30
0.0
 10
5.341443838525766
 20
1.589262080998841
 30
0.0
 10
5.488349345387778
 20
1.629197840948007
 30
0.0
 10
5.615949149015119
 20
1.615185330312764
 30
0.0
 10
5.732050807568859
 20
1.570180731043249
 30
0.0
  0
LINE
  5
AF
330
1F
100
AcDbEntity
  8
0
  6
Continuous
 62
     4
370
    25
100
AcDbLine
 10
5.232273395902409
 20
1.412383543972065
 30
0.0
 11
5.232273395902409
 21
0.1673194991436613
 31
0.0
  0
SPLINE
  5
B0
330
1F
100
AcDbEntity
  8
0
  6
Continuous
 62
     4
370
    25
100
AcDbSpline
210
0.0
220
0.0
230
1.0
 70
     8
 71
     3
 72
     8
 73
     4
 74
     0
 42
0.000000001
 43
0.00000001
 40
0.0
 40
0.0
 40
0.0
 40
0.0
 40
1.0
 40
1.0
 40
1.0
 40
1.0
 10
5.379185295794763
 20
-0.1402080299448663
 30
0.0
 10
5.287592947228701
 20
-0.0687240815309937
 30
0.0
 10
5.23227339590202
 20
0.0477915239051683
 30
0.0
 10
5.232273395902148
 20
0.1673194991435884
 30
0.0
  0
SPLINE
  5
B1
330
1F
100
AcDbEntity
  8
0
  6
Continuous
 62
     4
370
    25
100
AcDbSpline
210
0.0
220
0.0
230
1.0
 70
     8
 71
     3
 72
     8
 73
     4
 74
     0
 42
0.000000001
 43
0.00000001
 40
0.0
 40
0.0
 40
0.0
 40
0.0
 40
1.0
 40
1.0
 40
1.0
 40
1.0
 10
5.73205080756887
 20
-0.3984299951106205
 30
0.0
 10
5.612395449773677
 20
-0.3177502731118697
 30
0.0
 10
5.495414526326089
 20
-0.2309200211716055
 30
0.0
 10
5.379185295795352
 20
-0.140208029945892
 30
0.0
  0
LINE
  5
B2
330
1F
100
AcDbEntity
  8
0
  6
Continuous
 62
     4
370
    25
100
AcDbLine
 10
5.73205080756887
 20
-0.3984299951106199
 30
0.0
 11
5.73205080756887
 21
-1.238762475965534
 31
0.0
  0
SPLINE
  5
B3
330
1F
100
AcDbEntity
  8
0
  6
Continuous
 62
     4
370
    25
100
AcDbSpline
210
0.0
220
0.0
230
1.0
 70
     8
 71
     3
 72
    12
 73
     8
 74
     0
 42
0.000000001
 43
0.00000001
 40
0.0
 40
0.0
 40
0.0
 40
0.0
 40
0.2499999999999998
 40
0.2499999999999998
 40
0.4999999999999997
 40
0.4999999999999997
 40
1.0
 40
1.0
 40
1.0
 40
1.0
 10
5.232273395902409
 20
-1.599614251933045
 30
0.0
 10
5.232273395902409
 20
-1.558308002295457
 30
0.0
 10
5.246574857129202
 20
-1.512539769134528
 30
0.0
 10
5.301246872694675
 20
-1.423466644984845
 30
0.0
 10
5.341443838525766
 20
-1.380280340354291
 30
0.0
 10
5.488349345387778
 20
-1.271403011857525
 30
0.0
 10
5.615949149015119
 20
-1.231943845722616
 30
0.0
 10
5.732050807568863
 20
-1.238762475965637
 30
0.0
  0
LINE
  5
B4
330
1F
100
AcDbEntity
  8
0
  6
Continuous
 62
     4
370
    25
100
AcDbLine
 10
5.232273395902409
 20
-1.599614251933046
 30
0.0
 11
5.232273395902409
 21
-2.127345109632356
 31
0.0
  0
SPLINE
  5
B5
330
1F
100
AcDbEntity
  8
0
  6
Continuous
 62
     4
370
    25
100
AcDbSpline
210
0.0
220
0.0
230
1.0
 70
     8
 71
     3
 72
     8
 73
     4
 74
     0
 42
0.000000001
 43
0.00000001
 40
0.0
 40
0.0
 40
0.0
 40
0.0
 40
1.0
 40
1.0
 40
1.0
 40
1.0
 10
5.379185295794763
 20
-2.08985203590027
 30
0.0
 10
5.287592947228701
 20
-2.119245155631845
 30
0.0
 10
5.232273395902023
 20
-2.136746198745831
 30
0.0
 10
5.232273395902148
 20
-2.127345109632431
 30
0.0
  0
SPLINE
  5
B6
330
1F
100
AcDbEntity
  8
0
  6
Continuous
 62
     4
370
    25
100
AcDbSpline
210
0.0
220
0.0
230
1.0
 70
     8
 71
     3
 72
     8
 73
     4
 74
     0
 42
0.000000001
 43
0.00000001
 40
0.0
 40
0.0
 40
0.0
 40
0.0
 40
1.0
 40
1.0
 40
1.0
 40
1.0
 10
5.73205080756887
 20
-1.959911615098022
 30
0.0
 10
5.612395449773677
 20
-2.009030327126898
 30
0.0
 10
5.495414526326089
 20
-2.052552635432538
 30
0.0
 10
5.379185295795352
 20
-2.089852035904176
 30
0.0
  0
SPLINE
  5
B7
330
1F
100
AcDbEntity
  8
0
  6
Continuous
 62
     4
370
    25
100
AcDbSpline
210
0.0
220
0.0
230
1.0
 70
     8
 71
     3
 72
    10
 73
     6
 74
     0
 42
0.000000001
 43
0.00000001
 40
0.0
 40
0.0
 40
0.0
 40
0.0
 40
0.3399863849425805
 40
0.68943341852031
 40
1.0
 40
1.0
 40
1.0
 40
1.0
 10
5.379185295795351
 20
2.089852035904178
 30
0.0
 10
5.36387969994572
 20
2.094772625378403
 30
0.0
 10
5.332842606295975
 20
2.104750727363056
 30
0.0
 10
5.295459849914378
 20
2.116614401732468
 30
0.0
 10
5.277393334938914
 20
2.121669286834939
 30
0.0
 10
5.268892213648115
 20
2.124047841383257
 30
0.0
  0
SPLINE
  5
B8
330
1F
100
AcDbEntity
  8
0
  6
Continuous
 62
     4
370
    25
100
AcDbSpline
210
0.0
220
0.0
230
1.0
 70
     8
 71
     3
 72
     8
 73
     4
 74
     0
 42
0.000000001
 43
0.00000001
 40
0.0
 40
0.0
 40
0.0
 40
0.0
 40
1.0
 40
1.0
 40
1.0
 40
1.0
 10
5.73205080756887
 20
1.959911615098023
 30
0.0
 10
5.612395449773677
 20
2.009030327126899
 30
0.0
 10
5.495414526326089
 20
2.052552635432539
 30
0.0
 10
5.379185295795351
 20
2.089852035904178
 30
0.0
  0
LINE
  5
B9
330
1F
100
AcDbEntity
  8
0
  6
Continuous
 62
     4
370
    25
100
AcDbLine
 10
5.73205080756887
 20
1.959911615097571
 30
0.0
 11
5.73205080756887
 21
1.570180731043326
 31
0.0
  0
LINE
  5
BA
330
1F
100
AcDbEntity
  8
0
  6
Continuous
 62
     4
370
    25
100
AcDbLine
 10
2.0
 20
3.000000000000002
 30
0.0
 11
2.0
 21
-3.000000000000001
 31
0.0
  0
LINE
  5
BB
330
1F
100
AcDbEntity
  8
0
  6
Continuous
 62
     4
370
    25
100
AcDbLine
 10
-28.76794919243113
 20
2.999999999999997
 30
0.0
 11
-28.76794919243113
 21
-3.0
 31
0.0
  0
LINE
  5
BC
330
1F
100
AcDbEntity
  8
0
  6
Continuous
 62
     4
370
    25
100
AcDbLine
 10
-29.26794919243113
 20
2.499999999999998
 30
0.0
 11
-29.26794919243113
 21
-2.5
 31
0.0
  0
SPLINE
  5
BD
330
1F
100
AcDbEntity
  8
0
  6
Continuous
 62
     4
370
    25
100
AcDbSpline
210
0.0
220
0.0
230
1.0
 70
     8
 71
     3
 72
     8
 73
     4
 74
     0
 42
0.000000001
 43
0.00000001
 40
0.0
 40
0.0
 40
0.0
 40
0.0
 40
1.0
 40
1.0
 40
1.0
 40
1.0
 10
5.73205080756887
 20
1.570180731043348
 30
0.0
 10
5.784713106912328
 20
1.561735342637339
 30
0.0
 10
5.833390718533947
 20
1.546852636113664
 30
0.0
 10
5.876326830151378
 20
1.525243560025127
 30
0.0
  0
SPLINE
  5
BE
330
1F
100
AcDbEntity
  8
0
  6
Continuous
 62
     4
370
    25
100
AcDbSpline
210
0.0
220
0.0
230
1.0
 70
     8
 71
     3
 72
    10
 73
     6
 74
     0
 42
0.000000001
 43
0.00000001
 40
0.0
 40
0.0
 40
0.0
 40
0.0
 40
0.5000000000000001
 40
0.5000000000000001
 40
1.0
 40
1.0
 40
1.0
 40
1.0
 10
6.732050807568871
 20
-1.114584526089661
 30
0.0
 10
6.564585448049334
 20
-1.006314652269356
 30
0.0
 10
6.40125775465582
 20
-0.8918797860191425
 30
0.0
 10
6.067784574738043
 20
-0.6516355495694212
 30
0.0
 10
5.898693666889452
 20
-0.5260029271106635
 30
0.0
 10
5.73205080756887
 20
-0.3984299951106199
 30
0.0
  0
SPLINE
  5
BF
330
1F
100
AcDbEntity
  8
0
  6
Continuous
 62
     4
370
    25
100
AcDbSpline
210
0.0
220
0.0
230
1.0
 70
     8
 71
     3
 72
    10
 73
     6
 74
     0
 42
0.000000001
 43
0.00000001
 40
0.0
 40
0.0
 40
0.0
 40
0.0
 40
0.5
 40
0.5
 40
1.0
 40
1.0
 40
1.0
 40
1.0
 10
6.732050807567539
 20
1.016270798653901
 30
0.0
 10
6.588667607192942
 20
1.112427652703746
 30
0.0
 10
6.448391741933614
 20
1.203162359734564
 30
0.0
 10
6.164195538890997
 20
1.373444607090749
 30
0.0
 10
6.019871301545852
 20
1.452999863807577
 30
0.0
 10
5.87632683015152
 20
1.525243560025049
 30
0.0
  0
SPLINE
  5
C0
330
1F
100
AcDbEntity
  8
0
  6
Continuous
 62
     4
370
    25
100
AcDbSpline
210
0.0
220
0.0
230
1.0
 70
     8
 71
     3
 72
    10
 73
     6
 74
     0
 42
0.000000001
 43
0.00000001
 40
0.0
 40
0.0
 40
0.0
 40
0.0
 40
0.5
 40
0.5
 40
1.0
 40
1.0
 40
1.0
 40
1.0
 10
6.732050807567539
 20
-1.722554400825514
 30
0.0
 10
6.588667607192942
 20
-1.665823883162647
 30
0.0
 10
6.448391741933614
 20
-1.601496286696344
 30
0.0
 10
6.164195538890997
 20
-1.458094623622747
 30
0.0
 10
6.019871301545852
 20
-1.378863745429175
 30
0.0
 10
5.87632683015152
 20
-1.293689330017877
 30
0.0
  0
SPLINE
  5
C1
330
1F
100
AcDbEntity
  8
0
  6
Continuous
 62
     4
370
    25
100
AcDbSpline
210
0.0
220
0.0
230
1.0
 70
     8
 71
     3
 72
     8
 73
     4
 74
     0
 42
0.000000001
 43
0.00000001
 40
0.0
 40
0.0
 40
0.0
 40
0.0
 40
1.0
 40
1.0
 40
1.0
 40
1.0
 10
5.73205080756887
 20
-1.238762475965551
 30
0.0
 10
5.784713106912328
 20
-1.249467341828521
 30
0.0
 10
5.833390718533947
 20
-1.268212499238275
 30
0.0
 10
5.876326830151378
 20
-1.293689330017795
 30
0.0
  0
SPLINE
  5
C2
330
1F
100
AcDbEntity
  8
0
  6
Continuous
 62
     4
370
    25
100
AcDbSpline
210
0.0
220
0.0
230
1.0
 70
     8
 71
     3
 72
     9
 73
     5
 74
     0
 42
0.000000001
 43
0.00000001
 40
0.0
 40
0.0
 40
0.0
 40
0.0
 40
0.4572953116734023
 40
0.9999999999999999
 40
0.9999999999999999
 40
0.9999999999999999
 40
0.9999999999999999
 10
6.656858347832637
 20
-1.68851147594085
 30
0.0
 10
6.516159752938147
 20
-1.745268337834232
 30
0.0
 10
6.208484184650279
 20
-1.869382581834874
 30
0.0
 10
5.899654257130308
 20
-1.928064605651905
 30
0.0
 10
5.732050807569658
 20
-1.959911615097901
 30
0.0
  0
SPLINE
  5
C3
330
1F
100
AcDbEntity
  8
0
  6
Continuous
 62
     4
370
    25
100
AcDbSpline
210
0.0
220
0.0
230
1.0
 70
     8
 71
     3
 72
    10
 73
     6
 74
     0
 42
0.000000001
 43
0.00000001
 40
0.0
 40
0.0
 40
0.0
 40
0.0
 40
0.5
 40
0.5
 40
1.0
 40
1.0
 40
1.0
 40
1.0
 10
6.732050807568871
 20
1.660632811370851
 30
0.0
 10
6.564585448049327
 20
1.733301450202682
 30
0.0
 10
6.401257754655806
 20
1.794854933110033
 30
0.0
 10
6.067784574738019
 20
1.895342948955767
 30
0.0
 10
5.898693666889423
 20
1.933977342204563
 30
0.0
 10
5.732050807568836
 20
1.959911615098029
 30
0.0
  0
LINE
  5
C4
330
1F
100
AcDbEntity
  8
0
  6
Continuous
 62
     4
370
    25
100
AcDbLine
 10
6.656858347832619
 20
1.688511475940853
 30
0.0
 11
6.732050807569919
 21
1.722554400826467
 31
0.0
  0
SPLINE
  5
C5
330
1F
100
AcDbEntity
  8
0
  6
Continuous
 62
     1
370
    25
100
AcDbSpline
210
0.0
220
0.0
230
1.0
 70
     8
 71
     3
 72
    22
 73
    18
 74
     0
 42
0.000000001
 43
0.00000001
 40
0.0
 40
0.0
 40
0.0
 40
0.0
 40
0.0631638036329332
 40
0.1263208131935256
 40
0.1892400780855381
 40
0.2524148680309039
 40
0.3211504011776944
 40
0.3896731859726778
 40
0.4582609431519067
 40
0.5270977996599817
 40
0.5957170015860609
 40
0.6642320737646624
 40
0.7329210547980588
 40
0.8017223072346389
 40
0.8702674954920936
 40
0.9388178363734528
 40
1.0
 40
1.0
 40
1.0
 40
1.0
 10
6.732050807569919
 20
1.722554400826467
 30
0.0
 10
6.930164415999826
 20
1.792160748687388
 30
0.0
 10
7.326370323215347
 20
1.931365957359124
 30
0.0
 10
7.920302886925226
 20
2.012007708637512
 30
0.0
 10
8.512623690230056
 20
1.991609571582528
 30
0.0
 10
9.124113829190746
 20
1.859294249260763
 30
0.0
 10
9.753065015288483
 20
1.61360790922611
 30
0.0
 10
10.3979686519101
 20
1.258182958387047
 30
0.0
 10
11.0433945691503
 20
0.8229444528636605
 30
0.0
 10
11.69058529585213
 20
0.3371194864947584
 30
0.0
 10
12.3362365761519
 20
-0.171429126744026
 30
0.0
 10
12.98106613448335
 20
-0.6692790663399651
 30
0.0
 10
13.62721320290057
 20
-1.123989033964845
 30
0.0
 10
14.27415395573039
 20
-1.507863389448839
 30
0.0
 10
14.91925099713975
 20
-1.794147907066509
 30
0.0
 10
15.54052838067626
 20
-1.97137629461523
 30
0.0
 10
15.9477971942268
 20
-1.986570917826278
 30
0.0
 10
16.13986615400797
 20
-1.993736738967774
 30
0.0
  0
SPLINE
  5
C6
330
1F
100
AcDbEntity
  8
0
  6
Continuous
 62
     1
370
    25
100
AcDbSpline
210
0.0
220
0.0
230
1.0
 70
     8
 71
     3
 72
    22
 73
    18
 74
     0
 42
0.000000001
 43
0.00000001
 40
0.0
 40
0.0
 40
0.0
 40
0.0
 40
0.064767205444321
 40
0.1309658000558929
 40
0.1970108974372749
 40
0.2651219354890006
 40
0.3333635831333528
 40
0.4013483665896918
 40
0.4693280399325598
 40
0.5375616648611522
 40
0.6056839446536646
 40
0.6736337503828485
 40
0.7416868267630982
 40
0.8099557620207077
 40
0.8779776530811186
 40
0.9459351077956736
 40
0.9999999999999999
 40
0.9999999999999999
 40
0.9999999999999999
 40
0.9999999999999999
 10
18.72668988746044
 20
-1.689261824598269
 30
0.0
 10
18.52170816492207
 20
-1.765750325421538
 30
0.0
 10
18.10721451640191
 20
-1.920417763003156
 30
0.0
 10
17.48422069942255
 20
-2.012551988182137
 30
0.0
 10
16.85148939365729
 20
-1.992389406771139
 30
0.0
 10
16.21138772287478
 20
-1.846520705181008
 30
0.0
 10
15.56440672644458
 20
-1.583561915455321
 30
0.0
 10
14.9192564611687
 20
-1.219353818894948
 30
0.0
 10
14.27415248291559
 20
-0.7777374188641137
 30
0.0
 10
13.62721360722158
 20
-0.2882143903250051
 30
0.0
 10
12.98106599027797
 20
0.220280907386488
 30
0.0
 10
12.33623674979153
 20
0.7154101803289823
 30
0.0
 10
11.69058474374273
 20
1.164757309666208
 30
0.0
 10
11.04339660733417
 20
1.540329794930984
 30
0.0
 10
10.39796108678369
 20
1.815715751961496
 30
0.0
 10
9.797643968055452
 20
1.97810480421128
 30
0.0
 10
9.411551798472672
 20
1.986050815712821
 30
0.0
 10
9.240484514024322
 20
1.989571484394687
 30
0.0
  0
SPLINE
  5
C7
330
1F
100
AcDbEntity
  8
0
  6
Continuous
 62
     1
370
    25
100
AcDbSpline
210
0.0
220
0.0
230
1.0
 70
     8
 71
     3
 72
    20
 73
    16
 74
     0
 42
0.000000001
 43
0.00000001
 40
0.0
 40
0.0
 40
0.0
 40
0.0
 40
0.0534318170457931
 40
0.1346632807536115
 40
0.2157621891649762
 40
0.2966557688893413
 40
0.3776722913146535
 40
0.4589457916241192
 40
0.539925188230902
 40
0.6208278739976064
 40
0.7019817450175826
 40
0.7765702223337986
 40
0.8508570092975454
 40
0.9254244938755603
 40
1.0
 40
1.0
 40
1.0
 40
1.0
 10
14.7002544954067
 20
-1.680262424674114
 30
0.0
 10
14.55845153732367
 20
-1.739710520075231
 30
0.0
 10
14.20106800421901
 20
-1.88953652270597
 30
0.0
 10
13.62719998206591
 20
-1.997973013241886
 30
0.0
 10
12.98106966436921
 20
-2.010017162615267
 30
0.0
 10
12.33623562982794
 20
-1.890347033518894
 30
0.0
 10
11.69058555050906
 20
-1.651908940308812
 30
0.0
 10
11.04339450109639
 20
-1.309598068213734
 30
0.0
 10
10.39796867009974
 20
-0.8833700756457548
 30
0.0
 10
9.753065010385956
 20
-0.4009946066062913
 30
0.0
 10
9.124113830388426
 20
0.0920959413499546
 30
0.0
 10
8.512623689922558
 20
0.5653631934970141
 30
0.0
 10
7.920302887008198
 20
0.9951404527882874
 30
0.0
 10
7.326370323195748
 20
1.376163522704025
 30
0.0
 10
6.930164415994199
 20
1.56580631521478
 30
0.0
 10
6.732050807571282
 20
1.660632811369446
 30
0.0
  0
SPLINE
  5
C8
330
1F
100
AcDbEntity
  8
0
  6
Continuous
 62
     1
370
    25
100
AcDbSpline
210
0.0
220
0.0
230
1.0
 70
     8
 71
     3
 72
    17
 73
    13
 74
     0
 42
0.000000001
 43
0.00000001
 40
0.0
 40
0.0
 40
0.0
 40
0.0
 40
0.1026310221810567
 40
0.2056953398342104
 40
0.3085204472209315
 40
0.41110713007205
 40
0.5169028020645411
 40
0.6229013476295958
 40
0.7285009105897897
 40
0.8340925361010166
 40
0.9400786201234304
 40
1.0
 40
1.0
 40
1.0
 40
1.0
 10
19.36811066648297
 20
-1.455041168455169
 30
0.0
 10
19.1594080456562
 20
-1.334391242576231
 30
0.0
 10
18.74112168737052
 20
-1.092582021765203
 30
0.0
 10
18.11215838059356
 20
-0.6428042347305202
 30
0.0
 10
17.48423921352165
 20
-0.1598604306129786
 30
0.0
 10
16.85148436249398
 20
0.3396024428882407
 30
0.0
 10
16.21138871371837
 20
0.8220446212305352
 30
0.0
 10
15.56440786945796
 20
1.255982429541158
 30
0.0
 10
14.91925092728599
 20
1.613158836279024
 30
0.0
 10
14.27417351512855
 20
1.862015539329319
 30
0.0
 10
13.72069051456834
 20
1.992434304610467
 30
0.0
 10
13.38294721133996
 20
1.986517121468488
 30
0.0
 10
13.26096327946671
 20
1.984379991706408
 30
0.0
  0
SPLINE
  5
C9
330
1F
100
AcDbEntity
  8
0
  6
Continuous
 62
     1
370
    25
100
AcDbSpline
210
0.0
220
0.0
230
1.0
 70
     8
 71
     3
 72
    10
 73
     6
 74
     0
 42
0.000000001
 43
0.00000001
 40
0.0
 40
0.0
 40
0.0
 40
0.0
 40
0.4353255784801359
 40
0.8706043321444461
 40
1.0
 40
1.0
 40
1.0
 40
1.0
 10
6.732050807569919
 20
-1.722554400826456
 30
0.0
 10
6.93016056989215
 20
-1.790681201932069
 30
0.0
 10
7.326358785306031
 20
-1.926927476237304
 30
0.0
 10
7.781787313946896
 20
-2.005750183513543
 30
0.0
 10
8.038415340743876
 20
-1.991956855141006
 30
0.0
 10
8.097221891301754
 20
-1.988796101140654
 30
0.0
  0
SPLINE
  5
CA
330
1F
100
AcDbEntity
  8
0
  6
Continuous
 62
     1
370
    25
100
AcDbSpline
210
0.0
220
0.0
230
1.0
 70
     8
 71
     3
 72
    17
 73
    13
 74
     0
 42
0.000000001
 43
0.00000001
 40
0.0
 40
0.0
 40
0.0
 40
0.0
 40
0.0363242781951792
 40
0.1432406425472716
 40
0.2505609647222528
 40
0.3576758835395532
 40
0.464535511084452
 40
0.5715735689411181
 40
0.6789331090386352
 40
0.7858963626260257
 40
0.8927743377991763
 40
1.0
 40
1.0
 40
1.0
 40
1.0
 10
14.70025449540672
 20
1.680262424674119
 30
0.0
 10
14.77325447892743
 20
1.713929340375419
 30
0.0
 10
15.0611215767748
 20
1.846690977419569
 30
0.0
 10
15.56437810833359
 20
1.966278069695853
 30
0.0
 10
16.2114061311812
 20
2.021741448982388
 30
0.0
 10
16.85746486329705
 20
1.942206254652711
 30
0.0
 10
17.50228568264886
 20
1.741349752448065
 30
0.0
 10
18.14800190006576
 20
1.429617124938773
 30
0.0
 10
18.79517590910991
 20
1.028512155395245
 30
0.0
 10
19.44054832369156
 20
0.5615041980051422
 30
0.0
 10
20.08548242183003
 20
0.056828441638265
 30
0.0
 10
20.51629481080572
 20
-0.2761789893627046
 30
0.0
 10
20.73205080756887
 20
-0.4429530934593336
 30
0.0
  0
LINE
  5
CB
330
1F
100
AcDbEntity
  8
0
  6
Continuous
 62
     1
370
    25
100
AcDbLine
 10
20.73205080756887
 20
-0.5000000000000026
 30
0.0
 11
20.73205080756887
 21
-0.4448793843508545
 31
0.0
  0
SPLINE
  5
CC
330
1F
100
AcDbEntity
  8
0
  6
Continuous
 62
     1
370
    25
100
AcDbSpline
210
0.0
220
0.0
230
1.0
 70
    24
 71
     3
 72
    16
 73
    12
 74
     0
 42
0.000000001
 43
0.00000001
 40
0.0
 40
0.0
 40
0.0
 40
0.0
 40
0.1249999999999993
 40
0.1249999999999993
 40
0.2499999999999985
 40
0.2499999999999985
 40
0.499999999999999
 40
0.499999999999999
 40
0.7499999999999994
 40
0.7499999999999994
 40
1.0
 40
1.0
 40
1.0
 40
1.0
 10
20.73205080756887
 20
-0.5000000000000021
 30
0.0
 10
20.7161743499224
 20
-0.5111168153241278
 30
0.0
 10
20.6956219182382
 20
-0.5255077829179431
 30
0.0
 10
20.64311381284411
 20
-0.5622743541319903
 30
0.0
 10
20.61070034493864
 20
-0.5849705086989246
 30
0.0
 10
20.49886880944534
 20
-0.6632757928609025
 30
0.0
 10
20.40196196101727
 20
-0.731130698634384
 30
0.0
 10
20.19466589952953
 20
-0.8762809635292766
 30
0.0
 10
20.08590514458565
 20
-0.9524360640023612
 30
0.0
 10
19.87910689076783
 20
-1.0972377602142
 30
0.0
 10
19.77884120108567
 20
-1.167444551953454
 30
0.0
 10
19.68765017550158
 20
-1.231297195484508
 30
0.0
  0
SPLINE
  5
CD
330
1F
100
AcDbEntity
  8
0
  6
Continuous
 62
     1
370
    25
100
AcDbSpline
210
0.0
220
0.0
230
1.0
 70
     8
 71
     3
 72
    12
 73
     8
 74
     0
 42
0.000000001
 43
0.00000001
 40
0.0
 40
0.0
 40
0.0
 40
0.0
 40
0.5
 40
0.5
 40
0.75
 40
0.75
 40
1.0
 40
1.0
 40
1.0
 40
1.0
 10
20.73205080756887
 20
-1.718789664692074
 30
0.0
 10
20.55085811946469
 20
-1.685823223901458
 30
0.0
 10
20.37009328003531
 20
-1.639177888927754
 30
0.0
 10
20.10014859622217
 20
-1.53076194524658
 30
0.0
 10
20.01153233752153
 20
-1.488306347772722
 30
0.0
 10
19.83966466674142
 20
-1.378694667392361
 30
0.0
 10
19.75995321743761
 20
-1.311261048441731
 30
0.0
 10
19.68765017550234
 20
-1.231297195485137
 30
0.0
  0
LINE
  5
CE
330
1F
100
AcDbEntity
  8
0
  6
Continuous
 62
     1
370
    25
100
AcDbLine
 10
20.73205080756887
 20
-1.950331396710521
 30
0.0
 11
20.73205080756887
 21
-1.718789664692073
 31
0.0
  0
SPLINE
  5
CF
330
1F
100
AcDbEntity
  8
0
  6
Continuous
 62
     1
370
    25
100
AcDbSpline
210
0.0
220
0.0
230
1.0
 70
     8
 71
     3
 72
    10
 73
     6
 74
     0
 42
0.000000001
 43
0.00000001
 40
0.0
 40
0.0
 40
0.0
 40
0.0
 40
0.5
 40
0.5
 40
1.0
 40
1.0
 40
1.0
 40
1.0
 10
20.73205080756886
 20
-1.950331396710039
 30
0.0
 10
20.55147242553237
 20
-1.918763566004462
 30
0.0
 10
20.3657512813243
 20
-1.871867396781798
 30
0.0
 10
19.9966694348499
 20
-1.750004613947434
 30
0.0
 10
19.81671660797364
 20
-1.675667326130226
 30
0.0
 10
19.63317046906636
 20
-1.588604751117178
 30
0.0
  0
SPLINE
  5
D0
330
1F
100
AcDbEntity
  8
0
  6
Continuous
 62
     1
370
    25
100
AcDbSpline
210
0.0
220
0.0
230
1.0
 70
     8
 71
     3
 72
     8
 73
     4
 74
     0
 42
0.000000001
 43
0.00000001
 40
0.0
 40
0.0
 40
0.0
 40
0.0
 40
1.0
 40
1.0
 40
1.0
 40
1.0
 10
19.38875138320922
 20
-1.440588382992456
 30
0.0
 10
19.47146332955825
 20
-1.485111536626321
 30
0.0
 10
19.5537031110026
 20
-1.531469980994988
 30
0.0
 10
19.63317046912524
 20
-1.588604751145099
 30
0.0
  0
SPLINE
  5
D1
330
1F
100
AcDbEntity
  8
0
  6
Continuous
 62
     1
370
    25
100
AcDbSpline
210
0.0
220
0.0
230
1.0
 70
    24
 71
     3
 72
     8
 73
     4
 74
     0
 42
0.000000001
 43
0.00000001
 40
0.0
 40
0.0
 40
0.0
 40
0.0
 40
1.0
 40
1.0
 40
1.0
 40
1.0
 10
19.38875138320704
 20
-1.440588383010917
 30
0.0
 10
19.3817842297414
 20
-1.445466836387421
 30
0.0
 10
19.37490412614105
 20
-1.450284336792057
 30
0.0
 10
19.36811066648297
 20
-1.455041168455164
 30
0.0
  0
SPLINE
  5
D2
330
1F
100
AcDbEntity
  8
0
  6
Continuous
 62
     1
370
    25
100
AcDbSpline
210
0.0
220
0.0
230
1.0
 70
     8
 71
     3
 72
    23
 73
    19
 74
     0
 42
0.000000001
 43
0.00000001
 40
0.0
 40
0.0
 40
0.0
 40
0.0
 40
0.0383812191390776
 40
0.1066915195699306
 40
0.1747858303312882
 40
0.242776807868341
 40
0.3109403639733479
 40
0.3792153326801253
 40
0.4472361959280983
 40
0.515262172385837
 40
0.583545168669458
 40
0.6516974762221389
 40
0.7196873536529995
 40
0.7877907581034255
 40
0.8560987069515237
 40
0.9241545168780287
 40
0.9921560680628099
 40
1.0
 40
1.0
 40
1.0
 40
1.0
 10
10.67910473620986
 20
1.679091327470244
 30
0.0
 10
10.80032060192954
 20
1.731501505475891
 30
0.0
 10
11.13727459139908
 20
1.877190508008378
 30
0.0
 10
11.69060838139607
 20
1.98982741285548
 30
0.0
 10
12.33623043975817
 20
2.014920536168755
 30
0.0
 10
12.98106766997673
 20
1.907110083376852
 30
0.0
 10
13.62721321079616
 20
1.679947684194377
 30
0.0
 10
14.27415238340137
 20
1.3467129792646
 30
0.0
 10
14.91925725067173
 20
0.9273104426430301
 30
0.0
 10
15.56440366173321
 20
0.4489881528494749
 30
0.0
 10
16.21139922988414
 20
-0.0563026538247695
 30
0.0
 10
16.85746691969543
 20
-0.5588946675945452
 30
0.0
 10
17.50228433531423
 20
-1.026728564270165
 30
0.0
 10
18.14800524289632
 20
-1.428372774732622
 30
0.0
 10
18.79516386930906
 20
-1.742176694124375
 30
0.0
 10
19.44059293116846
 20
-1.933923017141508
 30
0.0
 10
19.89475587754874
 20
-2.015916214272549
 30
0.0
 10
20.13456532412781
 20
-1.995635695838815
 30
0.0
 10
20.15936639202841
 20
-1.993538286742095
 30
0.0
  0
ELLIPSE
  5
D3
330
1F
100
AcDbEntity
  8
0
  6
Continuous
 62
     1
370
    25
100
AcDbEllipse
 10
20.48782311459077
 20
0.0000000000000027
 30
0.0
 11
2.778646611319928
 21
-1.100682012083526
 31
0.0
210
0.0
220
0.0
230
1.0
 40
0.6009688174887263
 41
4.541477617857062
 42
4.642223662071431
  0
LINE
  5
D4
330
1F
100
AcDbEntity
  8
0
  6
Continuous
 62
     1
370
    25
100
AcDbLine
 10
20.73205080756887
 20
-1.999999999999999
 30
0.0
 11
20.73205080756887
 21
-1.950331396710521
 31
0.0
  0
LINE
  5
D5
330
1F
100
AcDbEntity
  8
0
  6
Continuous
 62
     1
370
    25
100
AcDbLine
 10
19.36811066648247
 20
-1.455041168455518
 30
0.0
 11
19.36339151786795
 21
-1.458345551889333
 31
0.0
  0
LINE
  5
D6
330
1F
100
AcDbEntity
  8
0
  6
Continuous
 62
     1
370
    25
100
AcDbLine
 10
20.73205080756887
 20
1.950331396710525
 30
0.0
 11
20.73205080756887
 21
2.000000000000004
 31
0.0
  0
SPLINE
  5
D7
330
1F
100
AcDbEntity
  8
0
  6
Continuous
 62
     1
370
    25
100
AcDbSpline
210
0.0
220
0.0
230
1.0
 70
     8
 71
     3
 72
    16
 73
    12
 74
     0
 42
0.000000001
 43
0.00000001
 40
0.0
 40
0.0
 40
0.0
 40
0.0
 40
0.1103108766388207
 40
0.2206098879365324
 40
0.3304936958851918
 40
0.4408237593000737
 40
0.5608652463790094
 40
0.680535184313633
 40
0.8003185916761761
 40
0.9205370324558776
 40
1.0
 40
1.0
 40
1.0
 40
1.0
 10
6.732050807569919
 20
1.016270798652306
 30
0.0
 10
6.930164414170518
 20
0.8777927217352299
 30
0.0
 10
7.326370317727633
 20
0.6008514629836742
 30
0.0
 10
7.920302908838909
 20
0.1397555347561349
 30
0.0
 10
8.51262360825854
 20
-0.3269835668220321
 30
0.0
 10
9.124114148082038
 20
-0.7884278963621772
 30
0.0
 10
9.75306370983378
 20
-1.217208863022734
 30
0.0
 10
10.3979734954857
 20
-1.582876238094054
 30
0.0
 10
11.04337644761226
 20
-1.843100161292336
 30
0.0
 10
11.61802634759355
 20
-1.986491222402684
 30
0.0
 10
11.97641838509145
 20
-1.986003773220018
 30
0.0
 10
12.11904004968619
 20
-1.985809793425371
 30
0.0
  0
SPLINE
  5
D8
330
1F
100
AcDbEntity
  8
0
  6
Continuous
 62
     1
370
    25
100
AcDbSpline
210
0.0
220
0.0
230
1.0
 70
     8
 71
     3
 72
    11
 73
     7
 74
     0
 42
0.000000001
 43
0.00000001
 40
0.0
 40
0.0
 40
0.0
 40
0.0
 40
0.0343906771105557
 40
0.3560828782631206
 40
0.6775186044126582
 40
1.0
 40
1.0
 40
1.0
 40
1.0
 10
18.72668988746043
 20
1.689261824598272
 30
0.0
 10
18.74970341892731
 20
1.700390895152324
 30
0.0
 10
18.98798673325053
 20
1.815621876576168
 30
0.0
 10
19.44051648785041
 20
1.933809174475529
 30
0.0
 10
20.08549040834969
 20
2.027701517516734
 30
0.0
 10
20.51629747585949
 20
1.976149342503142
 30
0.0
 10
20.73205080756887
 20
1.950331396710516
 30
0.0
  0
SPLINE
  5
D9
330
1F
100
AcDbEntity
  8
0
  6
Continuous
 62
     1
370
    25
100
AcDbSpline
210
0.0
220
0.0
230
1.0
 70
     8
 71
     3
 72
    10
 73
     6
 74
     0
 42
0.000000001
 43
0.00000001
 40
0.0
 40
0.0
 40
0.0
 40
0.0
 40
0.5
 40
0.5
 40
1.0
 40
1.0
 40
1.0
 40
1.0
 10
20.73205080756886
 20
0.4429530934592999
 30
0.0
 10
20.55147242554202
 20
0.5819468881904822
 30
0.0
 10
20.36575128134416
 20
0.7188348724421819
 30
0.0
 10
19.99666943488923
 20
0.9788232609130084
 30
0.0
 10
19.81671660802211
 20
1.101215721054882
 30
0.0
 10
19.63317046912524
 20
1.215045243864322
 30
0.0
  0
SPLINE
  5
DA
330
1F
100
AcDbEntity
  8
0
  6
Continuous
 62
     1
370
    25
100
AcDbSpline
210
0.0
220
0.0
230
1.0
 70
     8
 71
     3
 72
     8
 73
     4
 74
     0
 42
0.000000001
 43
0.00000001
 40
0.0
 40
0.0
 40
0.0
 40
0.0
 40
1.0
 40
1.0
 40
1.0
 40
1.0
 10
19.38875138320704
 20
1.343299424367623
 30
0.0
 10
19.3817842297414
 20
1.352814154960699
 30
0.0
 10
19.37490412614105
 20
1.36243841998811
 30
0.0
 10
19.36811066648297
 20
1.372171708678874
 30
0.0
  0
SPLINE
  5
DB
330
1F
100
AcDbEntity
  8
0
  6
Continuous
 62
     1
370
    25
100
AcDbSpline
210
0.0
220
0.0
230
1.0
 70
     8
 71
     3
 72
    11
 73
     7
 74
     0
 42
0.000000001
 43
0.00000001
 40
0.0
 40
0.0
 40
0.0
 40
0.0
 40
0.3005500111498396
 40
0.6023689072450134
 40
0.9034872875827142
 40
0.9999999999999999
 40
0.9999999999999999
 40
0.9999999999999999
 40
0.9999999999999999
 10
19.36811066648299
 20
1.372171708678869
 30
0.0
 10
19.15940786697012
 20
1.483549813946017
 30
0.0
 10
18.74112115055785
 20
1.706776249054497
 30
0.0
 10
18.11216053633722
 20
1.908429492351584
 30
0.0
 10
17.62596849845092
 20
2.005721174523518
 30
0.0
 10
17.34979555641315
 20
1.990601096772615
 30
0.0
 10
17.28276307274178
 20
1.986931163152512
 30
0.0
  0
SPLINE
  5
DC
330
1F
100
AcDbEntity
  8
0
  6
Continuous
 62
     1
370
    25
100
AcDbSpline
210
0.0
220
0.0
230
1.0
 70
     8
 71
     3
 72
    14
 73
    10
 74
     0
 42
0.000000001
 43
0.00000001
 40
0.0
 40
0.0
 40
0.0
 40
0.0
 40
0.0712865444391596
 40
0.234597838473352
 40
0.3984161785761063
 40
0.5489815230404108
 40
0.6989378711358994
 40
0.8494608393649968
 40
1.0
 40
1.0
 40
1.0
 40
1.0
 10
10.67910473620986
 20
-1.67909132747024
 30
0.0
 10
10.58532718964122
 20
-1.721195459660831
 30
0.0
 10
10.27671341272971
 20
-1.859756509020422
 30
0.0
 10
9.753094126582285
 20
-1.977287105443407
 30
0.0
 10
9.12410671799955
 20
-2.018381480425142
 30
0.0
 10
8.512625518173463
 20
-1.937228296828837
 30
0.0
 10
7.920302398256601
 20
-1.754318217873589
 30
0.0
 10
7.326370445590957
 20
-1.482336420863518
 30
0.0
 10
6.930164456794062
 20
-1.237172886328767
 30
0.0
 10
6.732050807571282
 20
-1.114584526090898
 30
0.0
  0
LINE
  5
DD
330
1F
100
AcDbEntity
  8
0
  6
Continuous
 62
     1
370
    25
100
AcDbLine
 10
20.73205080756887
 20
1.428017363720416
 30
0.0
 11
20.73205080756887
 21
1.950331396710525
 31
0.0
  0
SPLINE
  5
DE
330
1F
100
AcDbEntity
  8
0
  6
Continuous
 62
     1
370
    25
100
AcDbSpline
210
0.0
220
0.0
230
1.0
 70
     8
 71
     3
 72
    12
 73
     8
 74
     0
 42
0.000000001
 43
0.00000001
 40
0.0
 40
0.0
 40
0.0
 40
0.0
 40
0.2784956585128118
 40
0.5150772364233667
 40
0.7517852637331899
 40
0.9914226331223132
 40
1.0
 40
1.0
 40
1.0
 40
1.0
 10
20.73205080756887
 20
1.428017363720416
 30
0.0
 10
20.70382549756085
 20
1.342006337498086
 30
0.0
 10
20.65162283575363
 20
1.182929093977978
 30
0.0
 10
20.5017710635231
 20
1.003299132604747
 30
0.0
 10
20.32487207591656
 20
0.9098918275318304
 30
0.0
 10
20.19093048707858
 20
0.8720038565449083
 30
0.0
 10
20.12500454974179
 20
0.8873784599852312
 30
0.0
 10
20.1227263975265
 20
0.8879097484022288
 30
0.0
  0
ELLIPSE
  5
DF
330
1F
100
AcDbEntity
  8
0
  6
Continuous
 62
     1
370
    25
100
AcDbEllipse
 10
21.44612481093992
 20
0.0000000000000018
 30
0.0
 11
2.856296013484222
 21
0.0
 31
0.0
210
0.0
220
0.0
230
1.0
 40
0.7002075382097119
 41
2.385497462061473
 42
2.387908688317153
  0
ELLIPSE
  5
E0
330
1F
100
AcDbEntity
  8
0
  6
Continuous
 62
     1
370
    25
100
AcDbEllipse
 10
20.48782311459077
 20
0.0000000000000018
 30
0.0
 11
2.83820513196157
 21
-1.944348140814813
 31
0.0
210
0.0
220
0.0
230
1.0
 40
0.1650759015746645
 41
1.987277305204009
 42
2.088023349418378
  0
LINE
  5
E1
330
1F
100
AcDbEntity
  8
0
  6
Continuous
 62
     1
370
    25
100
AcDbLine
 10
20.73205080756887
 20
-0.4429530934593345
 30
0.0
 11
20.73205080756887
 21
0.4429530934593384
 31
0.0
  0
LINE
  5
E2
330
1F
100
AcDbEntity
  8
0
  6
Continuous
 62
     1
370
    25
100
AcDbLine
 10
20.73205080756887
 20
0.4436031597791975
 30
0.0
 11
20.73205080756887
 21
1.428017363720416
 31
0.0
  0
LINE
  5
E3
330
1F
100
AcDbEntity
  8
0
  6
Continuous
 62
     1
370
    25
100
AcDbLine
 10
20.73205080756887
 20
-0.4999999999999974
 30
0.0
 11
20.73205080756887
 21
-1.718789664692074
 31
0.0
  0
LINE
  5
E4
330
1F
100
AcDbEntity
  8
중심선
100
AcDbLine
 10
-32.26794919243113
 20
-0.0000000000000026
 30
0.0
 11
23.73205080756887
 21
0.0000000000000043
 31
0.0
  0
CIRCLE
  5
E5
330
1F
100
AcDbEntity
  8
해칭선
100
AcDbCircle
 10
-0.0076523003837096
 20
-0.0000000000000041
 30
0.0
 40
3.000000000000001
  0
INSERT
  5
E6
330
1F
100
AcDbEntity
  8
0
  6
Continuous
 62
     7
100
AcDbBlockReference
 66
     1
  2
블럭10
 10
-13.44814782084245
 20
-52.04717430164393
 30
0.0
  0
ATTRIB
  5
E7
330
E6
100
AcDbEntity
  8
FORMAT
 62
     2
100
AcDbText
 10
-29.56740886027801
 20
-49.97180738881174
 30
0.0
 40
4.233333333333333
  1
SEME7104014E [ 4 FLUTE ]
 41
0.75
  7
SLDTEXTSTYLE0
 11
-29.56740886027801
 21
-52.08847405547841
 31
0.0
100
AcDbAttribute
  2
AUTOATTR0
 70
     0
 74
     1
  0
SEQEND
  5
E8
330
E6
100
AcDbEntity
  8
0
  6
Continuous
 62
     7
  0
HATCH
  5
E9
330
1F
100
AcDbEntity
  8
중심선
100
AcDbHatch
 10
0.0
 20
0.0
 30
0.0
210
0.0
220
0.0
230
1.0
  2
SOLID
 70
     1
 71
     0
 91
        1
 92
        0
 93
        4
 72
     1
 10
-7.733238516461599
 20
-35.8
 11
-11.17951376029888
 21
-35.8
 72
     1
 10
-11.17951376029888
 20
-35.8
 11
-13.3077436195029
 21
-38.33632558057259
 72
     1
 10
-13.3077436195029
 20
-38.33632558057259
 11
-9.861435290552473
 21
-38.3362861512701
 72
     1
 10
-9.861435290552473
 20
-38.3362861512701
 11
-7.733238516461599
 21
-35.8
 97
        0
 75
     0
 76
     1
 98
        1
 10
0.0
 20
0.0
  0
HATCH
  5
EA
330
1F
100
AcDbEntity
  8
중심선
100
AcDbHatch
 10
0.0
 20
0.0
 30
0.0
210
0.0
220
0.0
230
1.0
  2
SOLID
 70
     1
 71
     0
 91
        1
 92
        0
 93
        4
 72
     1
 10
-2.720474525425592
 20
-35.8
 11
-6.16674976926293
 21
-35.80000000000003
 72
     1
 10
-6.16674976926293
 20
-35.80000000000003
 11
-10.69788777762032
 21
-41.20000000000002
 72
     1
 10
-10.69788777762032
 20
-41.20000000000002
 11
-7.251612533783036
 21
-41.20000000000002
 72
     1
 10
-7.251612533783036
 20
-41.20000000000002
 11
-2.720474525425592
 21
-35.8
 97
        0
 75
     0
 76
     1
 98
        1
 10
0.0
 20
0.0
  0
HATCH
  5
EB
330
1F
100
AcDbEntity
  8
중심선
100
AcDbHatch
 10
0.0
 20
0.0
 30
0.0
210
0.0
220
0.0
230
1.0
  2
SOLID
 70
     1
 71
     0
 91
        1
 92
        0
 93
        4
 72
     1
 10
2.292289465610275
 20
-35.8
 11
-1.153985778226813
 21
-35.8
 72
     1
 10
-1.153985778226813
 20
-35.8
 11
-8.202422680116117
 21
-44.20000000000002
 72
     1
 10
-8.202422680116117
 20
-44.20000000000002
 11
-4.756147436278835
 21
-44.20000000000002
 72
     1
 10
-4.756147436278835
 20
-44.20000000000002
 11
2.292289465610275
 21
-35.8
 97
        0
 75
     0
 76
     1
 98
        1
 10
0.0
 20
0.0
  0
HATCH
  5
EC
330
1F
100
AcDbEntity
  8
중심선
100
AcDbHatch
 10
0.0
 20
0.0
 30
0.0
210
0.0
220
0.0
230
1.0
  2
SOLID
 70
     1
 71
     0
 91
        1
 92
        0
 93
        6
 72
     3
 10
7.092179896622447
 20
-40.00000000005127
 11
3.960054785062284
 21
1.540850780301639E-10
 40
0.3939339440162633
 50
17.09539180608434
 51
320.0019657685081
 73
     0
 72
     1
 10
8.775179552323015
 20
-38.58789400463833
 11
11.08048142602408
 21
-36.65356729459038
 72
     3
 10
7.092179896569601
 20
-40.00000000000015
 11
6.600054785286829
 21
-1.249000902703301E-13
 40
0.6363583540795982
 50
39.99873849337408
 51
368.4976242363725
 73
     1
 72
     1
 10
13.51751238847021
 20
-39.03999999993002
 11
5.772247203405523
 21
-39.03999999993002
 72
     1
 10
5.772247203405523
 20
-39.03999999993002
 11
5.772222158959589
 21
-40.95999999992991
 72
     1
 10
5.772222158959589
 20
-40.95999999992991
 11
10.21360192843163
 21
-40.95999999992988
 97
        0
 75
     0
 76
     1
 98
        1
 10
0.0
 20
0.0
  0
DIMENSION
  5
ED
330
1F
100
AcDbEntity
  8
치수문자_일반주서
100
AcDbDimension
  2
_D
 10
33.75182442918314
 20
2.000000000000055
 30
0.0
 11
33.7518244291831
 21
11.66650000000006
 31
0.0
 70
   160
  1
%%c<>
 71
     2
 42
4.000000000000013
 52
-270.0
  3
SLDDIMSTYLE0
100
AcDbAlignedDimension
 13
20.73205080756889
 23
-2.000000000000005
 33
0.0
 14
20.73205080756889
 24
2.000000000000008
 34
0.0
 50
90.0000000000002
100
AcDbRotatedDimension
  0
DIMENSION
  5
FB
330
1F
100
AcDbEntity
  8
치수문자_일반주서
100
AcDbDimension
  2
_D_1
 10
20.73205080756887
 20
20.38913260158165
 30
0.0
 11
-4.26794919243113
 21
20.38913260158165
 31
0.0
 70
   160
  1
<>
 71
     2
 42
50.0
  3
SLDDIMSTYLE1
100
AcDbAlignedDimension
 13
-29.26794919243113
 23
2.499999999999998
 33
0.0
 14
20.73205080756887
 24
2.000000000000003
 34
0.0
100
AcDbRotatedDimension
  0
DIMENSION
  5
106
330
1F
100
AcDbEntity
  8
치수문자_일반주서
100
AcDbDimension
  2
_D_2
 10
-38.13431233750872
 20
-3.000000000000036
 30
0.0
 11
-38.13431233750877
 21
12.66649999999997
 31
0.0
 70
   160
  1
%%c<>
 71
     2
 42
6.000000000000005
 52
-270.0
  3
SLDDIMSTYLE2
100
AcDbAlignedDimension
 13
-28.76794919243113
 23
3.000000000000004
 33
0.0
 14
-28.76794919243113
 24
-3.000000000000001
 34
0.0
 50
90.0000000000002
100
AcDbRotatedDimension
  0
DIMENSION
  5
114
330
1F
100
AcDbEntity
  8
치수문자_일반주서
100
AcDbDimension
  2
_D_3
 10
20.73205080756887
 20
12.56847270342871
 30
0.0
 11
13.73205080756887
 21
12.56847270342871
 31
0.0
 70
   160
  1
<>
 71
     2
 42
14.0
  3
SLDDIMSTYLE2
100
AcDbAlignedDimension
 13
6.732050807568871
 23
1.72255440084106
 33
0.0
 14
20.73205080756887
 24
2.000000000000003
 34
0.0
100
AcDbRotatedDimension
  0
INSERT
  5
126
330
1F
100
AcDbEntity
  8
해칭선
100
AcDbBlockReference
  2
SW_DOWELSYMBOL_0
 10
-0.0076523003837096
 20
-0.0000000000000041
 30
0.0
  0
LINE
  5
156
330
1F
100
AcDbEntity
  8
0
  6
Continuous
 62
     4
370
    25
100
AcDbLine
 10
6.732050807569919
 20
1.722554400826467
 30
0.0
 11
6.732050807569919
 21
-1.722554400826456
 31
0.0
  0
ENDSEC
  0
SECTION
  2
OBJECTS
  0
DICTIONARY
  5
C
330
0
100
AcDbDictionary
281
     1
  3
ACAD_GROUP
350
D
  3
ACAD_IMAGE_VARS
350
14A
  3
ACAD_LAYOUT
350
1A
  3
ACAD_MLINESTYLE
350
17
  3
ACAD_PLOTSETTINGS
350
19
  3
ACAD_PLOTSTYLENAME
350
E
  3
ACAD_SCALELIST
350
47
  3
APPDATA
350
148
  3
DWGPROPS
350
158
  0
DICTIONARY
  5
D
102
{ACAD_REACTORS
330
C
102
}
330
C
100
AcDbDictionary
281
     1
  0
RASTERVARIABLES
  5
14A
102
{ACAD_REACTORS
330
C
102
}
330
C
100
AcDbRasterVariables
 90
        0
 70
     1
 71
     1
 72
     1
  0
DICTIONARY
  5
1A
102
{ACAD_REACTORS
330
C
102
}
330
C
100
AcDbDictionary
281
     1
  3
Layout1
350
1E
  3
Layout2
350
26
  3
Model
350
22
  0
DICTIONARY
  5
17
102
{ACAD_REACTORS
330
C
102
}
330
C
100
AcDbDictionary
281
     1
  3
Standard
350
18
  0
DICTIONARY
  5
19
102
{ACAD_REACTORS
330
C
102
}
330
C
100
AcDbDictionary
281
     1
  0
ACDBDICTIONARYWDFLT
  5
E
102
{ACAD_REACTORS
330
C
102
}
330
C
100
AcDbDictionary
281
     1
  3
Normal
350
F
100
AcDbDictionaryWithDefault
340
F
  0
DICTIONARY
  5
47
102
{ACAD_REACTORS
330
C
102
}
330
C
100
AcDbDictionary
281
     1
  3
A0
350
48
  3
A1
350
49
  3
A2
350
4A
  3
A3
350
4B
  3
A4
350
4C
  3
A5
350
4D
  3
A6
350
4E
  3
A7
350
4F
  3
A8
350
50
  3
A9
350
51
  3
B0
350
52
  3
B1
350
53
  3
B2
350
54
  3
B3
350
55
  3
B4
350
56
  3
B5
350
57
  3
B6
350
58
  3
B7
350
59
  3
B8
350
5A
  3
B9
350
5B
  3
C0
350
5C
  3
C1
350
5D
  3
C2
350
5E
  3
C3
350
5F
  3
C4
350
60
  3
C5
350
61
  3
C6
350
62
  3
C7
350
63
  3
C8
350
64
  3
C9
350
65
  3
D0
350
66
  3
D1
350
67
  3
D2
350
68
  0
DICTIONARY
  5
148
102
{ACAD_REACTORS
330
C
102
}
330
C
100
AcDbDictionary
281
     1
  0
XRECORD
  5
158
102
{ACAD_REACTORS
330
C
102
}
330
C
100
AcDbXrecord
280
     1
  1
DWGPROPS COOKIE
  2

  3

  4

  6

  7

  8
12014102
  9

300
=
301
=
302
=
303
=
304
=
305
=
306
=
307
=
308
=
309
=
 40
0.0
 41
2458260.115898796
 42
2458267.294678542
  1

 90
        0
  0
LAYOUT
  5
1E
102
{ACAD_REACTORS
330
1A
102
}
330
1A
100
AcDbPlotSettings
  1

  2
none_device
  4

  6

 40
0.0
 41
0.0
 42
0.0
 43
0.0
 44
0.0
 45
0.0
 46
0.0
 47
0.0
 48
0.0
 49
0.0
140
0.0
141
0.0
142
1.0
143
1.0
 70
   688
 72
     1
 73
     0
 74
     5
  7

 75
    16
147
1.0
148
0.0
149
0.0
100
AcDbLayout
  1
Layout1
 70
     1
 71
     1
 10
0.0
 20
0.0
 11
420.0
 21
297.0
 12
0.0
 22
0.0
 32
0.0
 14
1.000000000000000E+20
 24
1.000000000000000E+20
 34
1.000000000000000E+20
 15
-1.000000000000000E+20
 25
-1.000000000000000E+20
 35
-1.000000000000000E+20
146
0.0
 13
0.0
 23
0.0
 33
0.0
 16
1.0
 26
0.0
 36
0.0
 17
0.0
 27
1.0
 37
0.0
 76
     0
330
1B
  0
LAYOUT
  5
26
102
{ACAD_REACTORS
330
1A
102
}
330
1A
100
AcDbPlotSettings
  1

  2
none_device
  4

  6

 40
0.0
 41
0.0
 42
0.0
 43
0.0
 44
0.0
 45
0.0
 46
0.0
 47
0.0
 48
0.0
 49
0.0
140
0.0
141
0.0
142
1.0
143
1.0
 70
   688
 72
     1
 73
     0
 74
     5
  7

 75
    16
147
1.0
148
0.0
149
0.0
100
AcDbLayout
  1
Layout2
 70
     1
 71
     2
 10
0.0
 20
0.0
 11
0.0
 21
0.0
 12
0.0
 22
0.0
 32
0.0
 14
0.0
 24
0.0
 34
0.0
 15
0.0
 25
0.0
 35
0.0
146
0.0
 13
0.0
 23
0.0
 33
0.0
 16
1.0
 26
0.0
 36
0.0
 17
0.0
 27
1.0
 37
0.0
 76
     0
330
23
  0
LAYOUT
  5
22
102
{ACAD_REACTORS
330
1A
102
}
330
1A
100
AcDbPlotSettings
  1

  2
none_device
  4
ANSI_A_(11.00_x_8.50_Inches)
  6

 40
6.35
 41
19.05
 42
6.35000508
 43
19.05000254
 44
279.4
 45
215.9
 46
133.7298094023088
 47
125.3847137330092
 48
0.0
 49
0.0
140
0.0
141
0.0
142
0.1112850254374007
143
1.0
 70
  1696
 72
     0
 73
     0
 74
     0
  7

 75
     0
147
0.0235690232323232
148
0.0
149
0.0
100
AcDbLayout
  1
Model
 70
     1
 71
     0
 10
0.0
 20
0.0
 11
420.0
 21
297.0
 12
0.0
 22
0.0
 32
0.0
 14
-42.50931233750878
 24
-49.97180738881174
 34
0.0
 15
40.28259113972197
 25
24.76413260158165
 35
0.0
146
0.0
 13
0.0
 23
0.0
 33
0.0
 16
1.0
 26
0.0
 36
0.0
 17
0.0
 27
1.0
 37
0.0
 76
     0
330
1F
331
29
  0
MLINESTYLE
  5
18
102
{ACAD_REACTORS
330
17
102
}
330
17
100
AcDbMlineStyle
  2
Standard
 70
     0
  3

 62
   256
 51
90.0
 52
90.0
 71
     2
 49
0.5
 62
   256
  6
BYLAYER
 49
-0.5
 62
   256
  6
BYLAYER
  0
ACDBPLACEHOLDER
  5
F
102
{ACAD_REACTORS
330
E
102
}
330
E
  0
SCALE
  5
48
102
{ACAD_REACTORS
330
47
102
}
330
47
100
AcDbScale
 70
     0
300
1:1
140
1.0
141
1.0
290
     1
  0
SCALE
  5
49
102
{ACAD_REACTORS
330
47
102
}
330
47
100
AcDbScale
 70
     0
300
1:2
140
1.0
141
2.0
290
     0
  0
SCALE
  5
4A
102
{ACAD_REACTORS
330
47
102
}
330
47
100
AcDbScale
 70
     0
300
1:4
140
1.0
141
4.0
290
     0
  0
SCALE
  5
4B
102
{ACAD_REACTORS
330
47
102
}
330
47
100
AcDbScale
 70
     0
300
1:5
140
1.0
141
5.0
290
     0
  0
SCALE
  5
4C
102
{ACAD_REACTORS
330
47
102
}
330
47
100
AcDbScale
 70
     0
300
1:8
140
1.0
141
8.0
290
     0
  0
SCALE
  5
4D
102
{ACAD_REACTORS
330
47
102
}
330
47
100
AcDbScale
 70
     0
300
1:10
140
1.0
141
10.0
290
     0
  0
SCALE
  5
4E
102
{ACAD_REACTORS
330
47
102
}
330
47
100
AcDbScale
 70
     0
300
1:16
140
1.0
141
16.0
290
     0
  0
SCALE
  5
4F
102
{ACAD_REACTORS
330
47
102
}
330
47
100
AcDbScale
 70
     0
300
1:20
140
1.0
141
20.0
290
     0
  0
SCALE
  5
50
102
{ACAD_REACTORS
330
47
102
}
330
47
100
AcDbScale
 70
     0
300
1:30
140
1.0
141
30.0
290
     0
  0
SCALE
  5
51
102
{ACAD_REACTORS
330
47
102
}
330
47
100
AcDbScale
 70
     0
300
1:40
140
1.0
141
40.0
290
     0
  0
SCALE
  5
52
102
{ACAD_REACTORS
330
47
102
}
330
47
100
AcDbScale
 70
     0
300
1:50
140
1.0
141
50.0
290
     0
  0
SCALE
  5
53
102
{ACAD_REACTORS
330
47
102
}
330
47
100
AcDbScale
 70
     0
300
1:100
140
1.0
141
100.0
290
     0
  0
SCALE
  5
54
102
{ACAD_REACTORS
330
47
102
}
330
47
100
AcDbScale
 70
     0
300
2:1
140
2.0
141
1.0
290
     0
  0
SCALE
  5
55
102
{ACAD_REACTORS
330
47
102
}
330
47
100
AcDbScale
 70
     0
300
4:1
140
4.0
141
1.0
290
     0
  0
SCALE
  5
56
102
{ACAD_REACTORS
330
47
102
}
330
47
100
AcDbScale
 70
     0
300
8:1
140
8.0
141
1.0
290
     0
  0
SCALE
  5
57
102
{ACAD_REACTORS
330
47
102
}
330
47
100
AcDbScale
 70
     0
300
10:1
140
10.0
141
1.0
290
     0
  0
SCALE
  5
58
102
{ACAD_REACTORS
330
47
102
}
330
47
100
AcDbScale
 70
     0
300
100:1
140
100.0
141
1.0
290
     0
  0
SCALE
  5
59
102
{ACAD_REACTORS
330
47
102
}
330
47
100
AcDbScale
 70
     0
300
1/128" = 1'-0"
140
0.0078125
141
12.0
290
     0
  0
SCALE
  5
5A
102
{ACAD_REACTORS
330
47
102
}
330
47
100
AcDbScale
 70
     0
300
1/64" = 1'-0"
140
0.015625
141
12.0
290
     0
  0
SCALE
  5
5B
102
{ACAD_REACTORS
330
47
102
}
330
47
100
AcDbScale
 70
     0
300
1/32" = 1'-0"
140
0.03125
141
12.0
290
     0
  0
SCALE
  5
5C
102
{ACAD_REACTORS
330
47
102
}
330
47
100
AcDbScale
 70
     0
300
1/16" = 1'-0"
140
0.0625
141
12.0
290
     0
  0
SCALE
  5
5D
102
{ACAD_REACTORS
330
47
102
}
330
47
100
AcDbScale
 70
     0
300
3/32" = 1'-0"
140
0.09375
141
12.0
290
     0
  0
SCALE
  5
5E
102
{ACAD_REACTORS
330
47
102
}
330
47
100
AcDbScale
 70
     0
300
1/8" = 1'-0"
140
0.125
141
12.0
290
     0
  0
SCALE
  5
5F
102
{ACAD_REACTORS
330
47
102
}
330
47
100
AcDbScale
 70
     0
300
3/16" = 1'-0"
140
0.1875
141
12.0
290
     0
  0
SCALE
  5
60
102
{ACAD_REACTORS
330
47
102
}
330
47
100
AcDbScale
 70
     0
300
1/4" = 1'-0"
140
0.25
141
12.0
290
     0
  0
SCALE
  5
61
102
{ACAD_REACTORS
330
47
102
}
330
47
100
AcDbScale
 70
     0
300
3/8" = 1'-0"
140
0.375
141
12.0
290
     0
  0
SCALE
  5
62
102
{ACAD_REACTORS
330
47
102
}
330
47
100
AcDbScale
 70
     0
300
1/2" = 1'-0"
140
0.5
141
12.0
290
     0
  0
SCALE
  5
63
102
{ACAD_REACTORS
330
47
102
}
330
47
100
AcDbScale
 70
     0
300
3/4" = 1'-0"
140
0.75
141
12.0
290
     0
  0
SCALE
  5
64
102
{ACAD_REACTORS
330
47
102
}
330
47
100
AcDbScale
 70
     0
300
1" = 1'-0"
140
1.0
141
12.0
290
     0
  0
SCALE
  5
65
102
{ACAD_REACTORS
330
47
102
}
330
47
100
AcDbScale
 70
     0
300
1-1/2" = 1'-0"
140
1.5
141
12.0
290
     0
  0
SCALE
  5
66
102
{ACAD_REACTORS
330
47
102
}
330
47
100
AcDbScale
 70
     0
300
3" = 1'-0"
140
3.0
141
12.0
290
     0
  0
SCALE
  5
67
102
{ACAD_REACTORS
330
47
102
}
330
47
100
AcDbScale
 70
     0
300
6" = 1'-0"
140
6.0
141
12.0
290
     0
  0
SCALE
  5
68
102
{ACAD_REACTORS
330
47
102
}
330
47
100
AcDbScale
 70
     0
300
1'-0" = 1'-0"
140
12.0
141
12.0
290
     0
  0
ENDSEC
  0
EOF
