  0
SECTION
  2
HEADER
  9
$ACADVER
  1
AC1015
  9
$ACADMAINTVER
 70
     6
  9
$DWGCODEPAGE
  3
ANSI_949
  9
$INSBASE
 10
0.0
 20
0.0
 30
0.0
  9
$EXTMIN
 10
-43.32584808293876
 20
-49.97180738881174
 30
0.0
  9
$EXTMAX
 10
47.3409244730553
 20
24.76413260158165
 30
0.0
  9
$LIMMIN
 10
0.0
 20
0.0
  9
$LIMMAX
 10
420.0
 20
297.0
  9
$ORTHOMODE
 70
     0
  9
$REGENMODE
 70
     1
  9
$FILLMODE
 70
     1
  9
$QTEXTMODE
 70
     0
  9
$MIRRTEXT
 70
     1
  9
$LTSCALE
 40
1.0
  9
$ATTMODE
 70
     1
  9
$TEXTSIZE
 40
3.5
  9
$TRACEWID
 40
1.0
  9
$TEXTSTYLE
  7
Standard
  9
$CLAYER
  8
0
  9
$CELTYPE
  6
ByLayer
  9
$CECOLOR
 62
   256
  9
$CELTSCALE
 40
1.0
  9
$DISPSILH
 70
     0
  9
$DIMSCALE
 40
1.0
  9
$DIMASZ
 40
3.302
  9
$DIMEXO
 40
1.0
  9
$DIMDLI
 40
3.75
  9
$DIMRND
 40
0.0
  9
$DIMDLE
 40
0.0
  9
$DIMEXE
 40
1.0
  9
$DIMTP
 40
0.0
  9
$DIMTM
 40
0.0
  9
$DIMTXT
 40
3.5
  9
$DIMCEN
 40
2.5
  9
$DIMTSZ
 40
0.0
  9
$DIMTOL
 70
     0
  9
$DIMLIM
 70
     0
  9
$DIMTIH
 70
     1
  9
$DIMTOH
 70
     1
  9
$DIMSE1
 70
     0
  9
$DIMSE2
 70
     0
  9
$DIMTAD
 70
     1
  9
$DIMZIN
 70
     0
  9
$DIMBLK
  1

  9
$DIMASO
 70
     1
  9
$DIMSHO
 70
     1
  9
$DIMPOST
  1

  9
$DIMAPOST
  1

  9
$DIMALT
 70
     0
  9
$DIMALTD
 70
     3
  9
$DIMALTF
 40
0.0393700787401575
  9
$DIMLFAC
 40
1.0
  9
$DIMTOFL
 70
     1
  9
$DIMTVP
 40
0.0
  9
$DIMTIX
 70
     0
  9
$DIMSOXD
 70
     0
  9
$DIMSAH
 70
     0
  9
$DIMBLK1
  1

  9
$DIMBLK2
  1

  9
$DIMSTYLE
  2
ISO-25
  9
$DIMCLRD
 70
     0
  9
$DIMCLRE
 70
     0
  9
$DIMCLRT
 70
     0
  9
$DIMTFAC
 40
1.0
  9
$DIMGAP
 40
1.524
  9
$DIMJUST
 70
     0
  9
$DIMSD1
 70
     0
  9
$DIMSD2
 70
     0
  9
$DIMTOLJ
 70
     0
  9
$DIMTZIN
 70
     0
  9
$DIMALTZ
 70
     0
  9
$DIMALTTZ
 70
     0
  9
$DIMUPT
 70
     0
  9
$DIMDEC
 70
     2
  9
$DIMTDEC
 70
     2
  9
$DIMALTU
 70
     2
  9
$DIMALTTD
 70
     3
  9
$DIMTXSTY
  7
Standard
  9
$DIMAUNIT
 70
     0
  9
$DIMADEC
 70
     2
  9
$DIMALTRND
 40
0.0
  9
$DIMAZIN
 70
     0
  9
$DIMDSEP
 70
    44
  9
$DIMATFIT
 70
     3
  9
$DIMFRAC
 70
     0
  9
$DIMLDRBLK
  1

  9
$DIMLUNIT
 70
     2
  9
$DIMLWD
 70
    -2
  9
$DIMLWE
 70
    -2
  9
$DIMTMOVE
 70
     0
  9
$LUNITS
 70
     2
  9
$LUPREC
 70
     2
  9
$SKETCHINC
 40
1.0
  9
$FILLETRAD
 40
10.0
  9
$AUNITS
 70
     0
  9
$AUPREC
 70
     2
  9
$MENU
  1
.
  9
$ELEVATION
 40
0.0
  9
$PELEVATION
 40
0.0
  9
$THICKNESS
 40
0.0
  9
$LIMCHECK
 70
     0
  9
$CHAMFERA
 40
0.0
  9
$CHAMFERB
 40
0.0
  9
$CHAMFERC
 40
0.0
  9
$CHAMFERD
 40
0.0
  9
$SKPOLY
 70
     0
  9
$TDCREATE
 40
2458260.492033044
  9
$TDUCREATE
 40
2458260.117033044
  9
$TDUPDATE
 40
2458267.675804074
  9
$TDUUPDATE
 40
2458267.300804074
  9
$TDINDWG
 40
0.0011134838
  9
$TDUSRTIMER
 40
2458267.299690625
  9
$USRTIMER
 70
     1
  9
$ANGBASE
 50
0.0
  9
$ANGDIR
 70
     0
  9
$PDMODE
 70
     0
  9
$PDSIZE
 40
-1.0
  9
$PLINEWID
 40
0.0
  9
$SPLFRAME
 70
     0
  9
$SPLINETYPE
 70
     6
  9
$SPLINESEGS
 70
     8
  9
$HANDSEED
  5
151
  9
$SURFTAB1
 70
     6
  9
$SURFTAB2
 70
     6
  9
$SURFTYPE
 70
     6
  9
$SURFU
 70
     6
  9
$SURFV
 70
     6
  9
$UCSBASE
  2

  9
$UCSNAME
  2

  9
$UCSORG
 10
0.0
 20
0.0
 30
0.0
  9
$UCSXDIR
 10
1.0
 20
0.0
 30
0.0
  9
$UCSYDIR
 10
0.0
 20
1.0
 30
0.0
  9
$UCSORTHOREF
  2

  9
$UCSORTHOVIEW
 70
     0
  9
$UCSORGTOP
 10
0.0
 20
0.0
 30
0.0
  9
$UCSORGBOTTOM
 10
0.0
 20
0.0
 30
0.0
  9
$UCSORGLEFT
 10
0.0
 20
0.0
 30
0.0
  9
$UCSORGRIGHT
 10
0.0
 20
0.0
 30
0.0
  9
$UCSORGFRONT
 10
0.0
 20
0.0
 30
0.0
  9
$UCSORGBACK
 10
0.0
 20
0.0
 30
0.0
  9
$PUCSBASE
  2

  9
$PUCSNAME
  2

  9
$PUCSORG
 10
0.0
 20
0.0
 30
0.0
  9
$PUCSXDIR
 10
1.0
 20
0.0
 30
0.0
  9
$PUCSYDIR
 10
0.0
 20
1.0
 30
0.0
  9
$PUCSORTHOREF
  2

  9
$PUCSORTHOVIEW
 70
     0
  9
$PUCSORGTOP
 10
0.0
 20
0.0
 30
0.0
  9
$PUCSORGBOTTOM
 10
0.0
 20
0.0
 30
0.0
  9
$PUCSORGLEFT
 10
0.0
 20
0.0
 30
0.0
  9
$PUCSORGRIGHT
 10
0.0
 20
0.0
 30
0.0
  9
$PUCSORGFRONT
 10
0.0
 20
0.0
 30
0.0
  9
$PUCSORGBACK
 10
0.0
 20
0.0
 30
0.0
  9
$USERI1
 70
     0
  9
$USERI2
 70
     0
  9
$USERI3
 70
     0
  9
$USERI4
 70
     0
  9
$USERI5
 70
     0
  9
$USERR1
 40
0.0
  9
$USERR2
 40
0.0
  9
$USERR3
 40
0.0
  9
$USERR4
 40
0.0
  9
$USERR5
 40
0.0
  9
$WORLDVIEW
 70
     1
  9
$SHADEDGE
 70
     3
  9
$SHADEDIF
 70
    70
  9
$TILEMODE
 70
     1
  9
$MAXACTVP
 70
    64
  9
$PINSBASE
 10
0.0
 20
0.0
 30
0.0
  9
$PLIMCHECK
 70
     0
  9
$PEXTMIN
 10
1.000000000000000E+20
 20
1.000000000000000E+20
 30
1.000000000000000E+20
  9
$PEXTMAX
 10
-1.000000000000000E+20
 20
-1.000000000000000E+20
 30
-1.000000000000000E+20
  9
$PLIMMIN
 10
0.0
 20
0.0
  9
$PLIMMAX
 10
0.0
 20
0.0
  9
$UNITMODE
 70
     0
  9
$VISRETAIN
 70
     1
  9
$PLINEGEN
 70
     0
  9
$PSLTSCALE
 70
     1
  9
$TREEDEPTH
 70
  3020
  9
$CMLSTYLE
  2
Standard
  9
$CMLJUST
 70
     0
  9
$CMLSCALE
 40
20.0
  9
$PROXYGRAPHICS
 70
     1
  9
$MEASUREMENT
 70
     1
  9
$CELWEIGHT
370
    -1
  9
$ENDCAPS
280
     0
  9
$JOINSTYLE
280
     0
  9
$LWDISPLAY
290
     1
  9
$INSUNITS
 70
     4
  9
$HYPERLINKBASE
  1

  9
$STYLESHEET
  1

  9
$XEDIT
290
     1
  9
$CEPSNTYPE
380
     0
  9
$PSTYLEMODE
290
     1
  9
$FINGERPRINTGUID
  2
{2B296561-71F2-4722-B7F0-80FE44BF753F}
  9
$VERSIONGUID
  2
{FAEB1C32-E019-11D5-929B-00C0DF256EC4}
  9
$EXTNAMES
290
     1
  9
$PSVPSCALE
 40
0.0
  9
$OLESTARTUP
290
     0
  0
ENDSEC
  0
SECTION
  2
CLASSES
  0
CLASS
  1
ACDBDICTIONARYWDFLT
  2
AcDbDictionaryWithDefault
  3
ObjectDBX Classes
 90
        0
280
     0
281
     0
  0
CLASS
  1
VISUALSTYLE
  2
AcDbVisualStyle
  3
ObjectDBX Classes
 90
     4095
280
     0
281
     0
  0
CLASS
  1
MATERIAL
  2
AcDbMaterial
  3
ObjectDBX Classes
 90
     1153
280
     0
281
     0
  0
CLASS
  1
SCALE
  2
AcDbScale
  3
ObjectDBX Classes
 90
     1153
280
     0
281
     0
  0
CLASS
  1
TABLESTYLE
  2
AcDbTableStyle
  3
ObjectDBX Classes
 90
     4095
280
     0
281
     0
  0
CLASS
  1
MLEADERSTYLE
  2
AcDbMLeaderStyle
  3
ACDB_MLEADERSTYLE_CLASS
 90
     4095
280
     0
281
     0
  0
CLASS
  1
SUN
  2
AcDbSun
  3
SCENEOE
 90
     1153
280
     0
281
     0
  0
CLASS
  1
ACDBPLACEHOLDER
  2
AcDbPlaceHolder
  3
ObjectDBX Classes
 90
        0
280
     0
281
     0
  0
CLASS
  1
LAYOUT
  2
AcDbLayout
  3
ObjectDBX Classes
 90
        0
280
     0
281
     0
  0
CLASS
  1
RASTERVARIABLES
  2
AcDbRasterVariables
  3
ISM
 90
        0
280
     0
281
     0
  0
ENDSEC
  0
SECTION
  2
TABLES
  0
TABLE
  2
VPORT
  5
8
330
0
100
AcDbSymbolTable
 70
     1
  0
VPORT
  5
29
330
8
100
AcDbSymbolTableRecord
100
AcDbViewportTableRecord
  2
*Active
 70
     0
 10
0.0
 20
0.0
 11
1.0
 21
1.0
 12
2.007538195058267
 22
-12.60383739361504
 13
0.0
 23
0.0
 14
10.0
 24
10.0
 15
10.0
 25
10.0
 16
0.0
 26
0.0
 36
1.0
 17
0.0
 27
0.0
 37
0.0
 40
76.23065879020126
 41
1.739018087855297
 42
50.0
 43
0.0
 44
0.0
 50
0.0
 51
0.0
 71
    16
 72
  2000
 73
     1
 74
     3
 75
     0
 76
     0
 77
     0
 78
     0
281
     0
 65
     1
110
0.0
120
0.0
130
0.0
111
1.0
121
0.0
131
0.0
112
0.0
122
1.0
132
0.0
 79
     0
146
0.0
  0
ENDTAB
  0
TABLE
  2
LTYPE
  5
5
330
0
100
AcDbSymbolTable
 70
     6
  0
LTYPE
  5
14
330
5
100
AcDbSymbolTableRecord
100
AcDbLinetypeTableRecord
  2
ByBlock
 70
     0
  3

 72
    65
 73
     0
 40
0.0
  0
LTYPE
  5
15
330
5
100
AcDbSymbolTableRecord
100
AcDbLinetypeTableRecord
  2
ByLayer
 70
     0
  3

 72
    65
 73
     0
 40
0.0
  0
LTYPE
  5
16
330
5
100
AcDbSymbolTableRecord
100
AcDbLinetypeTableRecord
  2
Continuous
 70
     0
  3
Solid line
 72
    65
 73
     0
 40
0.0
  0
LTYPE
  5
6E
330
5
100
AcDbSymbolTableRecord
100
AcDbLinetypeTableRecord
  2
HIDDEN
 70
     0
  3
Hidden __ __ __ __ __ __ __ __ __ __ __ __ __ __
 72
    65
 73
     2
 40
1.905
 49
1.27
 74
     0
 49
-0.635
 74
     0
  0
LTYPE
  5
6F
330
5
100
AcDbSymbolTableRecord
100
AcDbLinetypeTableRecord
  2
PHANTOM
 70
     0
  3
Phantom ______  __  __  ______  __  __  ______
 72
    65
 73
     6
 40
12.7
 49
6.35
 74
     0
 49
-1.27
 74
     0
 49
1.27
 74
     0
 49
-1.27
 74
     0
 49
1.27
 74
     0
 49
-1.27
 74
     0
  0
LTYPE
  5
70
330
5
100
AcDbSymbolTableRecord
100
AcDbLinetypeTableRecord
  2
CENTER
 70
     0
  3
Center ____ _ ____ _ ____ _ ____ _ ____ _ ____
 72
    65
 73
     4
 40
10.16
 49
6.35
 74
     0
 49
-1.27
 74
     0
 49
1.27
 74
     0
 49
-1.27
 74
     0
  0
LTYPE
  5
71
330
5
100
AcDbSymbolTableRecord
100
AcDbLinetypeTableRecord
  2
CENTERX2
 70
     0
  3
Center (2x) ________  __  ________  __  _____
 72
    65
 73
     4
 40
20.32
 49
12.7
 74
     0
 49
-2.54
 74
     0
 49
2.54
 74
     0
 49
-2.54
 74
     0
  0
LTYPE
  5
72
330
5
100
AcDbSymbolTableRecord
100
AcDbLinetypeTableRecord
  2
DOT2
 70
     0
  3
Dot (.5x) ........................................
 72
    65
 73
     2
 40
0.635
 49
0.0
 74
     0
 49
-0.635
 74
     0
  0
ENDTAB
  0
TABLE
  2
LAYER
  5
2
330
0
100
AcDbSymbolTable
 70
    17
  0
LAYER
  5
10
330
2
100
AcDbSymbolTableRecord
100
AcDbLayerTableRecord
  2
0
 70
     0
 62
     7
  6
Continuous
370
    -3
390
F
  0
LAYER
  5
73
330
2
100
AcDbSymbolTableRecord
100
AcDbLayerTableRecord
  2
FORMAT
 70
     0
 62
     2
  6
Continuous
370
    -3
390
F
  0
LAYER
  5
74
330
2
100
AcDbSymbolTableRecord
100
AcDbLayerTableRecord
  2
외형선
 70
     0
 62
   100
  6
Continuous
370
    35
390
F
  0
LAYER
  5
75
330
2
100
AcDbSymbolTableRecord
100
AcDbLayerTableRecord
  2
숨은선
 70
     0
 62
     2
  6
HIDDEN
370
    25
390
F
  0
LAYER
  5
76
330
2
100
AcDbSymbolTableRecord
100
AcDbLayerTableRecord
  2
중심선
 70
     0
 62
     1
  6
CENTERX2
370
    -3
390
F
  0
LAYER
  5
77
330
2
100
AcDbSymbolTableRecord
100
AcDbLayerTableRecord
  2
파단선
 70
     0
 62
     4
  6
Continuous
370
    -3
390
F
  0
LAYER
  5
78
330
2
100
AcDbSymbolTableRecord
100
AcDbLayerTableRecord
  2
해칭선
 70
     0
 62
   100
  6
Continuous
370
    -3
390
F
  0
LAYER
  5
79
330
2
100
AcDbSymbolTableRecord
100
AcDbLayerTableRecord
  2
가는실선
 70
     0
 62
     4
  6
Continuous
370
    -3
390
F
  0
LAYER
  5
7A
330
2
100
AcDbSymbolTableRecord
100
AcDbLayerTableRecord
  2
치수_보조선
 70
     0
 62
     4
  6
Continuous
370
    -3
390
F
  0
LAYER
  5
7B
330
2
100
AcDbSymbolTableRecord
100
AcDbLayerTableRecord
  2
치수문자_일반주서
 70
     0
 62
     7
  6
Continuous
370
    25
390
F
  0
LAYER
  5
7C
330
2
100
AcDbSymbolTableRecord
100
AcDbLayerTableRecord
  2
개별주서
 70
     0
 62
   100
  6
Continuous
370
    35
390
F
  0
LAYER
  5
7D
330
2
100
AcDbSymbolTableRecord
100
AcDbLayerTableRecord
  2
중간선
 70
     0
 62
     2
  6
Continuous
370
    25
390
F
  0
LAYER
  5
7E
330
2
100
AcDbSymbolTableRecord
100
AcDbLayerTableRecord
  2
윤곽선
 70
     0
 62
     3
  6
Continuous
370
    50
390
F
  0
LAYER
  5
7F
330
2
100
AcDbSymbolTableRecord
100
AcDbLayerTableRecord
  2
중심마크
 70
     0
 62
   100
  6
Continuous
370
    35
390
F
  0
LAYER
  5
80
330
2
100
AcDbSymbolTableRecord
100
AcDbLayerTableRecord
  2
가상선
 70
     0
 62
     4
  6
PHANTOM
370
    -3
390
F
  0
LAYER
  5
81
330
2
100
AcDbSymbolTableRecord
100
AcDbLayerTableRecord
  2
특수지정선
 70
     0
 62
     5
  6
CENTERX2
370
    70
390
F
  0
LAYER
  5
141
330
2
100
AcDbSymbolTableRecord
100
AcDbLayerTableRecord
  2
Defpoints
 70
     0
 62
     7
  6
Continuous
290
     0
370
    -3
390
F
  0
ENDTAB
  0
TABLE
  2
STYLE
  5
3
330
0
100
AcDbSymbolTable
 70
     2
  0
STYLE
  5
11
330
3
100
AcDbSymbolTableRecord
100
AcDbTextStyleTableRecord
  2
Standard
 70
     0
 40
0.0
 41
1.0
 50
0.0
 71
     0
 42
3.5
  3
txt
  4

  0
STYLE
  5
97
330
3
100
AcDbSymbolTableRecord
100
AcDbTextStyleTableRecord
  2
SLDTEXTSTYLE0
 70
     0
 40
0.0
 41
0.75
 50
0.0
 71
     0
 42
3.5
  3
TXT
  4

  0
ENDTAB
  0
TABLE
  2
VIEW
  5
6
330
0
100
AcDbSymbolTable
 70
     0
  0
ENDTAB
  0
TABLE
  2
UCS
  5
7
330
0
100
AcDbSymbolTable
 70
     0
  0
ENDTAB
  0
TABLE
  2
APPID
  5
9
330
0
100
AcDbSymbolTable
 70
     1
  0
APPID
  5
12
330
9
100
AcDbSymbolTableRecord
100
AcDbRegAppTableRecord
  2
ACAD
 70
     0
  0
ENDTAB
  0
TABLE
  2
DIMSTYLE
  5
A
330
0
100
AcDbSymbolTable
 70
     4
100
AcDbDimStyleTable
  0
DIMSTYLE
105
27
330
A
100
AcDbSymbolTableRecord
100
AcDbDimStyleTableRecord
  2
ISO-25
 70
     0
 41
2.5
 42
0.625
 43
3.75
 44
1.25
 73
     0
 74
     0
 77
     1
 78
     8
140
2.5
141
2.5
143
0.03937007874016
147
0.625
171
     3
172
     1
178
     0
271
     2
272
     2
274
     3
278
    44
283
     0
284
     8
340
11
  0
DIMSTYLE
105
E6
102
{ACAD_REACTORS
330
E5
102
}
330
A
100
AcDbSymbolTableRecord
100
AcDbDimStyleTableRecord
  2
SLDDIMSTYLE0
 70
     0
 41
3.302
 44
0.0
 45
0.000000001
 73
     0
 74
     0
 77
     1
 78
    12
 79
     3
140
3.5
147
0.875
172
     1
173
     1
178
     0
271
     1
272
     1
276
     2
284
    12
289
     0
340
97
  0
DIMSTYLE
105
F4
102
{ACAD_REACTORS
330
F3
330
10C
102
}
330
A
100
AcDbSymbolTableRecord
100
AcDbDimStyleTableRecord
  2
SLDDIMSTYLE1
 70
     0
 41
3.302
 44
0.0
 45
0.000000001
 73
     0
 74
     0
 77
     1
 78
    12
 79
     3
140
3.5
147
0.875
173
     1
178
     0
271
     2
272
     2
276
     2
284
    12
340
97
  0
DIMSTYLE
105
FF
102
{ACAD_REACTORS
330
FE
102
}
330
A
100
AcDbSymbolTableRecord
100
AcDbDimStyleTableRecord
  2
SLDDIMSTYLE2
 70
     0
 41
3.302
 44
0.0
 45
0.000000001
 73
     0
 74
     0
 77
     1
 78
    12
 79
     3
140
3.5
147
0.875
172
     1
173
     1
178
     0
271
     2
272
     2
276
     2
284
    12
289
     0
340
97
  0
ENDTAB
  0
TABLE
  2
BLOCK_RECORD
  5
1
330
0
100
AcDbSymbolTable
 70
     7
  0
BLOCK_RECORD
  5
1F
330
1
100
AcDbSymbolTableRecord
100
AcDbBlockTableRecord
  2
*Model_Space
340
22
  0
BLOCK_RECORD
  5
1B
330
1
100
AcDbSymbolTableRecord
100
AcDbBlockTableRecord
  2
*Paper_Space
340
1E
  0
BLOCK_RECORD
  5
23
330
1
100
AcDbSymbolTableRecord
100
AcDbBlockTableRecord
  2
*Paper_Space0
340
26
  0
BLOCK_RECORD
  5
82
330
1
100
AcDbSymbolTableRecord
100
AcDbBlockTableRecord
  2
블럭10
340
0
102
{BLKREFS
331
DE
102
}
  0
BLOCK_RECORD
  5
E7
330
1
100
AcDbSymbolTableRecord
100
AcDbBlockTableRecord
  2
_D
340
0
  0
BLOCK_RECORD
  5
F5
330
1
100
AcDbSymbolTableRecord
100
AcDbBlockTableRecord
  2
_D_1
340
0
  0
BLOCK_RECORD
  5
100
330
1
100
AcDbSymbolTableRecord
100
AcDbBlockTableRecord
  2
_D_2
340
0
  0
BLOCK_RECORD
  5
10D
330
1
100
AcDbSymbolTableRecord
100
AcDbBlockTableRecord
  2
_D_3
340
0
  0
BLOCK_RECORD
  5
116
330
1
100
AcDbSymbolTableRecord
100
AcDbBlockTableRecord
  2
SW_DOWELSYMBOL_0
340
0
102
{BLKREFS
331
11C
102
}
  0
ENDTAB
  0
ENDSEC
  0
SECTION
  2
BLOCKS
  0
BLOCK
  5
20
330
1F
100
AcDbEntity
  8
0
100
AcDbBlockBegin
  2
*Model_Space
 70
     0
 10
0.0
 20
0.0
 30
0.0
  3
*Model_Space
  1

  0
ENDBLK
  5
21
330
1F
100
AcDbEntity
  8
0
100
AcDbBlockEnd
  0
BLOCK
  5
1C
330
1B
100
AcDbEntity
 67
     1
  8
0
100
AcDbBlockBegin
  2
*Paper_Space
 70
     0
 10
0.0
 20
0.0
 30
0.0
  3
*Paper_Space
  1

  0
ENDBLK
  5
1D
330
1B
100
AcDbEntity
 67
     1
  8
0
100
AcDbBlockEnd
  0
BLOCK
  5
24
330
23
100
AcDbEntity
  8
0
100
AcDbBlockBegin
  2
*Paper_Space0
 70
     0
 10
0.0
 20
0.0
 30
0.0
  3
*Paper_Space0
  1

  0
ENDBLK
  5
25
330
23
100
AcDbEntity
  8
0
100
AcDbBlockEnd
  0
BLOCK
  5
83
330
82
100
AcDbEntity
  8
0
100
AcDbBlockBegin
  2
블럭10
 70
     2
 10
0.0
 20
0.0
 30
0.0
  3
블럭10
  1

  0
ELLIPSE
  5
85
330
82
100
AcDbEntity
  8
중심선
100
AcDbEllipse
 10
20.54032771741204
 20
12.0471743016438
 30
0.0
 11
6.600054785286829
 21
-1.261213355974178E-13
 31
0.0
210
0.0
220
0.0
230
1.0
 40
0.636358354079598
 41
0.9219305317359503
 42
6.513795318482858
  0
ELLIPSE
  5
86
330
82
100
AcDbEntity
  8
중심선
100
AcDbEllipse
 10
20.54032771746488
 20
12.04717430159265
 30
0.0
 11
3.960054785062283
 21
1.540847449632565E-10
 31
0.0
210
0.0
220
0.0
230
1.0
 40
0.3939339440162632
 41
1.131841032648279
 42
5.62031148352944
  0
LINE
  5
87
330
82
100
AcDbEntity
  8
중심선
100
AcDbLine
 10
2.268634060543552
 20
16.24717430164393
 30
0.0
 11
5.714909304380834
 21
16.24717430164393
 31
0.0
  0
LINE
  5
88
330
82
100
AcDbEntity
  8
중심선
100
AcDbLine
 10
5.245725140726316
 20
7.84717430164391
 30
0.0
 11
8.692000384563599
 21
7.84717430164391
 31
0.0
  0
LINE
  5
89
330
82
100
AcDbEntity
  8
중심선
100
AcDbLine
 10
15.74043728645272
 20
16.24717430164393
 30
0.0
 11
8.692000384563599
 21
7.84717430164391
 31
0.0
  0
LINE
  5
8A
330
82
100
AcDbEntity
  8
중심선
100
AcDbLine
 10
0.1404042013395286
 20
13.71084872107135
 30
0.0
 11
3.58671253028996
 21
13.71088815037384
 31
0.0
  0
LINE
  5
8B
330
82
100
AcDbEntity
  8
중심선
100
AcDbLine
 10
2.750260043222114
 20
10.84717430164391
 30
0.0
 11
6.196535287059397
 21
10.84717430164391
 31
0.0
  0
LINE
  5
8C
330
82
100
AcDbEntity
  8
중심선
100
AcDbLine
 10
12.29416204261559
 20
16.24717430164393
 30
0.0
 11
5.245725140726316
 21
7.84717430164391
 31
0.0
  0
LINE
  5
8D
330
82
100
AcDbEntity
  8
중심선
100
AcDbLine
 10
10.72767329541681
 20
16.24717430164393
 30
0.0
 11
6.196535287059397
 21
10.84717430164391
 31
0.0
  0
LINE
  5
8E
330
82
100
AcDbEntity
  8
중심선
100
AcDbLine
 10
7.28139805157953
 20
16.24717430164393
 30
0.0
 11
2.750260043222114
 21
10.84717430164391
 31
0.0
  0
LINE
  5
8F
330
82
100
AcDbEntity
  8
중심선
100
AcDbLine
 10
5.714909304380834
 20
16.24717430164393
 30
0.0
 11
3.58671253028996
 21
13.71088815037384
 31
0.0
  0
LINE
  5
90
330
82
100
AcDbEntity
  8
중심선
100
AcDbLine
 10
2.268634060543552
 20
16.24717430164393
 30
0.0
 11
0.1404042013395286
 21
13.71084872107135
 31
0.0
  0
LINE
  5
91
330
82
100
AcDbEntity
  8
중심선
100
AcDbLine
 10
7.28139805157953
 20
16.24717430164393
 30
0.0
 11
10.72767329541681
 21
16.24717430164393
 31
0.0
  0
LINE
  5
92
330
82
100
AcDbEntity
  8
중심선
100
AcDbLine
 10
12.29416204261559
 20
16.24717430164393
 30
0.0
 11
15.74043728645272
 21
16.24717430164393
 31
0.0
  0
LINE
  5
93
330
82
100
AcDbEntity
  8
중심선
100
AcDbLine
 10
19.22036997980202
 20
11.08717430171403
 30
0.0
 11
23.66174974927406
 21
11.08717430171406
 31
0.0
  0
LINE
  5
94
330
82
100
AcDbEntity
  8
중심선
100
AcDbLine
 10
19.22039502424796
 20
13.00717430171391
 30
0.0
 11
19.22036997980202
 21
11.08717430171403
 31
0.0
  0
LINE
  5
95
330
82
100
AcDbEntity
  8
중심선
100
AcDbLine
 10
19.22039502424796
 20
13.00717430171391
 30
0.0
 11
26.96566020931264
 21
13.00717430171391
 31
0.0
  0
LINE
  5
96
330
82
100
AcDbEntity
  8
중심선
100
AcDbLine
 10
22.22332737316547
 20
13.45928029700563
 30
0.0
 11
24.52862924686651
 21
15.39360700705356
 31
0.0
  0
ATTDEF
  5
98
330
82
100
AcDbEntity
  8
FORMAT
 62
     2
100
AcDbText
 10
-16.11926103943555
 20
2.075366912832191
 30
0.0
 40
4.233333333333333
  1
SEME7105025E [ 4 FLUTE ]
 41
0.75
  7
SLDTEXTSTYLE0
 11
-16.11926103943555
 21
-0.0412997538344756
 31
0.0
100
AcDbAttributeDefinition
  3

  2
AUTOATTR0
 70
     0
 74
     1
  0
ENDBLK
  5
84
330
82
100
AcDbEntity
  8
0
100
AcDbBlockEnd
  0
BLOCK
  5
E8
330
E7
100
AcDbEntity
  8
0
100
AcDbBlockBegin
  2
_D
 70
     0
 10
0.0
 20
0.0
 30
0.0
  3
_D
  1

  0
LINE
  5
EA
330
E7
100
AcDbEntity
  8
치수문자_일반주서
 62
     0
370
    -2
100
AcDbLine
 10
29.92852540378446
 20
-2.500000000000006
 30
0.0
 11
42.37377973782959
 21
-2.499999999999959
 31
0.0
  0
LINE
  5
EB
330
E7
100
AcDbEntity
  8
치수문자_일반주서
 62
     0
370
    -2
100
AcDbLine
 10
29.92852540378446
 20
2.500000000000006
 30
0.0
 11
42.37377973782957
 21
2.500000000000052
 31
0.0
  0
LINE
  5
EC
330
E7
100
AcDbEntity
  8
치수문자_일반주서
 62
     0
370
    -2
100
AcDbLine
 10
42.37377973782959
 20
-2.499999999999959
 30
0.0
 11
42.37377973782954
 21
15.22900000000005
 31
0.0
  0
LINE
  5
ED
330
E7
100
AcDbEntity
  8
치수문자_일반주서
 62
     0
370
    -2
100
AcDbLine
 10
42.37377973782959
 20
-2.499999999999959
 30
0.0
 11
42.37377973782957
 21
2.500000000000052
 31
0.0
  0
LINE
  5
EE
330
E7
100
AcDbEntity
  8
치수문자_일반주서
 62
     0
370
    -2
100
AcDbLine
 10
42.37377973782959
 20
-5.801999999999959
 30
0.0
 11
42.3737797378296
 21
-9.103999999999958
 31
0.0
  0
LINE
  5
EF
330
E7
100
AcDbEntity
  8
치수문자_일반주서
 62
     0
370
    -2
100
AcDbLine
 10
42.37377973782957
 20
5.802000000000051
 30
0.0
 11
42.37377973782956
 21
9.10400000000005
 31
0.0
  0
SOLID
  5
F0
330
E7
100
AcDbEntity
  8
치수문자_일반주서
 62
     0
100
AcDbTrace
 10
42.92411307116293
 20
-5.801999999999957
 30
0.0
 11
41.82344640449626
 21
-5.801999999999961
 31
0.0
 12
42.37377973782959
 22
-2.499999999999959
 32
0.0
 13
42.37377973782959
 23
-2.499999999999959
 33
0.0
  0
SOLID
  5
F1
330
E7
100
AcDbEntity
  8
치수문자_일반주서
 62
     0
100
AcDbTrace
 10
41.82344640449623
 20
5.802000000000049
 30
0.0
 11
42.9241130711629
 21
5.802000000000053
 31
0.0
 12
42.37377973782957
 22
2.500000000000052
 32
0.0
 13
42.37377973782957
 23
2.500000000000052
 33
0.0
  0
MTEXT
  5
F2
330
E7
100
AcDbEntity
  8
치수문자_일반주서
 62
     0
100
AcDbMText
 10
37.99877973782954
 20
12.16650000000004
 30
0.0
 40
3.5
 41
0.0
 71
     2
 72
     1
  1
\A1;%%c5
  7
SLDTEXTSTYLE0
 11
-2.842170943040394E-15
 21
1.0
 31
0.0
 73
     1
 44
1.0
  0
POINT
  5
14B
330
E7
100
AcDbEntity
  8
Defpoints
 62
     0
100
AcDbPoint
 10
29.86602540378446
 20
-2.500000000000006
 30
0.0
  0
POINT
  5
14C
330
E7
100
AcDbEntity
  8
Defpoints
 62
     0
100
AcDbPoint
 10
29.86602540378446
 20
2.500000000000005
 30
0.0
  0
POINT
  5
14D
330
E7
100
AcDbEntity
  8
Defpoints
 62
     0
100
AcDbPoint
 10
42.37377973782957
 20
2.500000000000052
 30
0.0
  0
ENDBLK
  5
E9
330
E7
100
AcDbEntity
  8
0
100
AcDbBlockEnd
  0
BLOCK
  5
F6
330
F5
100
AcDbEntity
  8
0
100
AcDbBlockBegin
  2
_D_1
 70
     0
 10
0.0
 20
0.0
 30
0.0
  3
_D_1
  1

  0
LINE
  5
F8
330
F5
100
AcDbEntity
  8
치수문자_일반주서
 62
     0
370
    -2
100
AcDbLine
 10
-30.13397459621557
 20
2.562499999999996
 30
0.0
 11
-30.13397459621557
 21
20.38913260158165
 31
0.0
  0
LINE
  5
F9
330
F5
100
AcDbEntity
  8
치수문자_일반주서
 62
     0
370
    -2
100
AcDbLine
 10
29.86602540378443
 20
2.562500000000002
 30
0.0
 11
29.86602540378443
 21
20.38913260158165
 31
0.0
  0
LINE
  5
FA
330
F5
100
AcDbEntity
  8
치수문자_일반주서
 62
     0
370
    -2
100
AcDbLine
 10
-26.83197459621557
 20
20.38913260158165
 30
0.0
 11
26.56402540378443
 21
20.38913260158165
 31
0.0
  0
SOLID
  5
FB
330
F5
100
AcDbEntity
  8
치수문자_일반주서
 62
     0
100
AcDbTrace
 10
-26.83197459621557
 20
20.93946593491498
 30
0.0
 11
-26.83197459621557
 21
19.83879926824831
 31
0.0
 12
-30.13397459621557
 22
20.38913260158165
 32
0.0
 13
-30.13397459621557
 23
20.38913260158165
 33
0.0
  0
SOLID
  5
FC
330
F5
100
AcDbEntity
  8
치수문자_일반주서
 62
     0
100
AcDbTrace
 10
26.56402540378443
 20
19.83879926824831
 30
0.0
 11
26.56402540378443
 21
20.93946593491498
 31
0.0
 12
29.86602540378443
 22
20.38913260158165
 32
0.0
 13
29.86602540378443
 23
20.38913260158165
 33
0.0
  0
MTEXT
  5
FD
330
F5
100
AcDbEntity
  8
치수문자_일반주서
 62
     0
100
AcDbMText
 10
-0.1339745962155652
 20
24.76413260158165
 30
0.0
 40
3.5
 41
0.0
 71
     2
 72
     1
  1
\A1;60
  7
SLDTEXTSTYLE0
 73
     1
 44
1.0
  0
POINT
  5
142
330
F5
100
AcDbEntity
  8
Defpoints
 62
     0
100
AcDbPoint
 10
-30.13397459621557
 20
2.499999999999996
 30
0.0
  0
POINT
  5
143
330
F5
100
AcDbEntity
  8
Defpoints
 62
     0
100
AcDbPoint
 10
29.86602540378443
 20
2.500000000000002
 30
0.0
  0
POINT
  5
144
330
F5
100
AcDbEntity
  8
Defpoints
 62
     0
100
AcDbPoint
 10
29.86602540378443
 20
20.38913260158165
 30
0.0
  0
ENDBLK
  5
F7
330
F5
100
AcDbEntity
  8
0
100
AcDbBlockEnd
  0
BLOCK
  5
101
330
100
100
AcDbEntity
  8
0
100
AcDbBlockBegin
  2
_D_2
 70
     0
 10
0.0
 20
0.0
 30
0.0
  3
_D_2
  1

  0
LINE
  5
103
330
100
100
AcDbEntity
  8
치수문자_일반주서
 62
     0
370
    -2
100
AcDbLine
 10
-29.69647459621557
 20
3.000000000000002
 30
0.0
 11
-38.95084808293871
 21
2.999999999999968
 31
0.0
  0
LINE
  5
104
330
100
100
AcDbEntity
  8
치수문자_일반주서
 62
     0
370
    -2
100
AcDbLine
 10
-29.69647459621557
 20
-3.000000000000003
 30
0.0
 11
-38.95084808293869
 21
-3.000000000000039
 31
0.0
  0
LINE
  5
105
330
100
100
AcDbEntity
  8
치수문자_일반주서
 62
     0
370
    -2
100
AcDbLine
 10
-38.95084808293871
 20
2.999999999999968
 30
0.0
 11
-38.95084808293876
 21
15.72899999999997
 31
0.0
  0
LINE
  5
106
330
100
100
AcDbEntity
  8
치수문자_일반주서
 62
     0
370
    -2
100
AcDbLine
 10
-38.95084808293871
 20
2.999999999999968
 30
0.0
 11
-38.95084808293869
 21
-3.000000000000039
 31
0.0
  0
LINE
  5
107
330
100
100
AcDbEntity
  8
치수문자_일반주서
 62
     0
370
    -2
100
AcDbLine
 10
-38.95084808293873
 20
6.301999999999968
 30
0.0
 11
-38.95084808293874
 21
9.603999999999967
 31
0.0
  0
LINE
  5
108
330
100
100
AcDbEntity
  8
치수문자_일반주서
 62
     0
370
    -2
100
AcDbLine
 10
-38.95084808293868
 20
-6.302000000000039
 30
0.0
 11
-38.95084808293866
 21
-9.604000000000038
 31
0.0
  0
SOLID
  5
109
330
100
100
AcDbEntity
  8
치수문자_일반주서
 62
     0
100
AcDbTrace
 10
-39.50118141627206
 20
6.301999999999966
 30
0.0
 11
-38.40051474960539
 21
6.301999999999969
 31
0.0
 12
-38.95084808293871
 22
2.999999999999968
 32
0.0
 13
-38.95084808293871
 23
2.999999999999968
 33
0.0
  0
SOLID
  5
10A
330
100
100
AcDbEntity
  8
치수문자_일반주서
 62
     0
100
AcDbTrace
 10
-38.40051474960534
 20
-6.302000000000037
 30
0.0
 11
-39.50118141627201
 21
-6.30200000000004
 31
0.0
 12
-38.95084808293869
 22
-3.000000000000039
 32
0.0
 13
-38.95084808293869
 23
-3.000000000000039
 33
0.0
  0
MTEXT
  5
10B
330
100
100
AcDbEntity
  8
치수문자_일반주서
 62
     0
100
AcDbMText
 10
-43.32584808293875
 20
12.66649999999995
 30
0.0
 40
3.5
 41
0.0
 71
     2
 72
     1
  1
\A1;%%c6
  7
SLDTEXTSTYLE0
 11
-3.552713678800498E-15
 21
1.0
 31
0.0
 73
     1
 44
1.0
  0
POINT
  5
148
330
100
100
AcDbEntity
  8
Defpoints
 62
     0
100
AcDbPoint
 10
-29.63397459621557
 20
3.000000000000003
 30
0.0
  0
POINT
  5
149
330
100
100
AcDbEntity
  8
Defpoints
 62
     0
100
AcDbPoint
 10
-29.63397459621557
 20
-3.000000000000003
 30
0.0
  0
POINT
  5
14A
330
100
100
AcDbEntity
  8
Defpoints
 62
     0
100
AcDbPoint
 10
-38.9508480829387
 20
-3.000000000000037
 30
0.0
  0
ENDBLK
  5
102
330
100
100
AcDbEntity
  8
0
100
AcDbBlockEnd
  0
BLOCK
  5
10E
330
10D
100
AcDbEntity
  8
0
100
AcDbBlockBegin
  2
_D_3
 70
     0
 10
0.0
 20
0.0
 30
0.0
  3
_D_3
  1

  0
LINE
  5
110
330
10D
100
AcDbEntity
  8
치수문자_일반주서
 62
     0
370
    -2
100
AcDbLine
 10
4.866025403784432
 20
2.562500000000002
 30
0.0
 11
4.866025403784434
 21
13.25886433543589
 31
0.0
  0
LINE
  5
111
330
10D
100
AcDbEntity
  8
치수문자_일반주서
 62
     0
370
    -2
100
AcDbLine
 10
29.86602540378443
 20
2.562500000000002
 30
0.0
 11
29.86602540378443
 21
13.25886433543589
 31
0.0
  0
LINE
  5
112
330
10D
100
AcDbEntity
  8
치수문자_일반주서
 62
     0
370
    -2
100
AcDbLine
 10
8.168025403784434
 20
13.25886433543589
 30
0.0
 11
26.56402540378443
 21
13.25886433543589
 31
0.0
  0
SOLID
  5
113
330
10D
100
AcDbEntity
  8
치수문자_일반주서
 62
     0
100
AcDbTrace
 10
8.168025403784434
 20
13.80919766876922
 30
0.0
 11
8.168025403784434
 21
12.70853100210256
 31
0.0
 12
4.866025403784434
 22
13.25886433543589
 32
0.0
 13
4.866025403784434
 23
13.25886433543589
 33
0.0
  0
SOLID
  5
114
330
10D
100
AcDbEntity
  8
치수문자_일반주서
 62
     0
100
AcDbTrace
 10
26.56402540378443
 20
12.70853100210256
 30
0.0
 11
26.56402540378443
 21
13.80919766876922
 31
0.0
 12
29.86602540378443
 22
13.25886433543589
 32
0.0
 13
29.86602540378443
 23
13.25886433543589
 33
0.0
  0
MTEXT
  5
115
330
10D
100
AcDbEntity
  8
치수문자_일반주서
 62
     0
100
AcDbMText
 10
17.36602540378443
 20
17.63386433543589
 30
0.0
 40
3.5
 41
0.0
 71
     2
 72
     1
  1
\A1;25
  7
SLDTEXTSTYLE0
 73
     1
 44
1.0
  0
POINT
  5
145
330
10D
100
AcDbEntity
  8
Defpoints
 62
     0
100
AcDbPoint
 10
4.866025403784432
 20
2.500000000000002
 30
0.0
  0
POINT
  5
146
330
10D
100
AcDbEntity
  8
Defpoints
 62
     0
100
AcDbPoint
 10
29.86602540378443
 20
2.500000000000002
 30
0.0
  0
POINT
  5
147
330
10D
100
AcDbEntity
  8
Defpoints
 62
     0
100
AcDbPoint
 10
29.86602540378443
 20
13.25886433543589
 30
0.0
  0
ENDBLK
  5
10F
330
10D
100
AcDbEntity
  8
0
100
AcDbBlockEnd
  0
BLOCK
  5
117
330
116
100
AcDbEntity
  8
0
100
AcDbBlockBegin
  2
SW_DOWELSYMBOL_0
 70
     0
 10
0.0
 20
0.0
 30
0.0
  3
SW_DOWELSYMBOL_0
  1

  0
CIRCLE
  5
119
330
116
100
AcDbEntity
  8
해칭선
 62
     0
100
AcDbCircle
 10
0.0
 20
0.0
 30
0.0
 40
3.000000000000001
  0
HATCH
  5
11A
330
116
100
AcDbEntity
  8
0
  6
Continuous
 62
     0
370
    18
100
AcDbHatch
 10
0.0
 20
0.0
 30
0.0
210
0.0
220
0.0
230
1.0
  2
SOLID
 70
     1
 71
     0
 91
        1
 92
        0
 93
        3
 72
     2
 10
0.0
 20
0.0
 40
3.000000000000001
 50
0.0
 51
90.0
 73
     1
 72
     1
 10
0.0
 20
3.000000000000001
 11
0.0
 21
0.0
 72
     1
 10
0.0
 20
0.0
 11
3.000000000000001
 21
0.0
 97
        0
 75
     0
 76
     1
 98
        1
 10
0.0
 20
0.0
  0
HATCH
  5
11B
330
116
100
AcDbEntity
  8
0
  6
Continuous
 62
     0
370
    18
100
AcDbHatch
 10
0.0
 20
0.0
 30
0.0
210
0.0
220
0.0
230
1.0
  2
SOLID
 70
     1
 71
     0
 91
        1
 92
        0
 93
        3
 72
     2
 10
0.0
 20
0.0
 40
3.000000000000001
 50
180.0
 51
270.0000000000008
 73
     1
 72
     1
 10
0.0
 20
-3.000000000000002
 11
0.0
 21
0.0
 72
     1
 10
0.0
 20
0.0
 11
-3.000000000000001
 21
0.0
 97
        0
 75
     0
 76
     1
 98
        1
 10
0.0
 20
0.0
  0
ENDBLK
  5
118
330
116
100
AcDbEntity
  8
0
100
AcDbBlockEnd
  0
ENDSEC
  0
SECTION
  2
ENTITIES
  0
LINE
  5
99
330
1F
100
AcDbEntity
  8
0
  6
Continuous
 62
     4
370
    25
100
AcDbLine
 10
2.0
 20
2.999999999999999
 30
0.0
 11
-29.63397459621557
 21
2.999999999999997
 31
0.0
  0
LINE
  5
9A
330
1F
100
AcDbEntity
  8
0
  6
Continuous
 62
     4
370
    25
100
AcDbLine
 10
-29.63397459621557
 20
-3.000000000000001
 30
0.0
 11
1.999999999999998
 21
-2.999999999999999
 31
0.0
  0
LINE
  5
9B
330
1F
100
AcDbEntity
  8
0
  6
Continuous
 62
     4
370
    25
100
AcDbLine
 10
3.822710045745133
 20
-2.511606315206496
 30
0.0
 11
3.866025403784434
 21
-2.5
 31
0.0
  0
LINE
  5
9C
330
1F
100
AcDbEntity
  8
0
  6
Continuous
 62
     4
370
    25
100
AcDbLine
 10
2.0
 20
-3.0
 30
0.0
 11
3.822710045745133
 21
-2.511606315206496
 31
0.0
  0
LINE
  5
9D
330
1F
100
AcDbEntity
  8
0
  6
Continuous
 62
     4
370
    25
100
AcDbLine
 10
3.822710045745133
 20
2.511606315206496
 30
0.0
 11
2.0
 21
3.0
 31
0.0
  0
LINE
  5
9E
330
1F
100
AcDbEntity
  8
0
  6
Continuous
 62
     4
370
    25
100
AcDbLine
 10
3.866025403784434
 20
2.5
 30
0.0
 11
3.822710045745133
 21
2.511606315206496
 31
0.0
  0
LINE
  5
9F
330
1F
100
AcDbEntity
  8
0
  6
Continuous
 62
     4
370
    25
100
AcDbLine
 10
-29.63397459621557
 20
2.999999999999996
 30
0.0
 11
-30.13397459621557
 21
2.499999999999996
 31
0.0
  0
LINE
  5
A0
330
1F
100
AcDbEntity
  8
0
  6
Continuous
 62
     4
370
    25
100
AcDbLine
 10
-30.13397459621557
 20
-2.500000000000001
 30
0.0
 11
-29.63397459621557
 21
-3.0
 31
0.0
  0
LINE
  5
A1
330
1F
100
AcDbEntity
  8
0
  6
Continuous
 62
     4
370
    25
100
AcDbLine
 10
3.866025403784434
 20
-2.5
 30
0.0
 11
4.866025403784432
 21
-2.5
 31
0.0
  0
LINE
  5
A2
330
1F
100
AcDbEntity
  8
0
  6
Continuous
 62
     4
370
    25
100
AcDbLine
 10
4.866025403784432
 20
2.5
 30
0.0
 11
3.866025403784434
 21
2.5
 31
0.0
  0
LINE
  5
A3
330
1F
100
AcDbEntity
  8
0
  6
Continuous
 62
     1
370
    25
100
AcDbLine
 10
29.15189129739424
 20
-2.500000000000002
 30
0.0
 11
29.86602540378443
 21
-2.500000000000002
 31
0.0
  0
LINE
  5
A4
330
1F
100
AcDbEntity
  8
0
  6
Continuous
 62
     1
370
    25
100
AcDbLine
 10
9.046615153786698
 20
-2.500000000000002
 30
0.0
 11
10.47583891616032
 21
-2.500000000000002
 31
0.0
  0
LINE
  5
A5
330
1F
100
AcDbEntity
  8
0
  6
Continuous
 62
     1
370
    25
100
AcDbLine
 10
20.5288288723867
 20
2.500000000000002
 30
0.0
 11
19.09905280777361
 21
2.500000000000002
 31
0.0
  0
LINE
  5
A6
330
1F
100
AcDbEntity
  8
0
  6
Continuous
 62
     1
370
    25
100
AcDbLine
 10
24.12529878455557
 20
-2.500000000000002
 30
0.0
 11
25.55392746964953
 21
-2.500000000000002
 31
0.0
  0
LINE
  5
A7
330
1F
100
AcDbEntity
  8
0
  6
Continuous
 62
     1
370
    25
100
AcDbLine
 10
4.866025403784432
 20
-2.500000000000002
 30
0.0
 11
5.448651326042
 21
-2.500000000000002
 31
0.0
  0
LINE
  5
A8
330
1F
100
AcDbEntity
  8
0
  6
Continuous
 62
     1
370
    25
100
AcDbLine
 10
15.50126203571566
 20
2.500000000000002
 30
0.0
 11
14.07169511619238
 21
2.500000000000002
 31
0.0
  0
LINE
  5
A9
330
1F
100
AcDbEntity
  8
0
  6
Continuous
 62
     1
370
    25
100
AcDbLine
 10
14.07169511619241
 20
-2.500000000000002
 30
0.0
 11
15.50126203571565
 21
-2.500000000000002
 31
0.0
  0
LINE
  5
AA
330
1F
100
AcDbEntity
  8
0
  6
Continuous
 62
     1
370
    25
100
AcDbLine
 10
5.448651326041993
 20
2.500000000000002
 30
0.0
 11
4.866025403784432
 21
2.500000000000002
 31
0.0
  0
LINE
  5
AB
330
1F
100
AcDbEntity
  8
0
  6
Continuous
 62
     1
370
    25
100
AcDbLine
 10
25.55392746964952
 20
2.500000000000002
 30
0.0
 11
24.1252987845556
 21
2.500000000000002
 31
0.0
  0
LINE
  5
AC
330
1F
100
AcDbEntity
  8
0
  6
Continuous
 62
     1
370
    25
100
AcDbLine
 10
19.09905280777361
 20
-2.500000000000002
 30
0.0
 11
20.52882887238668
 21
-2.500000000000002
 31
0.0
  0
LINE
  5
AD
330
1F
100
AcDbEntity
  8
0
  6
Continuous
 62
     1
370
    25
100
AcDbLine
 10
10.47583891616029
 20
2.500000000000002
 30
0.0
 11
9.046615153786702
 21
2.500000000000002
 31
0.0
  0
LINE
  5
AE
330
1F
100
AcDbEntity
  8
0
  6
Continuous
 62
     1
370
    25
100
AcDbLine
 10
29.86602540378443
 20
2.500000000000002
 30
0.0
 11
29.15189129739423
 21
2.500000000000002
 31
0.0
  0
LINE
  5
AF
330
1F
100
AcDbEntity
  8
0
  6
Continuous
 62
     4
370
    25
100
AcDbLine
 10
2.0
 20
3.0
 30
0.0
 11
2.0
 21
-3.0
 31
0.0
  0
LINE
  5
B0
330
1F
100
AcDbEntity
  8
0
  6
Continuous
 62
     4
370
    25
100
AcDbLine
 10
-29.63397459621557
 20
2.999999999999996
 30
0.0
 11
-29.63397459621557
 21
-3.0
 31
0.0
  0
SPLINE
  5
B1
330
1F
100
AcDbEntity
  8
0
  6
Continuous
 62
     4
370
    25
100
AcDbSpline
210
0.0
220
0.0
230
1.0
 70
     8
 71
     3
 72
    12
 73
     8
 74
     0
 42
0.000000001
 43
0.00000001
 40
0.0
 40
0.0
 40
0.0
 40
0.0
 40
0.2500000000000001
 40
0.2500000000000001
 40
0.5000000000000001
 40
0.5000000000000001
 40
1.0
 40
1.0
 40
1.0
 40
1.0
 10
3.366211952243336
 20
2.584264004646871
 30
0.0
 10
3.366211952243336
 20
2.597217695947901
 30
0.0
 10
3.379089714036382
 20
2.603994088783848
 30
0.0
 10
3.429904291562938
 20
2.605129336391404
 30
0.0
 10
3.467996401710449
 20
2.59946790999995
 30
0.0
 10
3.608184846905008
 20
2.569948754788846
 30
0.0
 10
3.736676259636774
 20
2.534637605181904
 30
0.0
 10
3.866025403784416
 20
2.499961159271698
 30
0.0
  0
LINE
  5
B2
330
1F
100
AcDbEntity
  8
0
  6
Continuous
 62
     4
370
    25
100
AcDbLine
 10
3.366211952243336
 20
2.584264004646871
 30
0.0
 11
3.366211952243336
 21
1.770820527616705
 31
0.0
  0
SPLINE
  5
B3
330
1F
100
AcDbEntity
  8
0
  6
Continuous
 62
     4
370
    25
100
AcDbSpline
210
0.0
220
0.0
230
1.0
 70
     8
 71
     3
 72
    10
 73
     6
 74
     0
 42
0.000000001
 43
0.00000001
 40
0.0
 40
0.0
 40
0.0
 40
0.0
 40
0.5
 40
0.5
 40
1.0
 40
1.0
 40
1.0
 40
1.0
 10
3.552671704134569
 20
1.435463571380985
 30
0.0
 10
3.494447346285224
 20
1.482081473761146
 30
0.0
 10
3.447032453843176
 20
1.537781299411185
 30
0.0
 10
3.382845055614265
 20
1.654116673439458
 30
0.0
 10
3.366211952242768
 20
1.714836250694028
 30
0.0
 10
3.36621195224274
 20
1.770820527616678
 30
0.0
  0
SPLINE
  5
B4
330
1F
100
AcDbEntity
  8
0
  6
Continuous
 62
     4
370
    25
100
AcDbSpline
210
0.0
220
0.0
230
1.0
 70
     8
 71
     3
 72
     8
 73
     4
 74
     0
 42
0.000000001
 43
0.00000001
 40
0.0
 40
0.0
 40
0.0
 40
0.0
 40
1.0
 40
1.0
 40
1.0
 40
1.0
 10
3.866025403784434
 20
1.186468176935369
 30
0.0
 10
3.760365495761471
 20
1.269144323848612
 30
0.0
 10
3.65625826297293
 20
1.352525978490366
 30
0.0
 10
3.552671704135541
 20
1.435463571383913
 30
0.0
  0
LINE
  5
B5
330
1F
100
AcDbEntity
  8
0
  6
Continuous
 62
     4
370
    25
100
AcDbLine
 10
3.866025403784434
 20
1.186468176935163
 30
0.0
 11
3.866025403784434
 21
-0.0139356425373207
 31
0.0
  0
SPLINE
  5
B6
330
1F
100
AcDbEntity
  8
0
  6
Continuous
 62
     4
370
    25
100
AcDbSpline
210
0.0
220
0.0
230
1.0
 70
     8
 71
     3
 72
    12
 73
     8
 74
     0
 42
0.000000001
 43
0.00000001
 40
0.0
 40
0.0
 40
0.0
 40
0.0
 40
0.25
 40
0.25
 40
0.5
 40
0.5
 40
1.0
 40
1.0
 40
1.0
 40
1.0
 10
3.366211952243336
 20
-0.5090563909555421
 30
0.0
 10
3.366211952243336
 20
-0.4432959786489236
 30
0.0
 10
3.379089714036382
 20
-0.3772361377134606
 30
0.0
 10
3.429904291562938
 20
-0.2548474538074632
 30
0.0
 10
3.467996401710449
 20
-0.1985915381770935
 30
0.0
 10
3.608184846905012
 20
-0.0611250263601534
 30
0.0
 10
3.736676259636774
 20
-0.0109023323083504
 30
0.0
 10
3.86602540378442
 20
-0.0139356425373195
 30
0.0
  0
LINE
  5
B7
330
1F
100
AcDbEntity
  8
0
  6
Continuous
 62
     4
370
    25
100
AcDbLine
 10
3.366211952243336
 20
-0.5090563909555421
 30
0.0
 11
3.366211952243336
 21
-1.949808583901877
 31
0.0
  0
SPLINE
  5
B8
330
1F
100
AcDbEntity
  8
0
  6
Continuous
 62
     4
370
    25
100
AcDbSpline
210
0.0
220
0.0
230
1.0
 70
     8
 71
     3
 72
    10
 73
     6
 74
     0
 42
0.000000001
 43
0.00000001
 40
0.0
 40
0.0
 40
0.0
 40
0.0
 40
0.5
 40
0.5
 40
1.0
 40
1.0
 40
1.0
 40
1.0
 10
3.552671704134569
 20
-2.148559622793369
 30
0.0
 10
3.494447346285224
 20
-2.136176695551102
 30
0.0
 10
3.447032453843176
 20
-2.112730443811353
 30
0.0
 10
3.382845055614261
 20
-2.045104327380387
 30
0.0
 10
3.366211952242768
 20
-2.000653629727069
 30
0.0
 10
3.36621195224274
 20
-1.949808583902118
 30
0.0
  0
SPLINE
  5
B9
330
1F
100
AcDbEntity
  8
0
  6
Continuous
 62
     4
370
    25
100
AcDbSpline
210
0.0
220
0.0
230
1.0
 70
     8
 71
     3
 72
     8
 73
     4
 74
     0
 42
0.000000001
 43
0.00000001
 40
0.0
 40
0.0
 40
0.0
 40
0.0
 40
1.0
 40
1.0
 40
1.0
 40
1.0
 10
3.866025403784434
 20
-2.200521134895015
 30
0.0
 10
3.760365495761471
 20
-2.188108666183257
 30
0.0
 10
3.65625826297293
 20
-2.170590004392376
 30
0.0
 10
3.552671704135541
 20
-2.148559622800389
 30
0.0
  0
LINE
  5
BA
330
1F
100
AcDbEntity
  8
0
  6
Continuous
 62
     4
370
    25
100
AcDbLine
 10
3.866025403784434
 20
-2.200521134894451
 30
0.0
 11
3.866025403784434
 21
-2.499961159271693
 31
0.0
  0
LINE
  5
BB
330
1F
100
AcDbEntity
  8
0
  6
Continuous
 62
     4
370
    25
100
AcDbLine
 10
-30.13397459621557
 20
2.499999999999996
 30
0.0
 11
-30.13397459621557
 21
-2.500000000000003
 31
0.0
  0
SPLINE
  5
BC
330
1F
100
AcDbEntity
  8
0
  6
Continuous
 62
     4
370
    25
100
AcDbSpline
210
0.0
220
0.0
230
1.0
 70
     8
 71
     3
 72
     8
 73
     4
 74
     0
 42
0.000000001
 43
0.00000001
 40
0.0
 40
0.0
 40
0.0
 40
0.0
 40
1.0
 40
1.0
 40
1.0
 40
1.0
 10
3.866025403784434
 20
-0.0139356425373211
 30
0.0
 10
3.976596246229292
 20
-0.0138942057715729
 30
0.0
 10
4.084049802331522
 20
-0.0506792485234617
 30
0.0
 10
4.171316608171191
 20
-0.1185151941302513
 30
0.0
  0
SPLINE
  5
BD
330
1F
100
AcDbEntity
  8
0
  6
Continuous
 62
     4
370
    25
100
AcDbSpline
210
0.0
220
0.0
230
1.0
 70
     8
 71
     3
 72
    10
 73
     6
 74
     0
 42
0.000000001
 43
0.00000001
 40
0.0
 40
0.0
 40
0.0
 40
0.0
 40
0.5
 40
0.5
 40
1.0
 40
1.0
 40
1.0
 40
1.0
 10
4.866025403784432
 20
0.4524552309192417
 30
0.0
 10
4.700008787128056
 20
0.5803513861034731
 30
0.0
 10
4.53532871070027
 20
0.706078157178878
 30
0.0
 10
4.200388482976441
 20
0.9521584881036519
 30
0.0
 10
4.032089375158819
 20
1.071991802851332
 30
0.0
 10
3.866025403784434
 20
1.186468176935162
 30
0.0
  0
SPLINE
  5
BE
330
1F
100
AcDbEntity
  8
0
  6
Continuous
 62
     4
370
    25
100
AcDbSpline
210
0.0
220
0.0
230
1.0
 70
     8
 71
     3
 72
    10
 73
     6
 74
     0
 42
0.000000001
 43
0.00000001
 40
0.0
 40
0.0
 40
0.0
 40
0.0
 40
0.5
 40
0.5
 40
1.0
 40
1.0
 40
1.0
 40
1.0
 10
4.8660254037844
 20
2.41294603284783
 30
0.0
 10
4.750577121626478
 20
2.43660252364744
 30
0.0
 10
4.636482390765028
 20
2.455455119755591
 30
0.0
 10
4.404664503807934
 20
2.483637033350274
 30
0.0
 10
4.28790152322718
 20
2.492888187328067
 30
0.0
 10
4.171316608171194
 20
2.497189249688584
 30
0.0
  0
SPLINE
  5
BF
330
1F
100
AcDbEntity
  8
0
  6
Continuous
 62
     4
370
    25
100
AcDbSpline
210
0.0
220
0.0
230
1.0
 70
     8
 71
     3
 72
    10
 73
     6
 74
     0
 42
0.000000001
 43
0.00000001
 40
0.0
 40
0.0
 40
0.0
 40
0.0
 40
0.5
 40
0.5
 40
1.0
 40
1.0
 40
1.0
 40
1.0
 10
4.866025403784432
 20
-2.458715978719551
 30
0.0
 10
4.700008787128056
 20
-2.435180407743313
 30
0.0
 10
4.53532871070027
 20
-2.401762566121636
 30
0.0
 10
4.200388482976441
 20
-2.315254629970637
 30
0.0
 10
4.032089375158819
 20
-2.262244048029709
 30
0.0
 10
3.866025403784434
 20
-2.200521134894451
 30
0.0
  0
SPLINE
  5
C0
330
1F
100
AcDbEntity
  8
0
  6
Continuous
 62
     4
370
    25
100
AcDbSpline
210
0.0
220
0.0
230
1.0
 70
     8
 71
     3
 72
    10
 73
     6
 74
     0
 42
0.000000001
 43
0.00000001
 40
0.0
 40
0.0
 40
0.0
 40
0.0
 40
0.5
 40
0.5
 40
1.0
 40
1.0
 40
1.0
 40
1.0
 10
4.8660254037844
 20
-0.6539812249322341
 30
0.0
 10
4.750577121626478
 20
-0.5666976249604879
 30
0.0
 10
4.636482390765028
 20
-0.4784766581598246
 30
0.0
 10
4.404664503807934
 20
-0.2995777763933669
 30
0.0
 10
4.28790152322718
 20
-0.2091412675864134
 30
0.0
 10
4.171316608171194
 20
-0.1185151941302553
 30
0.0
  0
SPLINE
  5
C1
330
1F
100
AcDbEntity
  8
0
  6
Continuous
 62
     4
370
    25
100
AcDbSpline
210
0.0
220
0.0
230
1.0
 70
     8
 71
     3
 72
     8
 73
     4
 74
     0
 42
0.000000001
 43
0.00000001
 40
0.0
 40
0.0
 40
0.0
 40
0.0
 40
1.0
 40
1.0
 40
1.0
 40
1.0
 10
3.866025403784434
 20
2.499961159271757
 30
0.0
 10
3.976596270049301
 20
2.499961390254577
 30
0.0
 10
4.08404978455002
 20
2.500408706084111
 30
0.0
 10
4.171316608171191
 20
2.497189249688591
 30
0.0
  0
SPLINE
  5
C2
330
1F
100
AcDbEntity
  8
0
  6
Continuous
 62
     1
370
    25
100
AcDbSpline
210
0.0
220
0.0
230
1.0
 70
     8
 71
     3
 72
    14
 73
    10
 74
     0
 42
0.000000001
 43
0.00000001
 40
0.0
 40
0.0
 40
0.0
 40
0.0
 40
0.1448046889658838
 40
0.2888520690642326
 40
0.4335516232868184
 40
0.5920134121184187
 40
0.7501880604356216
 40
0.9090263031268965
 40
1.0
 40
1.0
 40
1.0
 40
1.0
 10
4.8660254037844
 20
-0.6539812249322343
 30
0.0
 10
5.068084666896594
 20
-0.8035114593596299
 30
0.0
 10
5.471146450602381
 20
-1.101789905385567
 30
0.0
 10
6.0739841250626
 20
-1.506578982920131
 30
0.0
 10
6.698003375496352
 20
-1.867988634904251
 30
0.0
 10
7.340811552416115
 20
-2.169293820315862
 30
0.0
 10
8.00243880587663
 20
-2.382516327807301
 30
0.0
 10
8.571941007609787
 20
-2.493220419192598
 30
0.0
 10
8.91989953766149
 20
-2.488599992587961
 30
0.0
 10
9.046615153786698
 20
-2.486917377697385
 30
0.0
  0
SPLINE
  5
C3
330
1F
100
AcDbEntity
  8
0
  6
Continuous
 62
     1
370
    25
100
AcDbSpline
210
0.0
220
0.0
230
1.0
 70
     8
 71
     3
 72
    26
 73
    22
 74
     0
 42
0.000000001
 43
0.00000001
 40
0.0
 40
0.0
 40
0.0
 40
0.0
 40
0.0539704480133695
 40
0.1100123594827725
 40
0.1658189722886443
 40
0.2216746274412749
 40
0.2777102029228676
 40
0.3335084028641334
 40
0.3893806931007602
 40
0.4454066969207797
 40
0.5011981643100484
 40
0.549966761596372
 40
0.5986995689944351
 40
0.647282506308638
 40
0.6983576532754417
 40
0.7491656841565381
 40
0.8002037482601858
 40
0.8560959932627176
 40
0.9118869587826739
 40
0.9679119856470805
 40
0.9999999999999999
 40
0.9999999999999999
 40
0.9999999999999999
 40
0.9999999999999999
 10
17.30025891031563
 20
2.113922992150763
 30
0.0
 10
17.51331203692273
 20
2.195217666664779
 30
0.0
 10
17.94759557571091
 20
2.360927222280393
 30
0.0
 10
18.60385667601384
 20
2.486457247982299
 30
0.0
 10
19.26563012524054
 20
2.514862103726062
 30
0.0
 10
19.92779603704152
 20
2.433508542998748
 30
0.0
 10
20.59138989008832
 20
2.249510557637436
 30
0.0
 10
21.25310597690532
 20
1.968266698754024
 30
0.0
 10
21.91539246618792
 20
1.603127170067471
 30
0.0
 10
22.57894930622181
 20
1.1710467184469
 30
0.0
 10
23.21237915084782
 20
0.7070125664354026
 30
0.0
 10
23.81831812062475
 20
0.2407947815728192
 30
0.0
 10
24.39554153942127
 20
-0.2116474463048746
 30
0.0
 10
24.98075573785356
 20
-0.6655767307887382
 30
0.0
 10
25.57653279115491
 20
-1.100620951314506
 30
0.0
 10
26.17923074740899
 20
-1.506892140407354
 30
0.0
 10
26.80328828853636
 20
-1.867895609967954
 30
0.0
 10
27.44608525957275
 20
-2.169319665852627
 30
0.0
 10
28.10771561374256
 20
-2.382509281445253
 30
0.0
 10
28.67721706455857
 20
-2.493221338456843
 30
0.0
 10
29.02517565813522
 20
-2.488600237988169
 30
0.0
 10
29.15189129739424
 20
-2.486917377697382
 30
0.0
  0
SPLINE
  5
C4
330
1F
100
AcDbEntity
  8
0
  6
Continuous
 62
     1
370
    25
100
AcDbSpline
210
0.0
220
0.0
230
1.0
 70
     8
 71
     3
 72
    22
 73
    18
 74
     0
 42
0.000000001
 43
0.00000001
 40
0.0
 40
0.0
 40
0.0
 40
0.0
 40
0.0710236853960082
 40
0.141826437171997
 40
0.2128786557406397
 40
0.2838728121485661
 40
0.3546777015114924
 40
0.4257543660965487
 40
0.4967210883752931
 40
0.5675302524335732
 40
0.6386272692520498
 40
0.709568658369801
 40
0.7803842332750093
 40
0.8514975030241965
 40
0.9224156655950272
 40
0.9932397860639657
 40
1.0
 40
1.0
 40
1.0
 40
1.0
 10
29.86602540378443
 20
-2.437914245887554
 30
0.0
 10
29.64480931043925
 20
-2.389643557224579
 30
0.0
 10
29.20306526140376
 20
-2.293252335694228
 30
0.0
 10
28.54147388763739
 20
-2.021838833188977
 30
0.0
 10
27.87833461614903
 20
-1.672650305013787
 30
0.0
 10
27.21556076487107
 20
-1.249928901574554
 30
0.0
 10
26.55395961156218
 20
-0.7727863435651912
 30
0.0
 10
25.89066816744059
 20
-0.2646615295220719
 30
0.0
 10
25.22806682621368
 20
0.2555791786841062
 30
0.0
 10
24.566442210215
 20
0.766246083671293
 30
0.0
 10
23.90302374957676
 20
1.241809806455211
 30
0.0
 10
23.24058272181832
 20
1.665837341691762
 30
0.0
 10
22.57891625885222
 20
2.018458542741635
 30
0.0
 10
21.91541329065952
 20
2.286408692416373
 30
0.0
 10
21.25305588796665
 20
2.446527060550012
 30
0.0
 10
20.79158442176788
 20
2.514185907387216
 30
0.0
 10
20.54988872464313
 20
2.496899487498097
 30
0.0
 10
20.5288288723867
 20
2.495393256922882
 30
0.0
  0
SPLINE
  5
C5
330
1F
100
AcDbEntity
  8
0
  6
Continuous
 62
     1
370
    25
100
AcDbSpline
210
0.0
220
0.0
230
1.0
 70
     8
 71
     3
 72
    20
 73
    16
 74
     0
 42
0.000000001
 43
0.00000001
 40
0.0
 40
0.0
 40
0.0
 40
0.0
 40
0.0400561915078111
 40
0.1293395472773464
 40
0.2187048224361157
 40
0.3083546439318854
 40
0.3392765451020281
 40
0.4287992519740732
 40
0.5180434802569984
 40
0.6076021521291084
 40
0.6970876388128525
 40
0.7863345614443987
 40
0.8759240466085733
 40
0.9653749535955392
 40
1.0
 40
1.0
 40
1.0
 40
1.0
 10
12.2739087781273
 20
-2.104162898328762
 30
0.0
 10
12.17488994472668
 20
-2.147796515961157
 30
0.0
 10
11.85516281636331
 20
-2.288687402942921
 30
0.0
 10
11.3157220721164
 20
-2.428485167173641
 30
0.0
 10
10.65374226880794
 20
-2.514923119472038
 30
0.0
 10
10.13387569714741
 20
-2.494558284311589
 30
0.0
 10
9.616556779121241
 20
-2.418876459673113
 30
0.0
 10
9.097562632751902
 20
-2.288615519006768
 30
0.0
 10
8.436258376941847
 20
-2.023085829037505
 30
0.0
 10
7.773043015334178
 20
-1.672311113692209
 30
0.0
 10
7.110285770011652
 20
-1.250037500317915
 30
0.0
 10
6.448694256281032
 20
-0.7726900014137241
 30
0.0
 10
5.785347538052649
 20
-0.2649390413531725
 30
0.0
 10
5.257827061067275
 20
0.1504009482720495
 30
0.0
 10
4.951507855578757
 20
0.3865536703318396
 30
0.0
 10
4.866025403784432
 20
0.452455230919203
 30
0.0
  0
LINE
  5
C6
330
1F
100
AcDbEntity
  8
0
  6
Continuous
 62
     1
370
    25
100
AcDbLine
 10
29.86602540378443
 20
-2.500000000000005
 30
0.0
 11
29.86602540378443
 21
-2.437914245888156
 31
0.0
  0
SPLINE
  5
C7
330
1F
100
AcDbEntity
  8
0
  6
Continuous
 62
     1
370
    25
100
AcDbSpline
210
0.0
220
0.0
230
1.0
 70
     8
 71
     3
 72
    26
 73
    22
 74
     0
 42
0.000000001
 43
0.00000001
 40
0.0
 40
0.0
 40
0.0
 40
0.0
 40
0.031006046610665
 40
0.0868503804660583
 40
0.1426685683355445
 40
0.1987158688295493
 40
0.254546761088753
 40
0.3103765724739964
 40
0.3664240126149504
 40
0.4222431368944147
 40
0.4780862456534169
 40
0.5341305870659334
 40
0.5899396196125122
 40
0.645797696632296
 40
0.7018357017822776
 40
0.7576363210994738
 40
0.8135110339245408
 40
0.8695394669979278
 40
0.9253333534712074
 40
0.9741040653341759
 40
1.0
 40
1.0
 40
1.0
 40
1.0
 10
12.27390877812728
 20
2.104162898328763
 30
0.0
 10
12.39652715385429
 20
2.156779528620333
 30
0.0
 10
12.7399908890974
 20
2.304162857331867
 30
0.0
 10
13.3032345706212
 20
2.442832015605875
 30
0.0
 10
13.96507475204895
 20
2.517253971203997
 30
0.0
 10
14.62874565068568
 20
2.479952626360957
 30
0.0
 10
15.29069444033163
 20
2.337744149076924
 30
0.0
 10
15.95263558638395
 20
2.094917124315671
 30
0.0
 10
16.61630497917312
 20
1.764163707120422
 30
0.0
 10
17.27816202836418
 20
1.356471267586935
 30
0.0
 10
17.94020790731515
 20
0.8908082325507409
 30
0.0
 10
18.60385289333851
 20
0.3891612268593573
 30
0.0
 10
19.2656311290735
 20
-0.13152960617078
 30
0.0
 10
19.92779579996804
 20
-0.6460479353981899
 30
0.0
 10
20.59138982993697
 20
-1.131215328231387
 30
0.0
 10
21.25310645148303
 20
-1.570450024413357
 30
0.0
 10
21.91539062238955
 20
-1.941345335691057
 30
0.0
 10
22.57895621419237
 20
-2.229880336097464
 30
0.0
 10
23.21235485238909
 20
-2.411433654009527
 30
0.0
 10
23.72810647047461
 20
-2.496458226712263
 30
0.0
 10
24.02301753746524
 20
-2.491567482437078
 30
0.0
 10
24.12529878455557
 20
-2.489871271342764
 30
0.0
  0
SPLINE
  5
C8
330
1F
100
AcDbEntity
  8
0
  6
Continuous
 62
     1
370
    25
100
AcDbSpline
210
0.0
220
0.0
230
1.0
 70
     8
 71
     3
 72
    26
 73
    22
 74
     0
 42
0.000000001
 43
0.00000001
 40
0.0
 40
0.0
 40
0.0
 40
0.0
 40
0.0114353772618033
 40
0.0672297236292167
 40
0.1232382292307459
 40
0.1791601001496423
 40
0.2349578149826425
 40
0.2909823581709968
 40
0.3468842665255596
 40
0.4026870331144094
 40
0.4587243836336373
 40
0.5146079894385395
 40
0.5704174899428992
 40
0.626464414062207
 40
0.6823313814140826
 40
0.738149296486869
 40
0.7942025578771864
 40
0.8500545545859426
 40
0.9058825629978082
 40
0.9619389236097543
 40
1.0
 40
1.0
 40
1.0
 40
1.0
 10
27.35071074349279
 20
-2.108916013663632
 30
0.0
 10
27.30552833974507
 20
-2.129919194761049
 30
0.0
 10
27.0398964810561
 20
-2.253398991551856
 30
0.0
 10
26.55400894830728
 20
-2.391665348276462
 30
0.0
 10
25.89065494380925
 20
-2.505203751628132
 30
0.0
 10
25.22807037443077
 20
-2.504622571291819
 30
0.0
 10
24.56644119454069
 20
-2.398599409923453
 30
0.0
 10
23.90302425188515
 20
-2.190304323382481
 30
0.0
 10
23.24058173113406
 20
-1.888292357405116
 30
0.0
 10
22.57891972047275
 20
-1.504564521249042
 30
0.0
 10
21.91540038901213
 20
-1.058610359399843
 30
0.0
 10
21.25310384028631
 20
-0.5661306498212899
 30
0.0
 10
20.59139053814613
 20
-0.0485815084090521
 30
0.0
 10
19.92779558976019
 20
0.4685365911236458
 30
0.0
 10
19.26563126245058
 20
0.9675233428669733
 30
0.0
 10
18.6038525691442
 20
1.425579157158797
 30
0.0
 10
17.94020907412688
 20
1.820502164253422
 30
0.0
 10
17.27815770500634
 20
2.140405405447279
 30
0.0
 10
16.61632113275463
 20
2.36458394751698
 30
0.0
 10
16.02292814851036
 20
2.48763061500024
 30
0.0
 10
15.65147687214926
 20
2.488177903162455
 30
0.0
 10
15.50126203571566
 20
2.488399226407255
 30
0.0
  0
SPLINE
  5
C9
330
1F
100
AcDbEntity
  8
0
  6
Continuous
 62
     1
370
    25
100
AcDbSpline
210
0.0
220
0.0
230
1.0
 70
     8
 71
     3
 72
    12
 73
     8
 74
     0
 42
0.000000001
 43
0.00000001
 40
0.0
 40
0.0
 40
0.0
 40
0.0
 40
0.0569472234698193
 40
0.3347984074050129
 40
0.6137160864355675
 40
0.8922023319839398
 40
1.0
 40
1.0
 40
1.0
 40
1.0
 10
7.24543459988525
 20
-2.108916013663634
 30
0.0
 10
7.200252123086821
 20
-2.129918129583283
 30
0.0
 10
6.934619834925416
 20
-2.253391664087744
 30
0.0
 10
6.448745400094428
 20
-2.39184900608292
 30
0.0
 10
5.785333486734798
 20
-2.504543020293378
 30
0.0
 10
5.257828219733799
 20
-2.506558947395594
 30
0.0
 10
4.951508108374153
 20
-2.469154255810067
 30
0.0
 10
4.866025403784432
 20
-2.458715978718554
 30
0.0
  0
SPLINE
  5
CA
330
1F
100
AcDbEntity
  8
0
  6
Continuous
 62
     1
370
    25
100
AcDbSpline
210
0.0
220
0.0
230
1.0
 70
     8
 71
     3
 72
    22
 73
    18
 74
     0
 42
0.000000001
 43
0.00000001
 40
0.0
 40
0.0
 40
0.0
 40
0.0
 40
0.0657561449611648
 40
0.1311683942099073
 40
0.1968767972404059
 40
0.2688346629119459
 40
0.3406621374102181
 40
0.412790951652172
 40
0.4847250741861906
 40
0.5565610297712982
 40
0.6287025260644821
 40
0.7006150470159034
 40
0.7724616471744427
 40
0.8446116600296267
 40
0.9165047257740285
 40
0.9883641316114352
 40
1.0
 40
1.0
 40
1.0
 40
1.0
 10
4.8660254037844
 20
2.412946032847832
 30
0.0
 10
5.068084703223063
 20
2.363555551926042
 30
0.0
 10
5.471146559391803
 20
2.265032895593429
 30
0.0
 10
6.073983691743223
 20
2.012484053726943
 30
0.0
 10
6.698005074569361
 20
1.686134616457832
 30
0.0
 10
7.340804540281759
 20
1.279708167316094
 30
0.0
 10
8.002464890652954
 20
0.8055833975580986
 30
0.0
 10
8.665975934310183
 20
0.2992744832549052
 30
0.0
 10
9.328284675178828
 20
-0.221295463208328
 30
0.0
 10
9.989992931882012
 20
-0.7332316579475501
 30
0.0
 10
10.65358254520931
 20
-1.211423120060319
 30
0.0
 10
11.31575710503334
 20
-1.639842778926291
 30
0.0
 10
11.97753198286683
 20
-1.997629585207446
 30
0.0
 10
12.64116344664189
 20
-2.271373925121448
 30
0.0
 10
13.3032569675718
 20
-2.439318071624436
 30
0.0
 10
13.77948885293433
 20
-2.511617353783099
 30
0.0
 10
14.03595420603262
 20
-2.495058474812427
 30
0.0
 10
14.07169511619241
 20
-2.492750835989138
 30
0.0
  0
SPLINE
  5
CB
330
1F
100
AcDbEntity
  8
0
  6
Continuous
 62
     1
370
    25
100
AcDbSpline
210
0.0
220
0.0
230
1.0
 70
     8
 71
     3
 72
    20
 73
    16
 74
     0
 42
0.000000001
 43
0.00000001
 40
0.0
 40
0.0
 40
0.0
 40
0.0
 40
0.033688538284095
 40
0.1218113075029279
 40
0.198841434955993
 40
0.2758150321865863
 40
0.3525519092262467
 40
0.4332252379553517
 40
0.5134766561257831
 40
0.5940914123751743
 40
0.6823733600987424
 40
0.7704953366136787
 40
0.8589870136366897
 40
0.9472398319467339
 40
1.0
 40
1.0
 40
1.0
 40
1.0
 10
22.32654684993106
 20
2.104684415507352
 30
0.0
 10
22.41089414723644
 20
2.142444579822305
 30
0.0
 10
22.71587783285853
 20
2.278978107870961
 30
0.0
 10
23.21235878842548
 20
2.411242720286925
 30
0.0
 10
23.81832325809668
 20
2.502774323404656
 30
0.0
 10
24.39554017513072
 20
2.504498434990102
 30
0.0
 10
24.98075610542774
 20
2.424552549060055
 30
0.0
 10
25.57653276437738
 20
2.261221451855251
 30
0.0
 10
26.17923048395334
 20
2.013506350802518
 30
0.0
 10
26.80328941828063
 20
1.685826164659401
 30
0.0
 10
27.4460805665624
 20
1.279813746297904
 30
0.0
 10
28.10773307909095
 20
0.8054811323057661
 30
0.0
 10
28.77128414157495
 20
0.2995786920238176
 30
0.0
 10
29.34501518269814
 20
-0.1526987561844328
 30
0.0
 10
29.69756280910985
 20
-0.4240651105605563
 30
0.0
 10
29.82946890156248
 20
-0.5255971384264069
 30
0.0
  0
SPLINE
  5
CC
330
1F
100
AcDbEntity
  8
0
  6
Continuous
 62
     1
370
    25
100
AcDbSpline
210
0.0
220
0.0
230
1.0
 70
     8
 71
     3
 72
    14
 73
    10
 74
     0
 42
0.000000001
 43
0.00000001
 40
0.0
 40
0.0
 40
0.0
 40
0.0
 40
0.1538004070219739
 40
0.3071223865940857
 40
0.4609845816455085
 40
0.6147210442190834
 40
0.7680476526940629
 40
0.9219627851177654
 40
1.0
 40
1.0
 40
1.0
 40
1.0
 10
29.86602540378443
 20
0.5536913668241226
 30
0.0
 10
29.64480935541545
 20
0.719631874378086
 30
0.0
 10
29.20306539619245
 20
1.050996697784085
 30
0.0
 10
28.54147334965034
 20
1.498832959897349
 30
0.0
 10
27.87833664105148
 20
1.88213155568496
 30
0.0
 10
27.21555322145068
 20
2.186672073043007
 30
0.0
 10
26.55398772720955
 20
2.392982783000082
 30
0.0
 10
25.99943528366816
 20
2.496506624550317
 30
0.0
 10
25.66608024269414
 20
2.489106370413078
 30
0.0
 10
25.55392746964952
 20
2.48661665548241
 30
0.0
  0
SPLINE
  5
CD
330
1F
100
AcDbEntity
  8
0
  6
Continuous
 62
     1
370
    25
100
AcDbSpline
210
0.0
220
0.0
230
1.0
 70
     8
 71
     3
 72
    27
 73
    23
 74
     0
 42
0.000000001
 43
0.00000001
 40
0.0
 40
0.0
 40
0.0
 40
0.0
 40
0.0018702853329102
 40
0.0576883564830395
 40
0.1137347391870638
 40
0.1695634972413405
 40
0.2253933361491844
 40
0.2814395792088947
 40
0.3372567139667133
 40
0.3930999942171465
 40
0.4491428593561698
 40
0.5049500472421109
 40
0.5608084394169933
 40
0.6168446892760363
 40
0.6361726405332343
 40
0.6921294365049528
 40
0.7479121674808916
 40
0.8038914436282112
 40
0.8598249748601161
 40
0.9156093899575626
 40
0.9716079261692558
 40
0.9999999999999999
 40
0.9999999999999999
 40
0.9999999999999999
 40
0.9999999999999999
 10
17.30025891031563
 20
-2.113922992150761
 30
0.0
 10
17.29287280019062
 20
-2.117466396191554
 30
0.0
 10
17.06505058161382
 20
-2.226761567292861
 30
0.0
 10
16.61635539850347
 20
-2.360805787136606
 30
0.0
 10
15.95262207979337
 20
-2.494448496532788
 30
0.0
 10
15.29069817219986
 20
-2.512059869677626
 30
0.0
 10
14.62874420101944
 20
-2.424577491286397
 30
0.0
 10
13.96507680641735
 20
-2.23366750941576
 30
0.0
 10
13.30322783130721
 20
-1.946614762917531
 30
0.0
 10
12.64116839565192
 20
-1.576178091101611
 30
0.0
 10
11.97754148303951
 20
-1.140226724766501
 30
0.0
 10
11.31571437954008
 20
-0.6534694191865236
 30
0.0
 10
10.65374440013355
 20
-0.1390608805522965
 30
0.0
 10
10.13387553469943
 20
0.2661822972006184
 30
0.0
 10
9.616556855587346
 20
0.6656742836725962
 30
0.0
 10
9.097562688109482
 20
1.049756478469623
 30
0.0
 10
8.436258074126544
 20
1.49916615323196
 30
0.0
 10
7.77304417573801
 20
1.882042210279393
 30
0.0
 10
7.110281441651669
 20
2.186695960634445
 30
0.0
 10
6.448710390298688
 20
2.392976250829356
 30
0.0
 10
5.894159275052042
 20
2.496507363496538
 30
0.0
 10
5.560804133069533
 20
2.489106556436454
 30
0.0
 10
5.448651326041997
 20
2.486616655482411
 30
0.0
  0
LINE
  5
CE
330
1F
100
AcDbEntity
  8
0
  6
Continuous
 62
     1
370
    25
100
AcDbLine
 10
29.86602540378443
 20
-0.500000000000007
 30
0.0
 11
29.86602540378443
 21
0.55369136682417
 31
0.0
  0
LINE
  5
CF
330
1F
100
AcDbEntity
  8
0
  6
Continuous
 62
     1
370
    25
100
AcDbLine
 10
29.86602540378443
 20
-0.5000000000000052
 30
0.0
 11
29.82946890156247
 21
-0.525597138426404
 31
0.0
  0
SPLINE
  5
D0
330
1F
100
AcDbEntity
  8
0
  6
Continuous
 62
     1
370
    25
100
AcDbSpline
210
0.0
220
0.0
230
1.0
 70
     8
 71
     3
 72
    26
 73
    22
 74
     0
 42
0.000000001
 43
0.00000001
 40
0.0
 40
0.0
 40
0.0
 40
0.0
 40
0.0080678434203807
 40
0.0638502918849654
 40
0.119866765962168
 40
0.1757320391202203
 40
0.2315210741422835
 40
0.2875473973179558
 40
0.3433958943165176
 40
0.3991931960968514
 40
0.4552261333806236
 40
0.5110595211317767
 40
0.5668667680219236
 40
0.6229030826279923
 40
0.6787230314176568
 40
0.734541899545224
 40
0.7905783537708697
 40
0.8463865368874481
 40
0.9022186997823424
 40
0.9582520558869355
 40
0.9999999999999999
 40
0.9999999999999999
 40
0.9999999999999999
 40
0.9999999999999999
 10
7.24543459988525
 20
2.108916013663634
 30
0.0
 10
7.27731366263766
 20
2.1239368670926
 30
0.0
 10
7.529610014425879
 20
2.242814468680391
 30
0.0
 10
8.002410748892622
 20
2.380342083117862
 30
0.0
 10
8.665990426841994
 20
2.501435129215537
 30
0.0
 10
9.328280792489322
 20
2.507858933637719
 30
0.0
 10
9.98999401503521
 20
2.408891152126035
 30
0.0
 10
10.65358211174896
 20
2.207262590374637
 30
0.0
 10
11.31575775484663
 20
1.910905721155885
 30
0.0
 10
11.9775298138193
 20
1.532167297063649
 30
0.0
 10
12.64117149806645
 20
1.090062581947963
 30
0.0
 10
13.30322706686551
 20
0.5996407734712548
 30
0.0
 10
13.96507676907789
 20
0.0832157975630915
 30
0.0
 10
14.62874512152541
 20
-0.4343574541246266
 30
0.0
 10
15.2906945450864
 20
-0.9356344907989965
 30
0.0
 10
15.95263569569867
 20
-1.396846510869103
 30
0.0
 10
16.61630443510448
 20
-1.796381069940971
 30
0.0
 10
17.2781640855535
 20
-2.121967198238673
 30
0.0
 10
17.94020020379013
 20
-2.35281712767279
 30
0.0
 10
18.54826544295364
 20
-2.483984484545958
 30
0.0
 10
18.93425409310284
 20
-2.48815473116814
 30
0.0
 10
19.09905280777361
 20
-2.489935227260266
 30
0.0
  0
SPLINE
  5
D1
330
1F
100
AcDbEntity
  8
0
  6
Continuous
 62
     1
370
    25
100
AcDbSpline
210
0.0
220
0.0
230
1.0
 70
     8
 71
     3
 72
    12
 73
     8
 74
     0
 42
0.000000001
 43
0.00000001
 40
0.0
 40
0.0
 40
0.0
 40
0.0
 40
0.0385781318801718
 40
0.305313929953469
 40
0.5731687719244333
 40
0.8403006141177065
 40
1.0
 40
1.0
 40
1.0
 40
1.0
 10
27.35071074349278
 20
2.108916013663635
 30
0.0
 10
27.38258983391847
 20
2.123936088679951
 30
0.0
 10
27.63488640471777
 20
2.242807529776991
 30
0.0
 10
28.10767778856491
 20
2.380598164750725
 30
0.0
 10
28.77129911915127
 20
2.500519577371707
 30
0.0
 10
29.34501313442315
 20
2.509818384810899
 30
0.0
 10
29.69756225140961
 20
2.462011957961892
 30
0.0
 10
29.82946890156248
 20
2.44412512938228
 30
0.0
  0
SPLINE
  5
D2
330
1F
100
AcDbEntity
  8
0
  6
Continuous
 62
     1
370
    25
100
AcDbSpline
210
0.0
220
0.0
230
1.0
 70
     8
 71
     3
 72
    14
 73
    10
 74
     0
 42
0.000000001
 43
0.00000001
 40
0.0
 40
0.0
 40
0.0
 40
0.0
 40
0.1689358142428208
 40
0.3024949747689491
 40
0.4403778310074391
 40
0.6102176797832148
 40
0.7806751045312064
 40
0.9408303821395627
 40
1.0
 40
1.0
 40
1.0
 40
1.0
 10
29.82946890156248
 20
2.44412512938228
 30
0.0
 10
29.83099961335894
 20
2.340473552678054
 30
0.0
 10
29.83374049236272
 20
2.154875956215534
 30
0.0
 10
29.79454793374806
 20
1.887845480678144
 30
0.0
 10
29.71781447037517
 20
1.632935161362173
 30
0.0
 10
29.57563899059934
 20
1.388822125389002
 30
0.0
 10
29.36225054843543
 20
1.219393701963402
 30
0.0
 10
29.16942679124406
 20
1.146887914742498
 30
0.0
 10
29.05936613831878
 20
1.156871790874607
 30
0.0
 10
29.02967390132425
 20
1.159565247694637
 30
0.0
  0
LINE
  5
D3
330
1F
100
AcDbEntity
  8
0
  6
Continuous
 62
     1
370
    25
100
AcDbLine
 10
29.86602540378443
 20
0.5556605557705759
 30
0.0
 11
29.86602540378443
 21
0.5653176926618394
 31
0.0
  0
SPLINE
  5
D4
330
1F
100
AcDbEntity
  8
0
  6
Continuous
 62
     1
370
    25
100
AcDbSpline
210
0.0
220
0.0
230
1.0
 70
     8
 71
     3
 72
    12
 73
     8
 74
     0
 42
0.000000001
 43
0.00000001
 40
0.0
 40
0.0
 40
0.0
 40
0.0
 40
0.5
 40
0.5
 40
0.75
 40
0.75
 40
1.0
 40
1.0
 40
1.0
 40
1.0
 10
29.86602540378443
 20
-2.053197595406611
 30
0.0
 10
29.6443982459685
 20
-1.999101064195146
 30
0.0
 10
29.42598517578418
 20
-1.924401692690399
 30
0.0
 10
29.10593958236146
 20
-1.763801950297308
 30
0.0
 10
29.00050869619405
 20
-1.701796081506987
 30
0.0
 10
28.79339163606007
 20
-1.55560525182308
 30
0.0
 10
28.69677760099884
 20
-1.472940327544767
 30
0.0
 10
28.6059314169915
 20
-1.382327308402303
 30
0.0
  0
LINE
  5
D5
330
1F
100
AcDbEntity
  8
0
  6
Continuous
 62
     1
370
    25
100
AcDbLine
 10
29.86602540378443
 20
-2.437914245888156
 30
0.0
 11
29.86602540378443
 21
-2.053197595406611
 31
0.0
  0
SPLINE
  5
D6
330
1F
100
AcDbEntity
  8
0
  6
Continuous
 62
     1
370
    25
100
AcDbSpline
210
0.0
220
0.0
230
1.0
 70
    24
 71
     3
 72
    15
 73
    11
 74
     0
 42
0.000000001
 43
0.00000001
 40
0.0
 40
0.0
 40
0.0
 40
0.0
 40
0.0660126202479646
 40
0.1793312718967025
 40
0.2923364967358282
 40
0.4339501950032195
 40
0.5760788325973766
 40
0.7096174651541135
 40
0.8556988272830626
 40
0.9999999999999999
 40
0.9999999999999999
 40
0.9999999999999999
 40
0.9999999999999999
 10
29.82699312186018
 20
-0.527330698036895
 30
0.0
 10
29.82725578885015
 20
-0.5271467766304826
 30
0.0
 10
29.82796935551691
 20
-0.5266471318713886
 30
0.0
 10
29.79338322607217
 20
-0.5508646004260976
 30
0.0
 10
29.71741098165653
 20
-0.6040609386606349
 30
0.0
 10
29.57558352608824
 20
-0.7033695921746727
 30
0.0
 10
29.36214986001576
 20
-0.8528174540663421
 30
0.0
 10
29.11246647879508
 20
-1.027647639762763
 30
0.0
 10
28.85315430098233
 20
-1.209219981416829
 30
0.0
 10
28.68800155548846
 20
-1.324861178767661
 30
0.0
 10
28.60593141699052
 20
-1.382327308405836
 30
0.0
  0
SPLINE
  5
D7
330
1F
100
AcDbEntity
  8
0
  6
Continuous
 62
     1
370
    25
100
AcDbSpline
210
0.0
220
0.0
230
1.0
 70
     8
 71
     3
 72
    26
 73
    22
 74
     0
 42
0.000000001
 43
0.00000001
 40
0.0
 40
0.0
 40
0.0
 40
0.0
 40
0.0347010211964777
 40
0.0905790941723794
 40
0.1463830691846303
 40
0.2024244443053959
 40
0.2582858804755826
 40
0.314098269223165
 40
0.3701459809875103
 40
0.4259924479967657
 40
0.4818149290841232
 40
0.5378657397632546
 40
0.5936989085990841
 40
0.6495331583738742
 40
0.705583829397659
 40
0.7614053740187253
 40
0.8172530661980455
 40
0.8733003590342687
 40
0.9291119559975998
 40
0.9849747612952948
 40
1.0
 40
1.0
 40
1.0
 40
1.0
 10
22.32654684993105
 20
-2.10468441550735
 30
0.0
 10
22.18934530060015
 20
-2.162556725450784
 30
0.0
 10
21.83121197688396
 20
-2.313619179280572
 30
0.0
 10
21.25308914074147
 20
-2.451089072275096
 30
0.0
 10
20.59139448820338
 20
-2.518094983107416
 30
0.0
 10
19.9277945539806
 20
-2.473735655878054
 30
0.0
 10
19.26563146216034
 20
-2.32471839948611
 30
0.0
 10
18.603852803508
 20
-2.075490617533418
 30
0.0
 10
17.94020793201992
 20
-1.739222432815708
 30
0.0
 10
17.27816201920282
 20
-1.327324429302293
 30
0.0
 10
16.61630499118964
 20
-0.8582607646773259
 30
0.0
 10
15.95263554740062
 20
-0.3548603636545007
 30
0.0
 10
15.29069458358332
 20
0.165914767862996
 30
0.0
 10
14.62874511553921
 20
0.679570871386429
 30
0.0
 10
13.96507675429677
 20
1.162044150644953
 30
0.0
 10
13.30322713163855
 20
1.597271224488852
 30
0.0
 10
12.64117125315265
 20
1.963152731659817
 30
0.0
 10
11.97753073056496
 20
2.24632718246168
 30
0.0
 10
11.31575434841415
 20
2.426532295921664
 30
0.0
 10
10.8155287859241
 20
2.507286249953401
 30
0.0
 10
10.53524674249341
 20
2.49259236051869
 30
0.0
 10
10.47583891616029
 20
2.489477883326321
 30
0.0
  0
ELLIPSE
  5
D8
330
1F
100
AcDbEntity
  8
0
  6
Continuous
 62
     1
370
    25
100
AcDbEllipse
 10
30.58009940715549
 20
0.0
 30
0.0
 11
3.570370016855279
 21
0.0
 31
0.0
210
0.0
220
0.0
230
1.0
 40
0.7002075382097119
 41
1.772154247585226
 42
1.782615595954125
  0
LINE
  5
D9
330
1F
100
AcDbEntity
  8
0
  6
Continuous
 62
     1
370
    25
100
AcDbLine
 10
29.86602540378443
 20
2.449489742783183
 30
0.0
 11
29.86602540378443
 21
2.500000000000005
 31
0.0
  0
LINE
  5
DA
330
1F
100
AcDbEntity
  8
0
  6
Continuous
 62
     1
370
    25
100
AcDbLine
 10
29.86602540378443
 20
-0.4999999999999984
 30
0.0
 11
29.86602540378443
 21
-2.053197595406608
 31
0.0
  0
LINE
  5
DB
330
1F
100
AcDbEntity
  8
0
  6
Continuous
 62
     1
370
    25
100
AcDbLine
 10
29.86602540378443
 20
0.5653176926618394
 30
0.0
 11
29.86602540378443
 21
2.449489742783183
 31
0.0
  0
LINE
  5
DC
330
1F
100
AcDbEntity
  8
중심선
100
AcDbLine
 10
-33.13397459621557
 20
-0.0000000000000043
 30
0.0
 11
32.86602540378443
 21
0.0000000000000037
 31
0.0
  0
CIRCLE
  5
DD
330
1F
100
AcDbEntity
  8
해칭선
100
AcDbCircle
 10
-0.0076883402583463
 20
-0.0000000000000045
 30
0.0
 40
3.000000000000001
  0
INSERT
  5
DE
330
1F
100
AcDbEntity
  8
0
  6
Continuous
 62
     7
100
AcDbBlockReference
 66
     1
  2
블럭10
 10
-7.448147820842455
 20
-52.04717430164393
 30
0.0
  0
ATTRIB
  5
DF
330
DE
100
AcDbEntity
  8
FORMAT
 62
     2
100
AcDbText
 10
-23.56740886027801
 20
-49.97180738881174
 30
0.0
 40
4.233333333333333
  1
SEME7105025E [ 4 FLUTE ]
 41
0.75
  7
SLDTEXTSTYLE0
 11
-23.56740886027801
 21
-52.08847405547841
 31
0.0
100
AcDbAttribute
  2
AUTOATTR0
 70
     0
 74
     1
  0
SEQEND
  5
E0
330
DE
100
AcDbEntity
  8
0
  6
Continuous
 62
     7
  0
HATCH
  5
E1
330
1F
100
AcDbEntity
  8
중심선
100
AcDbHatch
 10
0.0
 20
0.0
 30
0.0
210
0.0
220
0.0
230
1.0
  2
SOLID
 70
     1
 71
     0
 91
        1
 92
        0
 93
        4
 72
     1
 10
-1.733238516461622
 20
-35.8
 11
-5.179513760298904
 21
-35.8
 72
     1
 10
-5.179513760298904
 20
-35.8
 11
-7.307743619502927
 21
-38.33632558057262
 72
     1
 10
-7.307743619502927
 20
-38.33632558057262
 11
-3.861435290552495
 21
-38.33628615127013
 72
     1
 10
-3.861435290552495
 20
-38.33628615127013
 11
-1.733238516461622
 21
-35.8
 97
        0
 75
     0
 76
     1
 98
        1
 10
0.0
 20
0.0
  0
HATCH
  5
E2
330
1F
100
AcDbEntity
  8
중심선
100
AcDbHatch
 10
0.0
 20
0.0
 30
0.0
210
0.0
220
0.0
230
1.0
  2
SOLID
 70
     1
 71
     0
 91
        1
 92
        0
 93
        4
 72
     1
 10
3.279525474574357
 20
-35.79999999999997
 11
-0.1667497692629247
 21
-35.8
 72
     1
 10
-0.166749769262925
 20
-35.8
 11
-4.697887777620341
 21
-41.20000000000002
 72
     1
 10
-4.697887777620341
 20
-41.20000000000002
 11
-1.251612533783058
 21
-41.20000000000002
 72
     1
 10
-1.251612533783059
 20
-41.20000000000002
 11
3.279525474574357
 21
-35.79999999999997
 97
        0
 75
     0
 76
     1
 98
        1
 10
0.0
 20
0.0
  0
HATCH
  5
E3
330
1F
100
AcDbEntity
  8
중심선
100
AcDbHatch
 10
0.0
 20
0.0
 30
0.0
210
0.0
220
0.0
230
1.0
  2
SOLID
 70
     1
 71
     0
 91
        1
 92
        0
 93
        4
 72
     1
 10
8.292289465610253
 20
-35.8
 11
4.846014221773165
 21
-35.79999999999997
 72
     1
 10
4.846014221773165
 20
-35.79999999999997
 11
-2.20242268011614
 21
-44.20000000000002
 72
     1
 10
-2.20242268011614
 20
-44.20000000000002
 11
1.243852563721143
 21
-44.20000000000002
 72
     1
 10
1.243852563721143
 20
-44.20000000000002
 11
8.292289465610253
 21
-35.8
 97
        0
 75
     0
 76
     1
 98
        1
 10
0.0
 20
0.0
  0
HATCH
  5
E4
330
1F
100
AcDbEntity
  8
중심선
100
AcDbHatch
 10
0.0
 20
0.0
 30
0.0
210
0.0
220
0.0
230
1.0
  2
SOLID
 70
     1
 71
     0
 91
        1
 92
        0
 93
        6
 72
     3
 10
13.09217989662242
 20
-40.00000000005127
 11
3.960054785062284
 21
1.540850780301639E-10
 40
0.3939339440162633
 50
17.09539180608433
 51
320.0019657685081
 73
     0
 72
     1
 10
14.77517955232302
 20
-38.5878940046383
 11
17.08048142602409
 21
-36.65356729459035
 72
     3
 10
13.09217989656958
 20
-40.00000000000015
 11
6.600054785286829
 21
-1.249000902703301E-13
 40
0.6363583540795982
 50
39.99873849337411
 51
368.4976242363725
 73
     1
 72
     1
 10
19.51751238847019
 20
-39.03999999993002
 11
11.77224720340553
 21
-39.03999999993002
 72
     1
 10
11.77224720340553
 20
-39.03999999993002
 11
11.77222215895957
 21
-40.95999999992991
 72
     1
 10
11.77222215895957
 20
-40.95999999992991
 11
16.2136019284316
 21
-40.95999999992988
 97
        0
 75
     0
 76
     1
 98
        1
 10
0.0
 20
0.0
  0
DIMENSION
  5
E5
330
1F
100
AcDbEntity
  8
치수문자_일반주서
100
AcDbDimension
  2
_D
 10
42.37377973782957
 20
2.500000000000052
 30
0.0
 11
42.37377973782954
 21
12.16650000000005
 31
0.0
 70
   160
  1
%%c<>
 71
     2
 42
5.000000000000012
 52
-270.0
  3
SLDDIMSTYLE0
100
AcDbAlignedDimension
 13
29.86602540378446
 23
-2.500000000000006
 33
0.0
 14
29.86602540378446
 24
2.500000000000005
 34
0.0
 50
90.0000000000002
100
AcDbRotatedDimension
  0
DIMENSION
  5
F3
330
1F
100
AcDbEntity
  8
치수문자_일반주서
100
AcDbDimension
  2
_D_1
 10
29.86602540378443
 20
20.38913260158165
 30
0.0
 11
-0.1339745962155652
 21
20.38913260158165
 31
0.0
 70
   160
  1
<>
 71
     2
 42
60.0
  3
SLDDIMSTYLE1
100
AcDbAlignedDimension
 13
-30.13397459621557
 23
2.499999999999996
 33
0.0
 14
29.86602540378443
 24
2.500000000000002
 34
0.0
 50
-0.0000000000000068
100
AcDbRotatedDimension
  0
DIMENSION
  5
FE
330
1F
100
AcDbEntity
  8
치수문자_일반주서
100
AcDbDimension
  2
_D_2
 10
-38.95084808293869
 20
-3.000000000000039
 30
0.0
 11
-38.95084808293875
 21
12.66649999999997
 31
0.0
 70
   160
  1
%%c<>
 71
     2
 42
6.000000000000005
 52
-270.0
  3
SLDDIMSTYLE2
100
AcDbAlignedDimension
 13
-29.63397459621557
 23
3.000000000000003
 33
0.0
 14
-29.63397459621557
 24
-3.000000000000003
 34
0.0
 50
90.0000000000002
100
AcDbRotatedDimension
  0
DIMENSION
  5
10C
330
1F
100
AcDbEntity
  8
치수문자_일반주서
100
AcDbDimension
  2
_D_3
 10
29.86602540378443
 20
13.25886433543589
 30
0.0
 11
17.36602540378443
 21
13.25886433543589
 31
0.0
 70
   160
  1
<>
 71
     2
 42
25.0
  3
SLDDIMSTYLE1
100
AcDbAlignedDimension
 13
4.866025403784432
 23
2.500000000000002
 33
0.0
 14
29.86602540378443
 24
2.500000000000002
 34
0.0
100
AcDbRotatedDimension
  0
INSERT
  5
11C
330
1F
100
AcDbEntity
  8
해칭선
100
AcDbBlockReference
  2
SW_DOWELSYMBOL_0
 10
-0.0076883402583463
 20
-0.0000000000000046
 30
0.0
  0
LINE
  5
14E
330
1F
100
AcDbEntity
  8
0
  6
Continuous
 62
     4
370
    25
100
AcDbLine
 10
4.866025403784432
 20
2.500000000000002
 30
0.0
 11
4.866025403784432
 21
-2.500000000000002
 31
0.0
  0
ENDSEC
  0
SECTION
  2
OBJECTS
  0
DICTIONARY
  5
C
330
0
100
AcDbDictionary
281
     1
  3
ACAD_GROUP
350
D
  3
ACAD_IMAGE_VARS
350
140
  3
ACAD_LAYOUT
350
1A
  3
ACAD_MLINESTYLE
350
17
  3
ACAD_PLOTSETTINGS
350
19
  3
ACAD_PLOTSTYLENAME
350
E
  3
ACAD_SCALELIST
350
47
  3
APPDATA
350
13E
  3
DWGPROPS
350
150
  0
DICTIONARY
  5
D
102
{ACAD_REACTORS
330
C
102
}
330
C
100
AcDbDictionary
281
     1
  0
RASTERVARIABLES
  5
140
102
{ACAD_REACTORS
330
C
102
}
330
C
100
AcDbRasterVariables
 90
        0
 70
     1
 71
     1
 72
     1
  0
DICTIONARY
  5
1A
102
{ACAD_REACTORS
330
C
102
}
330
C
100
AcDbDictionary
281
     1
  3
Layout1
350
1E
  3
Layout2
350
26
  3
Model
350
22
  0
DICTIONARY
  5
17
102
{ACAD_REACTORS
330
C
102
}
330
C
100
AcDbDictionary
281
     1
  3
Standard
350
18
  0
DICTIONARY
  5
19
102
{ACAD_REACTORS
330
C
102
}
330
C
100
AcDbDictionary
281
     1
  0
ACDBDICTIONARYWDFLT
  5
E
102
{ACAD_REACTORS
330
C
102
}
330
C
100
AcDbDictionary
281
     1
  3
Normal
350
F
100
AcDbDictionaryWithDefault
340
F
  0
DICTIONARY
  5
47
102
{ACAD_REACTORS
330
C
102
}
330
C
100
AcDbDictionary
281
     1
  3
A0
350
48
  3
A1
350
49
  3
A2
350
4A
  3
A3
350
4B
  3
A4
350
4C
  3
A5
350
4D
  3
A6
350
4E
  3
A7
350
4F
  3
A8
350
50
  3
A9
350
51
  3
B0
350
52
  3
B1
350
53
  3
B2
350
54
  3
B3
350
55
  3
B4
350
56
  3
B5
350
57
  3
B6
350
58
  3
B7
350
59
  3
B8
350
5A
  3
B9
350
5B
  3
C0
350
5C
  3
C1
350
5D
  3
C2
350
5E
  3
C3
350
5F
  3
C4
350
60
  3
C5
350
61
  3
C6
350
62
  3
C7
350
63
  3
C8
350
64
  3
C9
350
65
  3
D0
350
66
  3
D1
350
67
  3
D2
350
68
  0
DICTIONARY
  5
13E
102
{ACAD_REACTORS
330
C
102
}
330
C
100
AcDbDictionary
281
     1
  0
XRECORD
  5
150
102
{ACAD_REACTORS
330
C
102
}
330
C
100
AcDbXrecord
280
     1
  1
DWGPROPS COOKIE
  2

  3

  4

  6

  7

  8
12014102
  9

300
=
301
=
302
=
303
=
304
=
305
=
306
=
307
=
308
=
309
=
 40
0.0
 41
2458260.117033044
 42
2458267.300804074
  1

 90
        0
  0
LAYOUT
  5
1E
102
{ACAD_REACTORS
330
1A
102
}
330
1A
100
AcDbPlotSettings
  1

  2
none_device
  4

  6

 40
0.0
 41
0.0
 42
0.0
 43
0.0
 44
0.0
 45
0.0
 46
0.0
 47
0.0
 48
0.0
 49
0.0
140
0.0
141
0.0
142
1.0
143
1.0
 70
   688
 72
     1
 73
     0
 74
     5
  7

 75
    16
147
1.0
148
0.0
149
0.0
100
AcDbLayout
  1
Layout1
 70
     1
 71
     1
 10
0.0
 20
0.0
 11
420.0
 21
297.0
 12
0.0
 22
0.0
 32
0.0
 14
1.000000000000000E+20
 24
1.000000000000000E+20
 34
1.000000000000000E+20
 15
-1.000000000000000E+20
 25
-1.000000000000000E+20
 35
-1.000000000000000E+20
146
0.0
 13
0.0
 23
0.0
 33
0.0
 16
1.0
 26
0.0
 36
0.0
 17
0.0
 27
1.0
 37
0.0
 76
     0
330
1B
  0
LAYOUT
  5
26
102
{ACAD_REACTORS
330
1A
102
}
330
1A
100
AcDbPlotSettings
  1

  2
none_device
  4

  6

 40
0.0
 41
0.0
 42
0.0
 43
0.0
 44
0.0
 45
0.0
 46
0.0
 47
0.0
 48
0.0
 49
0.0
140
0.0
141
0.0
142
1.0
143
1.0
 70
   688
 72
     1
 73
     0
 74
     5
  7

 75
    16
147
1.0
148
0.0
149
0.0
100
AcDbLayout
  1
Layout2
 70
     1
 71
     2
 10
0.0
 20
0.0
 11
0.0
 21
0.0
 12
0.0
 22
0.0
 32
0.0
 14
0.0
 24
0.0
 34
0.0
 15
0.0
 25
0.0
 35
0.0
146
0.0
 13
0.0
 23
0.0
 33
0.0
 16
1.0
 26
0.0
 36
0.0
 17
0.0
 27
1.0
 37
0.0
 76
     0
330
23
  0
LAYOUT
  5
22
102
{ACAD_REACTORS
330
1A
102
}
330
1A
100
AcDbPlotSettings
  1

  2
none_device
  4
ANSI_A_(11.00_x_8.50_Inches)
  6

 40
6.35
 41
19.05
 42
6.35000508
 43
19.05000254
 44
279.4
 45
215.9
 46
116.7699715256489
 47
125.3847137330092
 48
0.0
 49
0.0
140
0.0
141
0.0
142
0.1112850254374007
143
1.0
 70
  1696
 72
     0
 73
     0
 74
     0
  7

 75
     0
147
0.0235690232323232
148
0.0
149
0.0
100
AcDbLayout
  1
Model
 70
     1
 71
     0
 10
0.0
 20
0.0
 11
420.0
 21
297.0
 12
0.0
 22
0.0
 32
0.0
 14
-43.32584808293876
 24
-49.97180738881174
 34
0.0
 15
47.3409244730553
 25
24.76413260158165
 35
0.0
146
0.0
 13
0.0
 23
0.0
 33
0.0
 16
1.0
 26
0.0
 36
0.0
 17
0.0
 27
1.0
 37
0.0
 76
     0
330
1F
331
29
  0
MLINESTYLE
  5
18
102
{ACAD_REACTORS
330
17
102
}
330
17
100
AcDbMlineStyle
  2
Standard
 70
     0
  3

 62
   256
 51
90.0
 52
90.0
 71
     2
 49
0.5
 62
   256
  6
BYLAYER
 49
-0.5
 62
   256
  6
BYLAYER
  0
ACDBPLACEHOLDER
  5
F
102
{ACAD_REACTORS
330
E
102
}
330
E
  0
SCALE
  5
48
102
{ACAD_REACTORS
330
47
102
}
330
47
100
AcDbScale
 70
     0
300
1:1
140
1.0
141
1.0
290
     1
  0
SCALE
  5
49
102
{ACAD_REACTORS
330
47
102
}
330
47
100
AcDbScale
 70
     0
300
1:2
140
1.0
141
2.0
290
     0
  0
SCALE
  5
4A
102
{ACAD_REACTORS
330
47
102
}
330
47
100
AcDbScale
 70
     0
300
1:4
140
1.0
141
4.0
290
     0
  0
SCALE
  5
4B
102
{ACAD_REACTORS
330
47
102
}
330
47
100
AcDbScale
 70
     0
300
1:5
140
1.0
141
5.0
290
     0
  0
SCALE
  5
4C
102
{ACAD_REACTORS
330
47
102
}
330
47
100
AcDbScale
 70
     0
300
1:8
140
1.0
141
8.0
290
     0
  0
SCALE
  5
4D
102
{ACAD_REACTORS
330
47
102
}
330
47
100
AcDbScale
 70
     0
300
1:10
140
1.0
141
10.0
290
     0
  0
SCALE
  5
4E
102
{ACAD_REACTORS
330
47
102
}
330
47
100
AcDbScale
 70
     0
300
1:16
140
1.0
141
16.0
290
     0
  0
SCALE
  5
4F
102
{ACAD_REACTORS
330
47
102
}
330
47
100
AcDbScale
 70
     0
300
1:20
140
1.0
141
20.0
290
     0
  0
SCALE
  5
50
102
{ACAD_REACTORS
330
47
102
}
330
47
100
AcDbScale
 70
     0
300
1:30
140
1.0
141
30.0
290
     0
  0
SCALE
  5
51
102
{ACAD_REACTORS
330
47
102
}
330
47
100
AcDbScale
 70
     0
300
1:40
140
1.0
141
40.0
290
     0
  0
SCALE
  5
52
102
{ACAD_REACTORS
330
47
102
}
330
47
100
AcDbScale
 70
     0
300
1:50
140
1.0
141
50.0
290
     0
  0
SCALE
  5
53
102
{ACAD_REACTORS
330
47
102
}
330
47
100
AcDbScale
 70
     0
300
1:100
140
1.0
141
100.0
290
     0
  0
SCALE
  5
54
102
{ACAD_REACTORS
330
47
102
}
330
47
100
AcDbScale
 70
     0
300
2:1
140
2.0
141
1.0
290
     0
  0
SCALE
  5
55
102
{ACAD_REACTORS
330
47
102
}
330
47
100
AcDbScale
 70
     0
300
4:1
140
4.0
141
1.0
290
     0
  0
SCALE
  5
56
102
{ACAD_REACTORS
330
47
102
}
330
47
100
AcDbScale
 70
     0
300
8:1
140
8.0
141
1.0
290
     0
  0
SCALE
  5
57
102
{ACAD_REACTORS
330
47
102
}
330
47
100
AcDbScale
 70
     0
300
10:1
140
10.0
141
1.0
290
     0
  0
SCALE
  5
58
102
{ACAD_REACTORS
330
47
102
}
330
47
100
AcDbScale
 70
     0
300
100:1
140
100.0
141
1.0
290
     0
  0
SCALE
  5
59
102
{ACAD_REACTORS
330
47
102
}
330
47
100
AcDbScale
 70
     0
300
1/128" = 1'-0"
140
0.0078125
141
12.0
290
     0
  0
SCALE
  5
5A
102
{ACAD_REACTORS
330
47
102
}
330
47
100
AcDbScale
 70
     0
300
1/64" = 1'-0"
140
0.015625
141
12.0
290
     0
  0
SCALE
  5
5B
102
{ACAD_REACTORS
330
47
102
}
330
47
100
AcDbScale
 70
     0
300
1/32" = 1'-0"
140
0.03125
141
12.0
290
     0
  0
SCALE
  5
5C
102
{ACAD_REACTORS
330
47
102
}
330
47
100
AcDbScale
 70
     0
300
1/16" = 1'-0"
140
0.0625
141
12.0
290
     0
  0
SCALE
  5
5D
102
{ACAD_REACTORS
330
47
102
}
330
47
100
AcDbScale
 70
     0
300
3/32" = 1'-0"
140
0.09375
141
12.0
290
     0
  0
SCALE
  5
5E
102
{ACAD_REACTORS
330
47
102
}
330
47
100
AcDbScale
 70
     0
300
1/8" = 1'-0"
140
0.125
141
12.0
290
     0
  0
SCALE
  5
5F
102
{ACAD_REACTORS
330
47
102
}
330
47
100
AcDbScale
 70
     0
300
3/16" = 1'-0"
140
0.1875
141
12.0
290
     0
  0
SCALE
  5
60
102
{ACAD_REACTORS
330
47
102
}
330
47
100
AcDbScale
 70
     0
300
1/4" = 1'-0"
140
0.25
141
12.0
290
     0
  0
SCALE
  5
61
102
{ACAD_REACTORS
330
47
102
}
330
47
100
AcDbScale
 70
     0
300
3/8" = 1'-0"
140
0.375
141
12.0
290
     0
  0
SCALE
  5
62
102
{ACAD_REACTORS
330
47
102
}
330
47
100
AcDbScale
 70
     0
300
1/2" = 1'-0"
140
0.5
141
12.0
290
     0
  0
SCALE
  5
63
102
{ACAD_REACTORS
330
47
102
}
330
47
100
AcDbScale
 70
     0
300
3/4" = 1'-0"
140
0.75
141
12.0
290
     0
  0
SCALE
  5
64
102
{ACAD_REACTORS
330
47
102
}
330
47
100
AcDbScale
 70
     0
300
1" = 1'-0"
140
1.0
141
12.0
290
     0
  0
SCALE
  5
65
102
{ACAD_REACTORS
330
47
102
}
330
47
100
AcDbScale
 70
     0
300
1-1/2" = 1'-0"
140
1.5
141
12.0
290
     0
  0
SCALE
  5
66
102
{ACAD_REACTORS
330
47
102
}
330
47
100
AcDbScale
 70
     0
300
3" = 1'-0"
140
3.0
141
12.0
290
     0
  0
SCALE
  5
67
102
{ACAD_REACTORS
330
47
102
}
330
47
100
AcDbScale
 70
     0
300
6" = 1'-0"
140
6.0
141
12.0
290
     0
  0
SCALE
  5
68
102
{ACAD_REACTORS
330
47
102
}
330
47
100
AcDbScale
 70
     0
300
1'-0" = 1'-0"
140
12.0
141
12.0
290
     0
  0
ENDSEC
  0
EOF
