  0
SECTION
  2
HEADER
  9
$ACADVER
  1
AC1015
  9
$ACADMAINTVER
 70
     6
  9
$DWGCODEPAGE
  3
ANSI_949
  9
$INSBASE
 10
0.0
 20
0.0
 30
0.0
  9
$EXTMIN
 10
-41.93677950419079
 20
-49.97180738881174
 30
0.0
  9
$EXTMAX
 10
51.31121030546392
 20
25.76413260158208
 30
0.0
  9
$LIMMIN
 10
0.0
 20
0.0
  9
$LIMMAX
 10
420.0
 20
297.0
  9
$ORTHOMODE
 70
     0
  9
$REGENMODE
 70
     1
  9
$FILLMODE
 70
     1
  9
$QTEXTMODE
 70
     0
  9
$MIRRTEXT
 70
     1
  9
$LTSCALE
 40
1.0
  9
$ATTMODE
 70
     1
  9
$TEXTSIZE
 40
3.5
  9
$TRACEWID
 40
1.0
  9
$TEXTSTYLE
  7
Standard
  9
$CLAYER
  8
0
  9
$CELTYPE
  6
ByLayer
  9
$CECOLOR
 62
   256
  9
$CELTSCALE
 40
1.0
  9
$DISPSILH
 70
     0
  9
$DIMSCALE
 40
1.0
  9
$DIMASZ
 40
3.302
  9
$DIMEXO
 40
1.0
  9
$DIMDLI
 40
3.75
  9
$DIMRND
 40
0.0
  9
$DIMDLE
 40
0.0
  9
$DIMEXE
 40
1.0
  9
$DIMTP
 40
0.0
  9
$DIMTM
 40
0.0
  9
$DIMTXT
 40
3.5
  9
$DIMCEN
 40
2.5
  9
$DIMTSZ
 40
0.0
  9
$DIMTOL
 70
     0
  9
$DIMLIM
 70
     0
  9
$DIMTIH
 70
     1
  9
$DIMTOH
 70
     1
  9
$DIMSE1
 70
     0
  9
$DIMSE2
 70
     0
  9
$DIMTAD
 70
     1
  9
$DIMZIN
 70
     0
  9
$DIMBLK
  1

  9
$DIMASO
 70
     1
  9
$DIMSHO
 70
     1
  9
$DIMPOST
  1

  9
$DIMAPOST
  1

  9
$DIMALT
 70
     0
  9
$DIMALTD
 70
     3
  9
$DIMALTF
 40
0.0393700787401575
  9
$DIMLFAC
 40
1.0
  9
$DIMTOFL
 70
     1
  9
$DIMTVP
 40
0.0
  9
$DIMTIX
 70
     0
  9
$DIMSOXD
 70
     0
  9
$DIMSAH
 70
     0
  9
$DIMBLK1
  1

  9
$DIMBLK2
  1

  9
$DIMSTYLE
  2
ISO-25
  9
$DIMCLRD
 70
     0
  9
$DIMCLRE
 70
     0
  9
$DIMCLRT
 70
     0
  9
$DIMTFAC
 40
1.0
  9
$DIMGAP
 40
1.524
  9
$DIMJUST
 70
     0
  9
$DIMSD1
 70
     0
  9
$DIMSD2
 70
     0
  9
$DIMTOLJ
 70
     0
  9
$DIMTZIN
 70
     0
  9
$DIMALTZ
 70
     0
  9
$DIMALTTZ
 70
     0
  9
$DIMUPT
 70
     0
  9
$DIMDEC
 70
     2
  9
$DIMTDEC
 70
     2
  9
$DIMALTU
 70
     2
  9
$DIMALTTD
 70
     3
  9
$DIMTXSTY
  7
Standard
  9
$DIMAUNIT
 70
     0
  9
$DIMADEC
 70
     2
  9
$DIMALTRND
 40
0.0
  9
$DIMAZIN
 70
     0
  9
$DIMDSEP
 70
    44
  9
$DIMATFIT
 70
     3
  9
$DIMFRAC
 70
     0
  9
$DIMLDRBLK
  1

  9
$DIMLUNIT
 70
     2
  9
$DIMLWD
 70
    -2
  9
$DIMLWE
 70
    -2
  9
$DIMTMOVE
 70
     0
  9
$LUNITS
 70
     2
  9
$LUPREC
 70
     2
  9
$SKETCHINC
 40
1.0
  9
$FILLETRAD
 40
10.0
  9
$AUNITS
 70
     0
  9
$AUPREC
 70
     2
  9
$MENU
  1
.
  9
$ELEVATION
 40
0.0
  9
$PELEVATION
 40
0.0
  9
$THICKNESS
 40
0.0
  9
$LIMCHECK
 70
     0
  9
$CHAMFERA
 40
0.0
  9
$CHAMFERB
 40
0.0
  9
$CHAMFERC
 40
0.0
  9
$CHAMFERD
 40
0.0
  9
$SKPOLY
 70
     0
  9
$TDCREATE
 40
2458260.493734607
  9
$TDUCREATE
 40
2458260.118734607
  9
$TDUPDATE
 40
2458267.695851852
  9
$TDUUPDATE
 40
2458267.320851852
  9
$TDINDWG
 40
0.0009973148
  9
$TDUSRTIMER
 40
2458267.319854572
  9
$USRTIMER
 70
     1
  9
$ANGBASE
 50
0.0
  9
$ANGDIR
 70
     0
  9
$PDMODE
 70
     0
  9
$PDSIZE
 40
-1.0
  9
$PLINEWID
 40
0.0
  9
$SPLFRAME
 70
     0
  9
$SPLINETYPE
 70
     6
  9
$SPLINESEGS
 70
     8
  9
$HANDSEED
  5
140
  9
$SURFTAB1
 70
     6
  9
$SURFTAB2
 70
     6
  9
$SURFTYPE
 70
     6
  9
$SURFU
 70
     6
  9
$SURFV
 70
     6
  9
$UCSBASE
  2

  9
$UCSNAME
  2

  9
$UCSORG
 10
0.0
 20
0.0
 30
0.0
  9
$UCSXDIR
 10
1.0
 20
0.0
 30
0.0
  9
$UCSYDIR
 10
0.0
 20
1.0
 30
0.0
  9
$UCSORTHOREF
  2

  9
$UCSORTHOVIEW
 70
     0
  9
$UCSORGTOP
 10
0.0
 20
0.0
 30
0.0
  9
$UCSORGBOTTOM
 10
0.0
 20
0.0
 30
0.0
  9
$UCSORGLEFT
 10
0.0
 20
0.0
 30
0.0
  9
$UCSORGRIGHT
 10
0.0
 20
0.0
 30
0.0
  9
$UCSORGFRONT
 10
0.0
 20
0.0
 30
0.0
  9
$UCSORGBACK
 10
0.0
 20
0.0
 30
0.0
  9
$PUCSBASE
  2

  9
$PUCSNAME
  2

  9
$PUCSORG
 10
0.0
 20
0.0
 30
0.0
  9
$PUCSXDIR
 10
1.0
 20
0.0
 30
0.0
  9
$PUCSYDIR
 10
0.0
 20
1.0
 30
0.0
  9
$PUCSORTHOREF
  2

  9
$PUCSORTHOVIEW
 70
     0
  9
$PUCSORGTOP
 10
0.0
 20
0.0
 30
0.0
  9
$PUCSORGBOTTOM
 10
0.0
 20
0.0
 30
0.0
  9
$PUCSORGLEFT
 10
0.0
 20
0.0
 30
0.0
  9
$PUCSORGRIGHT
 10
0.0
 20
0.0
 30
0.0
  9
$PUCSORGFRONT
 10
0.0
 20
0.0
 30
0.0
  9
$PUCSORGBACK
 10
0.0
 20
0.0
 30
0.0
  9
$USERI1
 70
     0
  9
$USERI2
 70
     0
  9
$USERI3
 70
     0
  9
$USERI4
 70
     0
  9
$USERI5
 70
     0
  9
$USERR1
 40
0.0
  9
$USERR2
 40
0.0
  9
$USERR3
 40
0.0
  9
$USERR4
 40
0.0
  9
$USERR5
 40
0.0
  9
$WORLDVIEW
 70
     1
  9
$SHADEDGE
 70
     3
  9
$SHADEDIF
 70
    70
  9
$TILEMODE
 70
     1
  9
$MAXACTVP
 70
    64
  9
$PINSBASE
 10
0.0
 20
0.0
 30
0.0
  9
$PLIMCHECK
 70
     0
  9
$PEXTMIN
 10
1.000000000000000E+20
 20
1.000000000000000E+20
 30
1.000000000000000E+20
  9
$PEXTMAX
 10
-1.000000000000000E+20
 20
-1.000000000000000E+20
 30
-1.000000000000000E+20
  9
$PLIMMIN
 10
0.0
 20
0.0
  9
$PLIMMAX
 10
0.0
 20
0.0
  9
$UNITMODE
 70
     0
  9
$VISRETAIN
 70
     1
  9
$PLINEGEN
 70
     0
  9
$PSLTSCALE
 70
     1
  9
$TREEDEPTH
 70
  3020
  9
$CMLSTYLE
  2
Standard
  9
$CMLJUST
 70
     0
  9
$CMLSCALE
 40
20.0
  9
$PROXYGRAPHICS
 70
     1
  9
$MEASUREMENT
 70
     1
  9
$CELWEIGHT
370
    -1
  9
$ENDCAPS
280
     0
  9
$JOINSTYLE
280
     0
  9
$LWDISPLAY
290
     1
  9
$INSUNITS
 70
     4
  9
$HYPERLINKBASE
  1

  9
$STYLESHEET
  1

  9
$XEDIT
290
     1
  9
$CEPSNTYPE
380
     0
  9
$PSTYLEMODE
290
     1
  9
$FINGERPRINTGUID
  2
{43A6206D-1130-4A8B-AC15-D11E932622A9}
  9
$VERSIONGUID
  2
{FAEB1C32-E019-11D5-929B-00C0DF256EC4}
  9
$EXTNAMES
290
     1
  9
$PSVPSCALE
 40
0.0
  9
$OLESTARTUP
290
     0
  0
ENDSEC
  0
SECTION
  2
CLASSES
  0
CLASS
  1
ACDBDICTIONARYWDFLT
  2
AcDbDictionaryWithDefault
  3
ObjectDBX Classes
 90
        0
280
     0
281
     0
  0
CLASS
  1
VISUALSTYLE
  2
AcDbVisualStyle
  3
ObjectDBX Classes
 90
     4095
280
     0
281
     0
  0
CLASS
  1
MATERIAL
  2
AcDbMaterial
  3
ObjectDBX Classes
 90
     1153
280
     0
281
     0
  0
CLASS
  1
SCALE
  2
AcDbScale
  3
ObjectDBX Classes
 90
     1153
280
     0
281
     0
  0
CLASS
  1
TABLESTYLE
  2
AcDbTableStyle
  3
ObjectDBX Classes
 90
     4095
280
     0
281
     0
  0
CLASS
  1
MLEADERSTYLE
  2
AcDbMLeaderStyle
  3
ACDB_MLEADERSTYLE_CLASS
 90
     4095
280
     0
281
     0
  0
CLASS
  1
SUN
  2
AcDbSun
  3
SCENEOE
 90
     1153
280
     0
281
     0
  0
CLASS
  1
ACDBPLACEHOLDER
  2
AcDbPlaceHolder
  3
ObjectDBX Classes
 90
        0
280
     0
281
     0
  0
CLASS
  1
LAYOUT
  2
AcDbLayout
  3
ObjectDBX Classes
 90
        0
280
     0
281
     0
  0
CLASS
  1
RASTERVARIABLES
  2
AcDbRasterVariables
  3
ISM
 90
        0
280
     0
281
     0
  0
ENDSEC
  0
SECTION
  2
TABLES
  0
TABLE
  2
VPORT
  5
8
330
0
100
AcDbSymbolTable
 70
     1
  0
VPORT
  5
29
330
8
100
AcDbSymbolTableRecord
100
AcDbViewportTableRecord
  2
*Active
 70
     0
 10
0.0
 20
0.0
 11
1.0
 21
1.0
 12
4.687215400636568
 22
-12.10383739361482
 13
0.0
 23
0.0
 14
10.0
 24
10.0
 15
10.0
 25
10.0
 16
0.0
 26
0.0
 36
1.0
 17
0.0
 27
0.0
 37
0.0
 40
77.25065879020171
 41
1.739018087855297
 42
50.0
 43
0.0
 44
0.0
 50
0.0
 51
0.0
 71
    16
 72
  2000
 73
     1
 74
     3
 75
     0
 76
     0
 77
     0
 78
     0
281
     0
 65
     1
110
0.0
120
0.0
130
0.0
111
1.0
121
0.0
131
0.0
112
0.0
122
1.0
132
0.0
 79
     0
146
0.0
  0
ENDTAB
  0
TABLE
  2
LTYPE
  5
5
330
0
100
AcDbSymbolTable
 70
     6
  0
LTYPE
  5
14
330
5
100
AcDbSymbolTableRecord
100
AcDbLinetypeTableRecord
  2
ByBlock
 70
     0
  3

 72
    65
 73
     0
 40
0.0
  0
LTYPE
  5
15
330
5
100
AcDbSymbolTableRecord
100
AcDbLinetypeTableRecord
  2
ByLayer
 70
     0
  3

 72
    65
 73
     0
 40
0.0
  0
LTYPE
  5
16
330
5
100
AcDbSymbolTableRecord
100
AcDbLinetypeTableRecord
  2
Continuous
 70
     0
  3
Solid line
 72
    65
 73
     0
 40
0.0
  0
LTYPE
  5
6E
330
5
100
AcDbSymbolTableRecord
100
AcDbLinetypeTableRecord
  2
HIDDEN
 70
     0
  3
Hidden __ __ __ __ __ __ __ __ __ __ __ __ __ __
 72
    65
 73
     2
 40
1.905
 49
1.27
 74
     0
 49
-0.635
 74
     0
  0
LTYPE
  5
6F
330
5
100
AcDbSymbolTableRecord
100
AcDbLinetypeTableRecord
  2
PHANTOM
 70
     0
  3
Phantom ______  __  __  ______  __  __  ______
 72
    65
 73
     6
 40
12.7
 49
6.35
 74
     0
 49
-1.27
 74
     0
 49
1.27
 74
     0
 49
-1.27
 74
     0
 49
1.27
 74
     0
 49
-1.27
 74
     0
  0
LTYPE
  5
70
330
5
100
AcDbSymbolTableRecord
100
AcDbLinetypeTableRecord
  2
CENTER
 70
     0
  3
Center ____ _ ____ _ ____ _ ____ _ ____ _ ____
 72
    65
 73
     4
 40
10.16
 49
6.35
 74
     0
 49
-1.27
 74
     0
 49
1.27
 74
     0
 49
-1.27
 74
     0
  0
LTYPE
  5
71
330
5
100
AcDbSymbolTableRecord
100
AcDbLinetypeTableRecord
  2
CENTERX2
 70
     0
  3
Center (2x) ________  __  ________  __  _____
 72
    65
 73
     4
 40
20.32
 49
12.7
 74
     0
 49
-2.54
 74
     0
 49
2.54
 74
     0
 49
-2.54
 74
     0
  0
LTYPE
  5
72
330
5
100
AcDbSymbolTableRecord
100
AcDbLinetypeTableRecord
  2
DOT2
 70
     0
  3
Dot (.5x) ........................................
 72
    65
 73
     2
 40
0.635
 49
0.0
 74
     0
 49
-0.635
 74
     0
  0
ENDTAB
  0
TABLE
  2
LAYER
  5
2
330
0
100
AcDbSymbolTable
 70
    17
  0
LAYER
  5
10
330
2
100
AcDbSymbolTableRecord
100
AcDbLayerTableRecord
  2
0
 70
     0
 62
     7
  6
Continuous
370
    -3
390
F
  0
LAYER
  5
73
330
2
100
AcDbSymbolTableRecord
100
AcDbLayerTableRecord
  2
FORMAT
 70
     0
 62
     2
  6
Continuous
370
    -3
390
F
  0
LAYER
  5
74
330
2
100
AcDbSymbolTableRecord
100
AcDbLayerTableRecord
  2
외형선
 70
     0
 62
   100
  6
Continuous
370
    35
390
F
  0
LAYER
  5
75
330
2
100
AcDbSymbolTableRecord
100
AcDbLayerTableRecord
  2
숨은선
 70
     0
 62
     2
  6
HIDDEN
370
    25
390
F
  0
LAYER
  5
76
330
2
100
AcDbSymbolTableRecord
100
AcDbLayerTableRecord
  2
중심선
 70
     0
 62
     1
  6
CENTERX2
370
    -3
390
F
  0
LAYER
  5
77
330
2
100
AcDbSymbolTableRecord
100
AcDbLayerTableRecord
  2
파단선
 70
     0
 62
     4
  6
Continuous
370
    -3
390
F
  0
LAYER
  5
78
330
2
100
AcDbSymbolTableRecord
100
AcDbLayerTableRecord
  2
해칭선
 70
     0
 62
   100
  6
Continuous
370
    -3
390
F
  0
LAYER
  5
79
330
2
100
AcDbSymbolTableRecord
100
AcDbLayerTableRecord
  2
가는실선
 70
     0
 62
     4
  6
Continuous
370
    -3
390
F
  0
LAYER
  5
7A
330
2
100
AcDbSymbolTableRecord
100
AcDbLayerTableRecord
  2
치수_보조선
 70
     0
 62
     4
  6
Continuous
370
    -3
390
F
  0
LAYER
  5
7B
330
2
100
AcDbSymbolTableRecord
100
AcDbLayerTableRecord
  2
치수문자_일반주서
 70
     0
 62
     7
  6
Continuous
370
    25
390
F
  0
LAYER
  5
7C
330
2
100
AcDbSymbolTableRecord
100
AcDbLayerTableRecord
  2
개별주서
 70
     0
 62
   100
  6
Continuous
370
    35
390
F
  0
LAYER
  5
7D
330
2
100
AcDbSymbolTableRecord
100
AcDbLayerTableRecord
  2
중간선
 70
     0
 62
     2
  6
Continuous
370
    25
390
F
  0
LAYER
  5
7E
330
2
100
AcDbSymbolTableRecord
100
AcDbLayerTableRecord
  2
윤곽선
 70
     0
 62
     3
  6
Continuous
370
    50
390
F
  0
LAYER
  5
7F
330
2
100
AcDbSymbolTableRecord
100
AcDbLayerTableRecord
  2
중심마크
 70
     0
 62
   100
  6
Continuous
370
    35
390
F
  0
LAYER
  5
80
330
2
100
AcDbSymbolTableRecord
100
AcDbLayerTableRecord
  2
가상선
 70
     0
 62
     4
  6
PHANTOM
370
    -3
390
F
  0
LAYER
  5
81
330
2
100
AcDbSymbolTableRecord
100
AcDbLayerTableRecord
  2
특수지정선
 70
     0
 62
     5
  6
CENTERX2
370
    70
390
F
  0
LAYER
  5
131
330
2
100
AcDbSymbolTableRecord
100
AcDbLayerTableRecord
  2
Defpoints
 70
     0
 62
     7
  6
Continuous
290
     0
370
    -3
390
F
  0
ENDTAB
  0
TABLE
  2
STYLE
  5
3
330
0
100
AcDbSymbolTable
 70
     2
  0
STYLE
  5
11
330
3
100
AcDbSymbolTableRecord
100
AcDbTextStyleTableRecord
  2
Standard
 70
     0
 40
0.0
 41
1.0
 50
0.0
 71
     0
 42
3.5
  3
txt
  4

  0
STYLE
  5
97
330
3
100
AcDbSymbolTableRecord
100
AcDbTextStyleTableRecord
  2
SLDTEXTSTYLE0
 70
     0
 40
0.0
 41
0.75
 50
0.0
 71
     0
 42
3.5
  3
TXT
  4

  0
ENDTAB
  0
TABLE
  2
VIEW
  5
6
330
0
100
AcDbSymbolTable
 70
     0
  0
ENDTAB
  0
TABLE
  2
UCS
  5
7
330
0
100
AcDbSymbolTable
 70
     0
  0
ENDTAB
  0
TABLE
  2
APPID
  5
9
330
0
100
AcDbSymbolTable
 70
     1
  0
APPID
  5
12
330
9
100
AcDbSymbolTableRecord
100
AcDbRegAppTableRecord
  2
ACAD
 70
     0
  0
ENDTAB
  0
TABLE
  2
DIMSTYLE
  5
A
330
0
100
AcDbSymbolTable
 70
     4
100
AcDbDimStyleTable
  0
DIMSTYLE
105
27
330
A
100
AcDbSymbolTableRecord
100
AcDbDimStyleTableRecord
  2
ISO-25
 70
     0
 41
2.5
 42
0.625
 43
3.75
 44
1.25
 73
     0
 74
     0
 77
     1
 78
     8
140
2.5
141
2.5
143
0.03937007874016
147
0.625
171
     3
172
     1
178
     0
271
     2
272
     2
274
     3
278
    44
283
     0
284
     8
340
11
  0
DIMSTYLE
105
D5
102
{ACAD_REACTORS
330
D4
102
}
330
A
100
AcDbSymbolTableRecord
100
AcDbDimStyleTableRecord
  2
SLDDIMSTYLE0
 70
     0
 41
3.302
 44
0.0
 45
0.000000001
 73
     0
 74
     0
 77
     1
 78
    12
 79
     3
140
3.5
147
0.875
172
     1
173
     1
178
     0
271
     1
272
     1
276
     2
284
    12
289
     0
340
97
  0
DIMSTYLE
105
E3
102
{ACAD_REACTORS
330
E2
330
FB
102
}
330
A
100
AcDbSymbolTableRecord
100
AcDbDimStyleTableRecord
  2
SLDDIMSTYLE1
 70
     0
 41
3.302
 44
0.0
 45
0.000000001
 73
     0
 74
     0
 77
     1
 78
    12
 79
     3
140
3.5
147
0.875
173
     1
178
     0
271
     2
272
     2
276
     2
284
    12
340
97
  0
DIMSTYLE
105
EE
102
{ACAD_REACTORS
330
ED
102
}
330
A
100
AcDbSymbolTableRecord
100
AcDbDimStyleTableRecord
  2
SLDDIMSTYLE2
 70
     0
 41
3.302
 44
0.0
 45
0.000000001
 73
     0
 74
     0
 77
     1
 78
    12
 79
     3
140
3.5
147
0.875
172
     1
173
     1
178
     0
271
     2
272
     2
276
     2
284
    12
289
     0
340
97
  0
ENDTAB
  0
TABLE
  2
BLOCK_RECORD
  5
1
330
0
100
AcDbSymbolTable
 70
     7
  0
BLOCK_RECORD
  5
1F
330
1
100
AcDbSymbolTableRecord
100
AcDbBlockTableRecord
  2
*Model_Space
340
22
  0
BLOCK_RECORD
  5
1B
330
1
100
AcDbSymbolTableRecord
100
AcDbBlockTableRecord
  2
*Paper_Space
340
1E
  0
BLOCK_RECORD
  5
23
330
1
100
AcDbSymbolTableRecord
100
AcDbBlockTableRecord
  2
*Paper_Space0
340
26
  0
BLOCK_RECORD
  5
82
330
1
100
AcDbSymbolTableRecord
100
AcDbBlockTableRecord
  2
블럭10
340
0
102
{BLKREFS
331
CD
102
}
  0
BLOCK_RECORD
  5
D6
330
1
100
AcDbSymbolTableRecord
100
AcDbBlockTableRecord
  2
_D
340
0
  0
BLOCK_RECORD
  5
E4
330
1
100
AcDbSymbolTableRecord
100
AcDbBlockTableRecord
  2
_D_1
340
0
  0
BLOCK_RECORD
  5
EF
330
1
100
AcDbSymbolTableRecord
100
AcDbBlockTableRecord
  2
_D_2
340
0
  0
BLOCK_RECORD
  5
FC
330
1
100
AcDbSymbolTableRecord
100
AcDbBlockTableRecord
  2
_D_3
340
0
  0
BLOCK_RECORD
  5
105
330
1
100
AcDbSymbolTableRecord
100
AcDbBlockTableRecord
  2
SW_DOWELSYMBOL_0
340
0
102
{BLKREFS
331
10B
102
}
  0
ENDTAB
  0
ENDSEC
  0
SECTION
  2
BLOCKS
  0
BLOCK
  5
20
330
1F
100
AcDbEntity
  8
0
100
AcDbBlockBegin
  2
*Model_Space
 70
     0
 10
0.0
 20
0.0
 30
0.0
  3
*Model_Space
  1

  0
ENDBLK
  5
21
330
1F
100
AcDbEntity
  8
0
100
AcDbBlockEnd
  0
BLOCK
  5
1C
330
1B
100
AcDbEntity
 67
     1
  8
0
100
AcDbBlockBegin
  2
*Paper_Space
 70
     0
 10
0.0
 20
0.0
 30
0.0
  3
*Paper_Space
  1

  0
ENDBLK
  5
1D
330
1B
100
AcDbEntity
 67
     1
  8
0
100
AcDbBlockEnd
  0
BLOCK
  5
24
330
23
100
AcDbEntity
  8
0
100
AcDbBlockBegin
  2
*Paper_Space0
 70
     0
 10
0.0
 20
0.0
 30
0.0
  3
*Paper_Space0
  1

  0
ENDBLK
  5
25
330
23
100
AcDbEntity
  8
0
100
AcDbBlockEnd
  0
BLOCK
  5
83
330
82
100
AcDbEntity
  8
0
100
AcDbBlockBegin
  2
블럭10
 70
     2
 10
0.0
 20
0.0
 30
0.0
  3
블럭10
  1

  0
ELLIPSE
  5
85
330
82
100
AcDbEntity
  8
중심선
100
AcDbEllipse
 10
20.54032771741204
 20
12.0471743016438
 30
0.0
 11
6.600054785286829
 21
-1.261213355974178E-13
 31
0.0
210
0.0
220
0.0
230
1.0
 40
0.636358354079598
 41
0.9219305317359503
 42
6.513795318482858
  0
ELLIPSE
  5
86
330
82
100
AcDbEntity
  8
중심선
100
AcDbEllipse
 10
20.54032771746488
 20
12.04717430159265
 30
0.0
 11
3.960054785062283
 21
1.540847449632565E-10
 31
0.0
210
0.0
220
0.0
230
1.0
 40
0.3939339440162632
 41
1.131841032648279
 42
5.62031148352944
  0
LINE
  5
87
330
82
100
AcDbEntity
  8
중심선
100
AcDbLine
 10
2.268634060543552
 20
16.24717430164393
 30
0.0
 11
5.714909304380834
 21
16.24717430164393
 31
0.0
  0
LINE
  5
88
330
82
100
AcDbEntity
  8
중심선
100
AcDbLine
 10
5.245725140726316
 20
7.84717430164391
 30
0.0
 11
8.692000384563599
 21
7.84717430164391
 31
0.0
  0
LINE
  5
89
330
82
100
AcDbEntity
  8
중심선
100
AcDbLine
 10
15.74043728645272
 20
16.24717430164393
 30
0.0
 11
8.692000384563599
 21
7.84717430164391
 31
0.0
  0
LINE
  5
8A
330
82
100
AcDbEntity
  8
중심선
100
AcDbLine
 10
0.1404042013395286
 20
13.71084872107135
 30
0.0
 11
3.58671253028996
 21
13.71088815037384
 31
0.0
  0
LINE
  5
8B
330
82
100
AcDbEntity
  8
중심선
100
AcDbLine
 10
2.750260043222114
 20
10.84717430164391
 30
0.0
 11
6.196535287059397
 21
10.84717430164391
 31
0.0
  0
LINE
  5
8C
330
82
100
AcDbEntity
  8
중심선
100
AcDbLine
 10
12.29416204261559
 20
16.24717430164393
 30
0.0
 11
5.245725140726316
 21
7.84717430164391
 31
0.0
  0
LINE
  5
8D
330
82
100
AcDbEntity
  8
중심선
100
AcDbLine
 10
10.72767329541681
 20
16.24717430164393
 30
0.0
 11
6.196535287059397
 21
10.84717430164391
 31
0.0
  0
LINE
  5
8E
330
82
100
AcDbEntity
  8
중심선
100
AcDbLine
 10
7.28139805157953
 20
16.24717430164393
 30
0.0
 11
2.750260043222114
 21
10.84717430164391
 31
0.0
  0
LINE
  5
8F
330
82
100
AcDbEntity
  8
중심선
100
AcDbLine
 10
5.714909304380834
 20
16.24717430164393
 30
0.0
 11
3.58671253028996
 21
13.71088815037384
 31
0.0
  0
LINE
  5
90
330
82
100
AcDbEntity
  8
중심선
100
AcDbLine
 10
2.268634060543552
 20
16.24717430164393
 30
0.0
 11
0.1404042013395286
 21
13.71084872107135
 31
0.0
  0
LINE
  5
91
330
82
100
AcDbEntity
  8
중심선
100
AcDbLine
 10
7.28139805157953
 20
16.24717430164393
 30
0.0
 11
10.72767329541681
 21
16.24717430164393
 31
0.0
  0
LINE
  5
92
330
82
100
AcDbEntity
  8
중심선
100
AcDbLine
 10
12.29416204261559
 20
16.24717430164393
 30
0.0
 11
15.74043728645272
 21
16.24717430164393
 31
0.0
  0
LINE
  5
93
330
82
100
AcDbEntity
  8
중심선
100
AcDbLine
 10
19.22036997980202
 20
11.08717430171403
 30
0.0
 11
23.66174974927406
 21
11.08717430171406
 31
0.0
  0
LINE
  5
94
330
82
100
AcDbEntity
  8
중심선
100
AcDbLine
 10
19.22039502424796
 20
13.00717430171391
 30
0.0
 11
19.22036997980202
 21
11.08717430171403
 31
0.0
  0
LINE
  5
95
330
82
100
AcDbEntity
  8
중심선
100
AcDbLine
 10
19.22039502424796
 20
13.00717430171391
 30
0.0
 11
26.96566020931264
 21
13.00717430171391
 31
0.0
  0
LINE
  5
96
330
82
100
AcDbEntity
  8
중심선
100
AcDbLine
 10
22.22332737316547
 20
13.45928029700563
 30
0.0
 11
24.52862924686651
 21
15.39360700705356
 31
0.0
  0
ATTDEF
  5
98
330
82
100
AcDbEntity
  8
FORMAT
 62
     2
100
AcDbText
 10
-16.11926103943555
 20
2.075366912832191
 30
0.0
 40
4.233333333333333
  1
SEME7108030E [ 4 FLUTE ]
 41
0.75
  7
SLDTEXTSTYLE0
 11
-16.11926103943555
 21
-0.0412997538344756
 31
0.0
100
AcDbAttributeDefinition
  3

  2
AUTOATTR0
 70
     0
 74
     1
  0
ENDBLK
  5
84
330
82
100
AcDbEntity
  8
0
100
AcDbBlockEnd
  0
BLOCK
  5
D7
330
D6
100
AcDbEntity
  8
0
100
AcDbBlockBegin
  2
_D
 70
     0
 10
0.0
 20
0.0
 30
0.0
  3
_D
  1

  0
LINE
  5
D9
330
D6
100
AcDbEntity
  8
치수문자_일반주서
 62
     0
370
    -2
100
AcDbLine
 10
40.06250000000024
 20
-3.999999999999569
 30
0.0
 11
50.76087697213057
 21
-3.999999999999531
 31
0.0
  0
LINE
  5
DA
330
D6
100
AcDbEntity
  8
치수문자_일반주서
 62
     0
370
    -2
100
AcDbLine
 10
40.06250000000024
 20
4.000000000000443
 30
0.0
 11
50.76087697213054
 21
4.000000000000483
 31
0.0
  0
LINE
  5
DB
330
D6
100
AcDbEntity
  8
치수문자_일반주서
 62
     0
370
    -2
100
AcDbLine
 10
50.76087697213057
 20
-3.999999999999531
 30
0.0
 11
50.76087697213049
 21
16.72900000000048
 31
0.0
  0
LINE
  5
DC
330
D6
100
AcDbEntity
  8
치수문자_일반주서
 62
     0
370
    -2
100
AcDbLine
 10
50.76087697213057
 20
-3.999999999999531
 30
0.0
 11
50.76087697213054
 21
4.000000000000483
 31
0.0
  0
LINE
  5
DD
330
D6
100
AcDbEntity
  8
치수문자_일반주서
 62
     0
370
    -2
100
AcDbLine
 10
50.76087697213058
 20
-7.301999999999531
 30
0.0
 11
50.7608769721306
 21
-10.60399999999953
 31
0.0
  0
LINE
  5
DE
330
D6
100
AcDbEntity
  8
치수문자_일반주서
 62
     0
370
    -2
100
AcDbLine
 10
50.76087697213053
 20
7.302000000000483
 30
0.0
 11
50.76087697213051
 21
10.60400000000048
 31
0.0
  0
SOLID
  5
DF
330
D6
100
AcDbEntity
  8
치수문자_일반주서
 62
     0
100
AcDbTrace
 10
51.31121030546392
 20
-7.301999999999529
 30
0.0
 11
50.21054363879725
 21
-7.301999999999532
 31
0.0
 12
50.76087697213057
 22
-3.999999999999531
 32
0.0
 13
50.76087697213057
 23
-3.999999999999531
 33
0.0
  0
SOLID
  5
E0
330
D6
100
AcDbEntity
  8
치수문자_일반주서
 62
     0
100
AcDbTrace
 10
50.21054363879719
 20
7.302000000000481
 30
0.0
 11
51.31121030546386
 21
7.302000000000485
 31
0.0
 12
50.76087697213054
 22
4.000000000000483
 32
0.0
 13
50.76087697213054
 23
4.000000000000483
 33
0.0
  0
MTEXT
  5
E1
330
D6
100
AcDbEntity
  8
치수문자_일반주서
 62
     0
100
AcDbMText
 10
46.3858769721305
 20
13.66650000000047
 30
0.0
 40
3.5
 41
0.0
 71
     2
 72
     1
  1
\A1;%%c8
  7
SLDTEXTSTYLE0
 11
-3.552713678800495E-15
 21
1.0
 31
0.0
 73
     1
 44
1.0
  0
POINT
  5
13B
330
D6
100
AcDbEntity
  8
Defpoints
 62
     0
100
AcDbPoint
 10
40.00000000000024
 20
-3.999999999999569
 30
0.0
  0
POINT
  5
13C
330
D6
100
AcDbEntity
  8
Defpoints
 62
     0
100
AcDbPoint
 10
40.00000000000024
 20
4.000000000000443
 30
0.0
  0
POINT
  5
13D
330
D6
100
AcDbEntity
  8
Defpoints
 62
     0
100
AcDbPoint
 10
50.76087697213054
 20
4.000000000000483
 30
0.0
  0
ENDBLK
  5
D8
330
D6
100
AcDbEntity
  8
0
100
AcDbBlockEnd
  0
BLOCK
  5
E5
330
E4
100
AcDbEntity
  8
0
100
AcDbBlockBegin
  2
_D_1
 70
     0
 10
0.0
 20
0.0
 30
0.0
  3
_D_1
  1

  0
LINE
  5
E7
330
E4
100
AcDbEntity
  8
치수문자_일반주서
 62
     0
370
    -2
100
AcDbLine
 10
-29.99999999999979
 20
3.562500000000432
 30
0.0
 11
-29.99999999999979
 21
21.38913260158208
 31
0.0
  0
LINE
  5
E8
330
E4
100
AcDbEntity
  8
치수문자_일반주서
 62
     0
370
    -2
100
AcDbLine
 10
40.00000000000021
 20
4.062500000000442
 30
0.0
 11
40.00000000000022
 21
21.38913260158208
 31
0.0
  0
LINE
  5
E9
330
E4
100
AcDbEntity
  8
치수문자_일반주서
 62
     0
370
    -2
100
AcDbLine
 10
-26.69799999999979
 20
21.38913260158208
 30
0.0
 11
36.69800000000022
 21
21.38913260158208
 31
0.0
  0
SOLID
  5
EA
330
E4
100
AcDbEntity
  8
치수문자_일반주서
 62
     0
100
AcDbTrace
 10
-26.69799999999979
 20
21.93946593491542
 30
0.0
 11
-26.69799999999979
 21
20.83879926824875
 31
0.0
 12
-29.99999999999979
 22
21.38913260158208
 32
0.0
 13
-29.99999999999979
 23
21.38913260158208
 33
0.0
  0
SOLID
  5
EB
330
E4
100
AcDbEntity
  8
치수문자_일반주서
 62
     0
100
AcDbTrace
 10
36.69800000000022
 20
20.83879926824875
 30
0.0
 11
36.69800000000022
 21
21.93946593491542
 31
0.0
 12
40.00000000000022
 22
21.38913260158208
 32
0.0
 13
40.00000000000022
 23
21.38913260158208
 33
0.0
  0
MTEXT
  5
EC
330
E4
100
AcDbEntity
  8
치수문자_일반주서
 62
     0
100
AcDbMText
 10
5.000000000000207
 20
25.76413260158208
 30
0.0
 40
3.5
 41
0.0
 71
     2
 72
     1
  1
\A1;70
  7
SLDTEXTSTYLE0
 73
     1
 44
1.0
  0
POINT
  5
132
330
E4
100
AcDbEntity
  8
Defpoints
 62
     0
100
AcDbPoint
 10
-29.99999999999979
 20
3.500000000000432
 30
0.0
  0
POINT
  5
133
330
E4
100
AcDbEntity
  8
Defpoints
 62
     0
100
AcDbPoint
 10
40.00000000000021
 20
4.000000000000442
 30
0.0
  0
POINT
  5
134
330
E4
100
AcDbEntity
  8
Defpoints
 62
     0
100
AcDbPoint
 10
40.00000000000021
 20
21.38913260158208
 30
0.0
  0
ENDBLK
  5
E6
330
E4
100
AcDbEntity
  8
0
100
AcDbBlockEnd
  0
BLOCK
  5
F0
330
EF
100
AcDbEntity
  8
0
100
AcDbBlockBegin
  2
_D_2
 70
     0
 10
0.0
 20
0.0
 30
0.0
  3
_D_2
  1

  0
LINE
  5
F2
330
EF
100
AcDbEntity
  8
치수문자_일반주서
 62
     0
370
    -2
100
AcDbLine
 10
-29.56249999999979
 20
4.000000000000441
 30
0.0
 11
-37.56177950419075
 21
4.00000000000041
 31
0.0
  0
LINE
  5
F3
330
EF
100
AcDbEntity
  8
치수문자_일반주서
 62
     0
370
    -2
100
AcDbLine
 10
-29.56249999999979
 20
-3.999999999999567
 30
0.0
 11
-37.56177950419072
 21
-3.999999999999599
 31
0.0
  0
LINE
  5
F4
330
EF
100
AcDbEntity
  8
치수문자_일반주서
 62
     0
370
    -2
100
AcDbLine
 10
-37.56177950419075
 20
4.00000000000041
 30
0.0
 11
-37.5617795041908
 21
16.72900000000041
 31
0.0
  0
LINE
  5
F5
330
EF
100
AcDbEntity
  8
치수문자_일반주서
 62
     0
370
    -2
100
AcDbLine
 10
-37.56177950419075
 20
4.00000000000041
 30
0.0
 11
-37.56177950419072
 21
-3.999999999999599
 31
0.0
  0
LINE
  5
F6
330
EF
100
AcDbEntity
  8
치수문자_일반주서
 62
     0
370
    -2
100
AcDbLine
 10
-37.56177950419076
 20
7.30200000000041
 30
0.0
 11
-37.56177950419077
 21
10.60400000000041
 31
0.0
  0
LINE
  5
F7
330
EF
100
AcDbEntity
  8
치수문자_일반주서
 62
     0
370
    -2
100
AcDbLine
 10
-37.5617795041907
 20
-7.301999999999598
 30
0.0
 11
-37.56177950419069
 21
-10.6039999999996
 31
0.0
  0
SOLID
  5
F8
330
EF
100
AcDbEntity
  8
치수문자_일반주서
 62
     0
100
AcDbTrace
 10
-38.11211283752409
 20
7.302000000000408
 30
0.0
 11
-37.01144617085743
 21
7.302000000000412
 31
0.0
 12
-37.56177950419075
 22
4.00000000000041
 32
0.0
 13
-37.56177950419075
 23
4.00000000000041
 33
0.0
  0
SOLID
  5
F9
330
EF
100
AcDbEntity
  8
치수문자_일반주서
 62
     0
100
AcDbTrace
 10
-37.01144617085737
 20
-7.301999999999596
 30
0.0
 11
-38.11211283752404
 21
-7.3019999999996
 31
0.0
 12
-37.56177950419072
 22
-3.999999999999599
 32
0.0
 13
-37.56177950419072
 23
-3.999999999999599
 33
0.0
  0
MTEXT
  5
FA
330
EF
100
AcDbEntity
  8
치수문자_일반주서
 62
     0
100
AcDbMText
 10
-41.93677950419078
 20
13.6665000000004
 30
0.0
 40
3.5
 41
0.0
 71
     2
 72
     1
  1
\A1;%%c8
  7
SLDTEXTSTYLE0
 11
-3.552713678800498E-15
 21
1.0
 31
0.0
 73
     1
 44
1.0
  0
POINT
  5
138
330
EF
100
AcDbEntity
  8
Defpoints
 62
     0
100
AcDbPoint
 10
-29.49999999999979
 20
4.000000000000441
 30
0.0
  0
POINT
  5
139
330
EF
100
AcDbEntity
  8
Defpoints
 62
     0
100
AcDbPoint
 10
-29.49999999999979
 20
-3.999999999999567
 30
0.0
  0
POINT
  5
13A
330
EF
100
AcDbEntity
  8
Defpoints
 62
     0
100
AcDbPoint
 10
-37.56177950419071
 20
-3.999999999999597
 30
0.0
  0
ENDBLK
  5
F1
330
EF
100
AcDbEntity
  8
0
100
AcDbBlockEnd
  0
BLOCK
  5
FD
330
FC
100
AcDbEntity
  8
0
100
AcDbBlockBegin
  2
_D_3
 70
     0
 10
0.0
 20
0.0
 30
0.0
  3
_D_3
  1

  0
LINE
  5
FF
330
FC
100
AcDbEntity
  8
치수문자_일반주서
 62
     0
370
    -2
100
AcDbLine
 10
10.00000000000021
 20
3.982661705573331
 30
0.0
 11
10.00000000000021
 21
14.76608000816098
 31
0.0
  0
LINE
  5
100
330
FC
100
AcDbEntity
  8
치수문자_일반주서
 62
     0
370
    -2
100
AcDbLine
 10
40.00000000000021
 20
4.062500000000442
 30
0.0
 11
40.00000000000021
 21
14.76608000816098
 31
0.0
  0
LINE
  5
101
330
FC
100
AcDbEntity
  8
치수문자_일반주서
 62
     0
370
    -2
100
AcDbLine
 10
13.30200000000021
 20
14.76608000816098
 30
0.0
 11
36.69800000000021
 21
14.76608000816098
 31
0.0
  0
SOLID
  5
102
330
FC
100
AcDbEntity
  8
치수문자_일반주서
 62
     0
100
AcDbTrace
 10
13.30200000000021
 20
15.31641334149431
 30
0.0
 11
13.30200000000021
 21
14.21574667482765
 31
0.0
 12
10.00000000000021
 22
14.76608000816098
 32
0.0
 13
10.00000000000021
 23
14.76608000816098
 33
0.0
  0
SOLID
  5
103
330
FC
100
AcDbEntity
  8
치수문자_일반주서
 62
     0
100
AcDbTrace
 10
36.69800000000021
 20
14.21574667482765
 30
0.0
 11
36.69800000000021
 21
15.31641334149431
 31
0.0
 12
40.00000000000021
 22
14.76608000816098
 32
0.0
 13
40.00000000000021
 23
14.76608000816098
 33
0.0
  0
MTEXT
  5
104
330
FC
100
AcDbEntity
  8
치수문자_일반주서
 62
     0
100
AcDbMText
 10
25.00000000000021
 20
19.14108000816098
 30
0.0
 40
3.5
 41
0.0
 71
     2
 72
     1
  1
\A1;30
  7
SLDTEXTSTYLE0
 73
     1
 44
1.0
  0
POINT
  5
135
330
FC
100
AcDbEntity
  8
Defpoints
 62
     0
100
AcDbPoint
 10
10.00000000000021
 20
3.920161705573331
 30
0.0
  0
POINT
  5
136
330
FC
100
AcDbEntity
  8
Defpoints
 62
     0
100
AcDbPoint
 10
40.00000000000021
 20
4.000000000000442
 30
0.0
  0
POINT
  5
137
330
FC
100
AcDbEntity
  8
Defpoints
 62
     0
100
AcDbPoint
 10
40.00000000000021
 20
14.76608000816098
 30
0.0
  0
ENDBLK
  5
FE
330
FC
100
AcDbEntity
  8
0
100
AcDbBlockEnd
  0
BLOCK
  5
106
330
105
100
AcDbEntity
  8
0
100
AcDbBlockBegin
  2
SW_DOWELSYMBOL_0
 70
     0
 10
0.0
 20
0.0
 30
0.0
  3
SW_DOWELSYMBOL_0
  1

  0
CIRCLE
  5
108
330
105
100
AcDbEntity
  8
해칭선
 62
     0
100
AcDbCircle
 10
0.0
 20
0.0
 30
0.0
 40
3.000000000000001
  0
HATCH
  5
109
330
105
100
AcDbEntity
  8
0
  6
Continuous
 62
     0
370
    18
100
AcDbHatch
 10
0.0
 20
0.0
 30
0.0
210
0.0
220
0.0
230
1.0
  2
SOLID
 70
     1
 71
     0
 91
        1
 92
        0
 93
        3
 72
     2
 10
0.0
 20
0.0
 40
3.000000000000001
 50
0.0
 51
90.0
 73
     1
 72
     1
 10
0.0
 20
3.000000000000001
 11
0.0
 21
0.0
 72
     1
 10
0.0
 20
0.0
 11
3.000000000000001
 21
0.0
 97
        0
 75
     0
 76
     1
 98
        1
 10
0.0
 20
0.0
  0
HATCH
  5
10A
330
105
100
AcDbEntity
  8
0
  6
Continuous
 62
     0
370
    18
100
AcDbHatch
 10
0.0
 20
0.0
 30
0.0
210
0.0
220
0.0
230
1.0
  2
SOLID
 70
     1
 71
     0
 91
        1
 92
        0
 93
        3
 72
     2
 10
0.0
 20
0.0
 40
3.000000000000001
 50
180.0
 51
270.0000000000008
 73
     1
 72
     1
 10
0.0
 20
-3.000000000000001
 11
0.0
 21
0.0
 72
     1
 10
0.0
 20
0.0
 11
-3.000000000000001
 21
0.0
 97
        0
 75
     0
 76
     1
 98
        1
 10
0.0
 20
0.0
  0
ENDBLK
  5
107
330
105
100
AcDbEntity
  8
0
100
AcDbBlockEnd
  0
ENDSEC
  0
SECTION
  2
ENTITIES
  0
LINE
  5
99
330
1F
100
AcDbEntity
  8
0
  6
Continuous
 62
     4
370
    25
100
AcDbLine
 10
8.975191567150873
 20
4.000000000000437
 30
0.0
 11
-29.49999999999979
 21
4.000000000000435
 31
0.0
  0
LINE
  5
9A
330
1F
100
AcDbEntity
  8
0
  6
Continuous
 62
     4
370
    25
100
AcDbLine
 10
-29.49999999999979
 20
-3.999999999999565
 30
0.0
 11
8.975191567150924
 21
-3.999999999999563
 31
0.0
  0
LINE
  5
9B
330
1F
100
AcDbEntity
  8
0
  6
Continuous
 62
     4
370
    25
100
AcDbLine
 10
-29.49999999999979
 20
4.000000000000433
 30
0.0
 11
-29.99999999999979
 21
3.500000000000432
 31
0.0
  0
LINE
  5
9C
330
1F
100
AcDbEntity
  8
0
  6
Continuous
 62
     4
370
    25
100
AcDbLine
 10
-29.99999999999979
 20
-3.499999999999563
 30
0.0
 11
-29.49999999999979
 21
-3.999999999999565
 31
0.0
  0
LINE
  5
9D
330
1F
100
AcDbEntity
  8
0
  6
Continuous
 62
     1
370
    25
100
AcDbLine
 10
38.85640896798606
 20
-3.999999999999565
 30
0.0
 11
40.00000000000021
 21
-3.999999999999565
 31
0.0
  0
LINE
  5
9E
330
1F
100
AcDbEntity
  8
0
  6
Continuous
 62
     1
370
    25
100
AcDbLine
 10
25.0594237101662
 20
4.000000000000441
 30
0.0
 11
22.7727861821477
 21
4.000000000000441
 31
0.0
  0
LINE
  5
9F
330
1F
100
AcDbEntity
  8
0
  6
Continuous
 62
     1
370
    25
100
AcDbLine
 10
30.8146375923144
 20
-3.999999999999565
 30
0.0
 11
33.10195899828639
 21
-3.999999999999565
 31
0.0
  0
LINE
  5
A0
330
1F
100
AcDbEntity
  8
0
  6
Continuous
 62
     1
370
    25
100
AcDbLine
 10
17.01673184566437
 20
4.000000000000441
 30
0.0
 11
14.73073042559616
 21
4.000000000000441
 31
0.0
  0
LINE
  5
A1
330
1F
100
AcDbEntity
  8
0
  6
Continuous
 62
     1
370
    25
100
AcDbLine
 10
14.73073042559619
 20
-3.999999999999565
 30
0.0
 11
17.01673184566437
 21
-3.999999999999565
 31
0.0
  0
LINE
  5
A2
330
1F
100
AcDbEntity
  8
0
  6
Continuous
 62
     1
370
    25
100
AcDbLine
 10
33.10195899828641
 20
4.000000000000441
 30
0.0
 11
30.81463759231445
 21
4.000000000000441
 31
0.0
  0
LINE
  5
A3
330
1F
100
AcDbEntity
  8
0
  6
Continuous
 62
     1
370
    25
100
AcDbLine
 10
22.7727861821477
 20
-3.999999999999565
 30
0.0
 11
25.05942371016616
 21
-3.999999999999565
 31
0.0
  0
LINE
  5
A4
330
1F
100
AcDbEntity
  8
0
  6
Continuous
 62
     1
370
    25
100
AcDbLine
 10
40.00000000000021
 20
4.000000000000441
 30
0.0
 11
38.85640896798607
 21
4.000000000000441
 31
0.0
  0
SPLINE
  5
A5
330
1F
100
AcDbEntity
  8
0
  6
Continuous
 62
     4
370
    25
100
AcDbSpline
210
0.0
220
0.0
230
1.0
 70
     8
 71
     3
 72
    10
 73
     6
 74
     0
 42
0.000000001
 43
0.00000001
 40
0.0
 40
0.0
 40
0.0
 40
0.0
 40
0.5
 40
0.5
 40
1.0
 40
1.0
 40
1.0
 40
1.0
 10
8.810943087389376
 20
0.1286553538140135
 30
0.0
 10
8.711337374959594
 20
0.2063546954891741
 30
0.0
 10
8.632144790332493
 20
0.3068295512714486
 30
0.0
 10
8.526433548252024
 20
0.5313753459015985
 30
0.0
 10
8.499998255862982
 20
0.6556378165875754
 30
0.0
 10
8.499998255863025
 20
0.7794566031899607
 30
0.0
  0
SPLINE
  5
A6
330
1F
100
AcDbEntity
  8
0
  6
Continuous
 62
     4
370
    25
100
AcDbSpline
210
0.0
220
0.0
230
1.0
 70
     8
 71
     3
 72
    16
 73
    12
 74
     0
 42
0.000000001
 43
0.00000001
 40
0.0
 40
0.0
 40
0.0
 40
0.0
 40
0.1249999999999999
 40
0.1249999999999999
 40
0.2499999999999999
 40
0.2499999999999999
 40
0.4999999999999999
 40
0.4999999999999999
 40
0.7499999999999999
 40
0.7499999999999999
 40
1.0
 40
1.0
 40
1.0
 40
1.0
 10
8.499998255863037
 20
2.872602441785995
 30
0.0
 10
8.499998255863037
 20
2.925345704788157
 30
0.0
 10
8.509153992580298
 20
2.97546736036241
 30
0.0
 10
8.547122570059509
 20
3.070702775769845
 30
0.0
 10
8.576113957357608
 20
3.115320475017437
 30
0.0
 10
8.689411266238498
 20
3.234236165958998
 30
0.0
 10
8.803548741642853
 20
3.295781040944385
 30
0.0
 10
9.070866157328561
 20
3.371489756482869
 30
0.0
 10
9.2232685220244
 20
3.386852490862336
 30
0.0
 10
9.52439127088757
 20
3.371852450722321
 30
0.0
 10
9.668785825168204
 20
3.341757493126927
 30
0.0
 10
9.788513606518858
 20
3.28865798811822
 30
0.0
  0
SPLINE
  5
A7
330
1F
100
AcDbEntity
  8
0
  6
Continuous
 62
     4
370
    25
100
AcDbSpline
210
0.0
220
0.0
230
1.0
 70
     8
 71
     3
 72
    10
 73
     6
 74
     0
 42
0.000000001
 43
0.00000001
 40
0.0
 40
0.0
 40
0.0
 40
0.0
 40
0.5
 40
0.5
 40
1.0
 40
1.0
 40
1.0
 40
1.0
 10
10.00000000000021
 20
-0.795193185432997
 30
0.0
 10
9.801046011836505
 20
-0.6432185829567298
 30
0.0
 10
9.60155960882249
 20
-0.4893114370153393
 30
0.0
 10
9.205549013055121
 20
-0.1807534420453629
 30
0.0
 10
9.009496613583787
 20
-0.026230123095392
 30
0.0
 10
8.810943087389376
 20
0.1286553538140137
 30
0.0
  0
SPLINE
  5
A8
330
1F
100
AcDbEntity
  8
0
  6
Continuous
 62
     4
370
    25
100
AcDbSpline
210
0.0
220
0.0
230
1.0
 70
     8
 71
     3
 72
     8
 73
     4
 74
     0
 42
0.000000001
 43
0.00000001
 40
0.0
 40
0.0
 40
0.0
 40
0.0
 40
1.0
 40
1.0
 40
1.0
 40
1.0
 10
10.00000000000021
 20
3.192093439538382
 30
0.0
 10
9.929541621647367
 20
3.225187896264799
 30
0.0
 10
9.859016253885484
 20
3.257389926230326
 30
0.0
 10
9.788513606518858
 20
3.288657988118209
 30
0.0
  0
SPLINE
  5
A9
330
1F
100
AcDbEntity
  8
0
  6
Continuous
 62
     4
370
    25
100
AcDbSpline
210
0.0
220
0.0
230
1.0
 70
     8
 71
     3
 72
     9
 73
     5
 74
     0
 42
0.000000001
 43
0.00000001
 40
0.0
 40
0.0
 40
0.0
 40
0.0
 40
0.5816102441980279
 40
1.0
 40
1.0
 40
1.0
 40
1.0
 10
10.00000000000018
 20
3.920161705573336
 30
0.0
 10
9.801090565362655
 20
3.947298472264096
 30
0.0
 10
9.459092747026776
 20
3.993956465243878
 30
0.0
 10
9.11793039873958
 20
3.994416094922728
 30
0.0
 10
8.975191567150873
 20
3.994608399271822
 30
0.0
  0
LINE
  5
AA
330
1F
100
AcDbEntity
  8
0
  6
Continuous
 62
     4
370
    25
100
AcDbLine
 10
8.499998255863037
 20
2.872602441785995
 30
0.0
 11
8.499998255863037
 21
0.7794566031900131
 31
0.0
  0
SPLINE
  5
AB
330
1F
100
AcDbEntity
  8
0
  6
Continuous
 62
     1
370
    25
100
AcDbSpline
210
0.0
220
0.0
230
1.0
 70
     8
 71
     3
 72
     8
 73
     4
 74
     0
 42
0.000000001
 43
0.00000001
 40
0.0
 40
0.0
 40
0.0
 40
0.0
 40
1.0
 40
1.0
 40
1.0
 40
1.0
 10
10.00000000000021
 20
-2.410506061651092
 30
0.0
 10
9.929541621647367
 20
-2.366680991105909
 30
0.0
 10
9.859016253885484
 20
-2.322160203641619
 30
0.0
 10
9.788513606518858
 20
-2.276999920330945
 30
0.0
  0
SPLINE
  5
AC
330
1F
100
AcDbEntity
  8
0
  6
Continuous
 62
     4
370
    25
100
AcDbSpline
210
0.0
220
0.0
230
1.0
 70
     8
 71
     3
 72
    16
 73
    12
 74
     0
 42
0.000000001
 43
0.00000001
 40
0.0
 40
0.0
 40
0.0
 40
0.0
 40
0.125
 40
0.125
 40
0.25
 40
0.25
 40
0.5
 40
0.5
 40
0.75
 40
0.75
 40
1.0
 40
1.0
 40
1.0
 40
1.0
 10
8.499998255863037
 20
-2.783550827889671
 30
0.0
 10
8.499998255863037
 20
-2.729120197570415
 30
0.0
 10
8.509153992580298
 20
-2.67430023632315
 30
0.0
 10
8.547122570059509
 20
-2.564385351202046
 30
0.0
 10
8.57611395735761
 20
-2.509768158168812
 30
0.0
 10
8.689411266238501
 20
-2.357190680043736
 30
0.0
 10
8.803548741642853
 20
-2.267712266834546
 30
0.0
 10
9.070866157328561
 20
-2.153543223836375
 30
0.0
 10
9.2232685220244
 20
-2.128244984426077
 30
0.0
 10
9.52439127088757
 20
-2.151931123236292
 30
0.0
 10
9.668785825168204
 20
-2.200308608331886
 30
0.0
 10
9.788513606518858
 20
-2.276999920330951
 30
0.0
  0
LINE
  5
AD
330
1F
100
AcDbEntity
  8
0
  6
Continuous
 62
     4
370
    25
100
AcDbLine
 10
8.499998255863037
 20
-2.783550827889671
 30
0.0
 11
8.499998255863037
 21
-3.923320966189402
 31
0.0
  0
SPLINE
  5
AE
330
1F
100
AcDbEntity
  8
0
  6
Continuous
 62
     4
370
    25
100
AcDbSpline
210
0.0
220
0.0
230
1.0
 70
     8
 71
     3
 72
    10
 73
     6
 74
     0
 42
0.000000001
 43
0.00000001
 40
0.0
 40
0.0
 40
0.0
 40
0.0
 40
0.5
 40
0.5
 40
1.0
 40
1.0
 40
1.0
 40
1.0
 10
8.810943087389376
 20
-3.997930439606424
 30
0.0
 10
8.711337374959648
 20
-3.995430036849225
 30
0.0
 10
8.632144790332573
 20
-3.989812119002522
 30
0.0
 10
8.5264335482521
 20
-3.966154984394985
 30
0.0
 10
8.499998255863028
 20
-3.947920373591388
 30
0.0
 10
8.499998255863028
 20
-3.923320966189402
 30
0.0
  0
SPLINE
  5
AF
330
1F
100
AcDbEntity
  8
0
  6
Continuous
 62
     4
370
    25
100
AcDbSpline
210
0.0
220
0.0
230
1.0
 70
     8
 71
     3
 72
    10
 73
     6
 74
     0
 42
0.000000001
 43
0.00000001
 40
0.0
 40
0.0
 40
0.0
 40
0.0
 40
0.5
 40
0.5
 40
1.0
 40
1.0
 40
1.0
 40
1.0
 10
10.00000000000021
 20
-3.920161705572462
 30
0.0
 10
9.801046011836505
 20
-3.950989303341269
 30
0.0
 10
9.60155960882249
 20
-3.972976779129176
 30
0.0
 10
9.205549013055121
 20
-3.998912147457437
 30
0.0
 10
9.009496613583787
 20
-4.002914729886953
 30
0.0
 10
8.810943087389376
 20
-3.997930439606424
 30
0.0
  0
LINE
  5
B0
330
1F
100
AcDbEntity
  8
0
  6
Continuous
 62
     4
370
    25
100
AcDbLine
 10
-29.49999999999979
 20
4.000000000000433
 30
0.0
 11
-29.49999999999979
 21
-3.999999999999565
 31
0.0
  0
LINE
  5
B1
330
1F
100
AcDbEntity
  8
0
  6
Continuous
 62
     4
370
    25
100
AcDbLine
 10
-29.99999999999979
 20
3.500000000000432
 30
0.0
 11
-29.99999999999979
 21
-3.499999999999563
 31
0.0
  0
SPLINE
  5
B2
330
1F
100
AcDbEntity
  8
0
  6
Continuous
 62
     1
370
    25
100
AcDbSpline
210
0.0
220
0.0
230
1.0
 70
     8
 71
     3
 72
    27
 73
    23
 74
     0
 42
0.000000001
 43
0.00000001
 40
0.0
 40
0.0
 40
0.0
 40
0.0
 40
0.0220163299736639
 40
0.0739503541052335
 40
0.1259274227350711
 40
0.1778026827460218
 40
0.2296721923676037
 40
0.2816371588185742
 40
0.3335856644800116
 40
0.3854503918739451
 40
0.4373333612083704
 40
0.4893195471703248
 40
0.5412392846048955
 40
0.5930991096659347
 40
0.6450011474406739
 40
0.7023980642863316
 40
0.7597528795664829
 40
0.8170597449487378
 40
0.8743552653615457
 40
0.9316761708833964
 40
0.9890587345287892
 40
1.0
 40
1.0
 40
1.0
 40
1.0
 10
19.89426574348192
 20
3.369358341351628
 30
0.0
 10
20.03336029525944
 20
3.430928466392213
 30
0.0
 10
20.50056311109483
 20
3.637735529808377
 30
0.0
 10
21.29661161409619
 20
3.854136940756216
 30
0.0
 10
22.28189716070654
 20
4.00740816154407
 30
0.0
 10
23.26568205169947
 20
4.00574641882312
 30
0.0
 10
24.24936398942824
 20
3.858232705666443
 30
0.0
 10
25.23448561320042
 20
3.568274403263368
 30
0.0
 10
26.21936804767302
 20
3.146982958716187
 30
0.0
 10
27.2029596256565
 20
2.609296385595574
 30
0.0
 10
28.18686408573654
 20
1.975270630123723
 30
0.0
 10
29.17229413309008
 20
1.269547647382684
 30
0.0
 10
30.15675777387148
 20
0.5162212203613218
 30
0.0
 10
31.14024129156761
 20
-0.2563323760900527
 30
0.0
 10
32.15864064182595
 20
-1.045784041453906
 30
0.0
 10
33.21273139873173
 20
-1.819063629992111
 30
0.0
 10
34.30041665197337
 20
-2.536560632717191
 30
0.0
 10
35.38716182190951
 20
-3.138841949960223
 30
0.0
 10
36.47363485162448
 20
-3.604301207028322
 30
0.0
 10
37.56067915485546
 20
-3.892005195386304
 30
0.0
 10
38.35524766898295
 20
-4.017627549046315
 30
0.0
 10
38.78723174887337
 20
-3.990450348810472
 30
0.0
 10
38.85640896798606
 20
-3.986098236723234
 30
0.0
  0
SPLINE
  5
B3
330
1F
100
AcDbEntity
  8
0
  6
Continuous
 62
     1
370
    25
100
AcDbSpline
210
0.0
220
0.0
230
1.0
 70
     8
 71
     3
 72
    23
 73
    19
 74
     0
 42
0.000000001
 43
0.00000001
 40
0.0
 40
0.0
 40
0.0
 40
0.0
 40
0.0659386760336771
 40
0.1317631625991837
 40
0.1976028741464483
 40
0.2635735922115248
 40
0.3294739263079909
 40
0.3952903300018459
 40
0.4611523906483353
 40
0.5271355016653452
 40
0.5930045464480673
 40
0.658820018938673
 40
0.7247115264171979
 40
0.7906873639377335
 40
0.8565322089008955
 40
0.9223539029581065
 40
0.9882819202868233
 40
1.0
 40
1.0
 40
1.0
 40
1.0
 10
40.00000000000021
 20
-3.900662793419648
 30
0.0
 10
39.67147554280189
 20
-3.829969153618628
 30
0.0
 10
39.01499555146084
 20
-3.688704297905229
 30
0.0
 10
38.03136113930861
 20
-3.302040385297194
 30
0.0
 10
37.04752040593669
 20
-2.803777697828846
 30
0.0
 10
36.06214857289523
 20
-2.200313993316027
 30
0.0
 10
35.07758554974362
 20
-1.515931095048618
 30
0.0
 10
34.09407492942343
 20
-0.7752289338675079
 30
0.0
 10
33.1099622822545
 20
-0.0059145224646302
 30
0.0
 10
32.12444729907404
 20
0.7623968894666437
 30
0.0
 10
31.14025141462626
 20
1.503814582459644
 30
0.0
 10
30.15675512374662
 20
2.189661909598043
 30
0.0
 10
29.17229460231431
 20
2.794889988883281
 30
0.0
 10
28.18686486508036
 20
3.295596784087059
 30
0.0
 10
27.20295604908951
 20
3.67919362855894
 30
0.0
 10
26.21938158145971
 20
3.913660621878257
 30
0.0
 10
25.50461626279399
 20
4.015173404366978
 30
0.0
 10
25.11780059012899
 20
3.992611592121966
 30
0.0
 10
25.05942371016619
 20
3.989206641655259
 30
0.0
  0
SPLINE
  5
B4
330
1F
100
AcDbEntity
  8
0
  6
Continuous
 62
     1
370
    25
100
AcDbSpline
210
0.0
220
0.0
230
1.0
 70
     8
 71
     3
 72
     9
 73
     5
 74
     0
 42
0.000000001
 43
0.00000001
 40
0.0
 40
0.0
 40
0.0
 40
0.0
 40
0.4265957412891487
 40
1.0
 40
1.0
 40
1.0
 40
1.0
 10
11.85126945927252
 20
-3.370746279257232
 30
0.0
 10
11.58799517192546
 20
-3.479587938385905
 30
0.0
 10
10.9708434709932
 20
-3.734727989244733
 30
0.0
 10
10.35380975850748
 20
-3.852583089293077
 30
0.0
 10
10.0
 20
-3.920161705571591
 30
0.0
  0
LINE
  5
B5
330
1F
100
AcDbEntity
  8
0
  6
Continuous
 62
     1
370
    25
100
AcDbLine
 10
40.00000000000021
 20
-3.999999999999568
 30
0.0
 11
40.00000000000021
 21
-3.900662793420609
 31
0.0
  0
SPLINE
  5
B6
330
1F
100
AcDbEntity
  8
0
  6
Continuous
 62
     1
370
    25
100
AcDbSpline
210
0.0
220
0.0
230
1.0
 70
     8
 71
     3
 72
    27
 73
    23
 74
     0
 42
0.000000001
 43
0.00000001
 40
0.0
 40
0.0
 40
0.0
 40
0.0
 40
0.0143552290582226
 40
0.0704319220112661
 40
0.126504824659771
 40
0.1825103829526439
 40
0.238496897987269
 40
0.2904004188175459
 40
0.3423868797221046
 40
0.394273892774393
 40
0.4461311724233222
 40
0.4980607955337109
 40
0.5500334594946673
 40
0.601904323464258
 40
0.6537694375317824
 40
0.7057300003394411
 40
0.757674103752496
 40
0.8095344359976302
 40
0.8614130086373877
 40
0.9133947891578351
 40
0.9653101267819159
 40
1.0
 40
1.0
 40
1.0
 40
1.0
 10
11.85126945927248
 20
3.370746279258105
 30
0.0
 10
11.9419991527313
 20
3.412589301435107
 30
0.0
 10
12.38715169386316
 20
3.617886232799516
 30
0.0
 10
13.18723569851292
 20
3.840117992354537
 30
0.0
 10
14.25057157897978
 20
4.012975892156703
 30
0.0
 10
15.31273335394344
 20
4.002294333840063
 30
0.0
 10
16.34853844487631
 20
3.827241457727987
 30
0.0
 10
17.35884724587083
 20
3.505375752253386
 30
0.0
 10
18.34436916609408
 20
3.063521466418521
 30
0.0
 10
19.32839774817087
 20
2.507982699498347
 30
0.0
 10
20.31193163616157
 20
1.859989109515771
 30
0.0
 10
21.29660209551707
 20
1.143727862173135
 30
0.0
 10
22.28189970652078
 20
0.385946447328434
 30
0.0
 10
23.26568137027873
 20
-0.3871310741350366
 30
0.0
 10
24.24936417224206
 20
-1.14590094975852
 30
0.0
 10
25.2344855647176
 20
-1.861574995736161
 30
0.0
 10
26.21936805868027
 20
-2.509036462278392
 30
0.0
 10
27.20295963000382
 20
-3.064068226924373
 30
0.0
 10
28.18686405730573
 20
-3.507611093561287
 30
0.0
 10
29.17229424264715
 20
-3.81565339126825
 30
0.0
 10
30.04825924972646
 20
-3.983966077173043
 30
0.0
 10
30.59545667704948
 20
-3.983747324969042
 30
0.0
 10
30.81463759231441
 20
-3.983659703379657
 30
0.0
  0
SPLINE
  5
B7
330
1F
100
AcDbEntity
  8
0
  6
Continuous
 62
     1
370
    25
100
AcDbSpline
210
0.0
220
0.0
230
1.0
 70
     8
 71
     3
 72
    27
 73
    23
 74
     0
 42
0.000000001
 43
0.00000001
 40
0.0
 40
0.0
 40
0.0
 40
0.0
 40
0.0484201273170832
 40
0.1002303794014941
 40
0.1520765723470374
 40
0.2040180553701236
 40
0.255869746183045
 40
0.3076792652302133
 40
0.3595486385336191
 40
0.4114843959067955
 40
0.4633170367765196
 40
0.515131453401132
 40
0.5670295670251242
 40
0.6189441254710537
 40
0.67076331968437
 40
0.7225882587089579
 40
0.7745149075941784
 40
0.8263985537359408
 40
0.8782099204670274
 40
0.9300509942763879
 40
0.9819914278898006
 40
1.0
 40
1.0
 40
1.0
 40
1.0
 10
35.99631165637533
 20
-3.373186027300514
 30
0.0
 10
35.6899237140259
 20
-3.492545168961473
 30
0.0
 10
35.05569614364749
 20
-3.739620356834713
 30
0.0
 10
34.09408435485565
 20
-3.947608735187012
 30
0.0
 10
33.10995975190487
 20
-4.025178566698484
 30
0.0
 10
32.12444797165502
 20
-3.951713729237274
 30
0.0
 10
31.14025125206165
 20
-3.733270050223788
 30
0.0
 10
30.15675510261823
 20
-3.376917266351564
 30
0.0
 10
29.17229485002112
 20
-2.896167790316306
 30
0.0
 10
28.18686389487566
 20
-2.309414494485281
 30
0.0
 10
27.20295967330456
 20
-1.636609554897823
 30
0.0
 10
26.21936804767971
 20
-0.9034838756522798
 30
0.0
 10
25.23448556534627
 20
-0.1376276177182195
 30
0.0
 10
24.24936418073656
 20
0.6330536803501874
 30
0.0
 10
23.26568133574687
 20
1.381291743367058
 30
0.0
 10
22.28189983630328
 20
2.078526098405856
 30
0.0
 10
21.29660161006458
 20
2.69845414001752
 30
0.0
 10
20.31193344509688
 20
3.218772422832504
 30
0.0
 10
19.32839100579906
 20
3.623308684446973
 30
0.0
 10
18.34439436664439
 20
3.884197721585112
 30
0.0
 10
17.57311418822282
 20
4.005399036540203
 30
0.0
 10
17.13064643703405
 20
3.987792408410037
 30
0.0
 10
17.01673184566437
 20
3.983259531508935
 30
0.0
  0
SPLINE
  5
B8
330
1F
100
AcDbEntity
  8
0
  6
Continuous
 62
     1
370
    25
100
AcDbSpline
210
0.0
220
0.0
230
1.0
 70
     8
 71
     3
 72
    25
 73
    21
 74
     0
 42
0.000000001
 43
0.00000001
 40
0.0
 40
0.0
 40
0.0
 40
0.0
 40
0.0408675213432125
 40
0.0956982227008026
 40
0.1506174933307398
 40
0.2055541660888733
 40
0.2603899231540541
 40
0.3152317594545466
 40
0.3701812264755365
 40
0.4250851874243228
 40
0.4799126613442233
 40
0.5347715716874815
 40
0.5897356258902644
 40
0.6446119895163266
 40
0.7038052062393811
 40
0.7630185569484832
 40
0.8223031092502464
 40
0.8815916689512531
 40
0.9408069696134498
 40
0.9999999999999999
 40
0.9999999999999999
 40
0.9999999999999999
 40
0.9999999999999999
 10
27.9356791883706
 20
-3.372755218565999
 30
0.0
 10
27.69139114495776
 20
-3.472633808512428
 30
0.0
 10
27.11934931777343
 20
-3.70651644268209
 30
0.0
 10
26.21938490613477
 20
-3.91937237730777
 30
0.0
 10
25.23448104550676
 20
-4.023060523556155
 30
0.0
 10
24.24936538084546
 20
-3.97442946854309
 30
0.0
 10
23.26568104663436
 20
-3.780340849022842
 30
0.0
 10
22.28189979355778
 20
-3.446422613540887
 30
0.0
 10
21.2966020717461
 20
-2.986185145168826
 30
0.0
 10
20.31193164419773
 20
-2.415577621881864
 30
0.0
 10
19.32839773976043
 20
-1.755639726520674
 30
0.0
 10
18.3443691917409
 20
-1.03084492204714
 30
0.0
 10
17.3588471515727
 20
-0.2693052149028265
 30
0.0
 10
16.34853880740583
 20
0.5237937385559
 30
0.0
 10
15.31273188179292
 20
1.316806465754549
 30
0.0
 10
14.25057706414692
 20
2.073120026692098
 30
0.0
 10
13.18721520354988
 20
2.741019980226973
 30
0.0
 10
12.12379757577056
 20
3.288052744233688
 30
0.0
 10
11.06159514961709
 20
3.706265358056192
 30
0.0
 10
10.35382067705822
 20
3.848871863558974
 30
0.0
 10
10.0
 20
3.920161705572462
 30
0.0
  0
SPLINE
  5
B9
330
1F
100
AcDbEntity
  8
0
  6
Continuous
 62
     1
370
    25
100
AcDbSpline
210
0.0
220
0.0
230
1.0
 70
     8
 71
     3
 72
    12
 73
     8
 74
     0
 42
0.000000001
 43
0.00000001
 40
0.0
 40
0.0
 40
0.0
 40
0.0
 40
0.2244401402573286
 40
0.4489647219388781
 40
0.6737670773522043
 40
0.8985542380501663
 40
1.0
 40
1.0
 40
1.0
 40
1.0
 10
10.00000000000018
 20
-2.410506061651076
 30
0.0
 10
10.35382041556684
 20
-2.621111867463257
 30
0.0
 10
11.06159436504421
 20
-3.042402715601067
 30
0.0
 10
12.12380071705884
 20
-3.518673575849243
 30
0.0
 10
13.18720340792901
 20
-3.841429353740458
 30
0.0
 10
14.05647328083509
 20
-3.998656283491997
 30
0.0
 10
14.57079603498058
 20
-3.983425802687351
 30
0.0
 10
14.73073042559619
 20
-3.978689714994089
 30
0.0
  0
SPLINE
  5
BA
330
1F
100
AcDbEntity
  8
0
  6
Continuous
 62
     1
370
    25
100
AcDbSpline
210
0.0
220
0.0
230
1.0
 70
     8
 71
     3
 72
    19
 73
    15
 74
     0
 42
0.000000001
 43
0.00000001
 40
0.0
 40
0.0
 40
0.0
 40
0.0
 40
0.0212526482519157
 40
0.1047877423810156
 40
0.1882160622991009
 40
0.2715481107621864
 40
0.354947989610347
 40
0.447177430233882
 40
0.5393392190731504
 40
0.6314239586124917
 40
0.7234904682495403
 40
0.8155977684819005
 40
0.9078041453643093
 40
1.0
 40
1.0
 40
1.0
 40
1.0
 10
27.93567918837063
 20
3.372755218566877
 30
0.0
 10
28.01924825834126
 20
3.41104765294258
 30
0.0
 10
28.43129169270783
 20
3.599851311712089
 30
0.0
 10
29.17233056635801
 20
3.813121453994845
 30
0.0
 10
30.156748031437
 20
3.993123605812037
 30
0.0
 10
31.14024389659518
 20
4.016112364122583
 30
0.0
 10
32.15863985226481
 20
3.889387755472538
 30
0.0
 10
33.21273165506715
 20
3.596243288229136
 30
0.0
 10
34.30041645027335
 20
3.131974554459421
 30
0.0
 10
35.38716237214935
 20
2.526969733099625
 30
0.0
 10
36.47363285219424
 20
1.808374004017459
 30
0.0
 10
37.56068660945927
 20
1.008880575205161
 30
0.0
 10
38.64886993095121
 20
0.1622225562788378
 30
0.0
 10
39.37442617368808
 20
-0.4019538976982516
 30
0.0
 10
39.73718359443446
 20
-0.6840260283418863
 30
0.0
  0
SPLINE
  5
BB
330
1F
100
AcDbEntity
  8
0
  6
Continuous
 62
     1
370
    25
100
AcDbSpline
210
0.0
220
0.0
230
1.0
 70
     8
 71
     3
 72
    12
 73
     8
 74
     0
 42
0.000000001
 43
0.00000001
 40
0.0
 40
0.0
 40
0.0
 40
0.0
 40
0.5
 40
0.5
 40
0.75
 40
0.75
 40
1.0
 40
1.0
 40
1.0
 40
1.0
 10
40.00000000000021
 20
-3.083933400934231
 30
0.0
 10
39.64498740949531
 20
-2.974277168040592
 30
0.0
 10
39.29771057186821
 20
-2.828190881486544
 30
0.0
 10
38.79187178831154
 20
-2.538061676346326
 30
0.0
 10
38.62561231553332
 20
-2.42983919083634
 30
0.0
 10
38.30007557917165
 20
-2.182241896423112
 30
0.0
 10
38.14545608452112
 20
-2.046847781098549
 30
0.0
 10
37.99723206040295
 20
-1.90235320859031
 30
0.0
  0
LINE
  5
BC
330
1F
100
AcDbEntity
  8
0
  6
Continuous
 62
     1
370
    25
100
AcDbLine
 10
40.00000000000021
 20
-3.900662793420609
 30
0.0
 11
40.00000000000021
 21
-3.08393340093423
 31
0.0
  0
SPLINE
  5
BD
330
1F
100
AcDbEntity
  8
0
  6
Continuous
 62
     1
370
    25
100
AcDbSpline
210
0.0
220
0.0
230
1.0
 70
    24
 71
     3
 72
    19
 73
    15
 74
     0
 42
0.000000001
 43
0.00000001
 40
0.0
 40
0.0
 40
0.0
 40
0.0
 40
0.1109603869082041
 40
0.2277988396368579
 40
0.3484201292619273
 40
0.4245648471061232
 40
0.5027498421793919
 40
0.5789686616001464
 40
0.6576883804674539
 40
0.7297874811028486
 40
0.8036782314062266
 40
0.8822549630421709
 40
0.9624421032639767
 40
1.0
 40
1.0
 40
1.0
 40
1.0
 10
39.73261883164852
 20
-0.6872223096547414
 30
0.0
 10
39.73069168230618
 20
-0.6885717141515065
 30
0.0
 10
39.72673529393888
 20
-0.6913420071103635
 30
0.0
 10
39.65856281600524
 20
-0.7390768900579475
 30
0.0
 10
39.55135981941766
 20
-0.8141412363872381
 30
0.0
 10
39.41473864328263
 20
-0.9098044137960717
 30
0.0
 10
39.27276251875488
 20
-1.009217166436161
 30
0.0
 10
39.10380399791087
 20
-1.127523196376074
 30
0.0
 10
38.91935838981626
 20
-1.256673401552929
 30
0.0
 10
38.72403590332942
 20
-1.393439678975183
 30
0.0
 10
38.52190144536987
 20
-1.534975750168086
 30
0.0
 10
38.31045262919123
 20
-1.683033805202569
 30
0.0
 10
38.13362102054443
 20
-1.806852630570626
 30
0.0
 10
38.03021587055442
 20
-1.87925769608336
 30
0.0
 10
37.99723206040292
 20
-1.902353208590321
 30
0.0
  0
SPLINE
  5
BE
330
1F
100
AcDbEntity
  8
0
  6
Continuous
 62
     1
370
    25
100
AcDbSpline
210
0.0
220
0.0
230
1.0
 70
     8
 71
     3
 72
    15
 73
    11
 74
     0
 42
0.000000001
 43
0.00000001
 40
0.0
 40
0.0
 40
0.0
 40
0.0
 40
0.1428123743634171
 40
0.2853774330381115
 40
0.4279754665300951
 40
0.5708572386864136
 40
0.7135865706925956
 40
0.8561341231909201
 40
0.9987805611720013
 40
1.0
 40
1.0
 40
1.0
 40
1.0
 10
40.00000000000021
 20
0.8859061869190337
 30
0.0
 10
39.67147555563609
 20
1.132772261020427
 30
0.0
 10
39.01499558994117
 20
1.626076898278096
 30
0.0
 10
38.03136098568339
 20
2.298172016251925
 30
0.0
 10
37.04752098269751
 20
2.888183520378253
 30
0.0
 10
36.06214641586444
 20
3.369083246153846
 30
0.0
 10
35.07759358566768
 20
3.731351840791924
 30
0.0
 10
34.0940449717106
 20
3.938143770990572
 30
0.0
 10
33.43573917725766
 20
4.024118376013511
 30
0.0
 10
33.10476441321394
 20
3.999583516687855
 30
0.0
 10
33.10195899828641
 20
3.999375553821573
 30
0.0
  0
SPLINE
  5
BF
330
1F
100
AcDbEntity
  8
0
  6
Continuous
 62
     1
370
    25
100
AcDbSpline
210
0.0
220
0.0
230
1.0
 70
     8
 71
     3
 72
    17
 73
    13
 74
     0
 42
0.000000001
 43
0.00000001
 40
0.0
 40
0.0
 40
0.0
 40
0.0
 40
0.0571969655916667
 40
0.1566440070628886
 40
0.2562816510395774
 40
0.3557603314428884
 40
0.4630645094048566
 40
0.5704051858195451
 40
0.6778749349353477
 40
0.7853519485774831
 40
0.8926961598248008
 40
1.0
 40
1.0
 40
1.0
 40
1.0
 10
19.89426574348192
 20
-3.369358341350754
 30
0.0
 10
19.70569760572595
 20
-3.449938174835355
 30
0.0
 10
19.18927040723862
 20
-3.670620301499208
 30
0.0
 10
18.34437663664778
 20
-3.886862291652779
 30
0.0
 10
17.35884516368285
 20
-4.01665098701901
 30
0.0
 10
16.34853938650273
 20
-3.992259511344909
 30
0.0
 10
15.31273172163577
 20
-3.807642722166937
 30
0.0
 10
14.2505771071235
 20
-3.454368745844046
 30
0.0
 10
13.1872151920311
 20
-2.953276957715722
 30
0.0
 10
12.12379757883813
 20
-2.324838302584652
 30
0.0
 10
11.06159514885093
 20
-1.598718198435764
 30
0.0
 10
10.35382067680286
 20
-1.063001270498251
 30
0.0
 10
10.0
 20
-0.7951931854325155
 30
0.0
  0
SPLINE
  5
C0
330
1F
100
AcDbEntity
  8
0
  6
Continuous
 62
     1
370
    25
100
AcDbSpline
210
0.0
220
0.0
230
1.0
 70
     8
 71
     3
 72
    20
 73
    16
 74
     0
 42
0.000000001
 43
0.00000001
 40
0.0
 40
0.0
 40
0.0
 40
0.0
 40
0.0831223343518506
 40
0.1662759419344575
 40
0.2495324241676525
 40
0.3327832789751586
 40
0.4159341483189553
 40
0.499056744335484
 40
0.5761173613633946
 40
0.6533011186561322
 40
0.7303372267579197
 40
0.8073291899852835
 40
0.8844285607967346
 40
0.9615918339109408
 40
1.0
 40
1.0
 40
1.0
 40
1.0
 10
10.00000000000018
 20
3.192093439538394
 30
0.0
 10
10.35382067704617
 20
3.012117037342655
 30
0.0
 10
11.06159514958056
 20
2.652096520180593
 30
0.0
 10
12.12379757591754
 20
1.961261760154168
 30
0.0
 10
13.18721520299852
 20
1.196442420375465
 30
0.0
 10
14.25057706620442
 20
0.3776059579361386
 30
0.0
 10
15.31273187412567
 20
-0.4570631541634894
 30
0.0
 10
16.34853883512923
 20
-1.2521875289438
 30
0.0
 10
17.35884705640546
 20
-1.9774489791869
 30
0.0
 10
18.3443695481546
 20
-2.610301629043766
 30
0.0
 10
19.32839641259057
 20
-3.147432291814587
 30
0.0
 10
20.31193659738309
 20
-3.570447348475244
 30
0.0
 10
21.29658355055784
 20
-3.853937483770457
 30
0.0
 10
22.11749018239999
 20
-3.995808462741075
 30
0.0
 10
22.60933130415899
 20
-3.985101560490392
 30
0.0
 10
22.7727861821477
 20
-3.981543306973964
 30
0.0
  0
SPLINE
  5
C1
330
1F
100
AcDbEntity
  8
0
  6
Continuous
 62
     1
370
    25
100
AcDbSpline
210
0.0
220
0.0
230
1.0
 70
     8
 71
     3
 72
    11
 73
     7
 74
     0
 42
0.000000001
 43
0.00000001
 40
0.0
 40
0.0
 40
0.0
 40
0.0
 40
0.1276002548354745
 40
0.418202841812551
 40
0.7091180199820779
 40
1.0
 40
1.0
 40
1.0
 40
1.0
 10
35.99631165637533
 20
3.373186027301392
 30
0.0
 10
36.15536971550718
 20
3.443429951835888
 30
0.0
 10
36.6766737867874
 20
3.673650564625967
 30
0.0
 10
37.56068757117792
 20
3.894277467922389
 30
0.0
 10
38.64886969044589
 20
4.036230633554757
 30
0.0
 10
39.37442609352269
 20
3.972795402842857
 30
0.0
 10
39.73718359443447
 20
3.941079597337967
 30
0.0
  0
SPLINE
  5
C2
330
1F
100
AcDbEntity
  8
0
  6
Continuous
 62
     1
370
    25
100
AcDbSpline
210
0.0
220
0.0
230
1.0
 70
     8
 71
     3
 72
    13
 73
     9
 74
     0
 42
0.000000001
 43
0.00000001
 40
0.0
 40
0.0
 40
0.0
 40
0.0
 40
0.173244874751063
 40
0.3139955853236474
 40
0.4593033314330434
 40
0.644586869561973
 40
0.8304858466088606
 40
1.0
 40
1.0
 40
1.0
 40
1.0
 10
39.73718359443446
 20
3.941079597337967
 30
0.0
 10
39.73520387312837
 20
3.78167682287964
 30
0.0
 10
39.7316157511064
 20
3.492769185408831
 30
0.0
 10
39.65888637613558
 20
3.078085445588786
 30
0.0
 10
39.52497985921109
 20
2.674183985432638
 30
0.0
 10
39.28406869525463
 20
2.292657218756752
 30
0.0
 10
38.93179844924458
 20
2.01482452627015
 30
0.0
 10
38.66559705553636
 20
1.963605001019696
 30
0.0
 10
38.53863240504531
 20
1.939175868507833
 30
0.0
  0
LINE
  5
C3
330
1F
100
AcDbEntity
  8
0
  6
Continuous
 62
     1
370
    25
100
AcDbLine
 10
40.00000000000021
 20
0.9404748452668832
 30
0.0
 11
39.60859016086369
 21
1.175579716445821
 31
0.0
  0
LINE
  5
C4
330
1F
100
AcDbEntity
  8
0
  6
Continuous
 62
     1
370
    25
100
AcDbLine
 10
40.00000000000021
 20
0.8893428305807737
 30
0.0
 11
40.00000000000021
 21
0.9404748452668832
 31
0.0
  0
LINE
  5
C5
330
1F
100
AcDbEntity
  8
0
  6
Continuous
 62
     1
370
    25
100
AcDbLine
 10
40.00000000000021
 20
-0.4999999999995746
 30
0.0
 11
40.00000000000021
 21
0.8859061869191107
 31
0.0
  0
LINE
  5
C6
330
1F
100
AcDbEntity
  8
0
  6
Continuous
 62
     1
370
    25
100
AcDbLine
 10
40.00000000000021
 20
-0.4999999999995746
 30
0.0
 11
39.73718359443446
 21
-0.6840260283418905
 31
0.0
  0
LINE
  5
C7
330
1F
100
AcDbEntity
  8
0
  6
Continuous
 62
     1
370
    25
100
AcDbLine
 10
40.00000000000021
 20
3.968626966597329
 30
0.0
 11
40.00000000000021
 21
4.000000000000442
 31
0.0
  0
ELLIPSE
  5
C8
330
1F
100
AcDbEntity
  8
0
  6
Continuous
 62
     1
370
    25
100
AcDbEllipse
 10
40.71407400337126
 20
0.0000000000004374
 30
0.0
 11
5.712592026968444
 21
0.0
 31
0.0
210
0.0
220
0.0
230
1.0
 40
0.700207538209712
 41
1.69612415796296
 42
1.742647460243672
  0
LINE
  5
C9
330
1F
100
AcDbEntity
  8
0
  6
Continuous
 62
     1
370
    25
100
AcDbLine
 10
40.00000000000021
 20
-0.4999999999995606
 30
0.0
 11
40.00000000000021
 21
-3.083933400934233
 31
0.0
  0
LINE
  5
CA
330
1F
100
AcDbEntity
  8
0
  6
Continuous
 62
     1
370
    25
100
AcDbLine
 10
40.00000000000021
 20
0.9404748452668832
 30
0.0
 11
40.00000000000021
 21
3.968626966597329
 31
0.0
  0
LINE
  5
CB
330
1F
100
AcDbEntity
  8
중심선
100
AcDbLine
 10
-32.99999999999979
 20
0.0000000000004331
 30
0.0
 11
43.00000000000021
 21
0.0000000000004424
 31
0.0
  0
CIRCLE
  5
CC
330
1F
100
AcDbEntity
  8
해칭선
100
AcDbCircle
 10
-0.0078766328544203
 20
-0.0000000000000043
 30
0.0
 40
3.000000000000001
  0
INSERT
  5
CD
330
1F
100
AcDbEntity
  8
0
  6
Continuous
 62
     7
100
AcDbBlockReference
 66
     1
  2
블럭10
 10
-7.448147820842455
 20
-52.04717430164393
 30
0.0
  0
ATTRIB
  5
CE
330
CD
100
AcDbEntity
  8
FORMAT
 62
     2
100
AcDbText
 10
-23.56740886027801
 20
-49.97180738881174
 30
0.0
 40
4.233333333333333
  1
SEME7108030E [ 4 FLUTE ]
 41
0.75
  7
SLDTEXTSTYLE0
 11
-23.56740886027801
 21
-52.08847405547841
 31
0.0
100
AcDbAttribute
  2
AUTOATTR0
 70
     0
 74
     1
  0
SEQEND
  5
CF
330
CD
100
AcDbEntity
  8
0
  6
Continuous
 62
     7
  0
HATCH
  5
D0
330
1F
100
AcDbEntity
  8
중심선
100
AcDbHatch
 10
0.0
 20
0.0
 30
0.0
210
0.0
220
0.0
230
1.0
  2
SOLID
 70
     1
 71
     0
 91
        1
 92
        0
 93
        4
 72
     1
 10
-1.733238516461622
 20
-35.8
 11
-5.179513760298904
 21
-35.8
 72
     1
 10
-5.179513760298904
 20
-35.8
 11
-7.307743619502927
 21
-38.33632558057262
 72
     1
 10
-7.307743619502927
 20
-38.33632558057262
 11
-3.861435290552495
 21
-38.33628615127013
 72
     1
 10
-3.861435290552495
 20
-38.33628615127013
 11
-1.733238516461622
 21
-35.8
 97
        0
 75
     0
 76
     1
 98
        1
 10
0.0
 20
0.0
  0
HATCH
  5
D1
330
1F
100
AcDbEntity
  8
중심선
100
AcDbHatch
 10
0.0
 20
0.0
 30
0.0
210
0.0
220
0.0
230
1.0
  2
SOLID
 70
     1
 71
     0
 91
        1
 92
        0
 93
        4
 72
     1
 10
3.279525474574357
 20
-35.79999999999997
 11
-0.1667497692629247
 21
-35.8
 72
     1
 10
-0.166749769262925
 20
-35.8
 11
-4.697887777620341
 21
-41.20000000000002
 72
     1
 10
-4.697887777620341
 20
-41.20000000000002
 11
-1.251612533783058
 21
-41.20000000000002
 72
     1
 10
-1.251612533783059
 20
-41.20000000000002
 11
3.279525474574357
 21
-35.79999999999997
 97
        0
 75
     0
 76
     1
 98
        1
 10
0.0
 20
0.0
  0
HATCH
  5
D2
330
1F
100
AcDbEntity
  8
중심선
100
AcDbHatch
 10
0.0
 20
0.0
 30
0.0
210
0.0
220
0.0
230
1.0
  2
SOLID
 70
     1
 71
     0
 91
        1
 92
        0
 93
        4
 72
     1
 10
8.292289465610253
 20
-35.8
 11
4.846014221773165
 21
-35.79999999999997
 72
     1
 10
4.846014221773165
 20
-35.79999999999997
 11
-2.20242268011614
 21
-44.20000000000002
 72
     1
 10
-2.20242268011614
 20
-44.20000000000002
 11
1.243852563721143
 21
-44.20000000000002
 72
     1
 10
1.243852563721143
 20
-44.20000000000002
 11
8.292289465610253
 21
-35.8
 97
        0
 75
     0
 76
     1
 98
        1
 10
0.0
 20
0.0
  0
HATCH
  5
D3
330
1F
100
AcDbEntity
  8
중심선
100
AcDbHatch
 10
0.0
 20
0.0
 30
0.0
210
0.0
220
0.0
230
1.0
  2
SOLID
 70
     1
 71
     0
 91
        1
 92
        0
 93
        6
 72
     3
 10
13.09217989662242
 20
-40.00000000005127
 11
3.960054785062284
 21
1.540850780301639E-10
 40
0.3939339440162633
 50
17.09539180608433
 51
320.0019657685081
 73
     0
 72
     1
 10
14.77517955232302
 20
-38.5878940046383
 11
17.08048142602409
 21
-36.65356729459035
 72
     3
 10
13.09217989656958
 20
-40.00000000000015
 11
6.600054785286829
 21
-1.249000902703301E-13
 40
0.6363583540795982
 50
39.99873849337411
 51
368.4976242363725
 73
     1
 72
     1
 10
19.51751238847019
 20
-39.03999999993002
 11
11.77224720340553
 21
-39.03999999993002
 72
     1
 10
11.77224720340553
 20
-39.03999999993002
 11
11.77222215895957
 21
-40.95999999992991
 72
     1
 10
11.77222215895957
 20
-40.95999999992991
 11
16.2136019284316
 21
-40.95999999992988
 97
        0
 75
     0
 76
     1
 98
        1
 10
0.0
 20
0.0
  0
DIMENSION
  5
D4
330
1F
100
AcDbEntity
  8
치수문자_일반주서
100
AcDbDimension
  2
_D
 10
50.76087697213054
 20
4.000000000000483
 30
0.0
 11
50.7608769721305
 21
13.66650000000048
 31
0.0
 70
   160
  1
%%c<>
 71
     2
 42
8.000000000000012
 52
-270.0
  3
SLDDIMSTYLE0
100
AcDbAlignedDimension
 13
40.00000000000024
 23
-3.999999999999569
 33
0.0
 14
40.00000000000024
 24
4.000000000000443
 34
0.0
 50
90.0000000000002
100
AcDbRotatedDimension
  0
DIMENSION
  5
E2
330
1F
100
AcDbEntity
  8
치수문자_일반주서
100
AcDbDimension
  2
_D_1
 10
40.00000000000022
 20
21.38913260158208
 30
0.0
 11
5.000000000000207
 21
21.38913260158208
 31
0.0
 70
   160
  1
<>
 71
     2
 42
70.0
  3
SLDDIMSTYLE1
100
AcDbAlignedDimension
 13
-29.99999999999979
 23
3.500000000000432
 33
0.0
 14
40.00000000000021
 24
4.000000000000442
 34
0.0
 50
-0.0000000000000058
100
AcDbRotatedDimension
  0
DIMENSION
  5
ED
330
1F
100
AcDbEntity
  8
치수문자_일반주서
100
AcDbDimension
  2
_D_2
 10
-37.56177950419072
 20
-3.999999999999599
 30
0.0
 11
-37.56177950419078
 21
13.66650000000041
 31
0.0
 70
   160
  1
%%c<>
 71
     2
 42
8.000000000000007
 52
-270.0
  3
SLDDIMSTYLE2
100
AcDbAlignedDimension
 13
-29.49999999999979
 23
4.000000000000441
 33
0.0
 14
-29.49999999999979
 24
-3.999999999999567
 34
0.0
 50
90.0000000000002
100
AcDbRotatedDimension
  0
DIMENSION
  5
FB
330
1F
100
AcDbEntity
  8
치수문자_일반주서
100
AcDbDimension
  2
_D_3
 10
40.00000000000021
 20
14.76608000816098
 30
0.0
 11
25.00000000000021
 21
14.76608000816098
 31
0.0
 70
   160
  1
<>
 71
     2
 42
30.00000000000001
  3
SLDDIMSTYLE1
100
AcDbAlignedDimension
 13
10.00000000000021
 23
3.920161705573331
 33
0.0
 14
40.00000000000021
 24
4.000000000000442
 34
0.0
 50
-0.0000000000000068
100
AcDbRotatedDimension
  0
INSERT
  5
10B
330
1F
100
AcDbEntity
  8
해칭선
100
AcDbBlockReference
  2
SW_DOWELSYMBOL_0
 10
-0.0078766328544203
 20
-0.0000000000000043
 30
0.0
  0
LINE
  5
130
330
1F
100
AcDbEntity
  8
0
  6
Continuous
 62
     4
370
    25
100
AcDbLine
 10
10.0
 20
3.920161705572462
 30
0.0
 11
10.0
 21
-3.920161705572462
 31
0.0
  0
ENDSEC
  0
SECTION
  2
OBJECTS
  0
DICTIONARY
  5
C
330
0
100
AcDbDictionary
281
     1
  3
ACAD_GROUP
350
D
  3
ACAD_IMAGE_VARS
350
12F
  3
ACAD_LAYOUT
350
1A
  3
ACAD_MLINESTYLE
350
17
  3
ACAD_PLOTSETTINGS
350
19
  3
ACAD_PLOTSTYLENAME
350
E
  3
ACAD_SCALELIST
350
47
  3
APPDATA
350
12D
  3
DWGPROPS
350
13F
  0
DICTIONARY
  5
D
102
{ACAD_REACTORS
330
C
102
}
330
C
100
AcDbDictionary
281
     1
  0
RASTERVARIABLES
  5
12F
102
{ACAD_REACTORS
330
C
102
}
330
C
100
AcDbRasterVariables
 90
        0
 70
     1
 71
     1
 72
     1
  0
DICTIONARY
  5
1A
102
{ACAD_REACTORS
330
C
102
}
330
C
100
AcDbDictionary
281
     1
  3
Layout1
350
1E
  3
Layout2
350
26
  3
Model
350
22
  0
DICTIONARY
  5
17
102
{ACAD_REACTORS
330
C
102
}
330
C
100
AcDbDictionary
281
     1
  3
Standard
350
18
  0
DICTIONARY
  5
19
102
{ACAD_REACTORS
330
C
102
}
330
C
100
AcDbDictionary
281
     1
  0
ACDBDICTIONARYWDFLT
  5
E
102
{ACAD_REACTORS
330
C
102
}
330
C
100
AcDbDictionary
281
     1
  3
Normal
350
F
100
AcDbDictionaryWithDefault
340
F
  0
DICTIONARY
  5
47
102
{ACAD_REACTORS
330
C
102
}
330
C
100
AcDbDictionary
281
     1
  3
A0
350
48
  3
A1
350
49
  3
A2
350
4A
  3
A3
350
4B
  3
A4
350
4C
  3
A5
350
4D
  3
A6
350
4E
  3
A7
350
4F
  3
A8
350
50
  3
A9
350
51
  3
B0
350
52
  3
B1
350
53
  3
B2
350
54
  3
B3
350
55
  3
B4
350
56
  3
B5
350
57
  3
B6
350
58
  3
B7
350
59
  3
B8
350
5A
  3
B9
350
5B
  3
C0
350
5C
  3
C1
350
5D
  3
C2
350
5E
  3
C3
350
5F
  3
C4
350
60
  3
C5
350
61
  3
C6
350
62
  3
C7
350
63
  3
C8
350
64
  3
C9
350
65
  3
D0
350
66
  3
D1
350
67
  3
D2
350
68
  0
DICTIONARY
  5
12D
102
{ACAD_REACTORS
330
C
102
}
330
C
100
AcDbDictionary
281
     1
  0
XRECORD
  5
13F
102
{ACAD_REACTORS
330
C
102
}
330
C
100
AcDbXrecord
280
     1
  1
DWGPROPS COOKIE
  2

  3

  4

  6

  7

  8
12014102
  9

300
=
301
=
302
=
303
=
304
=
305
=
306
=
307
=
308
=
309
=
 40
0.0
 41
2458260.118734607
 42
2458267.320851852
  1

 90
        0
  0
LAYOUT
  5
1E
102
{ACAD_REACTORS
330
1A
102
}
330
1A
100
AcDbPlotSettings
  1

  2
none_device
  4

  6

 40
0.0
 41
0.0
 42
0.0
 43
0.0
 44
0.0
 45
0.0
 46
0.0
 47
0.0
 48
0.0
 49
0.0
140
0.0
141
0.0
142
1.0
143
1.0
 70
   688
 72
     1
 73
     0
 74
     5
  7

 75
    16
147
1.0
148
0.0
149
0.0
100
AcDbLayout
  1
Layout1
 70
     1
 71
     1
 10
0.0
 20
0.0
 11
420.0
 21
297.0
 12
0.0
 22
0.0
 32
0.0
 14
1.000000000000000E+20
 24
1.000000000000000E+20
 34
1.000000000000000E+20
 15
-1.000000000000000E+20
 25
-1.000000000000000E+20
 35
-1.000000000000000E+20
146
0.0
 13
0.0
 23
0.0
 33
0.0
 16
1.0
 26
0.0
 36
0.0
 17
0.0
 27
1.0
 37
0.0
 76
     0
330
1B
  0
LAYOUT
  5
26
102
{ACAD_REACTORS
330
1A
102
}
330
1A
100
AcDbPlotSettings
  1

  2
none_device
  4

  6

 40
0.0
 41
0.0
 42
0.0
 43
0.0
 44
0.0
 45
0.0
 46
0.0
 47
0.0
 48
0.0
 49
0.0
140
0.0
141
0.0
142
1.0
143
1.0
 70
   688
 72
     1
 73
     0
 74
     5
  7

 75
    16
147
1.0
148
0.0
149
0.0
100
AcDbLayout
  1
Layout2
 70
     1
 71
     2
 10
0.0
 20
0.0
 11
0.0
 21
0.0
 12
0.0
 22
0.0
 32
0.0
 14
0.0
 24
0.0
 34
0.0
 15
0.0
 25
0.0
 35
0.0
146
0.0
 13
0.0
 23
0.0
 33
0.0
 16
1.0
 26
0.0
 36
0.0
 17
0.0
 27
1.0
 37
0.0
 76
     0
330
23
  0
LAYOUT
  5
22
102
{ACAD_REACTORS
330
1A
102
}
330
1A
100
AcDbPlotSettings
  1

  2
none_device
  4
ANSI_A_(11.00_x_8.50_Inches)
  6

 40
6.35
 41
19.05
 42
6.35000508
 43
19.05000254
 44
279.4
 45
215.9
 46
117.8776831671345
 47
121.6282737678144
 48
0.0
 49
0.0
140
0.0
141
0.0
142
0.103850072157585
143
1.0
 70
  1696
 72
     0
 73
     0
 74
     0
  7

 75
     0
147
0.0235690232323232
148
0.0
149
0.0
100
AcDbLayout
  1
Model
 70
     1
 71
     0
 10
0.0
 20
0.0
 11
420.0
 21
297.0
 12
0.0
 22
0.0
 32
0.0
 14
-41.93677950419079
 24
-49.97180738881174
 34
0.0
 15
51.31121030546392
 25
25.76413260158208
 35
0.0
146
0.0
 13
0.0
 23
0.0
 33
0.0
 16
1.0
 26
0.0
 36
0.0
 17
0.0
 27
1.0
 37
0.0
 76
     0
330
1F
331
29
  0
MLINESTYLE
  5
18
102
{ACAD_REACTORS
330
17
102
}
330
17
100
AcDbMlineStyle
  2
Standard
 70
     0
  3

 62
   256
 51
90.0
 52
90.0
 71
     2
 49
0.5
 62
   256
  6
BYLAYER
 49
-0.5
 62
   256
  6
BYLAYER
  0
ACDBPLACEHOLDER
  5
F
102
{ACAD_REACTORS
330
E
102
}
330
E
  0
SCALE
  5
48
102
{ACAD_REACTORS
330
47
102
}
330
47
100
AcDbScale
 70
     0
300
1:1
140
1.0
141
1.0
290
     1
  0
SCALE
  5
49
102
{ACAD_REACTORS
330
47
102
}
330
47
100
AcDbScale
 70
     0
300
1:2
140
1.0
141
2.0
290
     0
  0
SCALE
  5
4A
102
{ACAD_REACTORS
330
47
102
}
330
47
100
AcDbScale
 70
     0
300
1:4
140
1.0
141
4.0
290
     0
  0
SCALE
  5
4B
102
{ACAD_REACTORS
330
47
102
}
330
47
100
AcDbScale
 70
     0
300
1:5
140
1.0
141
5.0
290
     0
  0
SCALE
  5
4C
102
{ACAD_REACTORS
330
47
102
}
330
47
100
AcDbScale
 70
     0
300
1:8
140
1.0
141
8.0
290
     0
  0
SCALE
  5
4D
102
{ACAD_REACTORS
330
47
102
}
330
47
100
AcDbScale
 70
     0
300
1:10
140
1.0
141
10.0
290
     0
  0
SCALE
  5
4E
102
{ACAD_REACTORS
330
47
102
}
330
47
100
AcDbScale
 70
     0
300
1:16
140
1.0
141
16.0
290
     0
  0
SCALE
  5
4F
102
{ACAD_REACTORS
330
47
102
}
330
47
100
AcDbScale
 70
     0
300
1:20
140
1.0
141
20.0
290
     0
  0
SCALE
  5
50
102
{ACAD_REACTORS
330
47
102
}
330
47
100
AcDbScale
 70
     0
300
1:30
140
1.0
141
30.0
290
     0
  0
SCALE
  5
51
102
{ACAD_REACTORS
330
47
102
}
330
47
100
AcDbScale
 70
     0
300
1:40
140
1.0
141
40.0
290
     0
  0
SCALE
  5
52
102
{ACAD_REACTORS
330
47
102
}
330
47
100
AcDbScale
 70
     0
300
1:50
140
1.0
141
50.0
290
     0
  0
SCALE
  5
53
102
{ACAD_REACTORS
330
47
102
}
330
47
100
AcDbScale
 70
     0
300
1:100
140
1.0
141
100.0
290
     0
  0
SCALE
  5
54
102
{ACAD_REACTORS
330
47
102
}
330
47
100
AcDbScale
 70
     0
300
2:1
140
2.0
141
1.0
290
     0
  0
SCALE
  5
55
102
{ACAD_REACTORS
330
47
102
}
330
47
100
AcDbScale
 70
     0
300
4:1
140
4.0
141
1.0
290
     0
  0
SCALE
  5
56
102
{ACAD_REACTORS
330
47
102
}
330
47
100
AcDbScale
 70
     0
300
8:1
140
8.0
141
1.0
290
     0
  0
SCALE
  5
57
102
{ACAD_REACTORS
330
47
102
}
330
47
100
AcDbScale
 70
     0
300
10:1
140
10.0
141
1.0
290
     0
  0
SCALE
  5
58
102
{ACAD_REACTORS
330
47
102
}
330
47
100
AcDbScale
 70
     0
300
100:1
140
100.0
141
1.0
290
     0
  0
SCALE
  5
59
102
{ACAD_REACTORS
330
47
102
}
330
47
100
AcDbScale
 70
     0
300
1/128" = 1'-0"
140
0.0078125
141
12.0
290
     0
  0
SCALE
  5
5A
102
{ACAD_REACTORS
330
47
102
}
330
47
100
AcDbScale
 70
     0
300
1/64" = 1'-0"
140
0.015625
141
12.0
290
     0
  0
SCALE
  5
5B
102
{ACAD_REACTORS
330
47
102
}
330
47
100
AcDbScale
 70
     0
300
1/32" = 1'-0"
140
0.03125
141
12.0
290
     0
  0
SCALE
  5
5C
102
{ACAD_REACTORS
330
47
102
}
330
47
100
AcDbScale
 70
     0
300
1/16" = 1'-0"
140
0.0625
141
12.0
290
     0
  0
SCALE
  5
5D
102
{ACAD_REACTORS
330
47
102
}
330
47
100
AcDbScale
 70
     0
300
3/32" = 1'-0"
140
0.09375
141
12.0
290
     0
  0
SCALE
  5
5E
102
{ACAD_REACTORS
330
47
102
}
330
47
100
AcDbScale
 70
     0
300
1/8" = 1'-0"
140
0.125
141
12.0
290
     0
  0
SCALE
  5
5F
102
{ACAD_REACTORS
330
47
102
}
330
47
100
AcDbScale
 70
     0
300
3/16" = 1'-0"
140
0.1875
141
12.0
290
     0
  0
SCALE
  5
60
102
{ACAD_REACTORS
330
47
102
}
330
47
100
AcDbScale
 70
     0
300
1/4" = 1'-0"
140
0.25
141
12.0
290
     0
  0
SCALE
  5
61
102
{ACAD_REACTORS
330
47
102
}
330
47
100
AcDbScale
 70
     0
300
3/8" = 1'-0"
140
0.375
141
12.0
290
     0
  0
SCALE
  5
62
102
{ACAD_REACTORS
330
47
102
}
330
47
100
AcDbScale
 70
     0
300
1/2" = 1'-0"
140
0.5
141
12.0
290
     0
  0
SCALE
  5
63
102
{ACAD_REACTORS
330
47
102
}
330
47
100
AcDbScale
 70
     0
300
3/4" = 1'-0"
140
0.75
141
12.0
290
     0
  0
SCALE
  5
64
102
{ACAD_REACTORS
330
47
102
}
330
47
100
AcDbScale
 70
     0
300
1" = 1'-0"
140
1.0
141
12.0
290
     0
  0
SCALE
  5
65
102
{ACAD_REACTORS
330
47
102
}
330
47
100
AcDbScale
 70
     0
300
1-1/2" = 1'-0"
140
1.5
141
12.0
290
     0
  0
SCALE
  5
66
102
{ACAD_REACTORS
330
47
102
}
330
47
100
AcDbScale
 70
     0
300
3" = 1'-0"
140
3.0
141
12.0
290
     0
  0
SCALE
  5
67
102
{ACAD_REACTORS
330
47
102
}
330
47
100
AcDbScale
 70
     0
300
6" = 1'-0"
140
6.0
141
12.0
290
     0
  0
SCALE
  5
68
102
{ACAD_REACTORS
330
47
102
}
330
47
100
AcDbScale
 70
     0
300
1'-0" = 1'-0"
140
12.0
141
12.0
290
     0
  0
ENDSEC
  0
EOF
