  0
SECTION
  2
HEADER
  9
$ACADVER
  1
AC1015
  9
$ACADMAINTVER
 70
     6
  9
$DWGCODEPAGE
  3
ANSI_949
  9
$INSBASE
 10
0.0
 20
0.0
 30
0.0
  9
$EXTMIN
 10
-47.58044556424404
 20
-49.97180738881174
 30
0.0
  9
$EXTMAX
 10
50.11802737131743
 20
26.76413260158164
 30
0.0
  9
$LIMMIN
 10
0.0
 20
0.0
  9
$LIMMAX
 10
420.0
 20
297.0
  9
$ORTHOMODE
 70
     0
  9
$REGENMODE
 70
     1
  9
$FILLMODE
 70
     1
  9
$QTEXTMODE
 70
     0
  9
$MIRRTEXT
 70
     1
  9
$LTSCALE
 40
1.0
  9
$ATTMODE
 70
     1
  9
$TEXTSIZE
 40
3.5
  9
$TRACEWID
 40
1.0
  9
$TEXTSTYLE
  7
Standard
  9
$CLAYER
  8
0
  9
$CELTYPE
  6
ByLayer
  9
$CECOLOR
 62
   256
  9
$CELTSCALE
 40
1.0
  9
$DISPSILH
 70
     0
  9
$DIMSCALE
 40
1.0
  9
$DIMASZ
 40
3.302
  9
$DIMEXO
 40
1.0
  9
$DIMDLI
 40
3.75
  9
$DIMRND
 40
0.0
  9
$DIMDLE
 40
0.0
  9
$DIMEXE
 40
1.0
  9
$DIMTP
 40
0.0
  9
$DIMTM
 40
0.0
  9
$DIMTXT
 40
3.5
  9
$DIMCEN
 40
2.5
  9
$DIMTSZ
 40
0.0
  9
$DIMTOL
 70
     0
  9
$DIMLIM
 70
     0
  9
$DIMTIH
 70
     1
  9
$DIMTOH
 70
     1
  9
$DIMSE1
 70
     0
  9
$DIMSE2
 70
     0
  9
$DIMTAD
 70
     1
  9
$DIMZIN
 70
     0
  9
$DIMBLK
  1

  9
$DIMASO
 70
     1
  9
$DIMSHO
 70
     1
  9
$DIMPOST
  1

  9
$DIMAPOST
  1

  9
$DIMALT
 70
     0
  9
$DIMALTD
 70
     3
  9
$DIMALTF
 40
0.0393700787401575
  9
$DIMLFAC
 40
1.0
  9
$DIMTOFL
 70
     1
  9
$DIMTVP
 40
0.0
  9
$DIMTIX
 70
     0
  9
$DIMSOXD
 70
     0
  9
$DIMSAH
 70
     0
  9
$DIMBLK1
  1

  9
$DIMBLK2
  1

  9
$DIMSTYLE
  2
ISO-25
  9
$DIMCLRD
 70
     0
  9
$DIMCLRE
 70
     0
  9
$DIMCLRT
 70
     0
  9
$DIMTFAC
 40
1.0
  9
$DIMGAP
 40
1.524
  9
$DIMJUST
 70
     0
  9
$DIMSD1
 70
     0
  9
$DIMSD2
 70
     0
  9
$DIMTOLJ
 70
     0
  9
$DIMTZIN
 70
     0
  9
$DIMALTZ
 70
     0
  9
$DIMALTTZ
 70
     0
  9
$DIMUPT
 70
     0
  9
$DIMDEC
 70
     2
  9
$DIMTDEC
 70
     2
  9
$DIMALTU
 70
     2
  9
$DIMALTTD
 70
     3
  9
$DIMTXSTY
  7
Standard
  9
$DIMAUNIT
 70
     0
  9
$DIMADEC
 70
     2
  9
$DIMALTRND
 40
0.0
  9
$DIMAZIN
 70
     0
  9
$DIMDSEP
 70
    44
  9
$DIMATFIT
 70
     3
  9
$DIMFRAC
 70
     0
  9
$DIMLDRBLK
  1

  9
$DIMLUNIT
 70
     2
  9
$DIMLWD
 70
    -2
  9
$DIMLWE
 70
    -2
  9
$DIMTMOVE
 70
     0
  9
$LUNITS
 70
     2
  9
$LUPREC
 70
     2
  9
$SKETCHINC
 40
1.0
  9
$FILLETRAD
 40
10.0
  9
$AUNITS
 70
     0
  9
$AUPREC
 70
     2
  9
$MENU
  1
.
  9
$ELEVATION
 40
0.0
  9
$PELEVATION
 40
0.0
  9
$THICKNESS
 40
0.0
  9
$LIMCHECK
 70
     0
  9
$CHAMFERA
 40
0.0
  9
$CHAMFERB
 40
0.0
  9
$CHAMFERC
 40
0.0
  9
$CHAMFERD
 40
0.0
  9
$SKPOLY
 70
     0
  9
$TDCREATE
 40
2458260.494301551
  9
$TDUCREATE
 40
2458260.119301551
  9
$TDUPDATE
 40
2458267.710433611
  9
$TDUUPDATE
 40
2458267.335433611
  9
$TDINDWG
 40
0.0035271644
  9
$TDUSRTIMER
 40
2458267.331906482
  9
$USRTIMER
 70
     1
  9
$ANGBASE
 50
0.0
  9
$ANGDIR
 70
     0
  9
$PDMODE
 70
     0
  9
$PDSIZE
 40
-1.0
  9
$PLINEWID
 40
0.0
  9
$SPLFRAME
 70
     0
  9
$SPLINETYPE
 70
     6
  9
$SPLINESEGS
 70
     8
  9
$HANDSEED
  5
13C
  9
$SURFTAB1
 70
     6
  9
$SURFTAB2
 70
     6
  9
$SURFTYPE
 70
     6
  9
$SURFU
 70
     6
  9
$SURFV
 70
     6
  9
$UCSBASE
  2

  9
$UCSNAME
  2

  9
$UCSORG
 10
0.0
 20
0.0
 30
0.0
  9
$UCSXDIR
 10
1.0
 20
0.0
 30
0.0
  9
$UCSYDIR
 10
0.0
 20
1.0
 30
0.0
  9
$UCSORTHOREF
  2

  9
$UCSORTHOVIEW
 70
     0
  9
$UCSORGTOP
 10
0.0
 20
0.0
 30
0.0
  9
$UCSORGBOTTOM
 10
0.0
 20
0.0
 30
0.0
  9
$UCSORGLEFT
 10
0.0
 20
0.0
 30
0.0
  9
$UCSORGRIGHT
 10
0.0
 20
0.0
 30
0.0
  9
$UCSORGFRONT
 10
0.0
 20
0.0
 30
0.0
  9
$UCSORGBACK
 10
0.0
 20
0.0
 30
0.0
  9
$PUCSBASE
  2

  9
$PUCSNAME
  2

  9
$PUCSORG
 10
0.0
 20
0.0
 30
0.0
  9
$PUCSXDIR
 10
1.0
 20
0.0
 30
0.0
  9
$PUCSYDIR
 10
0.0
 20
1.0
 30
0.0
  9
$PUCSORTHOREF
  2

  9
$PUCSORTHOVIEW
 70
     0
  9
$PUCSORGTOP
 10
0.0
 20
0.0
 30
0.0
  9
$PUCSORGBOTTOM
 10
0.0
 20
0.0
 30
0.0
  9
$PUCSORGLEFT
 10
0.0
 20
0.0
 30
0.0
  9
$PUCSORGRIGHT
 10
0.0
 20
0.0
 30
0.0
  9
$PUCSORGFRONT
 10
0.0
 20
0.0
 30
0.0
  9
$PUCSORGBACK
 10
0.0
 20
0.0
 30
0.0
  9
$USERI1
 70
     0
  9
$USERI2
 70
     0
  9
$USERI3
 70
     0
  9
$USERI4
 70
     0
  9
$USERI5
 70
     0
  9
$USERR1
 40
0.0
  9
$USERR2
 40
0.0
  9
$USERR3
 40
0.0
  9
$USERR4
 40
0.0
  9
$USERR5
 40
0.0
  9
$WORLDVIEW
 70
     1
  9
$SHADEDGE
 70
     3
  9
$SHADEDIF
 70
    70
  9
$TILEMODE
 70
     1
  9
$MAXACTVP
 70
    64
  9
$PINSBASE
 10
0.0
 20
0.0
 30
0.0
  9
$PLIMCHECK
 70
     0
  9
$PEXTMIN
 10
1.000000000000000E+20
 20
1.000000000000000E+20
 30
1.000000000000000E+20
  9
$PEXTMAX
 10
-1.000000000000000E+20
 20
-1.000000000000000E+20
 30
-1.000000000000000E+20
  9
$PLIMMIN
 10
0.0
 20
0.0
  9
$PLIMMAX
 10
0.0
 20
0.0
  9
$UNITMODE
 70
     0
  9
$VISRETAIN
 70
     1
  9
$PLINEGEN
 70
     0
  9
$PSLTSCALE
 70
     1
  9
$TREEDEPTH
 70
  3020
  9
$CMLSTYLE
  2
Standard
  9
$CMLJUST
 70
     0
  9
$CMLSCALE
 40
20.0
  9
$PROXYGRAPHICS
 70
     1
  9
$MEASUREMENT
 70
     1
  9
$CELWEIGHT
370
    -1
  9
$ENDCAPS
280
     0
  9
$JOINSTYLE
280
     0
  9
$LWDISPLAY
290
     1
  9
$INSUNITS
 70
     4
  9
$HYPERLINKBASE
  1

  9
$STYLESHEET
  1

  9
$XEDIT
290
     1
  9
$CEPSNTYPE
380
     0
  9
$PSTYLEMODE
290
     1
  9
$FINGERPRINTGUID
  2
{845BA5CB-9D1C-4C42-A0EB-FB11EFC76BB3}
  9
$VERSIONGUID
  2
{FAEB1C32-E019-11D5-929B-00C0DF256EC4}
  9
$EXTNAMES
290
     1
  9
$PSVPSCALE
 40
0.0
  9
$OLESTARTUP
290
     0
  0
ENDSEC
  0
SECTION
  2
CLASSES
  0
CLASS
  1
ACDBDICTIONARYWDFLT
  2
AcDbDictionaryWithDefault
  3
ObjectDBX Classes
 90
        0
280
     0
281
     0
  0
CLASS
  1
VISUALSTYLE
  2
AcDbVisualStyle
  3
ObjectDBX Classes
 90
     4095
280
     0
281
     0
  0
CLASS
  1
MATERIAL
  2
AcDbMaterial
  3
ObjectDBX Classes
 90
     1153
280
     0
281
     0
  0
CLASS
  1
SCALE
  2
AcDbScale
  3
ObjectDBX Classes
 90
     1153
280
     0
281
     0
  0
CLASS
  1
TABLESTYLE
  2
AcDbTableStyle
  3
ObjectDBX Classes
 90
     4095
280
     0
281
     0
  0
CLASS
  1
MLEADERSTYLE
  2
AcDbMLeaderStyle
  3
ACDB_MLEADERSTYLE_CLASS
 90
     4095
280
     0
281
     0
  0
CLASS
  1
SUN
  2
AcDbSun
  3
SCENEOE
 90
     1153
280
     0
281
     0
  0
CLASS
  1
ACDBPLACEHOLDER
  2
AcDbPlaceHolder
  3
ObjectDBX Classes
 90
        0
280
     0
281
     0
  0
CLASS
  1
LAYOUT
  2
AcDbLayout
  3
ObjectDBX Classes
 90
        0
280
     0
281
     0
  0
CLASS
  1
RASTERVARIABLES
  2
AcDbRasterVariables
  3
ISM
 90
        0
280
     0
281
     0
  0
ENDSEC
  0
SECTION
  2
TABLES
  0
TABLE
  2
VPORT
  5
8
330
0
100
AcDbSymbolTable
 70
     1
  0
VPORT
  5
29
330
8
100
AcDbSymbolTableRecord
100
AcDbViewportTableRecord
  2
*Active
 70
     0
 10
0.0
 20
0.0
 11
1.0
 21
1.0
 12
1.268790903536697
 22
-11.60383739361505
 13
0.0
 23
0.0
 14
10.0
 24
10.0
 15
10.0
 25
10.0
 16
0.0
 26
0.0
 36
1.0
 17
0.0
 27
0.0
 37
0.0
 40
78.27065879020124
 41
1.731266149870801
 42
50.0
 43
0.0
 44
0.0
 50
0.0
 51
0.0
 71
    16
 72
  2000
 73
     1
 74
     3
 75
     0
 76
     0
 77
     0
 78
     0
281
     0
 65
     1
110
0.0
120
0.0
130
0.0
111
1.0
121
0.0
131
0.0
112
0.0
122
1.0
132
0.0
 79
     0
146
0.0
  0
ENDTAB
  0
TABLE
  2
LTYPE
  5
5
330
0
100
AcDbSymbolTable
 70
     6
  0
LTYPE
  5
14
330
5
100
AcDbSymbolTableRecord
100
AcDbLinetypeTableRecord
  2
ByBlock
 70
     0
  3

 72
    65
 73
     0
 40
0.0
  0
LTYPE
  5
15
330
5
100
AcDbSymbolTableRecord
100
AcDbLinetypeTableRecord
  2
ByLayer
 70
     0
  3

 72
    65
 73
     0
 40
0.0
  0
LTYPE
  5
16
330
5
100
AcDbSymbolTableRecord
100
AcDbLinetypeTableRecord
  2
Continuous
 70
     0
  3
Solid line
 72
    65
 73
     0
 40
0.0
  0
LTYPE
  5
6E
330
5
100
AcDbSymbolTableRecord
100
AcDbLinetypeTableRecord
  2
HIDDEN
 70
     0
  3
Hidden __ __ __ __ __ __ __ __ __ __ __ __ __ __
 72
    65
 73
     2
 40
1.905
 49
1.27
 74
     0
 49
-0.635
 74
     0
  0
LTYPE
  5
6F
330
5
100
AcDbSymbolTableRecord
100
AcDbLinetypeTableRecord
  2
PHANTOM
 70
     0
  3
Phantom ______  __  __  ______  __  __  ______
 72
    65
 73
     6
 40
12.7
 49
6.35
 74
     0
 49
-1.27
 74
     0
 49
1.27
 74
     0
 49
-1.27
 74
     0
 49
1.27
 74
     0
 49
-1.27
 74
     0
  0
LTYPE
  5
70
330
5
100
AcDbSymbolTableRecord
100
AcDbLinetypeTableRecord
  2
CENTER
 70
     0
  3
Center ____ _ ____ _ ____ _ ____ _ ____ _ ____
 72
    65
 73
     4
 40
10.16
 49
6.35
 74
     0
 49
-1.27
 74
     0
 49
1.27
 74
     0
 49
-1.27
 74
     0
  0
LTYPE
  5
71
330
5
100
AcDbSymbolTableRecord
100
AcDbLinetypeTableRecord
  2
CENTERX2
 70
     0
  3
Center (2x) ________  __  ________  __  _____
 72
    65
 73
     4
 40
20.32
 49
12.7
 74
     0
 49
-2.54
 74
     0
 49
2.54
 74
     0
 49
-2.54
 74
     0
  0
LTYPE
  5
72
330
5
100
AcDbSymbolTableRecord
100
AcDbLinetypeTableRecord
  2
DOT2
 70
     0
  3
Dot (.5x) ........................................
 72
    65
 73
     2
 40
0.635
 49
0.0
 74
     0
 49
-0.635
 74
     0
  0
ENDTAB
  0
TABLE
  2
LAYER
  5
2
330
0
100
AcDbSymbolTable
 70
    17
  0
LAYER
  5
10
330
2
100
AcDbSymbolTableRecord
100
AcDbLayerTableRecord
  2
0
 70
     0
 62
     7
  6
Continuous
370
    -3
390
F
  0
LAYER
  5
73
330
2
100
AcDbSymbolTableRecord
100
AcDbLayerTableRecord
  2
FORMAT
 70
     0
 62
     2
  6
Continuous
370
    -3
390
F
  0
LAYER
  5
74
330
2
100
AcDbSymbolTableRecord
100
AcDbLayerTableRecord
  2
외형선
 70
     0
 62
   100
  6
Continuous
370
    35
390
F
  0
LAYER
  5
75
330
2
100
AcDbSymbolTableRecord
100
AcDbLayerTableRecord
  2
숨은선
 70
     0
 62
     2
  6
HIDDEN
370
    25
390
F
  0
LAYER
  5
76
330
2
100
AcDbSymbolTableRecord
100
AcDbLayerTableRecord
  2
중심선
 70
     0
 62
     1
  6
CENTERX2
370
    -3
390
F
  0
LAYER
  5
77
330
2
100
AcDbSymbolTableRecord
100
AcDbLayerTableRecord
  2
파단선
 70
     0
 62
     4
  6
Continuous
370
    -3
390
F
  0
LAYER
  5
78
330
2
100
AcDbSymbolTableRecord
100
AcDbLayerTableRecord
  2
해칭선
 70
     0
 62
   100
  6
Continuous
370
    -3
390
F
  0
LAYER
  5
79
330
2
100
AcDbSymbolTableRecord
100
AcDbLayerTableRecord
  2
가는실선
 70
     0
 62
     4
  6
Continuous
370
    -3
390
F
  0
LAYER
  5
7A
330
2
100
AcDbSymbolTableRecord
100
AcDbLayerTableRecord
  2
치수_보조선
 70
     0
 62
     4
  6
Continuous
370
    -3
390
F
  0
LAYER
  5
7B
330
2
100
AcDbSymbolTableRecord
100
AcDbLayerTableRecord
  2
치수문자_일반주서
 70
     0
 62
     7
  6
Continuous
370
    25
390
F
  0
LAYER
  5
7C
330
2
100
AcDbSymbolTableRecord
100
AcDbLayerTableRecord
  2
개별주서
 70
     0
 62
   100
  6
Continuous
370
    35
390
F
  0
LAYER
  5
7D
330
2
100
AcDbSymbolTableRecord
100
AcDbLayerTableRecord
  2
중간선
 70
     0
 62
     2
  6
Continuous
370
    25
390
F
  0
LAYER
  5
7E
330
2
100
AcDbSymbolTableRecord
100
AcDbLayerTableRecord
  2
윤곽선
 70
     0
 62
     3
  6
Continuous
370
    50
390
F
  0
LAYER
  5
7F
330
2
100
AcDbSymbolTableRecord
100
AcDbLayerTableRecord
  2
중심마크
 70
     0
 62
   100
  6
Continuous
370
    35
390
F
  0
LAYER
  5
80
330
2
100
AcDbSymbolTableRecord
100
AcDbLayerTableRecord
  2
가상선
 70
     0
 62
     4
  6
PHANTOM
370
    -3
390
F
  0
LAYER
  5
81
330
2
100
AcDbSymbolTableRecord
100
AcDbLayerTableRecord
  2
특수지정선
 70
     0
 62
     5
  6
CENTERX2
370
    70
390
F
  0
LAYER
  5
12D
330
2
100
AcDbSymbolTableRecord
100
AcDbLayerTableRecord
  2
Defpoints
 70
     0
 62
     7
  6
Continuous
290
     0
370
    -3
390
F
  0
ENDTAB
  0
TABLE
  2
STYLE
  5
3
330
0
100
AcDbSymbolTable
 70
     2
  0
STYLE
  5
11
330
3
100
AcDbSymbolTableRecord
100
AcDbTextStyleTableRecord
  2
Standard
 70
     0
 40
0.0
 41
1.0
 50
0.0
 71
     0
 42
3.5
  3
txt
  4

  0
STYLE
  5
97
330
3
100
AcDbSymbolTableRecord
100
AcDbTextStyleTableRecord
  2
SLDTEXTSTYLE0
 70
     0
 40
0.0
 41
0.75
 50
0.0
 71
     0
 42
3.5
  3
TXT
  4

  0
ENDTAB
  0
TABLE
  2
VIEW
  5
6
330
0
100
AcDbSymbolTable
 70
     0
  0
ENDTAB
  0
TABLE
  2
UCS
  5
7
330
0
100
AcDbSymbolTable
 70
     0
  0
ENDTAB
  0
TABLE
  2
APPID
  5
9
330
0
100
AcDbSymbolTable
 70
     1
  0
APPID
  5
12
330
9
100
AcDbSymbolTableRecord
100
AcDbRegAppTableRecord
  2
ACAD
 70
     0
  0
ENDTAB
  0
TABLE
  2
DIMSTYLE
  5
A
330
0
100
AcDbSymbolTable
 70
     4
100
AcDbDimStyleTable
  0
DIMSTYLE
105
27
330
A
100
AcDbSymbolTableRecord
100
AcDbDimStyleTableRecord
  2
ISO-25
 70
     0
 41
2.5
 42
0.625
 43
3.75
 44
1.25
 73
     0
 74
     0
 77
     1
 78
     8
140
2.5
141
2.5
143
0.03937007874016
147
0.625
171
     3
172
     1
178
     0
271
     2
272
     2
274
     3
278
    44
283
     0
284
     8
340
11
  0
DIMSTYLE
105
D1
102
{ACAD_REACTORS
330
D0
102
}
330
A
100
AcDbSymbolTableRecord
100
AcDbDimStyleTableRecord
  2
SLDDIMSTYLE0
 70
     0
 41
3.302
 44
0.0
 45
0.000000001
 73
     0
 74
     0
 77
     1
 78
    12
 79
     3
140
3.5
147
0.875
172
     1
173
     1
178
     0
271
     1
272
     1
276
     2
284
    12
289
     0
340
97
  0
DIMSTYLE
105
DF
102
{ACAD_REACTORS
330
DE
330
F7
102
}
330
A
100
AcDbSymbolTableRecord
100
AcDbDimStyleTableRecord
  2
SLDDIMSTYLE1
 70
     0
 41
3.302
 44
0.0
 45
0.000000001
 73
     0
 74
     0
 77
     1
 78
    12
 79
     3
140
3.5
147
0.875
173
     1
178
     0
271
     2
272
     2
276
     2
284
    12
340
97
  0
DIMSTYLE
105
EA
102
{ACAD_REACTORS
330
E9
102
}
330
A
100
AcDbSymbolTableRecord
100
AcDbDimStyleTableRecord
  2
SLDDIMSTYLE2
 70
     0
 41
3.302
 44
0.0
 45
0.000000001
 73
     0
 74
     0
 77
     1
 78
    12
 79
     3
140
3.5
147
0.875
172
     1
173
     1
178
     0
271
     2
272
     2
276
     2
284
    12
289
     0
340
97
  0
ENDTAB
  0
TABLE
  2
BLOCK_RECORD
  5
1
330
0
100
AcDbSymbolTable
 70
     7
  0
BLOCK_RECORD
  5
1F
330
1
100
AcDbSymbolTableRecord
100
AcDbBlockTableRecord
  2
*Model_Space
340
22
  0
BLOCK_RECORD
  5
1B
330
1
100
AcDbSymbolTableRecord
100
AcDbBlockTableRecord
  2
*Paper_Space
340
1E
  0
BLOCK_RECORD
  5
23
330
1
100
AcDbSymbolTableRecord
100
AcDbBlockTableRecord
  2
*Paper_Space0
340
26
  0
BLOCK_RECORD
  5
82
330
1
100
AcDbSymbolTableRecord
100
AcDbBlockTableRecord
  2
블럭10
340
0
102
{BLKREFS
331
C9
102
}
  0
BLOCK_RECORD
  5
D2
330
1
100
AcDbSymbolTableRecord
100
AcDbBlockTableRecord
  2
_D
340
0
  0
BLOCK_RECORD
  5
E0
330
1
100
AcDbSymbolTableRecord
100
AcDbBlockTableRecord
  2
_D_1
340
0
  0
BLOCK_RECORD
  5
EB
330
1
100
AcDbSymbolTableRecord
100
AcDbBlockTableRecord
  2
_D_2
340
0
  0
BLOCK_RECORD
  5
F8
330
1
100
AcDbSymbolTableRecord
100
AcDbBlockTableRecord
  2
_D_3
340
0
  0
BLOCK_RECORD
  5
101
330
1
100
AcDbSymbolTableRecord
100
AcDbBlockTableRecord
  2
SW_DOWELSYMBOL_0
340
0
102
{BLKREFS
331
107
102
}
  0
ENDTAB
  0
ENDSEC
  0
SECTION
  2
BLOCKS
  0
BLOCK
  5
20
330
1F
100
AcDbEntity
  8
0
100
AcDbBlockBegin
  2
*Model_Space
 70
     0
 10
0.0
 20
0.0
 30
0.0
  3
*Model_Space
  1

  0
ENDBLK
  5
21
330
1F
100
AcDbEntity
  8
0
100
AcDbBlockEnd
  0
BLOCK
  5
1C
330
1B
100
AcDbEntity
 67
     1
  8
0
100
AcDbBlockBegin
  2
*Paper_Space
 70
     0
 10
0.0
 20
0.0
 30
0.0
  3
*Paper_Space
  1

  0
ENDBLK
  5
1D
330
1B
100
AcDbEntity
 67
     1
  8
0
100
AcDbBlockEnd
  0
BLOCK
  5
24
330
23
100
AcDbEntity
  8
0
100
AcDbBlockBegin
  2
*Paper_Space0
 70
     0
 10
0.0
 20
0.0
 30
0.0
  3
*Paper_Space0
  1

  0
ENDBLK
  5
25
330
23
100
AcDbEntity
  8
0
100
AcDbBlockEnd
  0
BLOCK
  5
83
330
82
100
AcDbEntity
  8
0
100
AcDbBlockBegin
  2
블럭10
 70
     2
 10
0.0
 20
0.0
 30
0.0
  3
블럭10
  1

  0
ELLIPSE
  5
85
330
82
100
AcDbEntity
  8
중심선
100
AcDbEllipse
 10
20.54032771741204
 20
12.0471743016438
 30
0.0
 11
6.600054785286829
 21
-1.261213355974178E-13
 31
0.0
210
0.0
220
0.0
230
1.0
 40
0.636358354079598
 41
0.9219305317359503
 42
6.513795318482858
  0
ELLIPSE
  5
86
330
82
100
AcDbEntity
  8
중심선
100
AcDbEllipse
 10
20.54032771746488
 20
12.04717430159265
 30
0.0
 11
3.960054785062283
 21
1.540847449632565E-10
 31
0.0
210
0.0
220
0.0
230
1.0
 40
0.3939339440162632
 41
1.131841032648279
 42
5.62031148352944
  0
LINE
  5
87
330
82
100
AcDbEntity
  8
중심선
100
AcDbLine
 10
2.268634060543552
 20
16.24717430164393
 30
0.0
 11
5.714909304380834
 21
16.24717430164393
 31
0.0
  0
LINE
  5
88
330
82
100
AcDbEntity
  8
중심선
100
AcDbLine
 10
5.245725140726316
 20
7.84717430164391
 30
0.0
 11
8.692000384563599
 21
7.84717430164391
 31
0.0
  0
LINE
  5
89
330
82
100
AcDbEntity
  8
중심선
100
AcDbLine
 10
15.74043728645272
 20
16.24717430164393
 30
0.0
 11
8.692000384563599
 21
7.84717430164391
 31
0.0
  0
LINE
  5
8A
330
82
100
AcDbEntity
  8
중심선
100
AcDbLine
 10
0.1404042013395286
 20
13.71084872107135
 30
0.0
 11
3.58671253028996
 21
13.71088815037384
 31
0.0
  0
LINE
  5
8B
330
82
100
AcDbEntity
  8
중심선
100
AcDbLine
 10
2.750260043222114
 20
10.84717430164391
 30
0.0
 11
6.196535287059397
 21
10.84717430164391
 31
0.0
  0
LINE
  5
8C
330
82
100
AcDbEntity
  8
중심선
100
AcDbLine
 10
12.29416204261559
 20
16.24717430164393
 30
0.0
 11
5.245725140726316
 21
7.84717430164391
 31
0.0
  0
LINE
  5
8D
330
82
100
AcDbEntity
  8
중심선
100
AcDbLine
 10
10.72767329541681
 20
16.24717430164393
 30
0.0
 11
6.196535287059397
 21
10.84717430164391
 31
0.0
  0
LINE
  5
8E
330
82
100
AcDbEntity
  8
중심선
100
AcDbLine
 10
7.28139805157953
 20
16.24717430164393
 30
0.0
 11
2.750260043222114
 21
10.84717430164391
 31
0.0
  0
LINE
  5
8F
330
82
100
AcDbEntity
  8
중심선
100
AcDbLine
 10
5.714909304380834
 20
16.24717430164393
 30
0.0
 11
3.58671253028996
 21
13.71088815037384
 31
0.0
  0
LINE
  5
90
330
82
100
AcDbEntity
  8
중심선
100
AcDbLine
 10
2.268634060543552
 20
16.24717430164393
 30
0.0
 11
0.1404042013395286
 21
13.71084872107135
 31
0.0
  0
LINE
  5
91
330
82
100
AcDbEntity
  8
중심선
100
AcDbLine
 10
7.28139805157953
 20
16.24717430164393
 30
0.0
 11
10.72767329541681
 21
16.24717430164393
 31
0.0
  0
LINE
  5
92
330
82
100
AcDbEntity
  8
중심선
100
AcDbLine
 10
12.29416204261559
 20
16.24717430164393
 30
0.0
 11
15.74043728645272
 21
16.24717430164393
 31
0.0
  0
LINE
  5
93
330
82
100
AcDbEntity
  8
중심선
100
AcDbLine
 10
19.22036997980202
 20
11.08717430171403
 30
0.0
 11
23.66174974927406
 21
11.08717430171406
 31
0.0
  0
LINE
  5
94
330
82
100
AcDbEntity
  8
중심선
100
AcDbLine
 10
19.22039502424796
 20
13.00717430171391
 30
0.0
 11
19.22036997980202
 21
11.08717430171403
 31
0.0
  0
LINE
  5
95
330
82
100
AcDbEntity
  8
중심선
100
AcDbLine
 10
19.22039502424796
 20
13.00717430171391
 30
0.0
 11
26.96566020931264
 21
13.00717430171391
 31
0.0
  0
LINE
  5
96
330
82
100
AcDbEntity
  8
중심선
100
AcDbLine
 10
22.22332737316547
 20
13.45928029700563
 30
0.0
 11
24.52862924686651
 21
15.39360700705356
 31
0.0
  0
ATTDEF
  5
98
330
82
100
AcDbEntity
  8
FORMAT
 62
     2
100
AcDbText
 10
-16.11926103943555
 20
2.075366912832191
 30
0.0
 40
4.233333333333333
  1
SEME7110030E [ 4 FLUTE ]
 41
0.75
  7
SLDTEXTSTYLE0
 11
-16.11926103943555
 21
-0.0412997538344756
 31
0.0
100
AcDbAttributeDefinition
  3

  2
AUTOATTR0
 70
     0
 74
     1
  0
ENDBLK
  5
84
330
82
100
AcDbEntity
  8
0
100
AcDbBlockEnd
  0
BLOCK
  5
D3
330
D2
100
AcDbEntity
  8
0
100
AcDbBlockBegin
  2
_D
 70
     0
 10
0.0
 20
0.0
 30
0.0
  3
_D
  1

  0
LINE
  5
D5
330
D2
100
AcDbEntity
  8
치수문자_일반주서
 62
     0
370
    -2
100
AcDbLine
 10
40.06250000000004
 20
-5.000000000000005
 30
0.0
 11
49.56769403798408
 21
-4.999999999999968
 31
0.0
  0
LINE
  5
D6
330
D2
100
AcDbEntity
  8
치수문자_일반주서
 62
     0
370
    -2
100
AcDbLine
 10
40.06250000000004
 20
5.000000000000004
 30
0.0
 11
49.56769403798405
 21
5.000000000000039
 31
0.0
  0
LINE
  5
D7
330
D2
100
AcDbEntity
  8
치수문자_일반주서
 62
     0
370
    -2
100
AcDbLine
 10
49.56769403798408
 20
-4.999999999999968
 30
0.0
 11
49.567694037984
 21
19.04150000000004
 31
0.0
  0
LINE
  5
D8
330
D2
100
AcDbEntity
  8
치수문자_일반주서
 62
     0
370
    -2
100
AcDbLine
 10
49.56769403798408
 20
-4.999999999999968
 30
0.0
 11
49.56769403798405
 21
5.000000000000039
 31
0.0
  0
LINE
  5
D9
330
D2
100
AcDbEntity
  8
치수문자_일반주서
 62
     0
370
    -2
100
AcDbLine
 10
49.5676940379841
 20
-8.301999999999968
 30
0.0
 11
49.56769403798411
 21
-11.60399999999997
 31
0.0
  0
LINE
  5
DA
330
D2
100
AcDbEntity
  8
치수문자_일반주서
 62
     0
370
    -2
100
AcDbLine
 10
49.56769403798403
 20
8.302000000000039
 30
0.0
 11
49.56769403798402
 21
11.60400000000004
 31
0.0
  0
SOLID
  5
DB
330
D2
100
AcDbEntity
  8
치수문자_일반주서
 62
     0
100
AcDbTrace
 10
50.11802737131743
 20
-8.301999999999966
 30
0.0
 11
49.01736070465076
 21
-8.30199999999997
 31
0.0
 12
49.56769403798408
 22
-4.999999999999968
 32
0.0
 13
49.56769403798408
 23
-4.999999999999968
 33
0.0
  0
SOLID
  5
DC
330
D2
100
AcDbEntity
  8
치수문자_일반주서
 62
     0
100
AcDbTrace
 10
49.0173607046507
 20
8.302000000000037
 30
0.0
 11
50.11802737131737
 21
8.30200000000004
 31
0.0
 12
49.56769403798405
 22
5.000000000000039
 32
0.0
 13
49.56769403798405
 23
5.000000000000039
 33
0.0
  0
MTEXT
  5
DD
330
D2
100
AcDbEntity
  8
치수문자_일반주서
 62
     0
100
AcDbMText
 10
45.19269403798401
 20
15.32275000000002
 30
0.0
 40
3.5
 41
0.0
 71
     2
 72
     1
  1
\A1;%%c10
  7
SLDTEXTSTYLE0
 11
-3.552713678800498E-15
 21
1.0
 31
0.0
 73
     1
 44
1.0
  0
POINT
  5
137
330
D2
100
AcDbEntity
  8
Defpoints
 62
     0
100
AcDbPoint
 10
40.00000000000004
 20
-5.000000000000005
 30
0.0
  0
POINT
  5
138
330
D2
100
AcDbEntity
  8
Defpoints
 62
     0
100
AcDbPoint
 10
40.00000000000004
 20
5.000000000000004
 30
0.0
  0
POINT
  5
139
330
D2
100
AcDbEntity
  8
Defpoints
 62
     0
100
AcDbPoint
 10
49.56769403798406
 20
5.000000000000039
 30
0.0
  0
ENDBLK
  5
D4
330
D2
100
AcDbEntity
  8
0
100
AcDbBlockEnd
  0
BLOCK
  5
E1
330
E0
100
AcDbEntity
  8
0
100
AcDbBlockBegin
  2
_D_1
 70
     0
 10
0.0
 20
0.0
 30
0.0
  3
_D_1
  1

  0
LINE
  5
E3
330
E0
100
AcDbEntity
  8
치수문자_일반주서
 62
     0
370
    -2
100
AcDbLine
 10
-35.00000000000001
 20
4.562499999999995
 30
0.0
 11
-35.00000000000001
 21
22.38913260158164
 31
0.0
  0
LINE
  5
E4
330
E0
100
AcDbEntity
  8
치수문자_일반주서
 62
     0
370
    -2
100
AcDbLine
 10
40.00000000000001
 20
5.062500000000002
 30
0.0
 11
40.00000000000001
 21
22.38913260158164
 31
0.0
  0
LINE
  5
E5
330
E0
100
AcDbEntity
  8
치수문자_일반주서
 62
     0
370
    -2
100
AcDbLine
 10
-31.69800000000001
 20
22.38913260158164
 30
0.0
 11
36.69800000000001
 21
22.38913260158164
 31
0.0
  0
SOLID
  5
E6
330
E0
100
AcDbEntity
  8
치수문자_일반주서
 62
     0
100
AcDbTrace
 10
-31.69800000000001
 20
22.93946593491498
 30
0.0
 11
-31.69800000000001
 21
21.83879926824831
 31
0.0
 12
-35.00000000000001
 22
22.38913260158164
 32
0.0
 13
-35.00000000000001
 23
22.38913260158164
 33
0.0
  0
SOLID
  5
E7
330
E0
100
AcDbEntity
  8
치수문자_일반주서
 62
     0
100
AcDbTrace
 10
36.69800000000001
 20
21.83879926824831
 30
0.0
 11
36.69800000000001
 21
22.93946593491498
 31
0.0
 12
40.00000000000001
 22
22.38913260158164
 32
0.0
 13
40.00000000000001
 23
22.38913260158164
 33
0.0
  0
MTEXT
  5
E8
330
E0
100
AcDbEntity
  8
치수문자_일반주서
 62
     0
100
AcDbMText
 10
2.500000000000004
 20
26.76413260158164
 30
0.0
 40
3.5
 41
0.0
 71
     2
 72
     1
  1
\A1;75
  7
SLDTEXTSTYLE0
 73
     1
 44
1.0
  0
POINT
  5
12E
330
E0
100
AcDbEntity
  8
Defpoints
 62
     0
100
AcDbPoint
 10
-35.00000000000001
 20
4.499999999999995
 30
0.0
  0
POINT
  5
12F
330
E0
100
AcDbEntity
  8
Defpoints
 62
     0
100
AcDbPoint
 10
40.00000000000001
 20
5.000000000000002
 30
0.0
  0
POINT
  5
130
330
E0
100
AcDbEntity
  8
Defpoints
 62
     0
100
AcDbPoint
 10
40.00000000000001
 20
22.38913260158164
 30
0.0
  0
ENDBLK
  5
E2
330
E0
100
AcDbEntity
  8
0
100
AcDbBlockEnd
  0
BLOCK
  5
EC
330
EB
100
AcDbEntity
  8
0
100
AcDbBlockBegin
  2
_D_2
 70
     0
 10
0.0
 20
0.0
 30
0.0
  3
_D_2
  1

  0
LINE
  5
EE
330
EB
100
AcDbEntity
  8
치수문자_일반주서
 62
     0
370
    -2
100
AcDbLine
 10
-34.56250000000001
 20
5.000000000000004
 30
0.0
 11
-43.20544556424399
 21
4.999999999999972
 31
0.0
  0
LINE
  5
EF
330
EB
100
AcDbEntity
  8
치수문자_일반주서
 62
     0
370
    -2
100
AcDbLine
 10
-34.56250000000001
 20
-5.000000000000005
 30
0.0
 11
-43.20544556424395
 21
-5.000000000000039
 31
0.0
  0
LINE
  5
F0
330
EB
100
AcDbEntity
  8
치수문자_일반주서
 62
     0
370
    -2
100
AcDbLine
 10
-43.20544556424399
 20
4.999999999999972
 30
0.0
 11
-43.20544556424404
 21
19.04149999999997
 31
0.0
  0
LINE
  5
F1
330
EB
100
AcDbEntity
  8
치수문자_일반주서
 62
     0
370
    -2
100
AcDbLine
 10
-43.20544556424399
 20
4.999999999999972
 30
0.0
 11
-43.20544556424395
 21
-5.000000000000039
 31
0.0
  0
LINE
  5
F2
330
EB
100
AcDbEntity
  8
치수문자_일반주서
 62
     0
370
    -2
100
AcDbLine
 10
-43.205445564244
 20
8.301999999999971
 30
0.0
 11
-43.20544556424402
 21
11.60399999999997
 31
0.0
  0
LINE
  5
F3
330
EB
100
AcDbEntity
  8
치수문자_일반주서
 62
     0
370
    -2
100
AcDbLine
 10
-43.20544556424394
 20
-8.302000000000039
 30
0.0
 11
-43.20544556424392
 21
-11.60400000000004
 31
0.0
  0
SOLID
  5
F4
330
EB
100
AcDbEntity
  8
치수문자_일반주서
 62
     0
100
AcDbTrace
 10
-43.75577889757734
 20
8.30199999999997
 30
0.0
 11
-42.65511223091067
 21
8.301999999999973
 31
0.0
 12
-43.20544556424399
 22
4.999999999999972
 32
0.0
 13
-43.20544556424399
 23
4.999999999999972
 33
0.0
  0
SOLID
  5
F5
330
EB
100
AcDbEntity
  8
치수문자_일반주서
 62
     0
100
AcDbTrace
 10
-42.6551122309106
 20
-8.302000000000037
 30
0.0
 11
-43.75577889757727
 21
-8.30200000000004
 31
0.0
 12
-43.20544556424395
 22
-5.000000000000039
 32
0.0
 13
-43.20544556424395
 23
-5.000000000000039
 33
0.0
  0
MTEXT
  5
F6
330
EB
100
AcDbEntity
  8
치수문자_일반주서
 62
     0
100
AcDbMText
 10
-47.58044556424402
 20
15.32274999999996
 30
0.0
 40
3.5
 41
0.0
 71
     2
 72
     1
  1
\A1;%%c10
  7
SLDTEXTSTYLE0
 11
-3.552713678800497E-15
 21
1.0
 31
0.0
 73
     1
 44
1.0
  0
POINT
  5
134
330
EB
100
AcDbEntity
  8
Defpoints
 62
     0
100
AcDbPoint
 10
-34.50000000000001
 20
5.000000000000004
 30
0.0
  0
POINT
  5
135
330
EB
100
AcDbEntity
  8
Defpoints
 62
     0
100
AcDbPoint
 10
-34.50000000000001
 20
-5.000000000000005
 30
0.0
  0
POINT
  5
136
330
EB
100
AcDbEntity
  8
Defpoints
 62
     0
100
AcDbPoint
 10
-43.20544556424395
 20
-5.000000000000038
 30
0.0
  0
ENDBLK
  5
ED
330
EB
100
AcDbEntity
  8
0
100
AcDbBlockEnd
  0
BLOCK
  5
F9
330
F8
100
AcDbEntity
  8
0
100
AcDbBlockBegin
  2
_D_3
 70
     0
 10
0.0
 20
0.0
 30
0.0
  3
_D_3
  1

  0
LINE
  5
FB
330
F8
100
AcDbEntity
  8
치수문자_일반주서
 62
     0
370
    -2
100
AcDbLine
 10
10.0
 20
5.0625
 30
0.0
 11
10.0
 21
15.84591830258766
 31
0.0
  0
LINE
  5
FC
330
F8
100
AcDbEntity
  8
치수문자_일반주서
 62
     0
370
    -2
100
AcDbLine
 10
40.00000000000001
 20
5.062500000000002
 30
0.0
 11
40.00000000000001
 21
15.84591830258766
 31
0.0
  0
LINE
  5
FD
330
F8
100
AcDbEntity
  8
치수문자_일반주서
 62
     0
370
    -2
100
AcDbLine
 10
13.302
 20
15.84591830258766
 30
0.0
 11
36.69800000000001
 21
15.84591830258766
 31
0.0
  0
SOLID
  5
FE
330
F8
100
AcDbEntity
  8
치수문자_일반주서
 62
     0
100
AcDbTrace
 10
13.302
 20
16.396251635921
 30
0.0
 11
13.302
 21
15.29558496925433
 31
0.0
 12
10.0
 22
15.84591830258766
 32
0.0
 13
10.0
 23
15.84591830258766
 33
0.0
  0
SOLID
  5
FF
330
F8
100
AcDbEntity
  8
치수문자_일반주서
 62
     0
100
AcDbTrace
 10
36.69800000000001
 20
15.29558496925433
 30
0.0
 11
36.69800000000001
 21
16.396251635921
 31
0.0
 12
40.00000000000001
 22
15.84591830258766
 32
0.0
 13
40.00000000000001
 23
15.84591830258766
 33
0.0
  0
MTEXT
  5
100
330
F8
100
AcDbEntity
  8
치수문자_일반주서
 62
     0
100
AcDbMText
 10
24.99999999999999
 20
20.22091830258766
 30
0.0
 40
3.5
 41
0.0
 71
     2
 72
     1
  1
\A1;30
  7
SLDTEXTSTYLE0
 73
     1
 44
1.0
  0
POINT
  5
131
330
F8
100
AcDbEntity
  8
Defpoints
 62
     0
100
AcDbPoint
 10
10.0
 20
5.0
 30
0.0
  0
POINT
  5
132
330
F8
100
AcDbEntity
  8
Defpoints
 62
     0
100
AcDbPoint
 10
40.00000000000001
 20
5.000000000000002
 30
0.0
  0
POINT
  5
133
330
F8
100
AcDbEntity
  8
Defpoints
 62
     0
100
AcDbPoint
 10
40.00000000000001
 20
15.84591830258766
 30
0.0
  0
ENDBLK
  5
FA
330
F8
100
AcDbEntity
  8
0
100
AcDbBlockEnd
  0
BLOCK
  5
102
330
101
100
AcDbEntity
  8
0
100
AcDbBlockBegin
  2
SW_DOWELSYMBOL_0
 70
     0
 10
0.0
 20
0.0
 30
0.0
  3
SW_DOWELSYMBOL_0
  1

  0
CIRCLE
  5
104
330
101
100
AcDbEntity
  8
해칭선
 62
     0
100
AcDbCircle
 10
0.0
 20
0.0
 30
0.0
 40
3.000000000000001
  0
HATCH
  5
105
330
101
100
AcDbEntity
  8
0
  6
Continuous
 62
     0
370
    18
100
AcDbHatch
 10
0.0
 20
0.0
 30
0.0
210
0.0
220
0.0
230
1.0
  2
SOLID
 70
     1
 71
     0
 91
        1
 92
        0
 93
        3
 72
     2
 10
0.0
 20
0.0
 40
3.000000000000001
 50
0.0
 51
90.0
 73
     1
 72
     1
 10
0.0
 20
3.000000000000001
 11
0.0
 21
0.0
 72
     1
 10
0.0
 20
0.0
 11
3.000000000000001
 21
0.0
 97
        0
 75
     0
 76
     1
 98
        1
 10
0.0
 20
0.0
  0
HATCH
  5
106
330
101
100
AcDbEntity
  8
0
  6
Continuous
 62
     0
370
    18
100
AcDbHatch
 10
0.0
 20
0.0
 30
0.0
210
0.0
220
0.0
230
1.0
  2
SOLID
 70
     1
 71
     0
 91
        1
 92
        0
 93
        3
 72
     2
 10
0.0
 20
0.0
 40
3.000000000000001
 50
180.0
 51
270.0000000000008
 73
     1
 72
     1
 10
0.0
 20
-3.000000000000001
 11
0.0
 21
0.0
 72
     1
 10
0.0
 20
0.0
 11
-3.000000000000001
 21
0.0
 97
        0
 75
     0
 76
     1
 98
        1
 10
0.0
 20
0.0
  0
ENDBLK
  5
103
330
101
100
AcDbEntity
  8
0
100
AcDbBlockEnd
  0
ENDSEC
  0
SECTION
  2
ENTITIES
  0
LINE
  5
99
330
1F
100
AcDbEntity
  8
0
  6
Continuous
 62
     4
370
    25
100
AcDbLine
 10
10.0
 20
5.0
 30
0.0
 11
-34.50000000000001
 21
4.999999999999996
 31
0.0
  0
LINE
  5
9A
330
1F
100
AcDbEntity
  8
0
  6
Continuous
 62
     4
370
    25
100
AcDbLine
 10
-34.50000000000001
 20
-5.000000000000004
 30
0.0
 11
9.999999999999996
 21
-5.0
 31
0.0
  0
LINE
  5
9B
330
1F
100
AcDbEntity
  8
0
  6
Continuous
 62
     4
370
    25
100
AcDbLine
 10
-34.50000000000001
 20
4.999999999999993
 30
0.0
 11
-35.00000000000001
 21
4.499999999999995
 31
0.0
  0
LINE
  5
9C
330
1F
100
AcDbEntity
  8
0
  6
Continuous
 62
     4
370
    25
100
AcDbLine
 10
-35.00000000000001
 20
-4.500000000000002
 30
0.0
 11
-34.50000000000001
 21
-5.0
 31
0.0
  0
LINE
  5
9D
330
1F
100
AcDbEntity
  8
0
  6
Continuous
 62
     1
370
    25
100
AcDbLine
 10
38.57086981933882
 20
-5.000000000000004
 30
0.0
 11
40.00000000000001
 21
-5.000000000000004
 31
0.0
  0
LINE
  5
9E
330
1F
100
AcDbEntity
  8
0
  6
Continuous
 62
     1
370
    25
100
AcDbLine
 10
21.32390850591705
 20
5.000000000000002
 30
0.0
 11
18.46510345666869
 21
5.000000000000002
 31
0.0
  0
LINE
  5
9F
330
1F
100
AcDbEntity
  8
0
  6
Continuous
 62
     1
370
    25
100
AcDbLine
 10
28.51894551253686
 20
-5.000000000000004
 30
0.0
 11
31.37608280913481
 21
-5.000000000000004
 31
0.0
  0
LINE
  5
A0
330
1F
100
AcDbEntity
  8
0
  6
Continuous
 62
     1
370
    25
100
AcDbLine
 10
11.27106103143547
 20
5.000000000000002
 30
0.0
 11
10.0
 21
5.000000000000002
 31
0.0
  0
LINE
  5
A1
330
1F
100
AcDbEntity
  8
0
  6
Continuous
 62
     1
370
    25
100
AcDbLine
 10
10.0
 20
-5.000000000000004
 30
0.0
 11
11.27106103143546
 21
-5.000000000000004
 31
0.0
  0
LINE
  5
A2
330
1F
100
AcDbEntity
  8
0
  6
Continuous
 62
     1
370
    25
100
AcDbLine
 10
31.37608280913481
 20
5.000000000000002
 30
0.0
 11
28.51894551253691
 21
5.000000000000002
 31
0.0
  0
LINE
  5
A3
330
1F
100
AcDbEntity
  8
0
  6
Continuous
 62
     1
370
    25
100
AcDbLine
 10
18.46510345666866
 20
-5.000000000000004
 30
0.0
 11
21.32390850591703
 21
-5.000000000000004
 31
0.0
  0
LINE
  5
A4
330
1F
100
AcDbEntity
  8
0
  6
Continuous
 62
     1
370
    25
100
AcDbLine
 10
40.00000000000001
 20
5.000000000000002
 30
0.0
 11
38.57086981933881
 21
5.000000000000002
 31
0.0
  0
SPLINE
  5
A5
330
1F
100
AcDbEntity
  8
0
  6
Continuous
 62
     4
370
    25
100
AcDbSpline
210
0.0
220
0.0
230
1.0
 70
     8
 71
     3
 72
    12
 73
     8
 74
     0
 42
0.000000001
 43
0.00000001
 40
0.0
 40
0.0
 40
0.0
 40
0.0
 40
0.25
 40
0.25
 40
0.5
 40
0.5
 40
1.0
 40
1.0
 40
1.0
 40
1.0
 10
8.887739699966042
 20
1.819935774933017
 30
0.0
 10
8.825651252967502
 20
1.865200490029288
 30
0.0
 10
8.770541681142241
 20
1.916107176959937
 30
0.0
 10
8.673693068277617
 20
2.028236342722395
 30
0.0
 10
8.631924765036535
 20
2.090008324255748
 30
0.0
 10
8.533110104904818
 20
2.280808164044131
 30
0.0
 10
8.500163129263873
 20
2.419408184092327
 30
0.0
 10
8.500163129263873
 20
2.554840708789097
 30
0.0
  0
SPLINE
  5
A6
330
1F
100
AcDbEntity
  8
0
  6
Continuous
 62
     4
370
    25
100
AcDbSpline
210
0.0
220
0.0
230
1.0
 70
     8
 71
     3
 72
    10
 73
     6
 74
     0
 42
0.000000001
 43
0.00000001
 40
0.0
 40
0.0
 40
0.0
 40
0.0
 40
0.5
 40
0.5
 40
1.0
 40
1.0
 40
1.0
 40
1.0
 10
10.0
 20
0.9870275949205788
 30
0.0
 10
9.813971933248112
 20
1.129205245202197
 30
0.0
 10
9.62764532824331
 20
1.270210425124544
 30
0.0
 10
9.256505749053357
 20
1.548285412183275
 30
0.0
 10
9.072662013132588
 20
1.685120745324953
 30
0.0
 10
8.887739699966042
 20
1.819935774933017
 30
0.0
  0
SPLINE
  5
A7
330
1F
100
AcDbEntity
  8
0
  6
Continuous
 62
     4
370
    25
100
AcDbSpline
210
0.0
220
0.0
230
1.0
 70
     8
 71
     3
 72
    18
 73
    14
 74
     0
 42
0.000000001
 43
0.00000001
 40
0.0
 40
0.0
 40
0.0
 40
0.0
 40
0.1250000000000001
 40
0.1250000000000001
 40
0.2500000000000001
 40
0.2500000000000001
 40
0.3750000000000001
 40
0.3750000000000001
 40
0.5000000000000001
 40
0.5000000000000001
 40
0.7500000000000001
 40
0.7500000000000001
 40
1.0
 40
1.0
 40
1.0
 40
1.0
 10
8.500163129263887
 20
-2.081107311062254
 30
0.0
 10
8.500163129263887
 20
-2.000055163041677
 30
0.0
 10
8.510312507456309
 20
-1.919568023496746
 30
0.0
 10
8.552212036204104
 20
-1.760121714704047
 30
0.0
 10
8.584377029122747
 20
-1.681216469712084
 30
0.0
 10
8.668138371822199
 20
-1.534991876688458
 30
0.0
 10
8.721005910803049
 20
-1.465471826996783
 30
0.0
 10
8.842933037243872
 20
-1.342982285154611
 30
0.0
 10
8.911965641239163
 20
-1.289527832165986
 30
0.0
 10
9.140935168270433
 20
-1.156321364530753
 30
0.0
 10
9.316462445916649
 20
-1.108633066683682
 30
0.0
 10
9.668756015823952
 20
-1.106026363292478
 30
0.0
 10
9.84570115440425
 20
-1.151279461075561
 30
0.0
 10
9.999999999999986
 20
-1.238232855294252
 30
0.0
  0
LINE
  5
A8
330
1F
100
AcDbEntity
  8
0
  6
Continuous
 62
     4
370
    25
100
AcDbLine
 10
8.500163129263887
 20
-2.081107311062254
 30
0.0
 11
8.500163129263887
 21
-4.297998249501013
 31
0.0
  0
SPLINE
  5
A9
330
1F
100
AcDbEntity
  8
0
  6
Continuous
 62
     4
370
    25
100
AcDbSpline
210
0.0
220
0.0
230
1.0
 70
     8
 71
     3
 72
    12
 73
     8
 74
     0
 42
0.000000001
 43
0.00000001
 40
0.0
 40
0.0
 40
0.0
 40
0.0
 40
0.2500000000000006
 40
0.2500000000000006
 40
0.5000000000000011
 40
0.5000000000000011
 40
1.0
 40
1.0
 40
1.0
 40
1.0
 10
8.887739699966042
 20
-4.657019838384514
 30
0.0
 10
8.825651252967502
 20
-4.639330655773167
 30
0.0
 10
8.770541681142241
 20
-4.618685488560907
 30
0.0
 10
8.673693068277617
 20
-4.570555731407348
 30
0.0
 10
8.631924765036537
 20
-4.54277795109619
 30
0.0
 10
8.533110104904818
 20
-4.451716450148901
 30
0.0
 10
8.500163129263873
 20
-4.37850282565564
 30
0.0
 10
8.500163129263873
 20
-4.297998249501015
 30
0.0
  0
SPLINE
  5
AA
330
1F
100
AcDbEntity
  8
0
  6
Continuous
 62
     4
370
    25
100
AcDbSpline
210
0.0
220
0.0
230
1.0
 70
     8
 71
     3
 72
    10
 73
     6
 74
     0
 42
0.000000001
 43
0.00000001
 40
0.0
 40
0.0
 40
0.0
 40
0.0
 40
0.5
 40
0.5
 40
1.0
 40
1.0
 40
1.0
 40
1.0
 10
10.0
 20
-4.901609585315149
 30
0.0
 10
9.813971933248112
 20
-4.872979548229094
 30
0.0
 10
9.62764532824331
 20
-4.838136531044822
 30
0.0
 10
9.256505749053357
 20
-4.75644950562349
 30
0.0
 10
9.072662013132588
 20
-4.709704753608645
 30
0.0
 10
8.887739699966042
 20
-4.657019838384516
 30
0.0
  0
SPLINE
  5
AB
330
1F
100
AcDbEntity
  8
0
  6
Continuous
 62
     4
370
    25
100
AcDbSpline
210
0.0
220
0.0
230
1.0
 70
     8
 71
     3
 72
    18
 73
    14
 74
     0
 42
0.000000001
 43
0.00000001
 40
0.0
 40
0.0
 40
0.0
 40
0.0
 40
0.1249999999999999
 40
0.1249999999999999
 40
0.2499999999999999
 40
0.2499999999999999
 40
0.3749999999999998
 40
0.3749999999999998
 40
0.4999999999999998
 40
0.4999999999999998
 40
0.7499999999999999
 40
0.7499999999999999
 40
1.0
 40
1.0
 40
1.0
 40
1.0
 10
8.500163129263887
 20
4.546316350612113
 30
0.0
 10
8.500163129263887
 20
4.583418524067381
 30
0.0
 10
8.510312507456309
 20
4.617641144192968
 30
0.0
 10
8.552212036204104
 20
4.680739544431225
 30
0.0
 10
8.584377029122747
 20
4.709508818593727
 30
0.0
 10
8.668138371822202
 20
4.759176616699965
 30
0.0
 10
8.721005910803049
 20
4.780843485214047
 30
0.0
 10
8.842933037243872
 20
4.816686691865663
 30
0.0
 10
8.911965641239163
 20
4.83106819115344
 30
0.0
 10
9.140935168270437
 20
4.865318950690826
 30
0.0
 10
9.316462445916649
 20
4.875544534695175
 30
0.0
 10
9.668756015823952
 20
4.876136531111745
 30
0.0
 10
9.84570115440425
 20
4.866478243266307
 30
0.0
 10
9.999999999999986
 20
4.844252201947141
 30
0.0
  0
LINE
  5
AC
330
1F
100
AcDbEntity
  8
0
  6
Continuous
 62
     4
370
    25
100
AcDbLine
 10
8.500163129263887
 20
4.546316350612113
 30
0.0
 11
8.500163129263887
 21
2.5548407087891
 31
0.0
  0
LINE
  5
AD
330
1F
100
AcDbEntity
  8
0
  6
Continuous
 62
     4
370
    25
100
AcDbLine
 10
-34.50000000000001
 20
4.999999999999993
 30
0.0
 11
-34.50000000000001
 21
-5.0
 31
0.0
  0
LINE
  5
AE
330
1F
100
AcDbEntity
  8
0
  6
Continuous
 62
     4
370
    25
100
AcDbLine
 10
-35.00000000000001
 20
4.499999999999995
 30
0.0
 11
-35.00000000000001
 21
-4.500000000000004
 31
0.0
  0
SPLINE
  5
AF
330
1F
100
AcDbEntity
  8
0
  6
Continuous
 62
     4
370
    25
100
AcDbSpline
210
0.0
220
0.0
230
1.0
 70
    24
 71
     3
 72
     8
 73
     4
 74
     0
 42
0.000000001
 43
0.00000001
 40
0.0
 40
0.0
 40
0.0
 40
0.0
 40
1.0
 40
1.0
 40
1.0
 40
1.0
 10
10.0
 20
4.844252201947163
 30
0.0
 10
10.0
 20
4.542744936840173
 30
0.0
 10
10.0
 20
4.241760552919075
 30
0.0
 10
10.0
 20
3.941348842876192
 30
0.0
  0
SPLINE
  5
B0
330
1F
100
AcDbEntity
  8
0
  6
Continuous
 62
     1
370
    25
100
AcDbSpline
210
0.0
220
0.0
230
1.0
 70
     8
 71
     3
 72
    29
 73
    25
 74
     0
 42
0.000000001
 43
0.00000001
 40
0.0
 40
0.0
 40
0.0
 40
0.0
 40
0.0098016607353694
 40
0.0635947208893491
 40
0.1110194505873458
 40
0.1584596836273355
 40
0.2059831206391894
 40
0.2534459085650937
 40
0.3008661527080733
 40
0.348330624396045
 40
0.3958533185435202
 40
0.4432924234437003
 40
0.4907177123524896
 40
0.5382158532884375
 40
0.5857125066982208
 40
0.6331374191558452
 40
0.6805772725171594
 40
0.7281004715937264
 40
0.7805618771737768
 40
0.8329884014951408
 40
0.8854122974627197
 40
0.9378658445685165
 40
0.990369981457504
 40
1.0
 40
1.0
 40
1.0
 40
1.0
 10
14.86796786827461
 20
4.218277838459437
 30
0.0
 10
14.9454416851175
 20
4.25433296395136
 30
0.0
 10
15.44810402891574
 20
4.488264305200028
 30
0.0
 10
16.32542817661895
 20
4.742639168288902
 30
0.0
 10
17.49946301947135
 20
4.970734665335974
 30
0.0
 10
18.62402744438201
 20
5.023700392956743
 30
0.0
 10
19.75011554114627
 20
4.925183567475111
 30
0.0
 10
20.87510660803662
 20
4.673913422101471
 30
0.0
 10
21.99925359319344
 20
4.278652341139716
 30
0.0
 10
23.1242761618872
 20
3.751433715437954
 30
0.0
 10
24.25034745183279
 20
3.109381602238536
 30
0.0
 10
25.37490309987619
 20
2.370532836741959
 30
0.0
 10
26.49917361925562
 20
1.558547171135456
 30
0.0
 10
27.62480314570153
 20
0.6992845894466377
 30
0.0
 10
28.75040750070042
 20
-0.1815399055527437
 30
0.0
 10
29.87466442048397
 20
-1.057529955941444
 30
0.0
 10
30.99925017244468
 20
-1.900931219015463
 30
0.0
 10
32.16478509866214
 20
-2.712005824947584
 30
0.0
 10
33.36902448996467
 20
-3.458802417131651
 30
0.0
 10
34.61176427369628
 20
-4.098296209482576
 30
0.0
 10
35.8544286092343
 20
-4.588137106746981
 30
0.0
 10
37.09785417716873
 20
-4.888503392668947
 30
0.0
 10
38.00379627598847
 20
-5.018962157053406
 30
0.0
 10
38.49477434669528
 20
-4.990318476089553
 30
0.0
 10
38.57086981933881
 20
-4.985879063066366
 30
0.0
  0
SPLINE
  5
B1
330
1F
100
AcDbEntity
  8
0
  6
Continuous
 62
     1
370
    25
100
AcDbSpline
210
0.0
220
0.0
230
1.0
 70
     8
 71
     3
 72
    24
 73
    20
 74
     0
 42
0.000000001
 43
0.00000001
 40
0.0
 40
0.0
 40
0.0
 40
0.0
 40
0.0602791609684011
 40
0.120466565898698
 40
0.1806722185883893
 40
0.2409838086827722
 40
0.3012204649684608
 40
0.3614017041246476
 40
0.4216376481201564
 40
0.4819495524721406
 40
0.5421556824043856
 40
0.6023428507689798
 40
0.6626210658966035
 40
0.7229011688503312
 40
0.7830888149707819
 40
0.8432939950276559
 40
0.9036052585718731
 40
0.9638426317325104
 40
1.0
 40
1.0
 40
1.0
 40
1.0
 10
40.0
 20
-4.875828491775106
 30
0.0
 10
39.62460401072266
 20
-4.796405338258174
 30
0.0
 10
38.87438345433351
 20
-4.637679927961814
 30
0.0
 10
37.75011765763583
 20
-4.216055836266054
 30
0.0
 10
36.62555501190047
 20
-3.675059808291194
 30
0.0
 10
35.49947906357948
 20
-3.018849714529112
 30
0.0
 10
34.37446671861624
 20
-2.269621596091059
 30
0.0
 10
33.25032006040188
 20
-1.450046092596424
 30
0.0
 10
32.12531794249581
 20
-0.5859314643929749
 30
0.0
 10
30.99923748699834
 20
0.2952062710702613
 30
0.0
 10
29.87466781535754
 20
1.168532828988325
 30
0.0
 10
28.7504065907468
 20
2.005774932716732
 30
0.0
 10
27.62480338553749
 20
2.780454078242393
 30
0.0
 10
26.49917357062369
 20
3.469620811368839
 30
0.0
 10
25.37490305507481
 20
4.051939872968109
 30
0.0
 10
24.25034767992247
 20
4.511028810838618
 30
0.0
 10
23.12427529311339
 20
4.82382562855623
 30
0.0
 10
22.14880212965681
 20
4.988362542268447
 30
0.0
 10
21.54892176752076
 20
4.983371805166513
 30
0.0
 10
21.32390850591705
 20
4.98149979517253
 30
0.0
  0
LINE
  5
B2
330
1F
100
AcDbEntity
  8
0
  6
Continuous
 62
     4
370
    25
100
AcDbLine
 10
40.0
 20
-5.000000000000005
 30
0.0
 11
40.00000000000001
 21
-4.875828491776307
 31
0.0
  0
SPLINE
  5
B3
330
1F
100
AcDbEntity
  8
0
  6
Continuous
 62
     1
370
    25
100
AcDbSpline
210
0.0
220
0.0
230
1.0
 70
     8
 71
     3
 72
    20
 73
    16
 74
     0
 42
0.000000001
 43
0.00000001
 40
0.0
 40
0.0
 40
0.0
 40
0.0
 40
0.0309542582790406
 40
0.1076079330952613
 40
0.1843793589200262
 40
0.2611483804505946
 40
0.3378014468073659
 40
0.4144786622035894
 40
0.4912905895963304
 40
0.5760841589400854
 40
0.6608213495727762
 40
0.7455542919872489
 40
0.8303351596491833
 40
0.9151977957700755
 40
1.0
 40
1.0
 40
1.0
 40
1.0
 10
24.92115920969762
 20
4.215051531528677
 30
0.0
 10
25.07244398654434
 20
4.281925507097809
 30
0.0
 10
25.59836329620772
 20
4.514403062333885
 30
0.0
 10
26.49915050082484
 20
4.773058258760543
 30
0.0
 10
27.62480934482958
 20
4.978258787773632
 30
0.0
 10
28.75040584079017
 20
5.022179093995511
 30
0.0
 10
29.87466487142764
 20
4.913412930849793
 30
0.0
 10
30.99925002772449
 20
4.652416928673897
 30
0.0
 10
32.16478523529683
 20
4.234612757291258
 30
0.0
 10
33.36902405912854
 20
3.654420377749332
 30
0.0
 10
34.61176584089004
 20
2.917929179225201
 30
0.0
 10
35.85442276977253
 20
2.071507195441249
 30
0.0
 10
37.09787599017966
 20
1.147460790121174
 30
0.0
 10
38.34238637307063
 20
0.1787319381828395
 30
0.0
 10
39.17180909594805
 20
-0.4669159589142871
 30
0.0
 10
39.58637274386092
 20
-0.7896249227575917
 30
0.0
  0
SPLINE
  5
B4
330
1F
100
AcDbEntity
  8
0
  6
Continuous
 62
     1
370
    25
100
AcDbSpline
210
0.0
220
0.0
230
1.0
 70
     8
 71
     3
 72
    12
 73
     8
 74
     0
 42
0.000000001
 43
0.00000001
 40
0.0
 40
0.0
 40
0.0
 40
0.0
 40
0.5000000000000013
 40
0.5000000000000013
 40
0.7500000000000007
 40
0.7500000000000007
 40
1.0
 40
1.0
 40
1.0
 40
1.0
 10
40.00000000000001
 20
-3.778128546404882
 30
0.0
 10
39.5537895318417
 20
-3.632729568000995
 30
0.0
 10
39.11815014623613
 20
-3.441061892835222
 30
0.0
 10
38.48445739769579
 20
-3.067044896151955
 30
0.0
 10
38.27655066386696
 20
-2.927822910714524
 30
0.0
 10
37.86916954605
 20
-2.612471287683518
 30
0.0
 10
37.67458140690453
 20
-2.441053542505854
 30
0.0
 10
37.4877744579674
 20
-2.2590792622143
 30
0.0
  0
LINE
  5
B5
330
1F
100
AcDbEntity
  8
0
  6
Continuous
 62
     1
370
    25
100
AcDbLine
 10
40.00000000000001
 20
-4.875828491776307
 30
0.0
 11
40.00000000000001
 21
-3.778128546404883
 31
0.0
  0
SPLINE
  5
B6
330
1F
100
AcDbEntity
  8
0
  6
Continuous
 62
     1
370
    25
100
AcDbSpline
210
0.0
220
0.0
230
1.0
 70
    24
 71
     3
 72
    19
 73
    15
 74
     0
 42
0.000000001
 43
0.00000001
 40
0.0
 40
0.0
 40
0.0
 40
0.0
 40
0.1273914348994211
 40
0.2455978455981236
 40
0.3676297132084482
 40
0.4454727611020918
 40
0.525408498495365
 40
0.603325528053028
 40
0.6837948319992321
 40
0.7575484849995481
 40
0.8331245598442389
 40
0.9136967929883129
 40
0.9959423747646666
 40
1.0
 40
1.0
 40
1.0
 40
1.0
 10
39.5828494101208
 20
-0.7920919876020582
 30
0.0
 10
39.57883790150733
 20
-0.7949008761728004
 30
0.0
 10
39.57110411725532
 20
-0.8003161302049427
 30
0.0
 10
39.47926386392373
 20
-0.8646233678988151
 30
0.0
 10
39.34146206229491
 20
-0.9611132281781759
 30
0.0
 10
39.16758920858928
 20
-1.082860311032924
 30
0.0
 10
38.98681728242932
 20
-1.209438176426797
 30
0.0
 10
38.77248637633787
 20
-1.359514292543348
 30
0.0
 10
38.53911788393242
 20
-1.522920670106276
 30
0.0
 10
38.29243443260791
 20
-1.695650282275303
 30
0.0
 10
38.03737605052443
 20
-1.874244084093721
 30
0.0
 10
37.77062280836539
 20
-2.061026715095392
 30
0.0
 10
37.58603779656043
 20
-2.190274531801633
 30
0.0
 10
37.49218694280709
 20
-2.255989607067224
 30
0.0
 10
37.4877744579675
 20
-2.259079262214146
 30
0.0
  0
SPLINE
  5
B7
330
1F
100
AcDbEntity
  8
0
  6
Continuous
 62
     1
370
    25
100
AcDbSpline
210
0.0
220
0.0
230
1.0
 70
     8
 71
     3
 72
    20
 73
    16
 74
     0
 42
0.000000001
 43
0.00000001
 40
0.0
 40
0.0
 40
0.0
 40
0.0
 40
0.0449373369530306
 40
0.1204306631512257
 40
0.1958314986519506
 40
0.2711620754154356
 40
0.3465602361351688
 40
0.4220547424285554
 40
0.497417073038269
 40
0.5727547754387606
 40
0.6582090433470823
 40
0.7437276885809415
 40
0.8291918134479334
 40
0.9146036629324756
 40
1.0
 40
1.0
 40
1.0
 40
1.0
 10
24.92115920969756
 20
-4.215051531528675
 30
0.0
 10
24.69773941325717
 20
-4.309856842107283
 30
0.0
 10
24.09898131874542
 20
-4.563932121093518
 30
0.0
 10
23.12425990491554
 20
-4.824425027837099
 30
0.0
 10
21.99925793815715
 20
-4.998791438582773
 30
0.0
 10
20.87510545867464
 20
-5.013177349664381
 30
0.0
 10
19.75011579164876
 20
-4.874484710511286
 30
0.0
 10
18.62402759414818
 20
-4.585529436830912
 30
0.0
 10
17.49946217221557
 20
-4.154862891217525
 30
0.0
 10
16.32543159814979
 20
-3.571397228675496
 30
0.0
 10
15.10012981970542
 20
-2.834348756390196
 30
0.0
 10
13.82407260871163
 20
-1.955188592960647
 30
0.0
 10
12.54866477395161
 20
-0.9990444452336262
 30
0.0
 10
11.27413924002367
 20
-0.0006919388075661
 30
0.0
 10
10.42468736490209
 20
0.6578076848316846
 30
0.0
 10
9.999999999999869
 20
0.9870275949206782
 30
0.0
  0
SPLINE
  5
B8
330
1F
100
AcDbEntity
  8
0
  6
Continuous
 62
     1
370
    25
100
AcDbSpline
210
0.0
220
0.0
230
1.0
 70
     8
 71
     3
 72
    23
 73
    19
 74
     0
 42
0.000000001
 43
0.00000001
 40
0.0
 40
0.0
 40
0.0
 40
0.0
 40
0.0688053005825054
 40
0.1376230997867594
 40
0.2064830181676199
 40
0.275386864547725
 40
0.3442388410071006
 40
0.4049397262776542
 40
0.4656604549208453
 40
0.5264876797904219
 40
0.5872372773707881
 40
0.6479324213927948
 40
0.708684174090306
 40
0.7695104481368477
 40
0.8302297328269453
 40
0.8909313338546659
 40
0.9517261812239141
 40
0.9999999999999999
 40
0.9999999999999999
 40
0.9999999999999999
 40
0.9999999999999999
 10
10.0
 20
4.847092641449964
 30
0.0
 10
10.42468736491391
 20
4.747055819916033
 30
0.0
 10
11.27413924005888
 20
4.546964004957594
 30
0.0
 10
12.54866477381118
 20
4.015535580958895
 30
0.0
 10
13.82407260923906
 20
3.338884751666114
 30
0.0
 10
15.10012981773582
 20
2.526791057730174
 30
0.0
 10
16.32543160512691
 20
1.651159421405942
 30
0.0
 10
17.49946214957965
 20
0.7556143405685494
 30
0.0
 10
18.62402767907636
 20
-0.1254711872834118
 30
0.0
 10
19.7501154741526
 20
-1.001363967716769
 30
0.0
 10
20.87510664141059
 20
-1.847469043407547
 30
0.0
 10
21.99925352661709
 20
-2.636682027223671
 30
0.0
 10
23.12427639518828
 20
-3.344523704681635
 30
0.0
 10
24.25034658479904
 20
-3.948271218347185
 30
0.0
 10
25.37490632770549
 20
-4.432446626367949
 30
0.0
 10
26.49916156854913
 20
-4.775119827517479
 30
0.0
 10
27.54753919303524
 20
-4.973264192676438
 30
0.0
 10
28.22091098836506
 20
-4.983046222624879
 30
0.0
 10
28.51894551253686
 20
-4.987375751514175
 30
0.0
  0
SPLINE
  5
B9
330
1F
100
AcDbEntity
  8
0
  6
Continuous
 62
     1
370
    25
100
AcDbSpline
210
0.0
220
0.0
230
1.0
 70
     8
 71
     3
 72
    29
 73
    25
 74
     0
 42
0.000000001
 43
0.00000001
 40
0.0
 40
0.0
 40
0.0
 40
0.0
 40
0.0253023063627277
 40
0.0727220175086817
 40
0.1201848332452908
 40
0.1677075018233021
 40
0.2151468256164437
 40
0.2625712086726799
 40
0.3100673318802351
 40
0.3575649425973498
 40
0.404989702100549
 40
0.4524282774409112
 40
0.4999504410954673
 40
0.5474143829404536
 40
0.5948340977341571
 40
0.6422963558358719
 40
0.6898192623465139
 40
0.7372589658140927
 40
0.7846831661127411
 40
0.8384756257780914
 40
0.8923086102150196
 40
0.9461072747202763
 40
0.9998730324852293
 40
1.0
 40
1.0
 40
1.0
 40
1.0
 10
34.97390279327633
 20
-4.214172523295736
 30
0.0
 10
34.7739842684764
 20
-4.300152746536703
 30
0.0
 10
34.19939323110648
 20
-4.54727074480506
 30
0.0
 10
33.25034047833111
 20
-4.808078656004328
 30
0.0
 10
32.12531246144215
 20
-4.992614418291692
 30
0.0
 10
30.99923895348586
 20
-5.016843100076899
 30
0.0
 10
29.87466742316089
 20
-4.888182823358198
 30
0.0
 10
28.75040669488423
 20
-4.608203369199989
 30
0.0
 10
27.62480336178133
 20
-4.186613622703553
 30
0.0
 10
26.49917356143488
 20
-3.636085714249676
 30
0.0
 10
25.37490311544235
 20
-2.972941537790303
 30
0.0
 10
24.25034744735771
 20
-2.21801578418295
 30
0.0
 10
23.12427616418939
 20
-1.395919529010017
 30
0.0
 10
21.99925358846627
 20
-0.529856874227072
 30
0.0
 10
20.87510662463682
 20
0.3527055475596383
 30
0.0
 10
19.750115479373
 20
1.224251437776255
 30
0.0
 10
18.62402767499941
 20
2.057090369667297
 30
0.0
 10
17.49946216064946
 20
2.827671740193014
 30
0.0
 10
16.32543156263504
 20
3.541460585645207
 30
0.0
 10
15.10012999987048
 20
4.158189568115736
 30
0.0
 10
13.82407193205137
 20
4.641948485932163
 30
0.0
 10
12.54866729781514
 20
4.917902330260804
 30
0.0
 10
11.69783442968755
 20
5.032795753790005
 30
0.0
 10
11.27206411669832
 20
4.999844684191955
 30
0.0
 10
11.27106103143546
 20
4.999767053762352
 30
0.0
  0
SPLINE
  5
BA
330
1F
100
AcDbEntity
  8
0
  6
Continuous
 62
     1
370
    25
100
AcDbSpline
210
0.0
220
0.0
230
1.0
 70
     8
 71
     3
 72
    15
 73
    11
 74
     0
 42
0.000000001
 43
0.00000001
 40
0.0
 40
0.0
 40
0.0
 40
0.0
 40
0.1305434699504736
 40
0.2608882285816352
 40
0.3912725054441707
 40
0.521886205480218
 40
0.652337625231563
 40
0.7826690309637405
 40
0.9131189081449803
 40
1.0
 40
1.0
 40
1.0
 40
1.0
 10
40.00000000000001
 20
1.107382733648244
 30
0.0
 10
39.62460400704779
 20
1.389819702188242
 30
0.0
 10
38.87438344331444
 20
1.954263717935042
 30
0.0
 10
37.7501177016394
 20
2.732466529042218
 30
0.0
 10
36.6255548467002
 20
3.428921431154224
 30
0.0
 10
35.4994796812072
 20
4.017722364407669
 30
0.0
 10
34.37446441776012
 20
4.485200630602447
 30
0.0
 10
33.25032864214917
 20
4.808342421896467
 30
0.0
 10
32.25099451486647
 20
4.983530820626391
 30
0.0
 10
31.62595220631782
 20
4.983001135652136
 30
0.0
 10
31.37608280913481
 20
4.98278938668186
 30
0.0
  0
SPLINE
  5
BB
330
1F
100
AcDbEntity
  8
0
  6
Continuous
 62
     1
370
    25
100
AcDbSpline
210
0.0
220
0.0
230
1.0
 70
     8
 71
     3
 72
    11
 73
     7
 74
     0
 42
0.000000001
 43
0.00000001
 40
0.0
 40
0.0
 40
0.0
 40
0.0
 40
0.2144194634155599
 40
0.4764023233662194
 40
0.7382249376673687
 40
1.0
 40
1.0
 40
1.0
 40
1.0
 10
14.86796786827461
 20
-4.218277838459437
 30
0.0
 10
14.51992285369542
 20
-4.357502411752037
 30
0.0
 10
13.7466280653384
 20
-4.666834918837551
 30
0.0
 10
12.54866186475896
 20
-4.927747743745757
 30
0.0
 10
11.27413996698234
 20
-5.042655359357637
 30
0.0
 10
10.42468760720697
 20
-4.948621996696154
 30
0.0
 10
9.999999999999869
 20
-4.901609585315128
 30
0.0
  0
LINE
  5
BC
330
1F
100
AcDbEntity
  8
0
  6
Continuous
 62
     1
370
    25
100
AcDbLine
 10
40.00000000000001
 20
-0.500000000000016
 30
0.0
 11
40.00000000000001
 21
1.107382733648339
 31
0.0
  0
LINE
  5
BD
330
1F
100
AcDbEntity
  8
0
  6
Continuous
 62
     1
370
    25
100
AcDbLine
 10
40.00000000000001
 20
-0.5000000000000162
 30
0.0
 11
39.58637274386092
 21
-0.7896249227575962
 31
0.0
  0
SPLINE
  5
BE
330
1F
100
AcDbEntity
  8
0
  6
Continuous
 62
     1
370
    25
100
AcDbSpline
210
0.0
220
0.0
230
1.0
 70
     8
 71
     3
 72
    14
 73
    10
 74
     0
 42
0.000000001
 43
0.00000001
 40
0.0
 40
0.0
 40
0.0
 40
0.0
 40
0.1505252825402674
 40
0.3010779083019746
 40
0.4517226781413239
 40
0.6024635492176673
 40
0.753090944523873
 40
0.8858862063487686
 40
1.0
 40
1.0
 40
1.0
 40
1.0
 10
10.0
 20
-1.227066797367331
 30
0.0
 10
10.42468739557261
 20
-1.544181210998035
 30
0.0
 10
11.27413933204055
 20
-2.178467642732838
 30
0.0
 10
12.54866440571269
 20
-3.030968166349505
 30
0.0
 10
13.82407399091552
 20
-3.766762572820304
 30
0.0
 10
15.10012465756267
 20
-4.353658448501374
 30
0.0
 10
16.32544988434223
 20
-4.747751277557128
 30
0.0
 10
17.44659436705378
 20
-4.967833415024314
 30
0.0
 10
18.14316833160622
 20
-4.983448019301927
 30
0.0
 10
18.46510345666866
 20
-4.990664610556732
 30
0.0
  0
SPLINE
  5
BF
330
1F
100
AcDbEntity
  8
0
  6
Continuous
 62
     1
370
    25
100
AcDbSpline
210
0.0
220
0.0
230
1.0
 70
     8
 71
     3
 72
    11
 73
     7
 74
     0
 42
0.000000001
 43
0.00000001
 40
0.0
 40
0.0
 40
0.0
 40
0.0
 40
0.1909064159923867
 40
0.4604949919114278
 40
0.7303435774648768
 40
1.0
 40
1.0
 40
1.0
 40
1.0
 10
34.97390279327634
 20
4.214172523295738
 30
0.0
 10
35.26733569357253
 20
4.335445557919314
 30
0.0
 10
35.97513998787044
 20
4.627974359571979
 30
0.0
 10
37.09787717609017
 20
4.893195451345513
 30
0.0
 10
38.3423860767203
 20
5.037604685294977
 30
0.0
 10
39.17180899718807
 20
4.970697325777402
 30
0.0
 10
39.58637274386092
 20
4.937255561682009
 30
0.0
  0
LINE
  5
C0
330
1F
100
AcDbEntity
  8
0
  6
Continuous
 62
     4
370
    25
100
AcDbLine
 10
40.00000000000001
 20
4.974937185533104
 30
0.0
 11
40.0
 21
5.000000000000005
 31
0.0
  0
ELLIPSE
  5
C1
330
1F
100
AcDbEntity
  8
0
  6
Continuous
 62
     1
370
    25
100
AcDbEllipse
 10
40.71407400337105
 20
-0.0000000000000005
 30
0.0
 11
7.140740033710557
 21
0.0
 31
0.0
210
0.0
220
0.0
230
1.0
 40
0.7002075382097117
 41
1.670963747956455
 42
1.729385239465864
  0
SPLINE
  5
C2
330
1F
100
AcDbEntity
  8
0
  6
Continuous
 62
     1
370
    25
100
AcDbSpline
210
0.0
220
0.0
230
1.0
 70
     8
 71
     3
 72
    15
 73
    11
 74
     0
 42
0.000000001
 43
0.00000001
 40
0.0
 40
0.0
 40
0.0
 40
0.0
 40
0.174049486857985
 40
0.3165727254664232
 40
0.4637083747299072
 40
0.5575649026743434
 40
0.6539446176703552
 40
0.7478903464144011
 40
0.844913390589328
 40
1.0
 40
1.0
 40
1.0
 40
1.0
 10
39.58637274386093
 20
4.937255561682007
 30
0.0
 10
39.58212829785046
 20
4.740343306378877
 30
0.0
 10
39.57440821854493
 20
4.382186264583543
 30
0.0
 10
39.47950300052544
 20
3.868524295301522
 30
0.0
 10
39.34142691568154
 20
3.466192809390158
 30
0.0
 10
39.16758787862617
 20
3.148053931732828
 30
0.0
 10
38.98685415181212
 20
2.912453503151218
 30
0.0
 10
38.77234287418168
 20
2.719075863819469
 30
0.0
 10
38.48465421008165
 20
2.538533254636957
 30
0.0
 10
38.25196990673616
 20
2.496894590624391
 30
0.0
 10
38.10883290600771
 20
2.471280342497609
 30
0.0
  0
SPLINE
  5
C3
330
1F
100
AcDbEntity
  8
0
  6
Continuous
 62
     1
370
    25
100
AcDbSpline
210
0.0
220
0.0
230
1.0
 70
     8
 71
     3
 72
     9
 73
     5
 74
     0
 42
0.000000001
 43
0.00000001
 40
0.0
 40
0.0
 40
0.0
 40
0.0
 40
0.788975993229684
 40
0.9999999999999999
 40
0.9999999999999999
 40
0.9999999999999999
 40
0.9999999999999999
 10
40.00000000000001
 20
1.193141214989698
 30
0.0
 10
39.83602836734111
 20
1.295473163233597
 30
0.0
 10
39.62819994915606
 20
1.425175396409287
 30
0.0
 10
39.42413392329474
 20
1.542152885659409
 30
0.0
 10
39.38107109287178
 20
1.566837944142901
 30
0.0
  0
LINE
  5
C4
330
1F
100
AcDbEntity
  8
0
  6
Continuous
 62
     1
370
    25
100
AcDbLine
 10
40.00000000000001
 20
1.111468171341493
 30
0.0
 11
40.00000000000001
 21
1.193141214989698
 31
0.0
  0
LINE
  5
C5
330
1F
100
AcDbEntity
  8
0
  6
Continuous
 62
     1
370
    25
100
AcDbLine
 10
40.00000000000001
 20
-0.4999999999999985
 30
0.0
 11
40.00000000000001
 21
-3.778128546404881
 31
0.0
  0
LINE
  5
C6
330
1F
100
AcDbEntity
  8
0
  6
Continuous
 62
     1
370
    25
100
AcDbLine
 10
40.00000000000001
 20
1.193141214989698
 30
0.0
 11
40.00000000000001
 21
4.974937185533104
 31
0.0
  0
LINE
  5
C7
330
1F
100
AcDbEntity
  8
중심선
100
AcDbLine
 10
-37.99999999999999
 20
-0.0000000000000052
 30
0.0
 11
43.00000000000001
 21
0.0000000000000047
 31
0.0
  0
CIRCLE
  5
C8
330
1F
100
AcDbEntity
  8
해칭선
100
AcDbCircle
 10
-0.0077117594533636
 20
-0.0000000000000043
 30
0.0
 40
3.000000000000001
  0
INSERT
  5
C9
330
1F
100
AcDbEntity
  8
0
  6
Continuous
 62
     7
100
AcDbBlockReference
 66
     1
  2
블럭10
 10
-9.948147820842454
 20
-52.04717430164393
 30
0.0
  0
ATTRIB
  5
CA
330
C9
100
AcDbEntity
  8
FORMAT
 62
     2
100
AcDbText
 10
-26.06740886027801
 20
-49.97180738881174
 30
0.0
 40
4.233333333333333
  1
SEME7110030E [ 4 FLUTE ]
 41
0.75
  7
SLDTEXTSTYLE0
 11
-26.06740886027801
 21
-52.08847405547841
 31
0.0
100
AcDbAttribute
  2
AUTOATTR0
 70
     0
 74
     1
  0
SEQEND
  5
CB
330
C9
100
AcDbEntity
  8
0
  6
Continuous
 62
     7
  0
HATCH
  5
CC
330
1F
100
AcDbEntity
  8
중심선
100
AcDbHatch
 10
0.0
 20
0.0
 30
0.0
210
0.0
220
0.0
230
1.0
  2
SOLID
 70
     1
 71
     0
 91
        1
 92
        0
 93
        4
 72
     1
 10
-4.233238516461596
 20
-35.8
 11
-7.679513760298878
 21
-35.8
 72
     1
 10
-7.679513760298878
 20
-35.8
 11
-9.8077436195029
 21
-38.33632558057259
 72
     1
 10
-9.8077436195029
 20
-38.33632558057259
 11
-6.361435290552442
 21
-38.3362861512701
 72
     1
 10
-6.361435290552442
 20
-38.3362861512701
 11
-4.233238516461596
 21
-35.8
 97
        0
 75
     0
 76
     1
 98
        1
 10
0.0
 20
0.0
  0
HATCH
  5
CD
330
1F
100
AcDbEntity
  8
중심선
100
AcDbHatch
 10
0.0
 20
0.0
 30
0.0
210
0.0
220
0.0
230
1.0
  2
SOLID
 70
     1
 71
     0
 91
        1
 92
        0
 93
        4
 72
     1
 10
0.7795254745743552
 20
-35.80000000000003
 11
-2.666749769262899
 21
-35.79999999999997
 72
     1
 10
-2.666749769262899
 20
-35.79999999999997
 11
-7.197887777620316
 21
-41.20000000000002
 72
     1
 10
-7.197887777620315
 20
-41.20000000000002
 11
-3.751612533783033
 21
-41.20000000000002
 72
     1
 10
-3.751612533783033
 20
-41.20000000000002
 11
0.779525474574355
 21
-35.80000000000003
 97
        0
 75
     0
 76
     1
 98
        1
 10
0.0
 20
0.0
  0
HATCH
  5
CE
330
1F
100
AcDbEntity
  8
중심선
100
AcDbHatch
 10
0.0
 20
0.0
 30
0.0
210
0.0
220
0.0
230
1.0
  2
SOLID
 70
     1
 71
     0
 91
        1
 92
        0
 93
        4
 72
     1
 10
5.792289465610251
 20
-35.79999999999997
 11
2.346014221773135
 21
-35.79999999999997
 72
     1
 10
2.346014221773135
 20
-35.79999999999997
 11
-4.702422680116114
 21
-44.20000000000002
 72
     1
 10
-4.702422680116114
 20
-44.20000000000002
 11
-1.256147436278832
 21
-44.20000000000002
 72
     1
 10
-1.256147436278832
 20
-44.20000000000002
 11
5.792289465610251
 21
-35.79999999999997
 97
        0
 75
     0
 76
     1
 98
        1
 10
0.0
 20
0.0
  0
HATCH
  5
CF
330
1F
100
AcDbEntity
  8
중심선
100
AcDbHatch
 10
0.0
 20
0.0
 30
0.0
210
0.0
220
0.0
230
1.0
  2
SOLID
 70
     1
 71
     0
 91
        1
 92
        0
 93
        6
 72
     3
 10
10.59217989662245
 20
-40.00000000005127
 11
3.960054785062284
 21
1.540850780301639E-10
 40
0.3939339440162633
 50
17.09539180608434
 51
320.0019657685079
 73
     0
 72
     1
 10
12.27517955232305
 20
-38.5878940046383
 11
14.58048142602411
 21
-36.65356729459038
 72
     3
 10
10.5921798965696
 20
-40.00000000000015
 11
6.600054785286829
 21
-1.249000902703301E-13
 40
0.6363583540795982
 50
39.99873849337388
 51
368.4976242363725
 73
     1
 72
     1
 10
17.01751238847021
 20
-39.03999999993002
 11
9.272247203405525
 21
-39.03999999993002
 72
     1
 10
9.272247203405525
 20
-39.03999999993002
 11
9.272222158959591
 21
-40.95999999992991
 72
     1
 10
9.272222158959591
 20
-40.95999999992991
 11
13.71360192843163
 21
-40.95999999992988
 97
        0
 75
     0
 76
     1
 98
        1
 10
0.0
 20
0.0
  0
DIMENSION
  5
D0
330
1F
100
AcDbEntity
  8
치수문자_일반주서
100
AcDbDimension
  2
_D
 10
49.56769403798405
 20
5.000000000000039
 30
0.0
 11
49.56769403798401
 21
15.32275000000004
 31
0.0
 70
   160
  1
%%c<>
 71
     2
 42
10.00000000000001
 52
-270.0
  3
SLDDIMSTYLE0
100
AcDbAlignedDimension
 13
40.00000000000004
 23
-5.000000000000005
 33
0.0
 14
40.00000000000004
 24
5.000000000000004
 34
0.0
 50
90.0000000000002
100
AcDbRotatedDimension
  0
DIMENSION
  5
DE
330
1F
100
AcDbEntity
  8
치수문자_일반주서
100
AcDbDimension
  2
_D_1
 10
40.00000000000001
 20
22.38913260158164
 30
0.0
 11
2.500000000000004
 21
22.38913260158164
 31
0.0
 70
   160
  1
<>
 71
     2
 42
75.00000000000001
  3
SLDDIMSTYLE1
100
AcDbAlignedDimension
 13
-35.00000000000001
 23
4.499999999999995
 33
0.0
 14
40.00000000000001
 24
5.000000000000002
 34
0.0
 50
-0.0000000000000054
100
AcDbRotatedDimension
  0
DIMENSION
  5
E9
330
1F
100
AcDbEntity
  8
치수문자_일반주서
100
AcDbDimension
  2
_D_2
 10
-43.20544556424395
 20
-5.000000000000039
 30
0.0
 11
-43.20544556424402
 21
15.32274999999997
 31
0.0
 70
   160
  1
%%c<>
 71
     2
 42
10.00000000000001
 52
-270.0
  3
SLDDIMSTYLE2
100
AcDbAlignedDimension
 13
-34.50000000000001
 23
5.000000000000004
 33
0.0
 14
-34.50000000000001
 24
-5.000000000000005
 34
0.0
 50
90.0000000000002
100
AcDbRotatedDimension
  0
DIMENSION
  5
F7
330
1F
100
AcDbEntity
  8
치수문자_일반주서
100
AcDbDimension
  2
_D_3
 10
40.00000000000001
 20
15.84591830258766
 30
0.0
 11
24.99999999999999
 21
15.84591830258766
 31
0.0
 70
   160
  1
<>
 71
     2
 42
30.00000000000001
  3
SLDDIMSTYLE1
100
AcDbAlignedDimension
 13
10.0
 23
5.0
 33
0.0
 14
40.00000000000001
 24
5.000000000000002
 34
0.0
 50
0.0000000000000373
100
AcDbRotatedDimension
  0
INSERT
  5
107
330
1F
100
AcDbEntity
  8
해칭선
100
AcDbBlockReference
  2
SW_DOWELSYMBOL_0
 10
-0.0077117594533636
 20
-0.0000000000000043
 30
0.0
  0
LINE
  5
12C
330
1F
100
AcDbEntity
  8
0
  6
Continuous
 62
     4
370
    25
100
AcDbLine
 10
10.0
 20
5.0
 30
0.0
 11
10.0
 21
-5.0
 31
0.0
  0
ENDSEC
  0
SECTION
  2
OBJECTS
  0
DICTIONARY
  5
C
330
0
100
AcDbDictionary
281
     1
  3
ACAD_GROUP
350
D
  3
ACAD_IMAGE_VARS
350
12B
  3
ACAD_LAYOUT
350
1A
  3
ACAD_MLINESTYLE
350
17
  3
ACAD_PLOTSETTINGS
350
19
  3
ACAD_PLOTSTYLENAME
350
E
  3
ACAD_SCALELIST
350
47
  3
APPDATA
350
129
  3
DWGPROPS
350
13B
  0
DICTIONARY
  5
D
102
{ACAD_REACTORS
330
C
102
}
330
C
100
AcDbDictionary
281
     1
  0
RASTERVARIABLES
  5
12B
102
{ACAD_REACTORS
330
C
102
}
330
C
100
AcDbRasterVariables
 90
        0
 70
     1
 71
     1
 72
     1
  0
DICTIONARY
  5
1A
102
{ACAD_REACTORS
330
C
102
}
330
C
100
AcDbDictionary
281
     1
  3
Layout1
350
1E
  3
Layout2
350
26
  3
Model
350
22
  0
DICTIONARY
  5
17
102
{ACAD_REACTORS
330
C
102
}
330
C
100
AcDbDictionary
281
     1
  3
Standard
350
18
  0
DICTIONARY
  5
19
102
{ACAD_REACTORS
330
C
102
}
330
C
100
AcDbDictionary
281
     1
  0
ACDBDICTIONARYWDFLT
  5
E
102
{ACAD_REACTORS
330
C
102
}
330
C
100
AcDbDictionary
281
     1
  3
Normal
350
F
100
AcDbDictionaryWithDefault
340
F
  0
DICTIONARY
  5
47
102
{ACAD_REACTORS
330
C
102
}
330
C
100
AcDbDictionary
281
     1
  3
A0
350
48
  3
A1
350
49
  3
A2
350
4A
  3
A3
350
4B
  3
A4
350
4C
  3
A5
350
4D
  3
A6
350
4E
  3
A7
350
4F
  3
A8
350
50
  3
A9
350
51
  3
B0
350
52
  3
B1
350
53
  3
B2
350
54
  3
B3
350
55
  3
B4
350
56
  3
B5
350
57
  3
B6
350
58
  3
B7
350
59
  3
B8
350
5A
  3
B9
350
5B
  3
C0
350
5C
  3
C1
350
5D
  3
C2
350
5E
  3
C3
350
5F
  3
C4
350
60
  3
C5
350
61
  3
C6
350
62
  3
C7
350
63
  3
C8
350
64
  3
C9
350
65
  3
D0
350
66
  3
D1
350
67
  3
D2
350
68
  0
DICTIONARY
  5
129
102
{ACAD_REACTORS
330
C
102
}
330
C
100
AcDbDictionary
281
     1
  0
XRECORD
  5
13B
102
{ACAD_REACTORS
330
C
102
}
330
C
100
AcDbXrecord
280
     1
  1
DWGPROPS COOKIE
  2

  3

  4

  6

  7

  8
12014102
  9

300
=
301
=
302
=
303
=
304
=
305
=
306
=
307
=
308
=
309
=
 40
0.0
 41
2458260.119301551
 42
2458267.335433611
  1

 90
        0
  0
LAYOUT
  5
1E
102
{ACAD_REACTORS
330
1A
102
}
330
1A
100
AcDbPlotSettings
  1

  2
none_device
  4

  6

 40
0.0
 41
0.0
 42
0.0
 43
0.0
 44
0.0
 45
0.0
 46
0.0
 47
0.0
 48
0.0
 49
0.0
140
0.0
141
0.0
142
1.0
143
1.0
 70
   688
 72
     1
 73
     0
 74
     5
  7

 75
    16
147
1.0
148
0.0
149
0.0
100
AcDbLayout
  1
Layout1
 70
     1
 71
     1
 10
0.0
 20
0.0
 11
420.0
 21
297.0
 12
0.0
 22
0.0
 32
0.0
 14
1.000000000000000E+20
 24
1.000000000000000E+20
 34
1.000000000000000E+20
 15
-1.000000000000000E+20
 25
-1.000000000000000E+20
 35
-1.000000000000000E+20
146
0.0
 13
0.0
 23
0.0
 33
0.0
 16
1.0
 26
0.0
 36
0.0
 17
0.0
 27
1.0
 37
0.0
 76
     0
330
1B
  0
LAYOUT
  5
26
102
{ACAD_REACTORS
330
1A
102
}
330
1A
100
AcDbPlotSettings
  1

  2
none_device
  4

  6

 40
0.0
 41
0.0
 42
0.0
 43
0.0
 44
0.0
 45
0.0
 46
0.0
 47
0.0
 48
0.0
 49
0.0
140
0.0
141
0.0
142
1.0
143
1.0
 70
   688
 72
     1
 73
     0
 74
     5
  7

 75
    16
147
1.0
148
0.0
149
0.0
100
AcDbLayout
  1
Layout2
 70
     1
 71
     2
 10
0.0
 20
0.0
 11
0.0
 21
0.0
 12
0.0
 22
0.0
 32
0.0
 14
0.0
 24
0.0
 34
0.0
 15
0.0
 25
0.0
 35
0.0
146
0.0
 13
0.0
 23
0.0
 33
0.0
 16
1.0
 26
0.0
 36
0.0
 17
0.0
 27
1.0
 37
0.0
 76
     0
330
23
  0
LAYOUT
  5
22
102
{ACAD_REACTORS
330
1A
102
}
330
1A
100
AcDbPlotSettings
  1

  2
none_device
  4
ANSI_A_(11.00_x_8.50_Inches)
  6

 40
6.35
 41
19.05
 42
6.35000508
 43
19.05000254
 44
279.4
 45
215.9
 46
124.876204971974
 47
118.8843007246156
 48
0.0
 49
0.0
140
0.0
141
0.0
142
0.0991237154092917
143
1.0
 70
  1696
 72
     0
 73
     0
 74
     0
  7

 75
     0
147
0.0235690232323232
148
0.0
149
0.0
100
AcDbLayout
  1
Model
 70
     1
 71
     0
 10
0.0
 20
0.0
 11
420.0
 21
297.0
 12
0.0
 22
0.0
 32
0.0
 14
-47.58044556424404
 24
-49.97180738881174
 34
0.0
 15
50.11802737131743
 25
26.76413260158164
 35
0.0
146
0.0
 13
0.0
 23
0.0
 33
0.0
 16
1.0
 26
0.0
 36
0.0
 17
0.0
 27
1.0
 37
0.0
 76
     0
330
1F
331
29
  0
MLINESTYLE
  5
18
102
{ACAD_REACTORS
330
17
102
}
330
17
100
AcDbMlineStyle
  2
Standard
 70
     0
  3

 62
   256
 51
90.0
 52
90.0
 71
     2
 49
0.5
 62
   256
  6
BYLAYER
 49
-0.5
 62
   256
  6
BYLAYER
  0
ACDBPLACEHOLDER
  5
F
102
{ACAD_REACTORS
330
E
102
}
330
E
  0
SCALE
  5
48
102
{ACAD_REACTORS
330
47
102
}
330
47
100
AcDbScale
 70
     0
300
1:1
140
1.0
141
1.0
290
     1
  0
SCALE
  5
49
102
{ACAD_REACTORS
330
47
102
}
330
47
100
AcDbScale
 70
     0
300
1:2
140
1.0
141
2.0
290
     0
  0
SCALE
  5
4A
102
{ACAD_REACTORS
330
47
102
}
330
47
100
AcDbScale
 70
     0
300
1:4
140
1.0
141
4.0
290
     0
  0
SCALE
  5
4B
102
{ACAD_REACTORS
330
47
102
}
330
47
100
AcDbScale
 70
     0
300
1:5
140
1.0
141
5.0
290
     0
  0
SCALE
  5
4C
102
{ACAD_REACTORS
330
47
102
}
330
47
100
AcDbScale
 70
     0
300
1:8
140
1.0
141
8.0
290
     0
  0
SCALE
  5
4D
102
{ACAD_REACTORS
330
47
102
}
330
47
100
AcDbScale
 70
     0
300
1:10
140
1.0
141
10.0
290
     0
  0
SCALE
  5
4E
102
{ACAD_REACTORS
330
47
102
}
330
47
100
AcDbScale
 70
     0
300
1:16
140
1.0
141
16.0
290
     0
  0
SCALE
  5
4F
102
{ACAD_REACTORS
330
47
102
}
330
47
100
AcDbScale
 70
     0
300
1:20
140
1.0
141
20.0
290
     0
  0
SCALE
  5
50
102
{ACAD_REACTORS
330
47
102
}
330
47
100
AcDbScale
 70
     0
300
1:30
140
1.0
141
30.0
290
     0
  0
SCALE
  5
51
102
{ACAD_REACTORS
330
47
102
}
330
47
100
AcDbScale
 70
     0
300
1:40
140
1.0
141
40.0
290
     0
  0
SCALE
  5
52
102
{ACAD_REACTORS
330
47
102
}
330
47
100
AcDbScale
 70
     0
300
1:50
140
1.0
141
50.0
290
     0
  0
SCALE
  5
53
102
{ACAD_REACTORS
330
47
102
}
330
47
100
AcDbScale
 70
     0
300
1:100
140
1.0
141
100.0
290
     0
  0
SCALE
  5
54
102
{ACAD_REACTORS
330
47
102
}
330
47
100
AcDbScale
 70
     0
300
2:1
140
2.0
141
1.0
290
     0
  0
SCALE
  5
55
102
{ACAD_REACTORS
330
47
102
}
330
47
100
AcDbScale
 70
     0
300
4:1
140
4.0
141
1.0
290
     0
  0
SCALE
  5
56
102
{ACAD_REACTORS
330
47
102
}
330
47
100
AcDbScale
 70
     0
300
8:1
140
8.0
141
1.0
290
     0
  0
SCALE
  5
57
102
{ACAD_REACTORS
330
47
102
}
330
47
100
AcDbScale
 70
     0
300
10:1
140
10.0
141
1.0
290
     0
  0
SCALE
  5
58
102
{ACAD_REACTORS
330
47
102
}
330
47
100
AcDbScale
 70
     0
300
100:1
140
100.0
141
1.0
290
     0
  0
SCALE
  5
59
102
{ACAD_REACTORS
330
47
102
}
330
47
100
AcDbScale
 70
     0
300
1/128" = 1'-0"
140
0.0078125
141
12.0
290
     0
  0
SCALE
  5
5A
102
{ACAD_REACTORS
330
47
102
}
330
47
100
AcDbScale
 70
     0
300
1/64" = 1'-0"
140
0.015625
141
12.0
290
     0
  0
SCALE
  5
5B
102
{ACAD_REACTORS
330
47
102
}
330
47
100
AcDbScale
 70
     0
300
1/32" = 1'-0"
140
0.03125
141
12.0
290
     0
  0
SCALE
  5
5C
102
{ACAD_REACTORS
330
47
102
}
330
47
100
AcDbScale
 70
     0
300
1/16" = 1'-0"
140
0.0625
141
12.0
290
     0
  0
SCALE
  5
5D
102
{ACAD_REACTORS
330
47
102
}
330
47
100
AcDbScale
 70
     0
300
3/32" = 1'-0"
140
0.09375
141
12.0
290
     0
  0
SCALE
  5
5E
102
{ACAD_REACTORS
330
47
102
}
330
47
100
AcDbScale
 70
     0
300
1/8" = 1'-0"
140
0.125
141
12.0
290
     0
  0
SCALE
  5
5F
102
{ACAD_REACTORS
330
47
102
}
330
47
100
AcDbScale
 70
     0
300
3/16" = 1'-0"
140
0.1875
141
12.0
290
     0
  0
SCALE
  5
60
102
{ACAD_REACTORS
330
47
102
}
330
47
100
AcDbScale
 70
     0
300
1/4" = 1'-0"
140
0.25
141
12.0
290
     0
  0
SCALE
  5
61
102
{ACAD_REACTORS
330
47
102
}
330
47
100
AcDbScale
 70
     0
300
3/8" = 1'-0"
140
0.375
141
12.0
290
     0
  0
SCALE
  5
62
102
{ACAD_REACTORS
330
47
102
}
330
47
100
AcDbScale
 70
     0
300
1/2" = 1'-0"
140
0.5
141
12.0
290
     0
  0
SCALE
  5
63
102
{ACAD_REACTORS
330
47
102
}
330
47
100
AcDbScale
 70
     0
300
3/4" = 1'-0"
140
0.75
141
12.0
290
     0
  0
SCALE
  5
64
102
{ACAD_REACTORS
330
47
102
}
330
47
100
AcDbScale
 70
     0
300
1" = 1'-0"
140
1.0
141
12.0
290
     0
  0
SCALE
  5
65
102
{ACAD_REACTORS
330
47
102
}
330
47
100
AcDbScale
 70
     0
300
1-1/2" = 1'-0"
140
1.5
141
12.0
290
     0
  0
SCALE
  5
66
102
{ACAD_REACTORS
330
47
102
}
330
47
100
AcDbScale
 70
     0
300
3" = 1'-0"
140
3.0
141
12.0
290
     0
  0
SCALE
  5
67
102
{ACAD_REACTORS
330
47
102
}
330
47
100
AcDbScale
 70
     0
300
6" = 1'-0"
140
6.0
141
12.0
290
     0
  0
SCALE
  5
68
102
{ACAD_REACTORS
330
47
102
}
330
47
100
AcDbScale
 70
     0
300
1'-0" = 1'-0"
140
12.0
141
12.0
290
     0
  0
ENDSEC
  0
EOF
