  0
SECTION
  2
HEADER
  9
$ACADVER
  1
AC1015
  9
$ACADMAINTVER
 70
     6
  9
$DWGCODEPAGE
  3
ANSI_949
  9
$INSBASE
 10
0.0
 20
0.0
 30
0.0
  9
$EXTMIN
 10
-63.56311363790064
 20
-49.97180738881174
 30
0.0
  9
$EXTMAX
 10
67.91653261079998
 20
29.76413260158164
 30
0.0
  9
$LIMMIN
 10
0.0
 20
0.0
  9
$LIMMAX
 10
420.0
 20
297.0
  9
$ORTHOMODE
 70
     0
  9
$REGENMODE
 70
     1
  9
$FILLMODE
 70
     1
  9
$QTEXTMODE
 70
     0
  9
$MIRRTEXT
 70
     1
  9
$LTSCALE
 40
1.0
  9
$ATTMODE
 70
     1
  9
$TEXTSIZE
 40
3.5
  9
$TRACEWID
 40
1.0
  9
$TEXTSTYLE
  7
Standard
  9
$CLAYER
  8
0
  9
$CELTYPE
  6
ByLayer
  9
$CECOLOR
 62
   256
  9
$CELTSCALE
 40
1.0
  9
$DISPSILH
 70
     0
  9
$DIMSCALE
 40
1.0
  9
$DIMASZ
 40
3.302
  9
$DIMEXO
 40
1.0
  9
$DIMDLI
 40
3.75
  9
$DIMRND
 40
0.0
  9
$DIMDLE
 40
0.0
  9
$DIMEXE
 40
1.0
  9
$DIMTP
 40
0.0
  9
$DIMTM
 40
0.0
  9
$DIMTXT
 40
3.5
  9
$DIMCEN
 40
2.5
  9
$DIMTSZ
 40
0.0
  9
$DIMTOL
 70
     0
  9
$DIMLIM
 70
     0
  9
$DIMTIH
 70
     1
  9
$DIMTOH
 70
     1
  9
$DIMSE1
 70
     0
  9
$DIMSE2
 70
     0
  9
$DIMTAD
 70
     1
  9
$DIMZIN
 70
     0
  9
$DIMBLK
  1

  9
$DIMASO
 70
     1
  9
$DIMSHO
 70
     1
  9
$DIMPOST
  1

  9
$DIMAPOST
  1

  9
$DIMALT
 70
     0
  9
$DIMALTD
 70
     3
  9
$DIMALTF
 40
0.0393700787401575
  9
$DIMLFAC
 40
1.0
  9
$DIMTOFL
 70
     1
  9
$DIMTVP
 40
0.0
  9
$DIMTIX
 70
     0
  9
$DIMSOXD
 70
     0
  9
$DIMSAH
 70
     0
  9
$DIMBLK1
  1

  9
$DIMBLK2
  1

  9
$DIMSTYLE
  2
ISO-25
  9
$DIMCLRD
 70
     0
  9
$DIMCLRE
 70
     0
  9
$DIMCLRT
 70
     0
  9
$DIMTFAC
 40
1.0
  9
$DIMGAP
 40
1.524
  9
$DIMJUST
 70
     0
  9
$DIMSD1
 70
     0
  9
$DIMSD2
 70
     0
  9
$DIMTOLJ
 70
     0
  9
$DIMTZIN
 70
     0
  9
$DIMALTZ
 70
     0
  9
$DIMALTTZ
 70
     0
  9
$DIMUPT
 70
     0
  9
$DIMDEC
 70
     2
  9
$DIMTDEC
 70
     2
  9
$DIMALTU
 70
     2
  9
$DIMALTTD
 70
     3
  9
$DIMTXSTY
  7
Standard
  9
$DIMAUNIT
 70
     0
  9
$DIMADEC
 70
     2
  9
$DIMALTRND
 40
0.0
  9
$DIMAZIN
 70
     0
  9
$DIMDSEP
 70
    44
  9
$DIMATFIT
 70
     3
  9
$DIMFRAC
 70
     0
  9
$DIMLDRBLK
  1

  9
$DIMLUNIT
 70
     2
  9
$DIMLWD
 70
    -2
  9
$DIMLWE
 70
    -2
  9
$DIMTMOVE
 70
     0
  9
$LUNITS
 70
     2
  9
$LUPREC
 70
     2
  9
$SKETCHINC
 40
1.0
  9
$FILLETRAD
 40
10.0
  9
$AUNITS
 70
     0
  9
$AUPREC
 70
     2
  9
$MENU
  1
.
  9
$ELEVATION
 40
0.0
  9
$PELEVATION
 40
0.0
  9
$THICKNESS
 40
0.0
  9
$LIMCHECK
 70
     0
  9
$CHAMFERA
 40
0.0
  9
$CHAMFERB
 40
0.0
  9
$CHAMFERC
 40
0.0
  9
$CHAMFERD
 40
0.0
  9
$SKPOLY
 70
     0
  9
$TDCREATE
 40
2458260.496002928
  9
$TDUCREATE
 40
2458260.121002928
  9
$TDUPDATE
 40
2458266.777381377
  9
$TDUUPDATE
 40
2458266.402381377
  9
$TDINDWG
 40
0.0010351042
  9
$TDUSRTIMER
 40
2458266.401346308
  9
$USRTIMER
 70
     1
  9
$ANGBASE
 50
0.0
  9
$ANGDIR
 70
     0
  9
$PDMODE
 70
     0
  9
$PDSIZE
 40
-1.0
  9
$PLINEWID
 40
0.0
  9
$SPLFRAME
 70
     0
  9
$SPLINETYPE
 70
     6
  9
$SPLINESEGS
 70
     8
  9
$HANDSEED
  5
13D
  9
$SURFTAB1
 70
     6
  9
$SURFTAB2
 70
     6
  9
$SURFTYPE
 70
     6
  9
$SURFU
 70
     6
  9
$SURFV
 70
     6
  9
$UCSBASE
  2

  9
$UCSNAME
  2

  9
$UCSORG
 10
0.0
 20
0.0
 30
0.0
  9
$UCSXDIR
 10
1.0
 20
0.0
 30
0.0
  9
$UCSYDIR
 10
0.0
 20
1.0
 30
0.0
  9
$UCSORTHOREF
  2

  9
$UCSORTHOVIEW
 70
     0
  9
$UCSORGTOP
 10
0.0
 20
0.0
 30
0.0
  9
$UCSORGBOTTOM
 10
0.0
 20
0.0
 30
0.0
  9
$UCSORGLEFT
 10
0.0
 20
0.0
 30
0.0
  9
$UCSORGRIGHT
 10
0.0
 20
0.0
 30
0.0
  9
$UCSORGFRONT
 10
0.0
 20
0.0
 30
0.0
  9
$UCSORGBACK
 10
0.0
 20
0.0
 30
0.0
  9
$PUCSBASE
  2

  9
$PUCSNAME
  2

  9
$PUCSORG
 10
0.0
 20
0.0
 30
0.0
  9
$PUCSXDIR
 10
1.0
 20
0.0
 30
0.0
  9
$PUCSYDIR
 10
0.0
 20
1.0
 30
0.0
  9
$PUCSORTHOREF
  2

  9
$PUCSORTHOVIEW
 70
     0
  9
$PUCSORGTOP
 10
0.0
 20
0.0
 30
0.0
  9
$PUCSORGBOTTOM
 10
0.0
 20
0.0
 30
0.0
  9
$PUCSORGLEFT
 10
0.0
 20
0.0
 30
0.0
  9
$PUCSORGRIGHT
 10
0.0
 20
0.0
 30
0.0
  9
$PUCSORGFRONT
 10
0.0
 20
0.0
 30
0.0
  9
$PUCSORGBACK
 10
0.0
 20
0.0
 30
0.0
  9
$USERI1
 70
     0
  9
$USERI2
 70
     0
  9
$USERI3
 70
     0
  9
$USERI4
 70
     0
  9
$USERI5
 70
     0
  9
$USERR1
 40
0.0
  9
$USERR2
 40
0.0
  9
$USERR3
 40
0.0
  9
$USERR4
 40
0.0
  9
$USERR5
 40
0.0
  9
$WORLDVIEW
 70
     1
  9
$SHADEDGE
 70
     3
  9
$SHADEDIF
 70
    70
  9
$TILEMODE
 70
     1
  9
$MAXACTVP
 70
    64
  9
$PINSBASE
 10
0.0
 20
0.0
 30
0.0
  9
$PLIMCHECK
 70
     0
  9
$PEXTMIN
 10
1.000000000000000E+20
 20
1.000000000000000E+20
 30
1.000000000000000E+20
  9
$PEXTMAX
 10
-1.000000000000000E+20
 20
-1.000000000000000E+20
 30
-1.000000000000000E+20
  9
$PLIMMIN
 10
0.0
 20
0.0
  9
$PLIMMAX
 10
0.0
 20
0.0
  9
$UNITMODE
 70
     0
  9
$VISRETAIN
 70
     1
  9
$PLINEGEN
 70
     0
  9
$PSLTSCALE
 70
     1
  9
$TREEDEPTH
 70
  3020
  9
$CMLSTYLE
  2
Standard
  9
$CMLJUST
 70
     0
  9
$CMLSCALE
 40
20.0
  9
$PROXYGRAPHICS
 70
     1
  9
$MEASUREMENT
 70
     1
  9
$CELWEIGHT
370
    -1
  9
$ENDCAPS
280
     0
  9
$JOINSTYLE
280
     0
  9
$LWDISPLAY
290
     1
  9
$INSUNITS
 70
     4
  9
$HYPERLINKBASE
  1

  9
$STYLESHEET
  1

  9
$XEDIT
290
     1
  9
$CEPSNTYPE
380
     0
  9
$PSTYLEMODE
290
     1
  9
$FINGERPRINTGUID
  2
{52F775CE-AD93-4C3E-AAE4-37325EDA30FF}
  9
$VERSIONGUID
  2
{FAEB1C32-E019-11D5-929B-00C0DF256EC4}
  9
$EXTNAMES
290
     1
  9
$PSVPSCALE
 40
0.0
  9
$OLESTARTUP
290
     0
  0
ENDSEC
  0
SECTION
  2
CLASSES
  0
CLASS
  1
ACDBDICTIONARYWDFLT
  2
AcDbDictionaryWithDefault
  3
ObjectDBX Classes
 90
        0
280
     0
281
     0
  0
CLASS
  1
VISUALSTYLE
  2
AcDbVisualStyle
  3
ObjectDBX Classes
 90
     4095
280
     0
281
     0
  0
CLASS
  1
MATERIAL
  2
AcDbMaterial
  3
ObjectDBX Classes
 90
     1153
280
     0
281
     0
  0
CLASS
  1
SCALE
  2
AcDbScale
  3
ObjectDBX Classes
 90
     1153
280
     0
281
     0
  0
CLASS
  1
TABLESTYLE
  2
AcDbTableStyle
  3
ObjectDBX Classes
 90
     4095
280
     0
281
     0
  0
CLASS
  1
MLEADERSTYLE
  2
AcDbMLeaderStyle
  3
ACDB_MLEADERSTYLE_CLASS
 90
     4095
280
     0
281
     0
  0
CLASS
  1
SUN
  2
AcDbSun
  3
SCENEOE
 90
     1153
280
     0
281
     0
  0
CLASS
  1
ACDBPLACEHOLDER
  2
AcDbPlaceHolder
  3
ObjectDBX Classes
 90
        0
280
     0
281
     0
  0
CLASS
  1
LAYOUT
  2
AcDbLayout
  3
ObjectDBX Classes
 90
        0
280
     0
281
     0
  0
CLASS
  1
RASTERVARIABLES
  2
AcDbRasterVariables
  3
ISM
 90
        0
280
     0
281
     0
  0
ENDSEC
  0
SECTION
  2
TABLES
  0
TABLE
  2
VPORT
  5
8
330
0
100
AcDbSymbolTable
 70
     1
  0
VPORT
  5
29
330
8
100
AcDbSymbolTableRecord
100
AcDbViewportTableRecord
  2
*Active
 70
     0
 10
0.0
 20
0.0
 11
1.0
 21
1.0
 12
2.176709486449667
 22
-10.10383739361504
 13
0.0
 23
0.0
 14
10.0
 24
10.0
 15
10.0
 25
10.0
 16
0.0
 26
0.0
 36
1.0
 17
0.0
 27
0.0
 37
0.0
 40
81.33065879020124
 41
1.728553137003841
 42
50.0
 43
0.0
 44
0.0
 50
0.0
 51
0.0
 71
    16
 72
  2000
 73
     1
 74
     3
 75
     0
 76
     0
 77
     0
 78
     0
281
     0
 65
     1
110
0.0
120
0.0
130
0.0
111
1.0
121
0.0
131
0.0
112
0.0
122
1.0
132
0.0
 79
     0
146
0.0
  0
ENDTAB
  0
TABLE
  2
LTYPE
  5
5
330
0
100
AcDbSymbolTable
 70
     6
  0
LTYPE
  5
14
330
5
100
AcDbSymbolTableRecord
100
AcDbLinetypeTableRecord
  2
ByBlock
 70
     0
  3

 72
    65
 73
     0
 40
0.0
  0
LTYPE
  5
15
330
5
100
AcDbSymbolTableRecord
100
AcDbLinetypeTableRecord
  2
ByLayer
 70
     0
  3

 72
    65
 73
     0
 40
0.0
  0
LTYPE
  5
16
330
5
100
AcDbSymbolTableRecord
100
AcDbLinetypeTableRecord
  2
Continuous
 70
     0
  3
Solid line
 72
    65
 73
     0
 40
0.0
  0
LTYPE
  5
6E
330
5
100
AcDbSymbolTableRecord
100
AcDbLinetypeTableRecord
  2
HIDDEN
 70
     0
  3
Hidden __ __ __ __ __ __ __ __ __ __ __ __ __ __
 72
    65
 73
     2
 40
1.905
 49
1.27
 74
     0
 49
-0.635
 74
     0
  0
LTYPE
  5
6F
330
5
100
AcDbSymbolTableRecord
100
AcDbLinetypeTableRecord
  2
PHANTOM
 70
     0
  3
Phantom ______  __  __  ______  __  __  ______
 72
    65
 73
     6
 40
12.7
 49
6.35
 74
     0
 49
-1.27
 74
     0
 49
1.27
 74
     0
 49
-1.27
 74
     0
 49
1.27
 74
     0
 49
-1.27
 74
     0
  0
LTYPE
  5
70
330
5
100
AcDbSymbolTableRecord
100
AcDbLinetypeTableRecord
  2
CENTER
 70
     0
  3
Center ____ _ ____ _ ____ _ ____ _ ____ _ ____
 72
    65
 73
     4
 40
10.16
 49
6.35
 74
     0
 49
-1.27
 74
     0
 49
1.27
 74
     0
 49
-1.27
 74
     0
  0
LTYPE
  5
71
330
5
100
AcDbSymbolTableRecord
100
AcDbLinetypeTableRecord
  2
CENTERX2
 70
     0
  3
Center (2x) ________  __  ________  __  _____
 72
    65
 73
     4
 40
20.32
 49
12.7
 74
     0
 49
-2.54
 74
     0
 49
2.54
 74
     0
 49
-2.54
 74
     0
  0
LTYPE
  5
72
330
5
100
AcDbSymbolTableRecord
100
AcDbLinetypeTableRecord
  2
DOT2
 70
     0
  3
Dot (.5x) ........................................
 72
    65
 73
     2
 40
0.635
 49
0.0
 74
     0
 49
-0.635
 74
     0
  0
ENDTAB
  0
TABLE
  2
LAYER
  5
2
330
0
100
AcDbSymbolTable
 70
    17
  0
LAYER
  5
10
330
2
100
AcDbSymbolTableRecord
100
AcDbLayerTableRecord
  2
0
 70
     0
 62
     7
  6
Continuous
370
    -3
390
F
  0
LAYER
  5
73
330
2
100
AcDbSymbolTableRecord
100
AcDbLayerTableRecord
  2
FORMAT
 70
     0
 62
     2
  6
Continuous
370
    -3
390
F
  0
LAYER
  5
74
330
2
100
AcDbSymbolTableRecord
100
AcDbLayerTableRecord
  2
외형선
 70
     0
 62
   100
  6
Continuous
370
    35
390
F
  0
LAYER
  5
75
330
2
100
AcDbSymbolTableRecord
100
AcDbLayerTableRecord
  2
숨은선
 70
     0
 62
     2
  6
HIDDEN
370
    25
390
F
  0
LAYER
  5
76
330
2
100
AcDbSymbolTableRecord
100
AcDbLayerTableRecord
  2
중심선
 70
     0
 62
     1
  6
CENTERX2
370
    -3
390
F
  0
LAYER
  5
77
330
2
100
AcDbSymbolTableRecord
100
AcDbLayerTableRecord
  2
파단선
 70
     0
 62
     4
  6
Continuous
370
    -3
390
F
  0
LAYER
  5
78
330
2
100
AcDbSymbolTableRecord
100
AcDbLayerTableRecord
  2
해칭선
 70
     0
 62
   100
  6
Continuous
370
    -3
390
F
  0
LAYER
  5
79
330
2
100
AcDbSymbolTableRecord
100
AcDbLayerTableRecord
  2
가는실선
 70
     0
 62
     4
  6
Continuous
370
    -3
390
F
  0
LAYER
  5
7A
330
2
100
AcDbSymbolTableRecord
100
AcDbLayerTableRecord
  2
치수_보조선
 70
     0
 62
     4
  6
Continuous
370
    -3
390
F
  0
LAYER
  5
7B
330
2
100
AcDbSymbolTableRecord
100
AcDbLayerTableRecord
  2
치수문자_일반주서
 70
     0
 62
     7
  6
Continuous
370
    25
390
F
  0
LAYER
  5
7C
330
2
100
AcDbSymbolTableRecord
100
AcDbLayerTableRecord
  2
개별주서
 70
     0
 62
   100
  6
Continuous
370
    35
390
F
  0
LAYER
  5
7D
330
2
100
AcDbSymbolTableRecord
100
AcDbLayerTableRecord
  2
중간선
 70
     0
 62
     2
  6
Continuous
370
    25
390
F
  0
LAYER
  5
7E
330
2
100
AcDbSymbolTableRecord
100
AcDbLayerTableRecord
  2
윤곽선
 70
     0
 62
     3
  6
Continuous
370
    50
390
F
  0
LAYER
  5
7F
330
2
100
AcDbSymbolTableRecord
100
AcDbLayerTableRecord
  2
중심마크
 70
     0
 62
   100
  6
Continuous
370
    35
390
F
  0
LAYER
  5
80
330
2
100
AcDbSymbolTableRecord
100
AcDbLayerTableRecord
  2
가상선
 70
     0
 62
     4
  6
PHANTOM
370
    -3
390
F
  0
LAYER
  5
81
330
2
100
AcDbSymbolTableRecord
100
AcDbLayerTableRecord
  2
특수지정선
 70
     0
 62
     5
  6
CENTERX2
370
    70
390
F
  0
LAYER
  5
12D
330
2
100
AcDbSymbolTableRecord
100
AcDbLayerTableRecord
  2
Defpoints
 70
     0
 62
     7
  6
Continuous
290
     0
370
    -3
390
F
  0
ENDTAB
  0
TABLE
  2
STYLE
  5
3
330
0
100
AcDbSymbolTable
 70
     2
  0
STYLE
  5
11
330
3
100
AcDbSymbolTableRecord
100
AcDbTextStyleTableRecord
  2
Standard
 70
     0
 40
0.0
 41
1.0
 50
0.0
 71
     0
 42
3.5
  3
txt
  4

  0
STYLE
  5
97
330
3
100
AcDbSymbolTableRecord
100
AcDbTextStyleTableRecord
  2
SLDTEXTSTYLE0
 70
     0
 40
0.0
 41
0.75
 50
0.0
 71
     0
 42
3.5
  3
TXT
  4

  0
ENDTAB
  0
TABLE
  2
VIEW
  5
6
330
0
100
AcDbSymbolTable
 70
     0
  0
ENDTAB
  0
TABLE
  2
UCS
  5
7
330
0
100
AcDbSymbolTable
 70
     0
  0
ENDTAB
  0
TABLE
  2
APPID
  5
9
330
0
100
AcDbSymbolTable
 70
     1
  0
APPID
  5
12
330
9
100
AcDbSymbolTableRecord
100
AcDbRegAppTableRecord
  2
ACAD
 70
     0
  0
ENDTAB
  0
TABLE
  2
DIMSTYLE
  5
A
330
0
100
AcDbSymbolTable
 70
     4
100
AcDbDimStyleTable
  0
DIMSTYLE
105
27
330
A
100
AcDbSymbolTableRecord
100
AcDbDimStyleTableRecord
  2
ISO-25
 70
     0
 41
2.5
 42
0.625
 43
3.75
 44
1.25
 73
     0
 74
     0
 77
     1
 78
     8
140
2.5
141
2.5
143
0.03937007874016
147
0.625
171
     3
172
     1
178
     0
271
     2
272
     2
274
     3
278
    44
283
     0
284
     8
340
11
  0
DIMSTYLE
105
D1
102
{ACAD_REACTORS
330
D0
102
}
330
A
100
AcDbSymbolTableRecord
100
AcDbDimStyleTableRecord
  2
SLDDIMSTYLE0
 70
     0
 41
3.302
 44
0.0
 45
0.000000001
 73
     0
 74
     0
 77
     1
 78
    12
 79
     3
140
3.5
147
0.875
172
     1
173
     1
178
     0
271
     1
272
     1
276
     2
284
    12
289
     0
340
97
  0
DIMSTYLE
105
DF
102
{ACAD_REACTORS
330
DE
330
F7
102
}
330
A
100
AcDbSymbolTableRecord
100
AcDbDimStyleTableRecord
  2
SLDDIMSTYLE1
 70
     0
 41
3.302
 44
0.0
 45
0.000000001
 73
     0
 74
     0
 77
     1
 78
    12
 79
     3
140
3.5
147
0.875
173
     1
178
     0
271
     2
272
     2
276
     2
284
    12
340
97
  0
DIMSTYLE
105
EA
102
{ACAD_REACTORS
330
E9
102
}
330
A
100
AcDbSymbolTableRecord
100
AcDbDimStyleTableRecord
  2
SLDDIMSTYLE2
 70
     0
 41
3.302
 44
0.0
 45
0.000000001
 73
     0
 74
     0
 77
     1
 78
    12
 79
     3
140
3.5
147
0.875
172
     1
173
     1
178
     0
271
     2
272
     2
276
     2
284
    12
289
     0
340
97
  0
ENDTAB
  0
TABLE
  2
BLOCK_RECORD
  5
1
330
0
100
AcDbSymbolTable
 70
     7
  0
BLOCK_RECORD
  5
1F
330
1
100
AcDbSymbolTableRecord
100
AcDbBlockTableRecord
  2
*Model_Space
340
22
  0
BLOCK_RECORD
  5
1B
330
1
100
AcDbSymbolTableRecord
100
AcDbBlockTableRecord
  2
*Paper_Space
340
1E
  0
BLOCK_RECORD
  5
23
330
1
100
AcDbSymbolTableRecord
100
AcDbBlockTableRecord
  2
*Paper_Space0
340
26
  0
BLOCK_RECORD
  5
82
330
1
100
AcDbSymbolTableRecord
100
AcDbBlockTableRecord
  2
블럭10
340
0
102
{BLKREFS
331
C9
102
}
  0
BLOCK_RECORD
  5
D2
330
1
100
AcDbSymbolTableRecord
100
AcDbBlockTableRecord
  2
_D
340
0
  0
BLOCK_RECORD
  5
E0
330
1
100
AcDbSymbolTableRecord
100
AcDbBlockTableRecord
  2
_D_1
340
0
  0
BLOCK_RECORD
  5
EB
330
1
100
AcDbSymbolTableRecord
100
AcDbBlockTableRecord
  2
_D_2
340
0
  0
BLOCK_RECORD
  5
F8
330
1
100
AcDbSymbolTableRecord
100
AcDbBlockTableRecord
  2
_D_3
340
0
  0
BLOCK_RECORD
  5
101
330
1
100
AcDbSymbolTableRecord
100
AcDbBlockTableRecord
  2
SW_DOWELSYMBOL_0
340
0
102
{BLKREFS
331
107
102
}
  0
ENDTAB
  0
ENDSEC
  0
SECTION
  2
BLOCKS
  0
BLOCK
  5
20
330
1F
100
AcDbEntity
  8
0
100
AcDbBlockBegin
  2
*Model_Space
 70
     0
 10
0.0
 20
0.0
 30
0.0
  3
*Model_Space
  1

  0
ENDBLK
  5
21
330
1F
100
AcDbEntity
  8
0
100
AcDbBlockEnd
  0
BLOCK
  5
1C
330
1B
100
AcDbEntity
 67
     1
  8
0
100
AcDbBlockBegin
  2
*Paper_Space
 70
     0
 10
0.0
 20
0.0
 30
0.0
  3
*Paper_Space
  1

  0
ENDBLK
  5
1D
330
1B
100
AcDbEntity
 67
     1
  8
0
100
AcDbBlockEnd
  0
BLOCK
  5
24
330
23
100
AcDbEntity
  8
0
100
AcDbBlockBegin
  2
*Paper_Space0
 70
     0
 10
0.0
 20
0.0
 30
0.0
  3
*Paper_Space0
  1

  0
ENDBLK
  5
25
330
23
100
AcDbEntity
  8
0
100
AcDbBlockEnd
  0
BLOCK
  5
83
330
82
100
AcDbEntity
  8
0
100
AcDbBlockBegin
  2
블럭10
 70
     2
 10
0.0
 20
0.0
 30
0.0
  3
블럭10
  1

  0
ELLIPSE
  5
85
330
82
100
AcDbEntity
  8
중심선
100
AcDbEllipse
 10
20.54032771741204
 20
12.0471743016438
 30
0.0
 11
6.600054785286829
 21
-1.261213355974178E-13
 31
0.0
210
0.0
220
0.0
230
1.0
 40
0.636358354079598
 41
0.9219305317359503
 42
6.513795318482858
  0
ELLIPSE
  5
86
330
82
100
AcDbEntity
  8
중심선
100
AcDbEllipse
 10
20.54032771746488
 20
12.04717430159265
 30
0.0
 11
3.960054785062283
 21
1.540847449632565E-10
 31
0.0
210
0.0
220
0.0
230
1.0
 40
0.3939339440162632
 41
1.131841032648279
 42
5.62031148352944
  0
LINE
  5
87
330
82
100
AcDbEntity
  8
중심선
100
AcDbLine
 10
2.268634060543552
 20
16.24717430164393
 30
0.0
 11
5.714909304380834
 21
16.24717430164393
 31
0.0
  0
LINE
  5
88
330
82
100
AcDbEntity
  8
중심선
100
AcDbLine
 10
5.245725140726316
 20
7.84717430164391
 30
0.0
 11
8.692000384563599
 21
7.84717430164391
 31
0.0
  0
LINE
  5
89
330
82
100
AcDbEntity
  8
중심선
100
AcDbLine
 10
15.74043728645272
 20
16.24717430164393
 30
0.0
 11
8.692000384563599
 21
7.84717430164391
 31
0.0
  0
LINE
  5
8A
330
82
100
AcDbEntity
  8
중심선
100
AcDbLine
 10
0.1404042013395286
 20
13.71084872107135
 30
0.0
 11
3.58671253028996
 21
13.71088815037384
 31
0.0
  0
LINE
  5
8B
330
82
100
AcDbEntity
  8
중심선
100
AcDbLine
 10
2.750260043222114
 20
10.84717430164391
 30
0.0
 11
6.196535287059397
 21
10.84717430164391
 31
0.0
  0
LINE
  5
8C
330
82
100
AcDbEntity
  8
중심선
100
AcDbLine
 10
12.29416204261559
 20
16.24717430164393
 30
0.0
 11
5.245725140726316
 21
7.84717430164391
 31
0.0
  0
LINE
  5
8D
330
82
100
AcDbEntity
  8
중심선
100
AcDbLine
 10
10.72767329541681
 20
16.24717430164393
 30
0.0
 11
6.196535287059397
 21
10.84717430164391
 31
0.0
  0
LINE
  5
8E
330
82
100
AcDbEntity
  8
중심선
100
AcDbLine
 10
7.28139805157953
 20
16.24717430164393
 30
0.0
 11
2.750260043222114
 21
10.84717430164391
 31
0.0
  0
LINE
  5
8F
330
82
100
AcDbEntity
  8
중심선
100
AcDbLine
 10
5.714909304380834
 20
16.24717430164393
 30
0.0
 11
3.58671253028996
 21
13.71088815037384
 31
0.0
  0
LINE
  5
90
330
82
100
AcDbEntity
  8
중심선
100
AcDbLine
 10
2.268634060543552
 20
16.24717430164393
 30
0.0
 11
0.1404042013395286
 21
13.71084872107135
 31
0.0
  0
LINE
  5
91
330
82
100
AcDbEntity
  8
중심선
100
AcDbLine
 10
7.28139805157953
 20
16.24717430164393
 30
0.0
 11
10.72767329541681
 21
16.24717430164393
 31
0.0
  0
LINE
  5
92
330
82
100
AcDbEntity
  8
중심선
100
AcDbLine
 10
12.29416204261559
 20
16.24717430164393
 30
0.0
 11
15.74043728645272
 21
16.24717430164393
 31
0.0
  0
LINE
  5
93
330
82
100
AcDbEntity
  8
중심선
100
AcDbLine
 10
19.22036997980202
 20
11.08717430171403
 30
0.0
 11
23.66174974927406
 21
11.08717430171406
 31
0.0
  0
LINE
  5
94
330
82
100
AcDbEntity
  8
중심선
100
AcDbLine
 10
19.22039502424796
 20
13.00717430171391
 30
0.0
 11
19.22036997980202
 21
11.08717430171403
 31
0.0
  0
LINE
  5
95
330
82
100
AcDbEntity
  8
중심선
100
AcDbLine
 10
19.22039502424796
 20
13.00717430171391
 30
0.0
 11
26.96566020931264
 21
13.00717430171391
 31
0.0
  0
LINE
  5
96
330
82
100
AcDbEntity
  8
중심선
100
AcDbLine
 10
22.22332737316547
 20
13.45928029700563
 30
0.0
 11
24.52862924686651
 21
15.39360700705356
 31
0.0
  0
ATTDEF
  5
98
330
82
100
AcDbEntity
  8
FORMAT
 62
     2
100
AcDbText
 10
-12.95993919485777
 20
2.075366912832191
 30
0.0
 40
4.233333333333333
  1
SEME71160E [ 4 FLUTE ]
 41
0.75
  7
SLDTEXTSTYLE0
 11
-12.95993919485777
 21
-0.0412997538344756
 31
0.0
100
AcDbAttributeDefinition
  3

  2
AUTOATTR0
 70
     0
 74
     1
  0
ENDBLK
  5
84
330
82
100
AcDbEntity
  8
0
100
AcDbBlockEnd
  0
BLOCK
  5
D3
330
D2
100
AcDbEntity
  8
0
100
AcDbBlockBegin
  2
_D
 70
     0
 10
0.0
 20
0.0
 30
0.0
  3
_D
  1

  0
LINE
  5
D5
330
D2
100
AcDbEntity
  8
치수문자_일반주서
 62
     0
370
    -2
100
AcDbLine
 10
52.06250000000004
 20
-8.000000000000007
 30
0.0
 11
67.36619927746663
 21
-7.99999999999995
 31
0.0
  0
LINE
  5
D6
330
D2
100
AcDbEntity
  8
치수문자_일반주서
 62
     0
370
    -2
100
AcDbLine
 10
52.06250000000004
 20
8.000000000000004
 30
0.0
 11
67.36619927746658
 21
8.00000000000006
 31
0.0
  0
LINE
  5
D7
330
D2
100
AcDbEntity
  8
치수문자_일반주서
 62
     0
370
    -2
100
AcDbLine
 10
67.36619927746663
 20
-7.99999999999995
 30
0.0
 11
67.36619927746652
 21
22.47900000000006
 31
0.0
  0
LINE
  5
D8
330
D2
100
AcDbEntity
  8
치수문자_일반주서
 62
     0
370
    -2
100
AcDbLine
 10
67.36619927746663
 20
-7.99999999999995
 30
0.0
 11
67.36619927746658
 21
8.00000000000006
 31
0.0
  0
LINE
  5
D9
330
D2
100
AcDbEntity
  8
치수문자_일반주서
 62
     0
370
    -2
100
AcDbLine
 10
67.36619927746665
 20
-11.30199999999995
 30
0.0
 11
67.36619927746666
 21
-14.60399999999995
 31
0.0
  0
LINE
  5
DA
330
D2
100
AcDbEntity
  8
치수문자_일반주서
 62
     0
370
    -2
100
AcDbLine
 10
67.36619927746656
 20
11.30200000000006
 30
0.0
 11
67.36619927746655
 21
14.60400000000006
 31
0.0
  0
SOLID
  5
DB
330
D2
100
AcDbEntity
  8
치수문자_일반주서
 62
     0
100
AcDbTrace
 10
67.91653261079998
 20
-11.30199999999995
 30
0.0
 11
66.81586594413332
 21
-11.30199999999995
 31
0.0
 12
67.36619927746663
 22
-7.99999999999995
 32
0.0
 13
67.36619927746663
 23
-7.99999999999995
 33
0.0
  0
SOLID
  5
DC
330
D2
100
AcDbEntity
  8
치수문자_일반주서
 62
     0
100
AcDbTrace
 10
66.81586594413324
 20
11.30200000000006
 30
0.0
 11
67.91653261079989
 21
11.30200000000006
 31
0.0
 12
67.36619927746658
 22
8.00000000000006
 32
0.0
 13
67.36619927746658
 23
8.00000000000006
 33
0.0
  0
MTEXT
  5
DD
330
D2
100
AcDbEntity
  8
치수문자_일반주서
 62
     0
100
AcDbMText
 10
62.99119927746654
 20
18.54150000000005
 30
0.0
 40
3.5
 41
0.0
 71
     2
 72
     1
  1
\A1;%%c16
  7
SLDTEXTSTYLE0
 11
-3.552713678800499E-15
 21
1.0
 31
0.0
 73
     1
 44
1.0
  0
POINT
  5
137
330
D2
100
AcDbEntity
  8
Defpoints
 62
     0
100
AcDbPoint
 10
52.00000000000004
 20
-8.000000000000007
 30
0.0
  0
POINT
  5
138
330
D2
100
AcDbEntity
  8
Defpoints
 62
     0
100
AcDbPoint
 10
52.00000000000004
 20
8.000000000000004
 30
0.0
  0
POINT
  5
139
330
D2
100
AcDbEntity
  8
Defpoints
 62
     0
100
AcDbPoint
 10
67.36619927746658
 20
8.00000000000006
 30
0.0
  0
ENDBLK
  5
D4
330
D2
100
AcDbEntity
  8
0
100
AcDbBlockEnd
  0
BLOCK
  5
E1
330
E0
100
AcDbEntity
  8
0
100
AcDbBlockBegin
  2
_D_1
 70
     0
 10
0.0
 20
0.0
 30
0.0
  3
_D_1
  1

  0
LINE
  5
E3
330
E0
100
AcDbEntity
  8
치수문자_일반주서
 62
     0
370
    -2
100
AcDbLine
 10
-47.99999999999999
 20
7.56249999999999
 30
0.0
 11
-47.99999999999999
 21
25.38913260158164
 31
0.0
  0
LINE
  5
E4
330
E0
100
AcDbEntity
  8
치수문자_일반주서
 62
     0
370
    -2
100
AcDbLine
 10
52.00000000000001
 20
8.062500000000004
 30
0.0
 11
52.00000000000002
 21
25.38913260158164
 31
0.0
  0
LINE
  5
E5
330
E0
100
AcDbEntity
  8
치수문자_일반주서
 62
     0
370
    -2
100
AcDbLine
 10
-44.69799999999999
 20
25.38913260158164
 30
0.0
 11
48.69800000000002
 21
25.38913260158164
 31
0.0
  0
SOLID
  5
E6
330
E0
100
AcDbEntity
  8
치수문자_일반주서
 62
     0
100
AcDbTrace
 10
-44.69799999999999
 20
25.93946593491497
 30
0.0
 11
-44.69799999999999
 21
24.83879926824831
 31
0.0
 12
-47.99999999999999
 22
25.38913260158164
 32
0.0
 13
-47.99999999999999
 23
25.38913260158164
 33
0.0
  0
SOLID
  5
E7
330
E0
100
AcDbEntity
  8
치수문자_일반주서
 62
     0
100
AcDbTrace
 10
48.69800000000002
 20
24.83879926824831
 30
0.0
 11
48.69800000000002
 21
25.93946593491497
 31
0.0
 12
52.00000000000002
 22
25.38913260158164
 32
0.0
 13
52.00000000000002
 23
25.38913260158164
 33
0.0
  0
MTEXT
  5
E8
330
E0
100
AcDbEntity
  8
치수문자_일반주서
 62
     0
100
AcDbMText
 10
2.000000000000008
 20
29.76413260158164
 30
0.0
 40
3.5
 41
0.0
 71
     2
 72
     1
  1
\A1;100
  7
SLDTEXTSTYLE0
 73
     1
 44
1.0
  0
POINT
  5
12E
330
E0
100
AcDbEntity
  8
Defpoints
 62
     0
100
AcDbPoint
 10
-47.99999999999999
 20
7.49999999999999
 30
0.0
  0
POINT
  5
12F
330
E0
100
AcDbEntity
  8
Defpoints
 62
     0
100
AcDbPoint
 10
52.00000000000001
 20
8.000000000000004
 30
0.0
  0
POINT
  5
130
330
E0
100
AcDbEntity
  8
Defpoints
 62
     0
100
AcDbPoint
 10
52.00000000000001
 20
25.38913260158164
 30
0.0
  0
ENDBLK
  5
E2
330
E0
100
AcDbEntity
  8
0
100
AcDbBlockEnd
  0
BLOCK
  5
EC
330
EB
100
AcDbEntity
  8
0
100
AcDbBlockBegin
  2
_D_2
 70
     0
 10
0.0
 20
0.0
 30
0.0
  3
_D_2
  1

  0
LINE
  5
EE
330
EB
100
AcDbEntity
  8
치수문자_일반주서
 62
     0
370
    -2
100
AcDbLine
 10
-47.56249999999999
 20
8.000000000000007
 30
0.0
 11
-59.1881136379006
 21
7.999999999999963
 31
0.0
  0
LINE
  5
EF
330
EB
100
AcDbEntity
  8
치수문자_일반주서
 62
     0
370
    -2
100
AcDbLine
 10
-47.56249999999999
 20
-8.000000000000007
 30
0.0
 11
-59.18811363790054
 21
-8.000000000000053
 31
0.0
  0
LINE
  5
F0
330
EB
100
AcDbEntity
  8
치수문자_일반주서
 62
     0
370
    -2
100
AcDbLine
 10
-59.1881136379006
 20
7.999999999999963
 30
0.0
 11
-59.18811363790065
 21
22.47899999999996
 31
0.0
  0
LINE
  5
F1
330
EB
100
AcDbEntity
  8
치수문자_일반주서
 62
     0
370
    -2
100
AcDbLine
 10
-59.1881136379006
 20
7.999999999999963
 30
0.0
 11
-59.18811363790054
 21
-8.000000000000053
 31
0.0
  0
LINE
  5
F2
330
EB
100
AcDbEntity
  8
치수문자_일반주서
 62
     0
370
    -2
100
AcDbLine
 10
-59.18811363790061
 20
11.30199999999996
 30
0.0
 11
-59.18811363790063
 21
14.60399999999996
 31
0.0
  0
LINE
  5
F3
330
EB
100
AcDbEntity
  8
치수문자_일반주서
 62
     0
370
    -2
100
AcDbLine
 10
-59.18811363790053
 20
-11.30200000000005
 30
0.0
 11
-59.18811363790051
 21
-14.60400000000005
 31
0.0
  0
SOLID
  5
F4
330
EB
100
AcDbEntity
  8
치수문자_일반주서
 62
     0
100
AcDbTrace
 10
-59.73844697123395
 20
11.30199999999996
 30
0.0
 11
-58.63778030456728
 21
11.30199999999996
 31
0.0
 12
-59.1881136379006
 22
7.999999999999963
 32
0.0
 13
-59.1881136379006
 23
7.999999999999963
 33
0.0
  0
SOLID
  5
F5
330
EB
100
AcDbEntity
  8
치수문자_일반주서
 62
     0
100
AcDbTrace
 10
-58.63778030456719
 20
-11.30200000000005
 30
0.0
 11
-59.73844697123386
 21
-11.30200000000005
 31
0.0
 12
-59.18811363790054
 22
-8.000000000000053
 32
0.0
 13
-59.18811363790054
 23
-8.000000000000053
 33
0.0
  0
MTEXT
  5
F6
330
EB
100
AcDbEntity
  8
치수문자_일반주서
 62
     0
100
AcDbMText
 10
-63.56311363790063
 20
18.54149999999995
 30
0.0
 40
3.5
 41
0.0
 71
     2
 72
     1
  1
\A1;%%c16
  7
SLDTEXTSTYLE0
 11
-3.552713678800498E-15
 21
1.0
 31
0.0
 73
     1
 44
1.0
  0
POINT
  5
134
330
EB
100
AcDbEntity
  8
Defpoints
 62
     0
100
AcDbPoint
 10
-47.49999999999999
 20
8.000000000000007
 30
0.0
  0
POINT
  5
135
330
EB
100
AcDbEntity
  8
Defpoints
 62
     0
100
AcDbPoint
 10
-47.49999999999999
 20
-8.000000000000007
 30
0.0
  0
POINT
  5
136
330
EB
100
AcDbEntity
  8
Defpoints
 62
     0
100
AcDbPoint
 10
-59.18811363790055
 20
-8.000000000000052
 30
0.0
  0
ENDBLK
  5
ED
330
EB
100
AcDbEntity
  8
0
100
AcDbBlockEnd
  0
BLOCK
  5
F9
330
F8
100
AcDbEntity
  8
0
100
AcDbBlockBegin
  2
_D_3
 70
     0
 10
0.0
 20
0.0
 30
0.0
  3
_D_3
  1

  0
LINE
  5
FB
330
F8
100
AcDbEntity
  8
치수문자_일반주서
 62
     0
370
    -2
100
AcDbLine
 10
12.0
 20
7.166221506761072
 30
0.0
 11
12.0
 21
17.70159856438115
 31
0.0
  0
LINE
  5
FC
330
F8
100
AcDbEntity
  8
치수문자_일반주서
 62
     0
370
    -2
100
AcDbLine
 10
52.00000000000001
 20
8.062500000000004
 30
0.0
 11
52.00000000000001
 21
17.70159856438115
 31
0.0
  0
LINE
  5
FD
330
F8
100
AcDbEntity
  8
치수문자_일반주서
 62
     0
370
    -2
100
AcDbLine
 10
15.302
 20
17.70159856438115
 30
0.0
 11
48.69800000000001
 21
17.70159856438115
 31
0.0
  0
SOLID
  5
FE
330
F8
100
AcDbEntity
  8
치수문자_일반주서
 62
     0
100
AcDbTrace
 10
15.302
 20
18.25193189771448
 30
0.0
 11
15.302
 21
17.15126523104782
 31
0.0
 12
12.0
 22
17.70159856438115
 32
0.0
 13
12.0
 23
17.70159856438115
 33
0.0
  0
SOLID
  5
FF
330
F8
100
AcDbEntity
  8
치수문자_일반주서
 62
     0
100
AcDbTrace
 10
48.69800000000001
 20
17.15126523104782
 30
0.0
 11
48.69800000000001
 21
18.25193189771448
 31
0.0
 12
52.00000000000001
 22
17.70159856438115
 32
0.0
 13
52.00000000000001
 23
17.70159856438115
 33
0.0
  0
MTEXT
  5
100
330
F8
100
AcDbEntity
  8
치수문자_일반주서
 62
     0
100
AcDbMText
 10
31.99999999999999
 20
22.07659856438115
 30
0.0
 40
3.5
 41
0.0
 71
     2
 72
     1
  1
\A1;40
  7
SLDTEXTSTYLE0
 73
     1
 44
1.0
  0
POINT
  5
131
330
F8
100
AcDbEntity
  8
Defpoints
 62
     0
100
AcDbPoint
 10
12.0
 20
7.103721506761072
 30
0.0
  0
POINT
  5
132
330
F8
100
AcDbEntity
  8
Defpoints
 62
     0
100
AcDbPoint
 10
52.00000000000001
 20
8.000000000000004
 30
0.0
  0
POINT
  5
133
330
F8
100
AcDbEntity
  8
Defpoints
 62
     0
100
AcDbPoint
 10
52.00000000000001
 20
17.70159856438115
 30
0.0
  0
ENDBLK
  5
FA
330
F8
100
AcDbEntity
  8
0
100
AcDbBlockEnd
  0
BLOCK
  5
102
330
101
100
AcDbEntity
  8
0
100
AcDbBlockBegin
  2
SW_DOWELSYMBOL_0
 70
     0
 10
0.0
 20
0.0
 30
0.0
  3
SW_DOWELSYMBOL_0
  1

  0
CIRCLE
  5
104
330
101
100
AcDbEntity
  8
해칭선
 62
     0
100
AcDbCircle
 10
0.0
 20
0.0
 30
0.0
 40
3.000000000000001
  0
HATCH
  5
105
330
101
100
AcDbEntity
  8
0
  6
Continuous
 62
     0
370
    18
100
AcDbHatch
 10
0.0
 20
0.0
 30
0.0
210
0.0
220
0.0
230
1.0
  2
SOLID
 70
     1
 71
     0
 91
        1
 92
        0
 93
        3
 72
     2
 10
0.0
 20
0.0
 40
3.000000000000001
 50
0.0
 51
90.0
 73
     1
 72
     1
 10
0.0
 20
3.000000000000001
 11
0.0
 21
0.0
 72
     1
 10
0.0
 20
0.0
 11
3.000000000000001
 21
0.0
 97
        0
 75
     0
 76
     1
 98
        1
 10
0.0
 20
0.0
  0
HATCH
  5
106
330
101
100
AcDbEntity
  8
0
  6
Continuous
 62
     0
370
    18
100
AcDbHatch
 10
0.0
 20
0.0
 30
0.0
210
0.0
220
0.0
230
1.0
  2
SOLID
 70
     1
 71
     0
 91
        1
 92
        0
 93
        3
 72
     2
 10
0.0
 20
0.0
 40
3.000000000000001
 50
180.0
 51
270.0000000000008
 73
     1
 72
     1
 10
0.0
 20
-3.000000000000001
 11
0.0
 21
0.0
 72
     1
 10
0.0
 20
0.0
 11
-3.000000000000001
 21
0.0
 97
        0
 75
     0
 76
     1
 98
        1
 10
0.0
 20
0.0
  0
ENDBLK
  5
103
330
101
100
AcDbEntity
  8
0
100
AcDbBlockEnd
  0
ENDSEC
  0
SECTION
  2
ENTITIES
  0
LINE
  5
99
330
1F
100
AcDbEntity
  8
0
  6
Continuous
 62
     4
370
    25
100
AcDbLine
 10
10.50018738680506
 20
7.999999999999999
 30
0.0
 11
-47.49999999999999
 21
7.999999999999996
 31
0.0
  0
LINE
  5
9A
330
1F
100
AcDbEntity
  8
0
  6
Continuous
 62
     4
370
    25
100
AcDbLine
 10
-47.49999999999999
 20
-8.000000000000004
 30
0.0
 11
10.50018738680506
 21
-8.0
 31
0.0
  0
LINE
  5
9B
330
1F
100
AcDbEntity
  8
0
  6
Continuous
 62
     4
370
    25
100
AcDbLine
 10
-47.49999999999999
 20
7.999999999999988
 30
0.0
 11
-47.99999999999999
 21
7.49999999999999
 31
0.0
  0
LINE
  5
9C
330
1F
100
AcDbEntity
  8
0
  6
Continuous
 62
     4
370
    25
100
AcDbLine
 10
-47.99999999999999
 20
-7.499999999999999
 30
0.0
 11
-47.49999999999999
 21
-7.999999999999997
 31
0.0
  0
LINE
  5
9D
330
1F
100
AcDbEntity
  8
0
  6
Continuous
 62
     1
370
    25
100
AcDbLine
 10
49.71364183992904
 20
-8.000000000000004
 30
0.0
 11
52.00000000000001
 21
-8.000000000000004
 31
0.0
  0
LINE
  5
9E
330
1F
100
AcDbEntity
  8
0
  6
Continuous
 62
     1
370
    25
100
AcDbLine
 10
22.11820030825606
 20
8.000000000000004
 30
0.0
 11
17.54512583719449
 21
8.000000000000004
 31
0.0
  0
LINE
  5
9F
330
1F
100
AcDbEntity
  8
0
  6
Continuous
 62
     1
370
    25
100
AcDbLine
 10
33.62850326821342
 20
-8.000000000000004
 30
0.0
 11
38.2026546158728
 21
-8.000000000000004
 31
0.0
  0
LINE
  5
A0
330
1F
100
AcDbEntity
  8
0
  6
Continuous
 62
     1
370
    25
100
AcDbLine
 10
38.2026546158728
 20
8.000000000000004
 30
0.0
 11
33.62850326821351
 21
8.000000000000004
 31
0.0
  0
LINE
  5
A1
330
1F
100
AcDbEntity
  8
0
  6
Continuous
 62
     1
370
    25
100
AcDbLine
 10
17.54512583719448
 20
-8.000000000000004
 30
0.0
 11
22.11820030825599
 21
-8.000000000000004
 31
0.0
  0
LINE
  5
A2
330
1F
100
AcDbEntity
  8
0
  6
Continuous
 62
     1
370
    25
100
AcDbLine
 10
52.00000000000001
 20
8.000000000000004
 30
0.0
 11
49.71364183992904
 21
8.000000000000004
 31
0.0
  0
SPLINE
  5
A3
330
1F
100
AcDbEntity
  8
0
  6
Continuous
 62
     4
370
    25
100
AcDbSpline
210
0.0
220
0.0
230
1.0
 70
     8
 71
     3
 72
    12
 73
     8
 74
     0
 42
0.000000001
 43
0.00000001
 40
0.0
 40
0.0
 40
0.0
 40
0.0
 40
0.2500000000000002
 40
0.2500000000000002
 40
0.5000000000000003
 40
0.5000000000000003
 40
1.0
 40
1.0
 40
1.0
 40
1.0
 10
11.11998305793704
 20
-3.811865030438495
 30
0.0
 10
11.02069039356344
 20
-3.743499140996081
 30
0.0
 10
10.93256017662647
 20
-3.665701855784717
 30
0.0
 10
10.77768496831872
 20
-3.491111412704159
 30
0.0
 10
10.71089148580903
 20
-3.393390934148492
 30
0.0
 10
10.55287373156454
 20
-3.08513649265535
 30
0.0
 10
10.50018738680506
 20
-2.852597654018806
 30
0.0
 10
10.50018738680504
 20
-2.614422772727294
 30
0.0
  0
SPLINE
  5
A4
330
1F
100
AcDbEntity
  8
0
  6
Continuous
 62
     4
370
    25
100
AcDbSpline
210
0.0
220
0.0
230
1.0
 70
     8
 71
     3
 72
     8
 73
     4
 74
     0
 42
0.000000001
 43
0.00000001
 40
0.0
 40
0.0
 40
0.0
 40
0.0
 40
1.0
 40
1.0
 40
1.0
 40
1.0
 10
12.0
 20
-4.402144491778239
 30
0.0
 10
11.70560588830729
 20
-4.210346513546512
 30
0.0
 10
11.41274724451163
 20
-4.013441694115752
 30
0.0
 10
11.11998305793704
 20
-3.811865030438494
 30
0.0
  0
SPLINE
  5
A5
330
1F
100
AcDbEntity
  8
0
  6
Continuous
 62
     4
370
    25
100
AcDbSpline
210
0.0
220
0.0
230
1.0
 70
     8
 71
     3
 72
    18
 73
    14
 74
     0
 42
0.000000001
 43
0.00000001
 40
0.0
 40
0.0
 40
0.0
 40
0.0
 40
0.2499999999999999
 40
0.2499999999999999
 40
0.3749999999999998
 40
0.3749999999999998
 40
0.4999999999999998
 40
0.4999999999999998
 40
0.6249999999999998
 40
0.6249999999999998
 40
0.7499999999999997
 40
0.7499999999999997
 40
1.0
 40
1.0
 40
1.0
 40
1.0
 10
10.50018738680506
 20
-7.705185524454066
 30
0.0
 10
10.50018738680506
 20
-7.64968575068809
 30
0.0
 10
10.53435283293481
 20
-7.587405689917714
 30
0.0
 10
10.64108888302166
 20
-7.488898766481163
 30
0.0
 10
10.68510825576993
 20
-7.456007843787238
 30
0.0
 10
10.79002464153081
 20
-7.391000365696649
 30
0.0
 10
10.85175417831098
 20
-7.358531655183111
 30
0.0
 10
10.98900044375924
 20
-7.297522328960212
 30
0.0
 10
11.0641756649918
 20
-7.268999694145383
 30
0.0
 10
11.2275757045381
 20
-7.216928904339047
 30
0.0
 10
11.31651816969814
 20
-7.193307384830806
 30
0.0
 10
11.59219008056978
 20
-7.13439983256565
 30
0.0
 10
11.7938189553725
 20
-7.10969740971893
 30
0.0
 10
12.0
 20
-7.103721506761072
 30
0.0
  0
LINE
  5
A6
330
1F
100
AcDbEntity
  8
0
  6
Continuous
 62
     4
370
    25
100
AcDbLine
 10
10.50018738680506
 20
-7.705185524454066
 30
0.0
 11
10.50018738680506
 21
-8.0
 31
0.0
  0
SPLINE
  5
A7
330
1F
100
AcDbEntity
  8
0
  6
Continuous
 62
     4
370
    25
100
AcDbSpline
210
0.0
220
0.0
230
1.0
 70
     8
 71
     3
 72
    18
 73
    14
 74
     0
 42
0.000000001
 43
0.00000001
 40
0.0
 40
0.0
 40
0.0
 40
0.0
 40
0.2499999999999997
 40
0.2499999999999997
 40
0.3749999999999998
 40
0.3749999999999998
 40
0.4999999999999999
 40
0.4999999999999999
 40
0.625
 40
0.625
 40
0.75
 40
0.75
 40
1.0
 40
1.0
 40
1.0
 40
1.0
 10
10.50018738680506
 20
7.705185524454066
 30
0.0
 10
10.50018738680506
 20
7.649685750688088
 30
0.0
 10
10.53435283293481
 20
7.587405689917714
 30
0.0
 10
10.64108888302165
 20
7.488898766481165
 30
0.0
 10
10.68510825576993
 20
7.456007843787238
 30
0.0
 10
10.79002464153081
 20
7.391000365696651
 30
0.0
 10
10.85175417831098
 20
7.358531655183113
 30
0.0
 10
10.98900044375924
 20
7.29752232896021
 30
0.0
 10
11.0641756649918
 20
7.268999694145383
 30
0.0
 10
11.2275757045381
 20
7.216928904339047
 30
0.0
 10
11.31651816969814
 20
7.193307384830806
 30
0.0
 10
11.59219008056978
 20
7.13439983256565
 30
0.0
 10
11.7938189553725
 20
7.109697409718928
 30
0.0
 10
12.0
 20
7.10372150676107
 30
0.0
  0
LINE
  5
A8
330
1F
100
AcDbEntity
  8
0
  6
Continuous
 62
     4
370
    25
100
AcDbLine
 10
10.50018738680506
 20
7.999999999999999
 30
0.0
 11
10.50018738680506
 21
7.56074027893052
 31
0.0
  0
SPLINE
  5
A9
330
1F
100
AcDbEntity
  8
0
  6
Continuous
 62
     4
370
    25
100
AcDbSpline
210
0.0
220
0.0
230
1.0
 70
     8
 71
     3
 72
    12
 73
     8
 74
     0
 42
0.000000001
 43
0.00000001
 40
0.0
 40
0.0
 40
0.0
 40
0.0
 40
0.2499999999999998
 40
0.2499999999999998
 40
0.4999999999999997
 40
0.4999999999999997
 40
1.0
 40
1.0
 40
1.0
 40
1.0
 10
11.11998305793705
 20
7.033468915811762
 30
0.0
 10
11.02069039356349
 20
7.070520553682001
 30
0.0
 10
10.93256017662656
 20
7.111410296371553
 30
0.0
 10
10.77768496831886
 20
7.198726804298728
 30
0.0
 10
10.71089148580918
 20
7.245523164208839
 30
0.0
 10
10.55287373156469
 20
7.384630298253304
 30
0.0
 10
10.50018738680504
 20
7.478381963399532
 30
0.0
 10
10.50018738680504
 20
7.560740278930518
 30
0.0
  0
SPLINE
  5
AA
330
1F
100
AcDbEntity
  8
0
  6
Continuous
 62
     4
370
    25
100
AcDbSpline
210
0.0
220
0.0
230
1.0
 70
     8
 71
     3
 72
     8
 73
     4
 74
     0
 42
0.000000001
 43
0.00000001
 40
0.0
 40
0.0
 40
0.0
 40
0.0
 40
1.0
 40
1.0
 40
1.0
 40
1.0
 10
12.0
 20
6.67990448086473
 30
0.0
 10
11.70560588830729
 20
6.806301859124499
 30
0.0
 10
11.41274724451164
 20
6.924222248993288
 30
0.0
 10
11.11998305793705
 20
7.03346891581176
 30
0.0
  0
SPLINE
  5
AB
330
1F
100
AcDbEntity
  8
0
  6
Continuous
 62
     4
370
    25
100
AcDbSpline
210
0.0
220
0.0
230
1.0
 70
     8
 71
     3
 72
    18
 73
    14
 74
     0
 42
0.000000001
 43
0.00000001
 40
0.0
 40
0.0
 40
0.0
 40
0.0
 40
0.25
 40
0.25
 40
0.375
 40
0.375
 40
0.5
 40
0.5
 40
0.625
 40
0.625
 40
0.75
 40
0.75
 40
1.0
 40
1.0
 40
1.0
 40
1.0
 10
10.50018738680506
 20
2.151770441692883
 30
0.0
 10
10.50018738680506
 20
2.350507279575839
 30
0.0
 10
10.53435283293481
 20
2.543315934106861
 30
0.0
 10
10.64108888302165
 20
2.815260294611494
 30
0.0
 10
10.68510825576993
 20
2.900956993009118
 30
0.0
 10
10.79002464153081
 20
3.062795787540738
 30
0.0
 10
10.85175417831098
 20
3.139712380136288
 30
0.0
 10
10.98900044375924
 20
3.279016591699434
 30
0.0
 10
11.0641756649918
 20
3.341467174908089
 30
0.0
 10
11.2275757045381
 20
3.452491364824762
 30
0.0
 10
11.31651816969813
 20
3.501185073211484
 30
0.0
 10
11.59219008056978
 20
3.620526374334272
 30
0.0
 10
11.7938189553725
 20
3.667747479899642
 30
0.0
 10
12.0
 20
3.679285359194047
 30
0.0
  0
LINE
  5
AC
330
1F
100
AcDbEntity
  8
0
  6
Continuous
 62
     4
370
    25
100
AcDbLine
 10
-47.49999999999999
 20
7.999999999999988
 30
0.0
 11
-47.49999999999999
 21
-7.999999999999997
 31
0.0
  0
LINE
  5
AD
330
1F
100
AcDbEntity
  8
0
  6
Continuous
 62
     4
370
    25
100
AcDbLine
 10
10.50018738680506
 20
2.151770441692883
 30
0.0
 11
10.50018738680506
 21
-2.614422772727202
 31
0.0
  0
LINE
  5
AE
330
1F
100
AcDbEntity
  8
0
  6
Continuous
 62
     4
370
    25
100
AcDbLine
 10
-47.99999999999999
 20
7.49999999999999
 30
0.0
 11
-47.99999999999999
 21
-7.499999999999999
 31
0.0
  0
SPLINE
  5
AF
330
1F
100
AcDbEntity
  8
0
  6
Continuous
 62
     4
370
    25
100
AcDbSpline
210
0.0
220
0.0
230
1.0
 70
    24
 71
     3
 72
    18
 73
    14
 74
     0
 42
0.000000001
 43
0.00000001
 40
0.0
 40
0.0
 40
0.0
 40
0.0
 40
0.2500000000000001
 40
0.2500000000000001
 40
0.3750000000000001
 40
0.3750000000000001
 40
0.5000000000000001
 40
0.5000000000000001
 40
0.6250000000000001
 40
0.6250000000000001
 40
0.7500000000000002
 40
0.7500000000000002
 40
1.0
 40
1.0
 40
1.0
 40
1.0
 10
12.0
 20
3.679285359194044
 30
0.0
 10
12.0
 20
3.454270367527478
 30
0.0
 10
12.0
 20
3.194733088182757
 30
0.0
 10
12.0
 20
2.751375685407812
 30
0.0
 10
12.0
 20
2.593287069474545
 30
0.0
 10
12.0
 20
2.264858711545153
 30
0.0
 10
12.0
 20
2.094408822014302
 30
0.0
 10
12.0
 20
1.740776074145877
 30
0.0
 10
12.0
 20
1.557597394264221
 30
0.0
 10
12.0
 20
1.177554146571947
 30
0.0
 10
12.0
 20
0.9789357183412217
 30
0.0
 10
12.0
 20
0.379001926233844
 30
0.0
 10
12.0
 20
-0.0289822202952719
 30
0.0
 10
12.0
 20
-0.4454772227171962
 30
0.0
  0
LINE
  5
B0
330
1F
100
AcDbEntity
  8
0
  6
Continuous
 62
     4
370
    25
100
AcDbLine
 10
12.0
 20
7.103721506761072
 30
0.0
 11
12.0
 21
6.749978829314879
 31
0.0
  0
SPLINE
  5
B1
330
1F
100
AcDbEntity
  8
0
  6
Continuous
 62
     1
370
    25
100
AcDbSpline
210
0.0
220
0.0
230
1.0
 70
     8
 71
     3
 72
    30
 73
    26
 74
     0
 42
0.000000001
 43
0.00000001
 40
0.0
 40
0.0
 40
0.0
 40
0.0
 40
0.047051582693991
 40
0.094130103077255
 40
0.141210066657071
 40
0.1882625052264547
 40
0.2353017028759694
 40
0.2811339393846689
 40
0.3269879733282036
 40
0.3728715121338368
 40
0.4187262517838108
 40
0.4645587484703194
 40
0.510389359544544
 40
0.556238456353755
 40
0.6021207215740242
 40
0.6479810075887463
 40
0.6938157438664588
 40
0.7396452711393017
 40
0.7854899688006969
 40
0.8275527919729915
 40
0.869575947844197
 40
0.9115723524228805
 40
0.9535918593498071
 40
0.9956555534392257
 40
1.0
 40
1.0
 40
1.0
 40
1.0
 10
11.99999999999895
 20
6.855680261781331
 30
0.0
 10
12.59145531517199
 20
7.074017701533831
 30
0.0
 10
13.77470456195958
 20
7.510817582277303
 30
0.0
 10
15.55027391408511
 20
7.885643720255183
 30
0.0
 10
17.32588196971567
 20
8.038969514429056
 30
0.0
 10
19.10048613448381
 20
7.947431549896583
 30
0.0
 10
20.85931218892686
 20
7.621630783876302
 30
0.0
 10
22.60295063644592
 20
7.076861780002085
 30
0.0
 10
24.33234757393939
 20
6.335428919950305
 30
0.0
 10
26.06268226332584
 20
5.414141103005875
 30
0.0
 10
27.79209727790384
 20
4.338398876331723
 30
0.0
 10
29.52058737788919
 20
3.139349050125082
 30
0.0
 10
31.2489905866846
 20
1.851027942760304
 30
0.0
 10
32.97819829105757
 20
0.509781047685412
 30
0.0
 10
34.70849553495935
 20
-0.8453528096255785
 30
0.0
 10
36.43810226523807
 20
-2.176943847595432
 30
0.0
 10
38.16669040906461
 20
-3.446518942714819
 30
0.0
 10
39.89505946902826
 20
-4.617958067667383
 30
0.0
 10
41.57606639886743
 20
-5.629362857515146
 30
0.0
 10
43.21012545317201
 20
-6.46565476099737
 30
0.0
 10
44.79490577693696
 20
-7.12202060822769
 30
0.0
 10
46.37880360489699
 20
-7.6133256529666
 30
0.0
 10
47.96339459727254
 20
-7.902847335396695
 30
0.0
 10
49.07573281599841
 20
-8.024906436409314
 30
0.0
 10
49.65903651205516
 20
-7.99402255895094
 30
0.0
 10
49.71364183992904
 20
-7.991131399052532
 30
0.0
  0
SPLINE
  5
B2
330
1F
100
AcDbEntity
  8
0
  6
Continuous
 62
     1
370
    25
100
AcDbSpline
210
0.0
220
0.0
230
1.0
 70
     8
 71
     3
 72
    25
 73
    21
 74
     0
 42
0.000000001
 43
0.00000001
 40
0.0
 40
0.0
 40
0.0
 40
0.0
 40
0.0578962621952944
 40
0.1157519510132493
 40
0.1735926813691218
 40
0.2314441791596758
 40
0.2893320903773671
 40
0.3472356248928318
 40
0.4050961857855406
 40
0.4629376001414549
 40
0.5207855887787763
 40
0.5786658237213299
 40
0.6365737986038498
 40
0.6944399116579435
 40
0.752282693878825
 40
0.8101278559296528
 40
0.8680010908091317
 40
0.92591067308285
 40
0.9837830172907249
 40
1.0
 40
1.0
 40
1.0
 40
1.0
 10
52.0
 20
-7.801325586840174
 30
0.0
 10
51.42319452174798
 20
-7.680118350014197
 30
0.0
 10
50.26998778730302
 20
-7.437788817717168
 30
0.0
 10
48.54111887227076
 20
-6.803052302471409
 30
0.0
 10
46.81279355991919
 20
-5.990785286986837
 30
0.0
 10
45.08407441439237
 20
-5.003712104888065
 30
0.0
 10
43.35426970176208
 20
-3.875474870445367
 30
0.0
 10
41.62408029030213
 20
-2.636963840530623
 30
0.0
 10
39.89504617105817
 20
-1.323025997017112
 30
0.0
 10
38.16669397226551
 20
0.028320112510767
 30
0.0
 10
36.43810130934129
 20
1.378952005747857
 30
0.0
 10
34.70849579321857
 20
2.690405850193983
 30
0.0
 10
32.97819821471549
 20
3.924880651355132
 30
0.0
 10
31.24899063390161
 20
5.048151079460977
 30
0.0
 10
29.52058726534831
 20
6.02789666768293
 30
0.0
 10
27.79209768097226
 20
6.834949272207374
 30
0.0
 10
26.06268076241606
 20
7.452232295933349
 30
0.0
 10
24.33235317648685
 20
7.839968400616075
 30
0.0
 10
23.01756733383066
 20
8.014464002104248
 30
0.0
 10
22.27970640415755
 20
7.98373982342046
 30
0.0
 10
22.11820030825606
 20
7.977014786290227
 30
0.0
  0
LINE
  5
B3
330
1F
100
AcDbEntity
  8
0
  6
Continuous
 62
     1
370
    25
100
AcDbLine
 10
52.00000000000001
 20
-8.000000000000007
 30
0.0
 11
52.00000000000001
 21
-7.801325586842091
 31
0.0
  0
SPLINE
  5
B4
330
1F
100
AcDbEntity
  8
0
  6
Continuous
 62
     1
370
    25
100
AcDbSpline
210
0.0
220
0.0
230
1.0
 70
     8
 71
     3
 72
    26
 73
    22
 74
     0
 42
0.000000001
 43
0.00000001
 40
0.0
 40
0.0
 40
0.0
 40
0.0
 40
0.0188443395691904
 40
0.0729890186262503
 40
0.1270935137285393
 40
0.1811801052071815
 40
0.2352728441923584
 40
0.2893957361874022
 40
0.3435445673614461
 40
0.3976542542020078
 40
0.4517421247495403
 40
0.5058322206384054
 40
0.5599485669852132
 40
0.6140989012053369
 40
0.6682144146992189
 40
0.7223042035342755
 40
0.7778184106000703
 40
0.833348244190212
 40
0.8889105619468574
 40
0.9444711764875414
 40
1.0
 40
1.0
 40
1.0
 40
1.0
 10
43.9566368872963
 20
-6.748260961739353
 30
0.0
 10
43.75588767149294
 20
-6.837647538333636
 30
0.0
 10
42.97833384968467
 20
-7.183864951792033
 30
0.0
 10
41.62406477341717
 20
-7.585161934909379
 30
0.0
 10
39.89505032597445
 20
-7.930658351513912
 30
0.0
 10
38.16669285885776
 20
-8.037473963856257
 30
0.0
 10
36.43810160838837
 20
-7.919113872308898
 30
0.0
 10
34.70849571110148
 20
-7.574453317166835
 30
0.0
 10
32.97819824388824
 20
-7.014763034383466
 30
0.0
 10
31.24899059931401
 20
-6.255152458524469
 30
0.0
 10
29.52058737450563
 20
-5.317714871879727
 30
0.0
 10
27.79209727881094
 20
-4.228975676683274
 30
0.0
 10
26.06268226308254
 20
-3.019732199038712
 30
0.0
 10
24.33234757400454
 20
-1.725152962698819
 30
0.0
 10
22.6029506364285
 20
-0.3809168577472719
 30
0.0
 10
20.85931218893174
 20
0.9859470345798715
 30
0.0
 10
19.10048613448273
 20
2.335766326923836
 30
0.0
 10
17.32588196971648
 20
3.628492677975737
 30
0.0
 10
15.55027391408571
 20
4.808400952113447
 30
0.0
 10
13.77470456196054
 20
5.858650813546089
 30
0.0
 10
12.59145531517309
 20
6.406205490592005
 30
0.0
 10
12.00000000000013
 20
6.679904480864679
 30
0.0
  0
SPLINE
  5
B5
330
1F
100
AcDbEntity
  8
0
  6
Continuous
 62
     1
370
    25
100
AcDbSpline
210
0.0
220
0.0
230
1.0
 70
     8
 71
     3
 72
    21
 73
    17
 74
     0
 42
0.000000001
 43
0.00000001
 40
0.0
 40
0.0
 40
0.0
 40
0.0
 40
0.070771806575601
 40
0.145080317894567
 40
0.2194188014834914
 40
0.2938110634356273
 40
0.3681676888992701
 40
0.4424828887114263
 40
0.5167896427841903
 40
0.5911209937140118
 40
0.6593205157920403
 40
0.7274557223826059
 40
0.7955475551521249
 40
0.8636768454432806
 40
0.9318777796027424
 40
0.9999999999999999
 40
0.9999999999999999
 40
0.9999999999999999
 40
0.9999999999999999
 10
27.87465836492315
 20
6.764862477688197
 30
0.0
 10
28.42331280288674
 20
6.978333254154377
 30
0.0
 10
29.54803978281755
 20
7.415942658371431
 30
0.0
 10
31.24898738101508
 20
7.81947958042157
 30
0.0
 10
32.97819915049562
 20
8.022634487517323
 30
0.0
 10
34.70849530610983
 20
7.99335064233095
 30
0.0
 10
36.4381023213319
 20
7.737772724305879
 30
0.0
 10
38.16669041334373
 20
7.261703323133108
 30
0.0
 10
39.89505939583613
 20
6.579225039163554
 30
0.0
 10
41.57606667751995
 20
5.733311115761068
 30
0.0
 10
43.2101245052472
 20
4.765627268708825
 30
0.0
 10
44.79490932109537
 20
3.711819340803946
 30
0.0
 10
46.37879038082411
 20
2.569080653262315
 30
0.0
 10
47.9634440043186
 20
1.365345575335253
 30
0.0
 10
49.54941095166684
 20
0.1282500351883506
 30
0.0
 10
50.60609098291729
 20
-0.6949361254144737
 30
0.0
 10
51.13412593202256
 20
-1.106291549538158
 30
0.0
  0
SPLINE
  5
B6
330
1F
100
AcDbEntity
  8
0
  6
Continuous
 62
     1
370
    25
100
AcDbSpline
210
0.0
220
0.0
230
1.0
 70
     8
 71
     3
 72
    12
 73
     8
 74
     0
 42
0.000000001
 43
0.00000001
 40
0.0
 40
0.0
 40
0.0
 40
0.0
 40
0.4999999999999999
 40
0.4999999999999999
 40
0.7499999999999999
 40
0.7499999999999999
 40
1.0
 40
1.0
 40
1.0
 40
1.0
 10
52.00000000000001
 20
-5.869334219275752
 30
0.0
 10
51.27791536981757
 20
-5.617864192161139
 30
0.0
 10
50.57464429413805
 20
-5.290945084996213
 30
0.0
 10
49.5532843994834
 20
-4.666032087494404
 30
0.0
 10
49.21905999512079
 20
-4.432747663588802
 30
0.0
 10
48.56353962615793
 20
-3.914331149968138
 30
0.0
 10
48.24850073772754
 20
-3.634376687507593
 30
0.0
 10
47.9456323300255
 20
-3.338898805189894
 30
0.0
  0
LINE
  5
B7
330
1F
100
AcDbEntity
  8
0
  6
Continuous
 62
     1
370
    25
100
AcDbLine
 10
52.00000000000001
 20
-7.801325586842091
 30
0.0
 11
52.00000000000001
 21
-5.86933421927575
 31
0.0
  0
SPLINE
  5
B8
330
1F
100
AcDbEntity
  8
0
  6
Continuous
 62
     1
370
    25
100
AcDbSpline
210
0.0
220
0.0
230
1.0
 70
    24
 71
     3
 72
    24
 73
    20
 74
     0
 42
0.000000001
 43
0.00000001
 40
0.0
 40
0.0
 40
0.0
 40
0.0
 40
0.1249999999999992
 40
0.1249999999999992
 40
0.2499999999999983
 40
0.2499999999999983
 40
0.3749999999999975
 40
0.3749999999999975
 40
0.4999999999999967
 40
0.4999999999999967
 40
0.6249999999999958
 40
0.6249999999999958
 40
0.6874999999999966
 40
0.6874999999999966
 40
0.7499999999999972
 40
0.7499999999999972
 40
0.8749999999999986
 40
0.8749999999999986
 40
1.0
 40
1.0
 40
1.0
 40
1.0
 10
51.13412593202254
 20
-1.106291549538154
 30
0.0
 10
51.13329092035555
 20
-1.106876231001881
 30
0.0
 10
51.11963721475926
 20
-1.116436658584905
 30
0.0
 10
51.06095292320749
 20
-1.157527841903953
 30
0.0
 10
51.01596350416965
 20
-1.189029772253908
 30
0.0
 10
50.89000957752589
 20
-1.277223661156972
 30
0.0
 10
50.80903365108682
 20
-1.333923615263028
 30
0.0
 10
50.60092688595481
 20
-1.479641540960905
 30
0.0
 10
50.47531130245859
 20
-1.567598519441673
 30
0.0
 10
50.18295200227995
 20
-1.772310705292453
 30
0.0
 10
50.01300603202595
 20
-1.891308154752675
 30
0.0
 10
49.73843707645639
 20
-2.083563407200851
 30
0.0
 10
49.64317323699652
 20
-2.150267865709456
 30
0.0
 10
49.4451916082283
 20
-2.288896094600006
 30
0.0
 10
49.34180305405071
 20
-2.361289539599756
 30
0.0
 10
49.02891027743114
 20
-2.580379420440144
 30
0.0
 10
48.81482123517763
 20
-2.730286181674161
 30
0.0
 10
48.37668581977838
 20
-3.037071902293369
 30
0.0
 10
48.1600671398903
 20
-3.188749934868219
 30
0.0
 10
47.94563233002549
 20
-3.338898805190137
 30
0.0
  0
SPLINE
  5
B9
330
1F
100
AcDbEntity
  8
0
  6
Continuous
 62
     1
370
    25
100
AcDbSpline
210
0.0
220
0.0
230
1.0
 70
     8
 71
     3
 72
    20
 73
    16
 74
     0
 42
0.000000001
 43
0.00000001
 40
0.0
 40
0.0
 40
0.0
 40
0.0
 40
0.0820449242353792
 40
0.164136820337568
 40
0.2462312329746956
 40
0.3282776496196331
 40
0.4103009777688124
 40
0.4902197000857657
 40
0.570176431089934
 40
0.6501846103990655
 40
0.7301425719597427
 40
0.8100617479547111
 40
0.8899776359642787
 40
0.9699257579740552
 40
0.9999999999999999
 40
0.9999999999999999
 40
0.9999999999999999
 40
0.9999999999999999
 10
11.99999999999895
 20
4.123062957101295
 30
0.0
 10
12.59145531517623
 20
3.715022218466029
 30
0.0
 10
13.77470456197231
 20
2.898707132164754
 30
0.0
 10
15.55027391403418
 20
1.554697720911026
 30
0.0
 10
17.32588196990661
 20
0.1730117130227455
 30
0.0
 10
19.1004861337715
 20
-1.216491047694914
 30
0.0
 10
20.85931219155567
 20
-2.557093950885024
 30
0.0
 10
22.60295062691285
 20
-3.811743860181003
 30
0.0
 10
24.33234760957672
 20
-4.947038411649078
 30
0.0
 10
26.06268213025937
 20
-5.941420186129284
 30
0.0
 10
27.79209777405697
 20
-6.766146619104252
 30
0.0
 10
29.52058552721627
 20
-7.402169123233008
 30
0.0
 10
31.24899749447241
 20
-7.812881386456837
 30
0.0
 10
32.61822465687051
 20
-8.005645209107254
 30
0.0
 10
33.41162889612629
 20
-7.980196952910502
 30
0.0
 10
33.62850326821342
 20
-7.97324075793408
 30
0.0
  0
SPLINE
  5
BA
330
1F
100
AcDbEntity
  8
0
  6
Continuous
 62
     1
370
    25
100
AcDbSpline
210
0.0
220
0.0
230
1.0
 70
     8
 71
     3
 72
    15
 73
    11
 74
     0
 42
0.000000001
 43
0.00000001
 40
0.0
 40
0.0
 40
0.0
 40
0.0
 40
0.1253882574984766
 40
0.2506886436060803
 40
0.3759566335723056
 40
0.5012479430037476
 40
0.6266181144550365
 40
0.7520221219090291
 40
0.8773330596643667
 40
1.0
 40
1.0
 40
1.0
 40
1.0
 10
52.0
 20
1.771812373837192
 30
0.0
 10
51.42319452195083
 20
2.206140902228714
 30
0.0
 10
50.26998778791147
 20
3.074493584003706
 30
0.0
 10
48.54111886983925
 20
4.276466209644633
 30
0.0
 10
46.81279356903576
 20
5.360276572025922
 30
0.0
 10
45.08407438034073
 20
6.29040472365137
 30
0.0
 10
43.35426982895047
 20
7.042969100404879
 30
0.0
 10
41.62407981564422
 20
7.590379326782223
 30
0.0
 10
39.90701614703955
 20
7.936825163895262
 30
0.0
 10
38.76672243460417
 20
7.977543384935694
 30
0.0
 10
38.2026546158728
 20
7.997685421916536
 30
0.0
  0
LINE
  5
BB
330
1F
100
AcDbEntity
  8
0
  6
Continuous
 62
     1
370
    25
100
AcDbLine
 10
52.00000000000001
 20
-0.5000000000000259
 30
0.0
 11
52.00000000000001
 21
1.771812373837346
 31
0.0
  0
LINE
  5
BC
330
1F
100
AcDbEntity
  8
0
  6
Continuous
 62
     1
370
    25
100
AcDbLine
 10
52.00000000000001
 20
-0.5000000000000255
 30
0.0
 11
51.13412593202254
 21
-1.106291549538154
 31
0.0
  0
SPLINE
  5
BD
330
1F
100
AcDbEntity
  8
0
  6
Continuous
 62
     1
370
    25
100
AcDbSpline
210
0.0
220
0.0
230
1.0
 70
     8
 71
     3
 72
    17
 73
    13
 74
     0
 42
0.000000001
 43
0.00000001
 40
0.0
 40
0.0
 40
0.0
 40
0.0
 40
0.0051868356455308
 40
0.1141288913621532
 40
0.2231393683421907
 40
0.3320797474358334
 40
0.4409683400101667
 40
0.5527244404768914
 40
0.6645119988265107
 40
0.7763649513151661
 40
0.8882144750459571
 40
1.0
 40
1.0
 40
1.0
 40
1.0
 10
27.87465836492309
 20
-6.764862477688201
 30
0.0
 10
27.84721684849229
 20
-6.777691313160579
 30
0.0
 10
27.24340557287543
 20
-7.059971468150982
 30
0.0
 10
26.06266978076874
 20
-7.436064818971135
 30
0.0
 10
24.33235091696794
 20
-7.854359157005968
 30
0.0
 10
22.60294974217782
 20
-8.028132433009066
 30
0.0
 10
20.85931243552765
 20
-7.978727543975943
 30
0.0
 10
19.10048606766518
 20
-7.693154070734646
 30
0.0
 10
17.32588198762787
 20
-7.175602961682978
 30
0.0
 10
15.55027390930824
 20
-6.440471798384468
 30
0.0
 10
13.7747045631541
 20
-5.521875437418298
 30
0.0
 10
12.59145531557088
 20
-4.775316924845635
 30
0.0
 10
12.00000000000013
 20
-4.402144491778331
 30
0.0
  0
SPLINE
  5
BE
330
1F
100
AcDbEntity
  8
0
  6
Continuous
 62
     1
370
    25
100
AcDbSpline
210
0.0
220
0.0
230
1.0
 70
     8
 71
     3
 72
    11
 73
     7
 74
     0
 42
0.000000001
 43
0.00000001
 40
0.0
 40
0.0
 40
0.0
 40
0.0
 40
0.32004263506806
 40
0.6402684990216105
 40
0.9605041795296958
 40
1.0
 40
1.0
 40
1.0
 40
1.0
 10
11.99999999999895
 20
-6.855680261781331
 30
0.0
 10
12.59145716110743
 20
-7.075263544794098
 30
0.0
 10
13.77471010082273
 20
-7.514555825320794
 30
0.0
 10
15.55025174355016
 20
-7.870680568821221
 30
0.0
 10
16.80730202563773
 20
-8.0295275473371
 30
0.0
 10
17.47213244412154
 20
-7.991229153263347
 30
0.0
 10
17.54512583719448
 20
-7.987024276869358
 30
0.0
  0
SPLINE
  5
BF
330
1F
100
AcDbEntity
  8
0
  6
Continuous
 62
     1
370
    25
100
AcDbSpline
210
0.0
220
0.0
230
1.0
 70
     8
 71
     3
 72
    12
 73
     8
 74
     0
 42
0.000000001
 43
0.00000001
 40
0.0
 40
0.0
 40
0.0
 40
0.0
 40
0.1168308109381701
 40
0.3374797610996244
 40
0.5582500909110101
 40
0.7792525799063142
 40
1.0
 40
1.0
 40
1.0
 40
1.0
 10
43.95663688729628
 20
6.748260961739357
 30
0.0
 10
44.23616550187753
 20
6.868111082007402
 30
0.0
 10
45.04361731456173
 20
7.21431247897645
 30
0.0
 10
46.37877097390551
 20
7.605631743472279
 30
0.0
 10
47.96344918697663
 20
7.914210786456881
 30
0.0
 10
49.54940965718014
 20
8.039129978993397
 30
0.0
 10
50.60609055158786
 20
7.961787243278573
 30
0.0
 10
51.13412593202254
 20
7.923138204488176
 30
0.0
  0
SPLINE
  5
C0
330
1F
100
AcDbEntity
  8
0
  6
Continuous
 62
     1
370
    25
100
AcDbSpline
210
0.0
220
0.0
230
1.0
 70
     8
 71
     3
 72
    16
 73
    12
 74
     0
 42
0.000000001
 43
0.00000001
 40
0.0
 40
0.0
 40
0.0
 40
0.0
 40
0.176885720107609
 40
0.3233003379969243
 40
0.4744487297679421
 40
0.572275504580084
 40
0.6727430589986253
 40
0.7706601186092222
 40
0.8717819738853576
 40
0.9645716048944918
 40
1.0
 40
1.0
 40
1.0
 40
1.0
 10
51.13412593202256
 20
7.923138204488177
 30
0.0
 10
51.12322088279294
 20
7.613214213404894
 30
0.0
 10
51.1032893354659
 20
7.046755083693206
 30
0.0
 10
50.94160401581122
 20
6.235471129906909
 30
0.0
 10
50.71231907408841
 20
5.597446408922544
 30
0.0
 10
50.42671341265314
 20
5.092010057788807
 30
0.0
 10
50.12970181716797
 20
4.718159964008874
 30
0.0
 10
49.77959494525818
 20
4.40925361211684
 30
0.0
 10
49.39914654745444
 20
4.193121136987934
 30
0.0
 10
49.08259436222959
 20
4.07291858807709
 30
0.0
 10
48.8996209949706
 20
4.049689440332592
 30
0.0
 10
48.84906294985423
 20
4.043270908951361
 30
0.0
  0
SPLINE
  5
C1
330
1F
100
AcDbEntity
  8
0
  6
Continuous
 62
     1
370
    25
100
AcDbSpline
210
0.0
220
0.0
230
1.0
 70
     8
 71
     3
 72
     9
 73
     5
 74
     0
 42
0.000000001
 43
0.00000001
 40
0.0
 40
0.0
 40
0.0
 40
0.0
 40
0.6641639761752551
 40
1.0
 40
1.0
 40
1.0
 40
1.0
 10
52.00000000000001
 20
1.954277833643311
 30
0.0
 10
51.73252163543021
 20
2.118416607865427
 30
0.0
 10
51.32979222798758
 20
2.365552526268211
 30
0.0
 10
50.93539762583118
 20
2.587216137208669
 30
0.0
 10
50.80294571082505
 20
2.661658762933548
 30
0.0
  0
LINE
  5
C2
330
1F
100
AcDbEntity
  8
0
  6
Continuous
 62
     1
370
    25
100
AcDbLine
 10
52.00000000000001
 20
1.778064318356809
 30
0.0
 11
52.00000000000001
 21
1.954277833643311
 31
0.0
  0
ELLIPSE
  5
C3
330
1F
100
AcDbEntity
  8
0
  6
Continuous
 62
     1
370
    25
100
AcDbEllipse
 10
52.71407400337106
 20
-0.0000000000000005
 30
0.0
 11
11.42518405393689
 21
0.0
 31
0.0
210
0.0
220
0.0
230
1.0
 40
0.7002075382097119
 41
1.633337088591387
 42
1.709527352206387
  0
LINE
  5
C4
330
1F
100
AcDbEntity
  8
0
  6
Continuous
 62
     1
370
    25
100
AcDbLine
 10
52.00000000000001
 20
7.984359711335663
 30
0.0
 11
52.00000000000001
 21
8.000000000000007
 31
0.0
  0
LINE
  5
C5
330
1F
100
AcDbEntity
  8
0
  6
Continuous
 62
     1
370
    25
100
AcDbLine
 10
52.00000000000001
 20
-0.4999999999999979
 30
0.0
 11
52.00000000000001
 21
-5.86933421927575
 31
0.0
  0
LINE
  5
C6
330
1F
100
AcDbEntity
  8
0
  6
Continuous
 62
     1
370
    25
100
AcDbLine
 10
52.00000000000001
 20
1.954277833643311
 30
0.0
 11
52.00000000000001
 21
7.984359711335663
 31
0.0
  0
LINE
  5
C7
330
1F
100
AcDbEntity
  8
중심선
100
AcDbLine
 10
-50.99999999999999
 20
-0.0000000000000052
 30
0.0
 11
55.00000000000001
 21
0.0000000000000078
 31
0.0
  0
CIRCLE
  5
C8
330
1F
100
AcDbEntity
  8
해칭선
100
AcDbCircle
 10
-0.0076875019121899
 20
-0.0000000000000043
 30
0.0
 40
3.000000000000001
  0
INSERT
  5
C9
330
1F
100
AcDbEntity
  8
0
  6
Continuous
 62
     7
100
AcDbBlockReference
 66
     1
  2
블럭10
 10
-12.44814782084245
 20
-52.04717430164393
 30
0.0
  0
ATTRIB
  5
CA
330
C9
100
AcDbEntity
  8
FORMAT
 62
     2
100
AcDbText
 10
-25.40808701570021
 20
-49.97180738881174
 30
0.0
 40
4.233333333333333
  1
SEME71160E [ 4 FLUTE ]
 41
0.75
  7
SLDTEXTSTYLE0
 11
-25.40808701570021
 21
-52.08847405547841
 31
0.0
100
AcDbAttribute
  2
AUTOATTR0
 70
     0
 74
     1
  0
SEQEND
  5
CB
330
C9
100
AcDbEntity
  8
0
  6
Continuous
 62
     7
  0
HATCH
  5
CC
330
1F
100
AcDbEntity
  8
중심선
100
AcDbHatch
 10
0.0
 20
0.0
 30
0.0
210
0.0
220
0.0
230
1.0
  2
SOLID
 70
     1
 71
     0
 91
        1
 92
        0
 93
        4
 72
     1
 10
-6.733238516461598
 20
-35.8
 11
-10.17951376029888
 21
-35.8
 72
     1
 10
-10.17951376029888
 20
-35.8
 11
-12.3077436195029
 21
-38.33632558057259
 72
     1
 10
-12.3077436195029
 20
-38.33632558057259
 11
-8.861435290552471
 21
-38.3362861512701
 72
     1
 10
-8.861435290552471
 20
-38.3362861512701
 11
-6.733238516461598
 21
-35.8
 97
        0
 75
     0
 76
     1
 98
        1
 10
0.0
 20
0.0
  0
HATCH
  5
CD
330
1F
100
AcDbEntity
  8
중심선
100
AcDbHatch
 10
0.0
 20
0.0
 30
0.0
210
0.0
220
0.0
230
1.0
  2
SOLID
 70
     1
 71
     0
 91
        1
 92
        0
 93
        4
 72
     1
 10
-1.720474525425619
 20
-35.8
 11
-5.166749769262902
 21
-35.8
 72
     1
 10
-5.166749769262902
 20
-35.8
 11
-9.697887777620318
 21
-41.20000000000002
 72
     1
 10
-9.697887777620318
 20
-41.20000000000002
 11
-6.251612533783035
 21
-41.20000000000002
 72
     1
 10
-6.251612533783035
 20
-41.20000000000002
 11
-1.720474525425619
 21
-35.8
 97
        0
 75
     0
 76
     1
 98
        1
 10
0.0
 20
0.0
  0
HATCH
  5
CE
330
1F
100
AcDbEntity
  8
중심선
100
AcDbHatch
 10
0.0
 20
0.0
 30
0.0
210
0.0
220
0.0
230
1.0
  2
SOLID
 70
     1
 71
     0
 91
        1
 92
        0
 93
        4
 72
     1
 10
3.292289465610304
 20
-35.79999999999997
 11
-0.1539857782268674
 21
-35.8
 72
     1
 10
-0.1539857782268672
 20
-35.8
 11
-7.202422680116117
 21
-44.20000000000002
 72
     1
 10
-7.202422680116117
 20
-44.20000000000002
 11
-3.756147436278834
 21
-44.20000000000002
 72
     1
 10
-3.756147436278834
 20
-44.20000000000002
 11
3.292289465610304
 21
-35.79999999999997
 97
        0
 75
     0
 76
     1
 98
        1
 10
0.0
 20
0.0
  0
HATCH
  5
CF
330
1F
100
AcDbEntity
  8
중심선
100
AcDbHatch
 10
0.0
 20
0.0
 30
0.0
210
0.0
220
0.0
230
1.0
  2
SOLID
 70
     1
 71
     0
 91
        1
 92
        0
 93
        6
 72
     3
 10
8.092179896622447
 20
-40.00000000005127
 11
3.960054785062284
 21
1.540850780301639E-10
 40
0.3939339440162633
 50
17.09539180608433
 51
320.0019657685081
 73
     0
 72
     1
 10
9.775179552323015
 20
-38.58789400463833
 11
12.08048142602408
 21
-36.65356729459038
 72
     3
 10
8.0921798965696
 20
-40.00000000000015
 11
6.600054785286829
 21
-1.249000902703301E-13
 40
0.6363583540795982
 50
39.99873849337408
 51
368.4976242363725
 73
     1
 72
     1
 10
14.51751238847021
 20
-39.03999999993002
 11
6.772247203405524
 21
-39.03999999993002
 72
     1
 10
6.772247203405524
 20
-39.03999999993002
 11
6.77222215895959
 21
-40.95999999992991
 72
     1
 10
6.77222215895959
 20
-40.95999999992991
 11
11.21360192843163
 21
-40.95999999992988
 97
        0
 75
     0
 76
     1
 98
        1
 10
0.0
 20
0.0
  0
DIMENSION
  5
D0
330
1F
100
AcDbEntity
  8
치수문자_일반주서
100
AcDbDimension
  2
_D
 10
67.36619927746658
 20
8.00000000000006
 30
0.0
 11
67.36619927746654
 21
18.54150000000006
 31
0.0
 70
   160
  1
%%c<>
 71
     2
 42
16.00000000000001
 52
-270.0
  3
SLDDIMSTYLE0
100
AcDbAlignedDimension
 13
52.00000000000004
 23
-8.000000000000007
 33
0.0
 14
52.00000000000004
 24
8.000000000000004
 34
0.0
 50
90.0000000000002
100
AcDbRotatedDimension
  0
DIMENSION
  5
DE
330
1F
100
AcDbEntity
  8
치수문자_일반주서
100
AcDbDimension
  2
_D_1
 10
52.00000000000002
 20
25.38913260158164
 30
0.0
 11
2.000000000000008
 21
25.38913260158164
 31
0.0
 70
   160
  1
<>
 71
     2
 42
100.0
  3
SLDDIMSTYLE1
100
AcDbAlignedDimension
 13
-47.99999999999999
 23
7.49999999999999
 33
0.0
 14
52.00000000000001
 24
8.000000000000004
 34
0.0
 50
-0.0000000000000041
100
AcDbRotatedDimension
  0
DIMENSION
  5
E9
330
1F
100
AcDbEntity
  8
치수문자_일반주서
100
AcDbDimension
  2
_D_2
 10
-59.18811363790054
 20
-8.000000000000053
 30
0.0
 11
-59.18811363790063
 21
18.54149999999996
 31
0.0
 70
   160
  1
%%c<>
 71
     2
 42
16.00000000000001
 52
-270.0
  3
SLDDIMSTYLE2
100
AcDbAlignedDimension
 13
-47.49999999999999
 23
8.000000000000007
 33
0.0
 14
-47.49999999999999
 24
-8.000000000000007
 34
0.0
 50
90.0000000000002
100
AcDbRotatedDimension
  0
DIMENSION
  5
F7
330
1F
100
AcDbEntity
  8
치수문자_일반주서
100
AcDbDimension
  2
_D_3
 10
52.00000000000001
 20
17.70159856438115
 30
0.0
 11
31.99999999999999
 21
17.70159856438115
 31
0.0
 70
   160
  1
<>
 71
     2
 42
40.00000000000001
  3
SLDDIMSTYLE1
100
AcDbAlignedDimension
 13
12.0
 23
7.103721506761072
 33
0.0
 14
52.00000000000001
 24
8.000000000000004
 34
0.0
 50
0.0000000000000102
100
AcDbRotatedDimension
  0
INSERT
  5
107
330
1F
100
AcDbEntity
  8
해칭선
100
AcDbBlockReference
  2
SW_DOWELSYMBOL_0
 10
-0.0076875019121899
 20
-0.0000000000000043
 30
0.0
  0
LINE
  5
12C
330
1F
100
AcDbEntity
  8
0
  6
Continuous
 62
     4
370
    25
100
AcDbLine
 10
12.0
 20
7.103721506761072
 30
0.0
 11
12.0
 21
-7.103721506761072
 31
0.0
  0
ENDSEC
  0
SECTION
  2
OBJECTS
  0
DICTIONARY
  5
C
330
0
100
AcDbDictionary
281
     1
  3
ACAD_GROUP
350
D
  3
ACAD_IMAGE_VARS
350
12B
  3
ACAD_LAYOUT
350
1A
  3
ACAD_MLINESTYLE
350
17
  3
ACAD_PLOTSETTINGS
350
19
  3
ACAD_PLOTSTYLENAME
350
E
  3
ACAD_SCALELIST
350
47
  3
APPDATA
350
129
  3
DWGPROPS
350
13C
  0
DICTIONARY
  5
D
102
{ACAD_REACTORS
330
C
102
}
330
C
100
AcDbDictionary
281
     1
  0
RASTERVARIABLES
  5
12B
102
{ACAD_REACTORS
330
C
102
}
330
C
100
AcDbRasterVariables
 90
        0
 70
     1
 71
     1
 72
     1
  0
DICTIONARY
  5
1A
102
{ACAD_REACTORS
330
C
102
}
330
C
100
AcDbDictionary
281
     1
  3
Layout1
350
1E
  3
Layout2
350
26
  3
Model
350
22
  0
DICTIONARY
  5
17
102
{ACAD_REACTORS
330
C
102
}
330
C
100
AcDbDictionary
281
     1
  3
Standard
350
18
  0
DICTIONARY
  5
19
102
{ACAD_REACTORS
330
C
102
}
330
C
100
AcDbDictionary
281
     1
  0
ACDBDICTIONARYWDFLT
  5
E
102
{ACAD_REACTORS
330
C
102
}
330
C
100
AcDbDictionary
281
     1
  3
Normal
350
F
100
AcDbDictionaryWithDefault
340
F
  0
DICTIONARY
  5
47
102
{ACAD_REACTORS
330
C
102
}
330
C
100
AcDbDictionary
281
     1
  3
A0
350
48
  3
A1
350
49
  3
A2
350
4A
  3
A3
350
4B
  3
A4
350
4C
  3
A5
350
4D
  3
A6
350
4E
  3
A7
350
4F
  3
A8
350
50
  3
A9
350
51
  3
B0
350
52
  3
B1
350
53
  3
B2
350
54
  3
B3
350
55
  3
B4
350
56
  3
B5
350
57
  3
B6
350
58
  3
B7
350
59
  3
B8
350
5A
  3
B9
350
5B
  3
C0
350
5C
  3
C1
350
5D
  3
C2
350
5E
  3
C3
350
5F
  3
C4
350
60
  3
C5
350
61
  3
C6
350
62
  3
C7
350
63
  3
C8
350
64
  3
C9
350
65
  3
D0
350
66
  3
D1
350
67
  3
D2
350
68
  0
DICTIONARY
  5
129
102
{ACAD_REACTORS
330
C
102
}
330
C
100
AcDbDictionary
281
     1
  0
XRECORD
  5
13C
102
{ACAD_REACTORS
330
C
102
}
330
C
100
AcDbXrecord
280
     1
  1
DWGPROPS COOKIE
  2

  3

  4

  6

  7

  8
12014102
  9

300
=
301
=
302
=
303
=
304
=
305
=
306
=
307
=
308
=
309
=
 40
0.0
 41
2458260.121002928
 42
2458266.402381377
  1

 90
        0
  0
LAYOUT
  5
1E
102
{ACAD_REACTORS
330
1A
102
}
330
1A
100
AcDbPlotSettings
  1

  2
none_device
  4

  6

 40
0.0
 41
0.0
 42
0.0
 43
0.0
 44
0.0
 45
0.0
 46
0.0
 47
0.0
 48
0.0
 49
0.0
140
0.0
141
0.0
142
1.0
143
1.0
 70
   688
 72
     1
 73
     0
 74
     5
  7

 75
    16
147
1.0
148
0.0
149
0.0
100
AcDbLayout
  1
Layout1
 70
     1
 71
     1
 10
0.0
 20
0.0
 11
420.0
 21
297.0
 12
0.0
 22
0.0
 32
0.0
 14
1.000000000000000E+20
 24
1.000000000000000E+20
 34
1.000000000000000E+20
 15
-1.000000000000000E+20
 25
-1.000000000000000E+20
 35
-1.000000000000000E+20
146
0.0
 13
0.0
 23
0.0
 33
0.0
 16
1.0
 26
0.0
 36
0.0
 17
0.0
 27
1.0
 37
0.0
 76
     0
330
1B
  0
LAYOUT
  5
26
102
{ACAD_REACTORS
330
1A
102
}
330
1A
100
AcDbPlotSettings
  1

  2
none_device
  4

  6

 40
0.0
 41
0.0
 42
0.0
 43
0.0
 44
0.0
 45
0.0
 46
0.0
 47
0.0
 48
0.0
 49
0.0
140
0.0
141
0.0
142
1.0
143
1.0
 70
   688
 72
     1
 73
     0
 74
     5
  7

 75
    16
147
1.0
148
0.0
149
0.0
100
AcDbLayout
  1
Layout2
 70
     1
 71
     2
 10
0.0
 20
0.0
 11
0.0
 21
0.0
 12
0.0
 22
0.0
 32
0.0
 14
0.0
 24
0.0
 34
0.0
 15
0.0
 25
0.0
 35
0.0
146
0.0
 13
0.0
 23
0.0
 33
0.0
 16
1.0
 26
0.0
 36
0.0
 17
0.0
 27
1.0
 37
0.0
 76
     0
330
23
  0
LAYOUT
  5
22
102
{ACAD_REACTORS
330
1A
102
}
330
1A
100
AcDbPlotSettings
  1

  2
none_device
  4
ANSI_A_(11.00_x_8.50_Inches)
  6

 40
6.35
 41
19.05
 42
6.35000508
 43
19.05000254
 44
279.4
 45
215.9
 46
131.574571126782
 47
110.2458816213881
 48
0.0
 49
0.0
140
0.0
141
0.0
142
0.0807487851913163
143
1.0
 70
  1696
 72
     0
 73
     0
 74
     0
  7

 75
     0
147
0.0235690232323232
148
0.0
149
0.0
100
AcDbLayout
  1
Model
 70
     1
 71
     0
 10
0.0
 20
0.0
 11
420.0
 21
297.0
 12
0.0
 22
0.0
 32
0.0
 14
-63.56311363790064
 24
-49.97180738881174
 34
0.0
 15
67.91653261079998
 25
29.76413260158164
 35
0.0
146
0.0
 13
0.0
 23
0.0
 33
0.0
 16
1.0
 26
0.0
 36
0.0
 17
0.0
 27
1.0
 37
0.0
 76
     0
330
1F
331
29
  0
MLINESTYLE
  5
18
102
{ACAD_REACTORS
330
17
102
}
330
17
100
AcDbMlineStyle
  2
Standard
 70
     0
  3

 62
   256
 51
90.0
 52
90.0
 71
     2
 49
0.5
 62
   256
  6
BYLAYER
 49
-0.5
 62
   256
  6
BYLAYER
  0
ACDBPLACEHOLDER
  5
F
102
{ACAD_REACTORS
330
E
102
}
330
E
  0
SCALE
  5
48
102
{ACAD_REACTORS
330
47
102
}
330
47
100
AcDbScale
 70
     0
300
1:1
140
1.0
141
1.0
290
     1
  0
SCALE
  5
49
102
{ACAD_REACTORS
330
47
102
}
330
47
100
AcDbScale
 70
     0
300
1:2
140
1.0
141
2.0
290
     0
  0
SCALE
  5
4A
102
{ACAD_REACTORS
330
47
102
}
330
47
100
AcDbScale
 70
     0
300
1:4
140
1.0
141
4.0
290
     0
  0
SCALE
  5
4B
102
{ACAD_REACTORS
330
47
102
}
330
47
100
AcDbScale
 70
     0
300
1:5
140
1.0
141
5.0
290
     0
  0
SCALE
  5
4C
102
{ACAD_REACTORS
330
47
102
}
330
47
100
AcDbScale
 70
     0
300
1:8
140
1.0
141
8.0
290
     0
  0
SCALE
  5
4D
102
{ACAD_REACTORS
330
47
102
}
330
47
100
AcDbScale
 70
     0
300
1:10
140
1.0
141
10.0
290
     0
  0
SCALE
  5
4E
102
{ACAD_REACTORS
330
47
102
}
330
47
100
AcDbScale
 70
     0
300
1:16
140
1.0
141
16.0
290
     0
  0
SCALE
  5
4F
102
{ACAD_REACTORS
330
47
102
}
330
47
100
AcDbScale
 70
     0
300
1:20
140
1.0
141
20.0
290
     0
  0
SCALE
  5
50
102
{ACAD_REACTORS
330
47
102
}
330
47
100
AcDbScale
 70
     0
300
1:30
140
1.0
141
30.0
290
     0
  0
SCALE
  5
51
102
{ACAD_REACTORS
330
47
102
}
330
47
100
AcDbScale
 70
     0
300
1:40
140
1.0
141
40.0
290
     0
  0
SCALE
  5
52
102
{ACAD_REACTORS
330
47
102
}
330
47
100
AcDbScale
 70
     0
300
1:50
140
1.0
141
50.0
290
     0
  0
SCALE
  5
53
102
{ACAD_REACTORS
330
47
102
}
330
47
100
AcDbScale
 70
     0
300
1:100
140
1.0
141
100.0
290
     0
  0
SCALE
  5
54
102
{ACAD_REACTORS
330
47
102
}
330
47
100
AcDbScale
 70
     0
300
2:1
140
2.0
141
1.0
290
     0
  0
SCALE
  5
55
102
{ACAD_REACTORS
330
47
102
}
330
47
100
AcDbScale
 70
     0
300
4:1
140
4.0
141
1.0
290
     0
  0
SCALE
  5
56
102
{ACAD_REACTORS
330
47
102
}
330
47
100
AcDbScale
 70
     0
300
8:1
140
8.0
141
1.0
290
     0
  0
SCALE
  5
57
102
{ACAD_REACTORS
330
47
102
}
330
47
100
AcDbScale
 70
     0
300
10:1
140
10.0
141
1.0
290
     0
  0
SCALE
  5
58
102
{ACAD_REACTORS
330
47
102
}
330
47
100
AcDbScale
 70
     0
300
100:1
140
100.0
141
1.0
290
     0
  0
SCALE
  5
59
102
{ACAD_REACTORS
330
47
102
}
330
47
100
AcDbScale
 70
     0
300
1/128" = 1'-0"
140
0.0078125
141
12.0
290
     0
  0
SCALE
  5
5A
102
{ACAD_REACTORS
330
47
102
}
330
47
100
AcDbScale
 70
     0
300
1/64" = 1'-0"
140
0.015625
141
12.0
290
     0
  0
SCALE
  5
5B
102
{ACAD_REACTORS
330
47
102
}
330
47
100
AcDbScale
 70
     0
300
1/32" = 1'-0"
140
0.03125
141
12.0
290
     0
  0
SCALE
  5
5C
102
{ACAD_REACTORS
330
47
102
}
330
47
100
AcDbScale
 70
     0
300
1/16" = 1'-0"
140
0.0625
141
12.0
290
     0
  0
SCALE
  5
5D
102
{ACAD_REACTORS
330
47
102
}
330
47
100
AcDbScale
 70
     0
300
3/32" = 1'-0"
140
0.09375
141
12.0
290
     0
  0
SCALE
  5
5E
102
{ACAD_REACTORS
330
47
102
}
330
47
100
AcDbScale
 70
     0
300
1/8" = 1'-0"
140
0.125
141
12.0
290
     0
  0
SCALE
  5
5F
102
{ACAD_REACTORS
330
47
102
}
330
47
100
AcDbScale
 70
     0
300
3/16" = 1'-0"
140
0.1875
141
12.0
290
     0
  0
SCALE
  5
60
102
{ACAD_REACTORS
330
47
102
}
330
47
100
AcDbScale
 70
     0
300
1/4" = 1'-0"
140
0.25
141
12.0
290
     0
  0
SCALE
  5
61
102
{ACAD_REACTORS
330
47
102
}
330
47
100
AcDbScale
 70
     0
300
3/8" = 1'-0"
140
0.375
141
12.0
290
     0
  0
SCALE
  5
62
102
{ACAD_REACTORS
330
47
102
}
330
47
100
AcDbScale
 70
     0
300
1/2" = 1'-0"
140
0.5
141
12.0
290
     0
  0
SCALE
  5
63
102
{ACAD_REACTORS
330
47
102
}
330
47
100
AcDbScale
 70
     0
300
3/4" = 1'-0"
140
0.75
141
12.0
290
     0
  0
SCALE
  5
64
102
{ACAD_REACTORS
330
47
102
}
330
47
100
AcDbScale
 70
     0
300
1" = 1'-0"
140
1.0
141
12.0
290
     0
  0
SCALE
  5
65
102
{ACAD_REACTORS
330
47
102
}
330
47
100
AcDbScale
 70
     0
300
1-1/2" = 1'-0"
140
1.5
141
12.0
290
     0
  0
SCALE
  5
66
102
{ACAD_REACTORS
330
47
102
}
330
47
100
AcDbScale
 70
     0
300
3" = 1'-0"
140
3.0
141
12.0
290
     0
  0
SCALE
  5
67
102
{ACAD_REACTORS
330
47
102
}
330
47
100
AcDbScale
 70
     0
300
6" = 1'-0"
140
6.0
141
12.0
290
     0
  0
SCALE
  5
68
102
{ACAD_REACTORS
330
47
102
}
330
47
100
AcDbScale
 70
     0
300
1'-0" = 1'-0"
140
12.0
141
12.0
290
     0
  0
ENDSEC
  0
EOF
