  0
SECTION
  2
HEADER
  9
$ACADVER
  1
AC1015
  9
$ACADMAINTVER
 70
     6
  9
$DWGCODEPAGE
  3
ANSI_949
  9
$INSBASE
 10
0.0
 20
0.0
 30
0.0
  9
$EXTMIN
 10
-61.29951129259746
 20
-49.97180738881174
 30
0.0
  9
$EXTMAX
 10
63.4625835119982
 20
31.76413260158165
 30
0.0
  9
$LIMMIN
 10
0.0
 20
0.0
  9
$LIMMAX
 10
420.0
 20
297.0
  9
$ORTHOMODE
 70
     0
  9
$REGENMODE
 70
     1
  9
$FILLMODE
 70
     1
  9
$QTEXTMODE
 70
     0
  9
$MIRRTEXT
 70
     1
  9
$LTSCALE
 40
1.0
  9
$ATTMODE
 70
     1
  9
$TEXTSIZE
 40
3.5
  9
$TRACEWID
 40
1.0
  9
$TEXTSTYLE
  7
Standard
  9
$CLAYER
  8
0
  9
$CELTYPE
  6
ByLayer
  9
$CECOLOR
 62
   256
  9
$CELTSCALE
 40
1.0
  9
$DISPSILH
 70
     0
  9
$DIMSCALE
 40
1.0
  9
$DIMASZ
 40
3.302
  9
$DIMEXO
 40
1.0
  9
$DIMDLI
 40
3.75
  9
$DIMRND
 40
0.0
  9
$DIMDLE
 40
0.0
  9
$DIMEXE
 40
1.0
  9
$DIMTP
 40
0.0
  9
$DIMTM
 40
0.0
  9
$DIMTXT
 40
3.5
  9
$DIMCEN
 40
2.5
  9
$DIMTSZ
 40
0.0
  9
$DIMTOL
 70
     0
  9
$DIMLIM
 70
     0
  9
$DIMTIH
 70
     1
  9
$DIMTOH
 70
     1
  9
$DIMSE1
 70
     0
  9
$DIMSE2
 70
     0
  9
$DIMTAD
 70
     1
  9
$DIMZIN
 70
     0
  9
$DIMBLK
  1

  9
$DIMASO
 70
     1
  9
$DIMSHO
 70
     1
  9
$DIMPOST
  1

  9
$DIMAPOST
  1

  9
$DIMALT
 70
     0
  9
$DIMALTD
 70
     3
  9
$DIMALTF
 40
0.0393700787401575
  9
$DIMLFAC
 40
1.0
  9
$DIMTOFL
 70
     1
  9
$DIMTVP
 40
0.0
  9
$DIMTIX
 70
     0
  9
$DIMSOXD
 70
     0
  9
$DIMSAH
 70
     0
  9
$DIMBLK1
  1

  9
$DIMBLK2
  1

  9
$DIMSTYLE
  2
ISO-25
  9
$DIMCLRD
 70
     0
  9
$DIMCLRE
 70
     0
  9
$DIMCLRT
 70
     0
  9
$DIMTFAC
 40
1.0
  9
$DIMGAP
 40
1.524
  9
$DIMJUST
 70
     0
  9
$DIMSD1
 70
     0
  9
$DIMSD2
 70
     0
  9
$DIMTOLJ
 70
     0
  9
$DIMTZIN
 70
     0
  9
$DIMALTZ
 70
     0
  9
$DIMALTTZ
 70
     0
  9
$DIMUPT
 70
     0
  9
$DIMDEC
 70
     2
  9
$DIMTDEC
 70
     2
  9
$DIMALTU
 70
     2
  9
$DIMALTTD
 70
     3
  9
$DIMTXSTY
  7
Standard
  9
$DIMAUNIT
 70
     0
  9
$DIMADEC
 70
     2
  9
$DIMALTRND
 40
0.0
  9
$DIMAZIN
 70
     0
  9
$DIMDSEP
 70
    44
  9
$DIMATFIT
 70
     3
  9
$DIMFRAC
 70
     0
  9
$DIMLDRBLK
  1

  9
$DIMLUNIT
 70
     2
  9
$DIMLWD
 70
    -2
  9
$DIMLWE
 70
    -2
  9
$DIMTMOVE
 70
     0
  9
$LUNITS
 70
     2
  9
$LUPREC
 70
     2
  9
$SKETCHINC
 40
1.0
  9
$FILLETRAD
 40
10.0
  9
$AUNITS
 70
     0
  9
$AUPREC
 70
     2
  9
$MENU
  1
.
  9
$ELEVATION
 40
0.0
  9
$PELEVATION
 40
0.0
  9
$THICKNESS
 40
0.0
  9
$LIMCHECK
 70
     0
  9
$CHAMFERA
 40
0.0
  9
$CHAMFERB
 40
0.0
  9
$CHAMFERC
 40
0.0
  9
$CHAMFERD
 40
0.0
  9
$SKPOLY
 70
     0
  9
$TDCREATE
 40
2458260.496192153
  9
$TDUCREATE
 40
2458260.121192153
  9
$TDUPDATE
 40
2459699.614162488
  9
$TDUUPDATE
 40
2459699.239162488
  9
$TDINDWG
 40
0.0034732639
  9
$TDUSRTIMER
 40
0.002433206
  9
$USRTIMER
 70
     1
  9
$ANGBASE
 50
0.0
  9
$ANGDIR
 70
     0
  9
$PDMODE
 70
     0
  9
$PDSIZE
 40
-1.0
  9
$PLINEWID
 40
0.0
  9
$SPLFRAME
 70
     0
  9
$SPLINETYPE
 70
     6
  9
$SPLINESEGS
 70
     8
  9
$HANDSEED
  5
171
  9
$SURFTAB1
 70
     6
  9
$SURFTAB2
 70
     6
  9
$SURFTYPE
 70
     6
  9
$SURFU
 70
     6
  9
$SURFV
 70
     6
  9
$UCSBASE
  2

  9
$UCSNAME
  2

  9
$UCSORG
 10
0.0
 20
0.0
 30
0.0
  9
$UCSXDIR
 10
1.0
 20
0.0
 30
0.0
  9
$UCSYDIR
 10
0.0
 20
1.0
 30
0.0
  9
$UCSORTHOREF
  2

  9
$UCSORTHOVIEW
 70
     0
  9
$UCSORGTOP
 10
0.0
 20
0.0
 30
0.0
  9
$UCSORGBOTTOM
 10
0.0
 20
0.0
 30
0.0
  9
$UCSORGLEFT
 10
0.0
 20
0.0
 30
0.0
  9
$UCSORGRIGHT
 10
0.0
 20
0.0
 30
0.0
  9
$UCSORGFRONT
 10
0.0
 20
0.0
 30
0.0
  9
$UCSORGBACK
 10
0.0
 20
0.0
 30
0.0
  9
$PUCSBASE
  2

  9
$PUCSNAME
  2

  9
$PUCSORG
 10
0.0
 20
0.0
 30
0.0
  9
$PUCSXDIR
 10
1.0
 20
0.0
 30
0.0
  9
$PUCSYDIR
 10
0.0
 20
1.0
 30
0.0
  9
$PUCSORTHOREF
  2

  9
$PUCSORTHOVIEW
 70
     0
  9
$PUCSORGTOP
 10
0.0
 20
0.0
 30
0.0
  9
$PUCSORGBOTTOM
 10
0.0
 20
0.0
 30
0.0
  9
$PUCSORGLEFT
 10
0.0
 20
0.0
 30
0.0
  9
$PUCSORGRIGHT
 10
0.0
 20
0.0
 30
0.0
  9
$PUCSORGFRONT
 10
0.0
 20
0.0
 30
0.0
  9
$PUCSORGBACK
 10
0.0
 20
0.0
 30
0.0
  9
$USERI1
 70
     0
  9
$USERI2
 70
     0
  9
$USERI3
 70
     0
  9
$USERI4
 70
     0
  9
$USERI5
 70
     0
  9
$USERR1
 40
0.0
  9
$USERR2
 40
0.0
  9
$USERR3
 40
0.0
  9
$USERR4
 40
0.0
  9
$USERR5
 40
0.0
  9
$WORLDVIEW
 70
     1
  9
$SHADEDGE
 70
     3
  9
$SHADEDIF
 70
    70
  9
$TILEMODE
 70
     1
  9
$MAXACTVP
 70
    64
  9
$PINSBASE
 10
0.0
 20
0.0
 30
0.0
  9
$PLIMCHECK
 70
     0
  9
$PEXTMIN
 10
1.000000000000000E+20
 20
1.000000000000000E+20
 30
1.000000000000000E+20
  9
$PEXTMAX
 10
-1.000000000000000E+20
 20
-1.000000000000000E+20
 30
-1.000000000000000E+20
  9
$PLIMMIN
 10
0.0
 20
0.0
  9
$PLIMMAX
 10
0.0
 20
0.0
  9
$UNITMODE
 70
     0
  9
$VISRETAIN
 70
     1
  9
$PLINEGEN
 70
     0
  9
$PSLTSCALE
 70
     1
  9
$TREEDEPTH
 70
  3020
  9
$CMLSTYLE
  2
Standard
  9
$CMLJUST
 70
     0
  9
$CMLSCALE
 40
20.0
  9
$PROXYGRAPHICS
 70
     1
  9
$MEASUREMENT
 70
     1
  9
$CELWEIGHT
370
    -1
  9
$ENDCAPS
280
     0
  9
$JOINSTYLE
280
     0
  9
$LWDISPLAY
290
     1
  9
$INSUNITS
 70
     4
  9
$HYPERLINKBASE
  1

  9
$STYLESHEET
  1

  9
$XEDIT
290
     1
  9
$CEPSNTYPE
380
     0
  9
$PSTYLEMODE
290
     1
  9
$FINGERPRINTGUID
  2
{1B21EBE4-8B2F-4882-9DE3-B1C0F018DEF4}
  9
$VERSIONGUID
  2
{FAEB1C32-E019-11D5-929B-00C0DF256EC4}
  9
$EXTNAMES
290
     1
  9
$PSVPSCALE
 40
0.0
  9
$OLESTARTUP
290
     0
  0
ENDSEC
  0
SECTION
  2
CLASSES
  0
CLASS
  1
ACDBDICTIONARYWDFLT
  2
AcDbDictionaryWithDefault
  3
ObjectDBX Classes
 90
        0
280
     0
281
     0
  0
CLASS
  1
VISUALSTYLE
  2
AcDbVisualStyle
  3
ObjectDBX Classes
 90
     4095
280
     0
281
     0
  0
CLASS
  1
MATERIAL
  2
AcDbMaterial
  3
ObjectDBX Classes
 90
     1153
280
     0
281
     0
  0
CLASS
  1
SCALE
  2
AcDbScale
  3
ObjectDBX Classes
 90
     1153
280
     0
281
     0
  0
CLASS
  1
TABLESTYLE
  2
AcDbTableStyle
  3
ObjectDBX Classes
 90
     4095
280
     0
281
     0
  0
CLASS
  1
MLEADERSTYLE
  2
AcDbMLeaderStyle
  3
ACDB_MLEADERSTYLE_CLASS
 90
     4095
280
     0
281
     0
  0
CLASS
  1
SUN
  2
AcDbSun
  3
SCENEOE
 90
     1153
280
     0
281
     0
  0
CLASS
  1
ACDBPLACEHOLDER
  2
AcDbPlaceHolder
  3
ObjectDBX Classes
 90
        0
280
     0
281
     0
  0
CLASS
  1
LAYOUT
  2
AcDbLayout
  3
ObjectDBX Classes
 90
        0
280
     0
281
     0
  0
CLASS
  1
RASTERVARIABLES
  2
AcDbRasterVariables
  3
ISM
 90
        0
280
     0
281
     0
  0
ENDSEC
  0
SECTION
  2
TABLES
  0
TABLE
  2
VPORT
  5
8
330
0
100
AcDbSymbolTable
 70
     1
  0
VPORT
  5
29
330
8
100
AcDbSymbolTableRecord
100
AcDbViewportTableRecord
  2
*Active
 70
     0
 10
0.0
 20
0.0
 11
1.0
 21
1.0
 12
2.078215558379597
 22
-9.43248332956869
 13
0.0
 23
0.0
 14
10.0
 24
10.0
 15
10.0
 25
10.0
 16
0.0
 26
0.0
 36
1.0
 17
0.0
 27
0.0
 37
0.0
 40
104.2133234877515
 41
2.085714285714286
 42
50.0
 43
0.0
 44
0.0
 50
0.0
 51
0.0
 71
    16
 72
  2000
 73
     1
 74
     3
 75
     0
 76
     0
 77
     0
 78
     0
281
     0
 65
     1
110
0.0
120
0.0
130
0.0
111
1.0
121
0.0
131
0.0
112
0.0
122
1.0
132
0.0
 79
     0
146
0.0
  0
ENDTAB
  0
TABLE
  2
LTYPE
  5
5
330
0
100
AcDbSymbolTable
 70
     6
  0
LTYPE
  5
14
330
5
100
AcDbSymbolTableRecord
100
AcDbLinetypeTableRecord
  2
ByBlock
 70
     0
  3

 72
    65
 73
     0
 40
0.0
  0
LTYPE
  5
15
330
5
100
AcDbSymbolTableRecord
100
AcDbLinetypeTableRecord
  2
ByLayer
 70
     0
  3

 72
    65
 73
     0
 40
0.0
  0
LTYPE
  5
16
330
5
100
AcDbSymbolTableRecord
100
AcDbLinetypeTableRecord
  2
Continuous
 70
     0
  3
Solid line
 72
    65
 73
     0
 40
0.0
  0
LTYPE
  5
6E
330
5
100
AcDbSymbolTableRecord
100
AcDbLinetypeTableRecord
  2
HIDDEN
 70
     0
  3
Hidden __ __ __ __ __ __ __ __ __ __ __ __ __ __
 72
    65
 73
     2
 40
1.905
 49
1.27
 74
     0
 49
-0.635
 74
     0
  0
LTYPE
  5
6F
330
5
100
AcDbSymbolTableRecord
100
AcDbLinetypeTableRecord
  2
PHANTOM
 70
     0
  3
Phantom ______  __  __  ______  __  __  ______
 72
    65
 73
     6
 40
12.7
 49
6.35
 74
     0
 49
-1.27
 74
     0
 49
1.27
 74
     0
 49
-1.27
 74
     0
 49
1.27
 74
     0
 49
-1.27
 74
     0
  0
LTYPE
  5
70
330
5
100
AcDbSymbolTableRecord
100
AcDbLinetypeTableRecord
  2
CENTER
 70
     0
  3
Center ____ _ ____ _ ____ _ ____ _ ____ _ ____
 72
    65
 73
     4
 40
10.16
 49
6.35
 74
     0
 49
-1.27
 74
     0
 49
1.27
 74
     0
 49
-1.27
 74
     0
  0
LTYPE
  5
71
330
5
100
AcDbSymbolTableRecord
100
AcDbLinetypeTableRecord
  2
CENTERX2
 70
     0
  3
Center (2x) ________  __  ________  __  _____
 72
    65
 73
     4
 40
20.32
 49
12.7
 74
     0
 49
-2.54
 74
     0
 49
2.54
 74
     0
 49
-2.54
 74
     0
  0
LTYPE
  5
72
330
5
100
AcDbSymbolTableRecord
100
AcDbLinetypeTableRecord
  2
DOT2
 70
     0
  3
Dot (.5x) ........................................
 72
    65
 73
     2
 40
0.635
 49
0.0
 74
     0
 49
-0.635
 74
     0
  0
ENDTAB
  0
TABLE
  2
LAYER
  5
2
330
0
100
AcDbSymbolTable
 70
    17
  0
LAYER
  5
10
330
2
100
AcDbSymbolTableRecord
100
AcDbLayerTableRecord
  2
0
 70
     0
 62
     7
  6
Continuous
370
    -3
390
F
  0
LAYER
  5
73
330
2
100
AcDbSymbolTableRecord
100
AcDbLayerTableRecord
  2
FORMAT
 70
     0
 62
     2
  6
Continuous
370
    -3
390
F
  0
LAYER
  5
74
330
2
100
AcDbSymbolTableRecord
100
AcDbLayerTableRecord
  2
외형선
 70
     0
 62
   100
  6
Continuous
370
    35
390
F
  0
LAYER
  5
75
330
2
100
AcDbSymbolTableRecord
100
AcDbLayerTableRecord
  2
숨은선
 70
     0
 62
     2
  6
HIDDEN
370
    25
390
F
  0
LAYER
  5
76
330
2
100
AcDbSymbolTableRecord
100
AcDbLayerTableRecord
  2
중심선
 70
     0
 62
     1
  6
CENTERX2
370
    -3
390
F
  0
LAYER
  5
77
330
2
100
AcDbSymbolTableRecord
100
AcDbLayerTableRecord
  2
파단선
 70
     0
 62
     4
  6
Continuous
370
    -3
390
F
  0
LAYER
  5
78
330
2
100
AcDbSymbolTableRecord
100
AcDbLayerTableRecord
  2
해칭선
 70
     0
 62
   100
  6
Continuous
370
    -3
390
F
  0
LAYER
  5
79
330
2
100
AcDbSymbolTableRecord
100
AcDbLayerTableRecord
  2
가는실선
 70
     0
 62
     4
  6
Continuous
370
    -3
390
F
  0
LAYER
  5
7A
330
2
100
AcDbSymbolTableRecord
100
AcDbLayerTableRecord
  2
치수_보조선
 70
     0
 62
     4
  6
Continuous
370
    -3
390
F
  0
LAYER
  5
7B
330
2
100
AcDbSymbolTableRecord
100
AcDbLayerTableRecord
  2
치수문자_일반주서
 70
     0
 62
     7
  6
Continuous
370
    25
390
F
  0
LAYER
  5
7C
330
2
100
AcDbSymbolTableRecord
100
AcDbLayerTableRecord
  2
개별주서
 70
     0
 62
   100
  6
Continuous
370
    35
390
F
  0
LAYER
  5
7D
330
2
100
AcDbSymbolTableRecord
100
AcDbLayerTableRecord
  2
중간선
 70
     0
 62
     2
  6
Continuous
370
    25
390
F
  0
LAYER
  5
7E
330
2
100
AcDbSymbolTableRecord
100
AcDbLayerTableRecord
  2
윤곽선
 70
     0
 62
     3
  6
Continuous
370
    50
390
F
  0
LAYER
  5
7F
330
2
100
AcDbSymbolTableRecord
100
AcDbLayerTableRecord
  2
중심마크
 70
     0
 62
   100
  6
Continuous
370
    35
390
F
  0
LAYER
  5
80
330
2
100
AcDbSymbolTableRecord
100
AcDbLayerTableRecord
  2
가상선
 70
     0
 62
     4
  6
PHANTOM
370
    -3
390
F
  0
LAYER
  5
81
330
2
100
AcDbSymbolTableRecord
100
AcDbLayerTableRecord
  2
특수지정선
 70
     0
 62
     5
  6
CENTERX2
370
    70
390
F
  0
LAYER
  5
137
330
2
100
AcDbSymbolTableRecord
100
AcDbLayerTableRecord
  2
Defpoints
 70
     0
 62
     7
  6
Continuous
290
     0
370
    -3
390
F
  0
ENDTAB
  0
TABLE
  2
STYLE
  5
3
330
0
100
AcDbSymbolTable
 70
     2
  0
STYLE
  5
11
330
3
100
AcDbSymbolTableRecord
100
AcDbTextStyleTableRecord
  2
Standard
 70
     0
 40
0.0
 41
1.0
 50
0.0
 71
     0
 42
3.5
  3
txt
  4

  0
STYLE
  5
97
330
3
100
AcDbSymbolTableRecord
100
AcDbTextStyleTableRecord
  2
SLDTEXTSTYLE0
 70
     0
 40
0.0
 41
0.75
 50
0.0
 71
     0
 42
3.5
  3
TXT
  4

  0
ENDTAB
  0
TABLE
  2
VIEW
  5
6
330
0
100
AcDbSymbolTable
 70
     0
  0
ENDTAB
  0
TABLE
  2
UCS
  5
7
330
0
100
AcDbSymbolTable
 70
     0
  0
ENDTAB
  0
TABLE
  2
APPID
  5
9
330
0
100
AcDbSymbolTable
 70
     2
  0
APPID
  5
12
330
9
100
AcDbSymbolTableRecord
100
AcDbRegAppTableRecord
  2
ACAD
 70
     0
  0
APPID
  5
16A
330
9
100
AcDbSymbolTableRecord
100
AcDbRegAppTableRecord
  2
PE_URL
 70
     0
  0
ENDTAB
  0
TABLE
  2
DIMSTYLE
  5
A
330
0
100
AcDbSymbolTable
 70
     4
100
AcDbDimStyleTable
  0
DIMSTYLE
105
27
330
A
100
AcDbSymbolTableRecord
100
AcDbDimStyleTableRecord
  2
ISO-25
 70
     0
 41
2.5
 42
0.625
 43
3.75
 44
1.25
 73
     0
 74
     0
 77
     1
 78
     8
140
2.5
141
2.5
143
0.03937007874016
147
0.625
171
     3
172
     1
178
     0
271
     2
272
     2
274
     3
278
    44
283
     0
284
     8
340
11
  0
DIMSTYLE
105
DB
102
{ACAD_REACTORS
330
DA
102
}
330
A
100
AcDbSymbolTableRecord
100
AcDbDimStyleTableRecord
  2
SLDDIMSTYLE0
 70
     0
 41
3.302
 44
0.0
 45
0.000000001
 73
     0
 74
     0
 77
     1
 78
    12
 79
     3
140
3.5
147
0.875
172
     1
173
     1
178
     0
271
     1
272
     1
276
     2
284
    12
289
     0
340
97
  0
DIMSTYLE
105
E9
102
{ACAD_REACTORS
330
E8
330
101
102
}
330
A
100
AcDbSymbolTableRecord
100
AcDbDimStyleTableRecord
  2
SLDDIMSTYLE1
 70
     0
 41
3.302
 44
0.0
 45
0.000000001
 73
     0
 74
     0
 77
     1
 78
    12
 79
     3
140
3.5
147
0.875
173
     1
178
     0
271
     2
272
     2
276
     2
284
    12
340
97
  0
DIMSTYLE
105
F4
102
{ACAD_REACTORS
330
F3
102
}
330
A
100
AcDbSymbolTableRecord
100
AcDbDimStyleTableRecord
  2
SLDDIMSTYLE2
 70
     0
 41
3.302
 44
0.0
 45
0.000000001
 73
     0
 74
     0
 77
     1
 78
    12
 79
     3
140
3.5
147
0.875
172
     1
173
     1
178
     0
271
     2
272
     2
276
     2
284
    12
289
     0
340
97
  0
ENDTAB
  0
TABLE
  2
BLOCK_RECORD
  5
1
330
0
100
AcDbSymbolTable
 70
     7
  0
BLOCK_RECORD
  5
1F
102
{ACAD_XDICTIONARY
360
16E
102
}
330
1
100
AcDbSymbolTableRecord
100
AcDbBlockTableRecord
  2
*Model_Space
340
22
  0
BLOCK_RECORD
  5
1B
330
1
100
AcDbSymbolTableRecord
100
AcDbBlockTableRecord
  2
*Paper_Space
340
1E
  0
BLOCK_RECORD
  5
23
330
1
100
AcDbSymbolTableRecord
100
AcDbBlockTableRecord
  2
*Paper_Space0
340
26
  0
BLOCK_RECORD
  5
82
330
1
100
AcDbSymbolTableRecord
100
AcDbBlockTableRecord
  2
블럭10
340
0
102
{BLKREFS
331
D3
102
}
  0
BLOCK_RECORD
  5
DC
330
1
100
AcDbSymbolTableRecord
100
AcDbBlockTableRecord
  2
_D
340
0
  0
BLOCK_RECORD
  5
EA
330
1
100
AcDbSymbolTableRecord
100
AcDbBlockTableRecord
  2
_D_1
340
0
  0
BLOCK_RECORD
  5
F5
330
1
100
AcDbSymbolTableRecord
100
AcDbBlockTableRecord
  2
_D_2
340
0
  0
BLOCK_RECORD
  5
102
330
1
100
AcDbSymbolTableRecord
100
AcDbBlockTableRecord
  2
_D_3
340
0
  0
BLOCK_RECORD
  5
10B
330
1
100
AcDbSymbolTableRecord
100
AcDbBlockTableRecord
  2
SW_DOWELSYMBOL_0
340
0
102
{BLKREFS
331
111
102
}
  0
ENDTAB
  0
ENDSEC
  0
SECTION
  2
BLOCKS
  0
BLOCK
  5
20
330
1F
100
AcDbEntity
  8
0
100
AcDbBlockBegin
  2
*Model_Space
 70
     0
 10
0.0
 20
0.0
 30
0.0
  3
*Model_Space
  1

  0
ENDBLK
  5
21
330
1F
100
AcDbEntity
  8
0
100
AcDbBlockEnd
  0
BLOCK
  5
1C
330
1B
100
AcDbEntity
 67
     1
  8
0
100
AcDbBlockBegin
  2
*Paper_Space
 70
     0
 10
0.0
 20
0.0
 30
0.0
  3
*Paper_Space
  1

  0
ENDBLK
  5
1D
330
1B
100
AcDbEntity
 67
     1
  8
0
100
AcDbBlockEnd
  0
BLOCK
  5
24
330
23
100
AcDbEntity
  8
0
100
AcDbBlockBegin
  2
*Paper_Space0
 70
     0
 10
0.0
 20
0.0
 30
0.0
  3
*Paper_Space0
  1

  0
ENDBLK
  5
25
330
23
100
AcDbEntity
  8
0
100
AcDbBlockEnd
  0
BLOCK
  5
83
330
82
100
AcDbEntity
  8
0
100
AcDbBlockBegin
  2
블럭10
 70
     2
 10
0.0
 20
0.0
 30
0.0
  3
블럭10
  1

  0
ELLIPSE
  5
85
330
82
100
AcDbEntity
  8
중심선
100
AcDbEllipse
 10
20.54032771741204
 20
12.0471743016438
 30
0.0
 11
6.600054785286829
 21
-1.261213355974178E-13
 31
0.0
210
0.0
220
0.0
230
1.0
 40
0.636358354079598
 41
0.9219305317359503
 42
6.513795318482858
  0
ELLIPSE
  5
86
330
82
100
AcDbEntity
  8
중심선
100
AcDbEllipse
 10
20.54032771746488
 20
12.04717430159265
 30
0.0
 11
3.960054785062283
 21
1.540847449632565E-10
 31
0.0
210
0.0
220
0.0
230
1.0
 40
0.3939339440162632
 41
1.131841032648279
 42
5.62031148352944
  0
LINE
  5
87
330
82
100
AcDbEntity
  8
중심선
100
AcDbLine
 10
2.268634060543552
 20
16.24717430164393
 30
0.0
 11
5.714909304380834
 21
16.24717430164393
 31
0.0
  0
LINE
  5
88
330
82
100
AcDbEntity
  8
중심선
100
AcDbLine
 10
5.245725140726316
 20
7.84717430164391
 30
0.0
 11
8.692000384563599
 21
7.84717430164391
 31
0.0
  0
LINE
  5
89
330
82
100
AcDbEntity
  8
중심선
100
AcDbLine
 10
15.74043728645272
 20
16.24717430164393
 30
0.0
 11
8.692000384563599
 21
7.84717430164391
 31
0.0
  0
LINE
  5
8A
330
82
100
AcDbEntity
  8
중심선
100
AcDbLine
 10
0.1404042013395286
 20
13.71084872107135
 30
0.0
 11
3.58671253028996
 21
13.71088815037384
 31
0.0
  0
LINE
  5
8B
330
82
100
AcDbEntity
  8
중심선
100
AcDbLine
 10
2.750260043222114
 20
10.84717430164391
 30
0.0
 11
6.196535287059397
 21
10.84717430164391
 31
0.0
  0
LINE
  5
8C
330
82
100
AcDbEntity
  8
중심선
100
AcDbLine
 10
12.29416204261559
 20
16.24717430164393
 30
0.0
 11
5.245725140726316
 21
7.84717430164391
 31
0.0
  0
LINE
  5
8D
330
82
100
AcDbEntity
  8
중심선
100
AcDbLine
 10
10.72767329541681
 20
16.24717430164393
 30
0.0
 11
6.196535287059397
 21
10.84717430164391
 31
0.0
  0
LINE
  5
8E
330
82
100
AcDbEntity
  8
중심선
100
AcDbLine
 10
7.28139805157953
 20
16.24717430164393
 30
0.0
 11
2.750260043222114
 21
10.84717430164391
 31
0.0
  0
LINE
  5
8F
330
82
100
AcDbEntity
  8
중심선
100
AcDbLine
 10
5.714909304380834
 20
16.24717430164393
 30
0.0
 11
3.58671253028996
 21
13.71088815037384
 31
0.0
  0
LINE
  5
90
330
82
100
AcDbEntity
  8
중심선
100
AcDbLine
 10
2.268634060543552
 20
16.24717430164393
 30
0.0
 11
0.1404042013395286
 21
13.71084872107135
 31
0.0
  0
LINE
  5
91
330
82
100
AcDbEntity
  8
중심선
100
AcDbLine
 10
7.28139805157953
 20
16.24717430164393
 30
0.0
 11
10.72767329541681
 21
16.24717430164393
 31
0.0
  0
LINE
  5
92
330
82
100
AcDbEntity
  8
중심선
100
AcDbLine
 10
12.29416204261559
 20
16.24717430164393
 30
0.0
 11
15.74043728645272
 21
16.24717430164393
 31
0.0
  0
LINE
  5
93
330
82
100
AcDbEntity
  8
중심선
100
AcDbLine
 10
19.22036997980202
 20
11.08717430171403
 30
0.0
 11
23.66174974927406
 21
11.08717430171406
 31
0.0
  0
LINE
  5
94
330
82
100
AcDbEntity
  8
중심선
100
AcDbLine
 10
19.22039502424796
 20
13.00717430171391
 30
0.0
 11
19.22036997980202
 21
11.08717430171403
 31
0.0
  0
LINE
  5
95
330
82
100
AcDbEntity
  8
중심선
100
AcDbLine
 10
19.22039502424796
 20
13.00717430171391
 30
0.0
 11
26.96566020931264
 21
13.00717430171391
 31
0.0
  0
LINE
  5
96
330
82
100
AcDbEntity
  8
중심선
100
AcDbLine
 10
22.22332737316547
 20
13.45928029700563
 30
0.0
 11
24.52862924686651
 21
15.39360700705356
 31
0.0
  0
ATTDEF
  5
98
330
82
100
AcDbEntity
  8
FORMAT
 62
     2
100
AcDbText
 10
-12.95993919485777
 20
2.075366912832191
 30
0.0
 40
4.233333333333333
  1
SEME71180E [ 4 FLUTE ]
 41
0.75
  7
SLDTEXTSTYLE0
 11
-12.95993919485777
 21
-0.0412997538344756
 31
0.0
100
AcDbAttributeDefinition
  3

  2
AUTOATTR0
 70
     0
 74
     1
  0
ENDBLK
  5
84
330
82
100
AcDbEntity
  8
0
100
AcDbBlockEnd
  0
BLOCK
  5
DD
330
DC
100
AcDbEntity
  8
0
100
AcDbBlockBegin
  2
_D
 70
     0
 10
0.0
 20
0.0
 30
0.0
  3
_D
  1

  0
LINE
  5
DF
330
DC
100
AcDbEntity
  8
치수문자_일반주서
 62
     0
370
    -2
100
AcDbLine
 10
51.79455080756885
 20
-9.000000000000004
 30
0.0
 11
62.91225017866486
 21
-8.999999999999961
 31
0.0
  0
LINE
  5
E0
330
DC
100
AcDbEntity
  8
치수문자_일반주서
 62
     0
370
    -2
100
AcDbLine
 10
51.79455080756885
 20
9.000000000000014
 30
0.0
 11
62.91225017866479
 21
9.000000000000057
 31
0.0
  0
LINE
  5
E1
330
DC
100
AcDbEntity
  8
치수문자_일반주서
 62
     0
370
    -2
100
AcDbLine
 10
62.91225017866486
 20
-8.999999999999961
 30
0.0
 11
62.91225017866474
 21
23.47900000000005
 31
0.0
  0
LINE
  5
E2
330
DC
100
AcDbEntity
  8
치수문자_일반주서
 62
     0
370
    -2
100
AcDbLine
 10
62.91225017866486
 20
-8.999999999999961
 30
0.0
 11
62.91225017866479
 21
9.000000000000057
 31
0.0
  0
LINE
  5
E3
330
DC
100
AcDbEntity
  8
치수문자_일반주서
 62
     0
370
    -2
100
AcDbLine
 10
62.91225017866487
 20
-12.30199999999996
 30
0.0
 11
62.91225017866488
 21
-15.60399999999996
 31
0.0
  0
LINE
  5
E4
330
DC
100
AcDbEntity
  8
치수문자_일반주서
 62
     0
370
    -2
100
AcDbLine
 10
62.91225017866478
 20
12.30200000000006
 30
0.0
 11
62.91225017866476
 21
15.60400000000006
 31
0.0
  0
SOLID
  5
E5
330
DC
100
AcDbEntity
  8
치수문자_일반주서
 62
     0
100
AcDbTrace
 10
63.4625835119982
 20
-12.30199999999996
 30
0.0
 11
62.36191684533154
 21
-12.30199999999996
 31
0.0
 12
62.91225017866486
 22
-8.999999999999961
 32
0.0
 13
62.91225017866486
 23
-8.999999999999961
 33
0.0
  0
SOLID
  5
E6
330
DC
100
AcDbEntity
  8
치수문자_일반주서
 62
     0
100
AcDbTrace
 10
62.36191684533144
 20
12.30200000000005
 30
0.0
 11
63.46258351199811
 21
12.30200000000006
 31
0.0
 12
62.91225017866479
 22
9.000000000000057
 32
0.0
 13
62.91225017866479
 23
9.000000000000057
 33
0.0
  0
MTEXT
  5
E7
330
DC
100
AcDbEntity
  8
치수문자_일반주서
 62
     0
100
AcDbMText
 10
58.53725017866476
 20
19.54150000000004
 30
0.0
 40
3.5
 41
0.0
 71
     2
 72
     1
  1
\A1;%%c18
  7
SLDTEXTSTYLE0
 11
-3.552713678800497E-15
 21
1.0
 31
0.0
 73
     1
 44
1.0
  0
POINT
  5
141
330
DC
100
AcDbEntity
  8
Defpoints
 62
     0
100
AcDbPoint
 10
51.73205080756885
 20
-9.000000000000004
 30
0.0
  0
POINT
  5
142
330
DC
100
AcDbEntity
  8
Defpoints
 62
     0
100
AcDbPoint
 10
51.73205080756885
 20
9.000000000000014
 30
0.0
  0
POINT
  5
143
330
DC
100
AcDbEntity
  8
Defpoints
 62
     0
100
AcDbPoint
 10
62.91225017866478
 20
9.000000000000057
 30
0.0
  0
ENDBLK
  5
DE
330
DC
100
AcDbEntity
  8
0
100
AcDbBlockEnd
  0
BLOCK
  5
EB
330
EA
100
AcDbEntity
  8
0
100
AcDbBlockBegin
  2
_D_1
 70
     0
 10
0.0
 20
0.0
 30
0.0
  3
_D_1
  1

  0
LINE
  5
ED
330
EA
100
AcDbEntity
  8
치수문자_일반주서
 62
     0
370
    -2
100
AcDbLine
 10
-48.26794919243115
 20
9.562499999999996
 30
0.0
 11
-48.26794919243114
 21
27.38913260158165
 31
0.0
  0
LINE
  5
EE
330
EA
100
AcDbEntity
  8
치수문자_일반주서
 62
     0
370
    -2
100
AcDbLine
 10
51.73205080756886
 20
9.062500000000012
 30
0.0
 11
51.73205080756887
 21
27.38913260158165
 31
0.0
  0
LINE
  5
EF
330
EA
100
AcDbEntity
  8
치수문자_일반주서
 62
     0
370
    -2
100
AcDbLine
 10
-44.96594919243114
 20
27.38913260158165
 30
0.0
 11
48.43005080756887
 21
27.38913260158165
 31
0.0
  0
SOLID
  5
F0
330
EA
100
AcDbEntity
  8
치수문자_일반주서
 62
     0
100
AcDbTrace
 10
-44.96594919243114
 20
27.93946593491498
 30
0.0
 11
-44.96594919243114
 21
26.83879926824832
 31
0.0
 12
-48.26794919243114
 22
27.38913260158165
 32
0.0
 13
-48.26794919243114
 23
27.38913260158165
 33
0.0
  0
SOLID
  5
F1
330
EA
100
AcDbEntity
  8
치수문자_일반주서
 62
     0
100
AcDbTrace
 10
48.43005080756887
 20
26.83879926824832
 30
0.0
 11
48.43005080756887
 21
27.93946593491498
 31
0.0
 12
51.73205080756887
 22
27.38913260158165
 32
0.0
 13
51.73205080756887
 23
27.38913260158165
 33
0.0
  0
MTEXT
  5
F2
330
EA
100
AcDbEntity
  8
치수문자_일반주서
 62
     0
100
AcDbMText
 10
1.732050807568853
 20
31.76413260158165
 30
0.0
 40
3.5
 41
0.0
 71
     2
 72
     1
  1
\A1;100
  7
SLDTEXTSTYLE0
 73
     1
 44
1.0
  0
POINT
  5
138
330
EA
100
AcDbEntity
  8
Defpoints
 62
     0
100
AcDbPoint
 10
-48.26794919243115
 20
9.499999999999996
 30
0.0
  0
POINT
  5
139
330
EA
100
AcDbEntity
  8
Defpoints
 62
     0
100
AcDbPoint
 10
51.73205080756886
 20
9.000000000000012
 30
0.0
  0
POINT
  5
13A
330
EA
100
AcDbEntity
  8
Defpoints
 62
     0
100
AcDbPoint
 10
51.73205080756886
 20
27.38913260158165
 30
0.0
  0
ENDBLK
  5
EC
330
EA
100
AcDbEntity
  8
0
100
AcDbBlockEnd
  0
BLOCK
  5
F6
330
F5
100
AcDbEntity
  8
0
100
AcDbBlockBegin
  2
_D_2
 70
     0
 10
0.0
 20
0.0
 30
0.0
  3
_D_2
  1

  0
LINE
  5
F8
330
F5
100
AcDbEntity
  8
치수문자_일반주서
 62
     0
370
    -2
100
AcDbLine
 10
-47.83044919243113
 20
9.999999999999986
 30
0.0
 11
-56.92451129259741
 21
9.999999999999948
 31
0.0
  0
LINE
  5
F9
330
F5
100
AcDbEntity
  8
치수문자_일반주서
 62
     0
370
    -2
100
AcDbLine
 10
-47.83044919243113
 20
-10.0
 30
0.0
 11
-56.92451129259734
 21
-10.00000000000004
 31
0.0
  0
LINE
  5
FA
330
F5
100
AcDbEntity
  8
치수문자_일반주서
 62
     0
370
    -2
100
AcDbLine
 10
-56.92451129259741
 20
9.999999999999948
 30
0.0
 11
-56.92451129259746
 21
24.91649999999995
 31
0.0
  0
LINE
  5
FB
330
F5
100
AcDbEntity
  8
치수문자_일반주서
 62
     0
370
    -2
100
AcDbLine
 10
-56.92451129259741
 20
9.999999999999948
 30
0.0
 11
-56.92451129259734
 21
-10.00000000000004
 31
0.0
  0
LINE
  5
FC
330
F5
100
AcDbEntity
  8
치수문자_일반주서
 62
     0
370
    -2
100
AcDbLine
 10
-56.92451129259742
 20
13.30199999999995
 30
0.0
 11
-56.92451129259744
 21
16.60399999999995
 31
0.0
  0
LINE
  5
FD
330
F5
100
AcDbEntity
  8
치수문자_일반주서
 62
     0
370
    -2
100
AcDbLine
 10
-56.92451129259732
 20
-13.30200000000004
 30
0.0
 11
-56.92451129259731
 21
-16.60400000000004
 31
0.0
  0
SOLID
  5
FE
330
F5
100
AcDbEntity
  8
치수문자_일반주서
 62
     0
100
AcDbTrace
 10
-57.47484462593076
 20
13.30199999999995
 30
0.0
 11
-56.37417795926409
 21
13.30199999999995
 31
0.0
 12
-56.92451129259741
 22
9.999999999999948
 32
0.0
 13
-56.92451129259741
 23
9.999999999999948
 33
0.0
  0
SOLID
  5
FF
330
F5
100
AcDbEntity
  8
치수문자_일반주서
 62
     0
100
AcDbTrace
 10
-56.37417795926399
 20
-13.30200000000004
 30
0.0
 11
-57.47484462593066
 21
-13.30200000000004
 31
0.0
 12
-56.92451129259734
 22
-10.00000000000004
 32
0.0
 13
-56.92451129259734
 23
-10.00000000000004
 33
0.0
  0
MTEXT
  5
100
330
F5
100
AcDbEntity
  8
치수문자_일반주서
 62
     0
100
AcDbMText
 10
-61.29951129259744
 20
20.76024999999993
 30
0.0
 40
3.5
 41
0.0
 71
     2
 72
     1
  1
\A1;%%c20
  7
SLDTEXTSTYLE0
 11
-3.552713678800503E-15
 21
1.0
 31
0.0
 73
     1
 44
1.0
  0
POINT
  5
13E
330
F5
100
AcDbEntity
  8
Defpoints
 62
     0
100
AcDbPoint
 10
-47.76794919243113
 20
9.999999999999986
 30
0.0
  0
POINT
  5
13F
330
F5
100
AcDbEntity
  8
Defpoints
 62
     0
100
AcDbPoint
 10
-47.76794919243113
 20
-10.0
 30
0.0
  0
POINT
  5
140
330
F5
100
AcDbEntity
  8
Defpoints
 62
     0
100
AcDbPoint
 10
-56.92451129259734
 20
-10.00000000000004
 30
0.0
  0
ENDBLK
  5
F7
330
F5
100
AcDbEntity
  8
0
100
AcDbBlockEnd
  0
BLOCK
  5
103
330
102
100
AcDbEntity
  8
0
100
AcDbBlockBegin
  2
_D_3
 70
     0
 10
0.0
 20
0.0
 30
0.0
  3
_D_3
  1

  0
LINE
  5
105
330
102
100
AcDbEntity
  8
치수문자_일반주서
 62
     0
370
    -2
100
AcDbLine
 10
6.732050807568854
 20
8.1303049963661
 30
0.0
 11
6.732050807568854
 21
18.55855859710569
 31
0.0
  0
LINE
  5
106
330
102
100
AcDbEntity
  8
치수문자_일반주서
 62
     0
370
    -2
100
AcDbLine
 10
51.73205080756886
 20
9.062500000000012
 30
0.0
 11
51.73205080756886
 21
18.55855859710569
 31
0.0
  0
LINE
  5
107
330
102
100
AcDbEntity
  8
치수문자_일반주서
 62
     0
370
    -2
100
AcDbLine
 10
10.03405080756885
 20
18.55855859710569
 30
0.0
 11
48.43005080756886
 21
18.55855859710569
 31
0.0
  0
SOLID
  5
108
330
102
100
AcDbEntity
  8
치수문자_일반주서
 62
     0
100
AcDbTrace
 10
10.03405080756885
 20
19.10889193043902
 30
0.0
 11
10.03405080756885
 21
18.00822526377235
 31
0.0
 12
6.732050807568854
 22
18.55855859710569
 32
0.0
 13
6.732050807568854
 23
18.55855859710569
 33
0.0
  0
SOLID
  5
109
330
102
100
AcDbEntity
  8
치수문자_일반주서
 62
     0
100
AcDbTrace
 10
48.43005080756886
 20
18.00822526377235
 30
0.0
 11
48.43005080756886
 21
19.10889193043902
 31
0.0
 12
51.73205080756886
 22
18.55855859710569
 32
0.0
 13
51.73205080756886
 23
18.55855859710569
 33
0.0
  0
MTEXT
  5
10A
330
102
100
AcDbEntity
  8
치수문자_일반주서
 62
     0
100
AcDbMText
 10
29.23205080756887
 20
22.93355859710569
 30
0.0
 40
3.5
 41
0.0
 71
     2
 72
     1
  1
\A1;45
  7
SLDTEXTSTYLE0
 73
     1
 44
1.0
  0
POINT
  5
13B
330
102
100
AcDbEntity
  8
Defpoints
 62
     0
100
AcDbPoint
 10
6.732050807568854
 20
8.0678049963661
 30
0.0
  0
POINT
  5
13C
330
102
100
AcDbEntity
  8
Defpoints
 62
     0
100
AcDbPoint
 10
51.73205080756886
 20
9.000000000000012
 30
0.0
  0
POINT
  5
13D
330
102
100
AcDbEntity
  8
Defpoints
 62
     0
100
AcDbPoint
 10
51.73205080756886
 20
18.55855859710569
 30
0.0
  0
ENDBLK
  5
104
330
102
100
AcDbEntity
  8
0
100
AcDbBlockEnd
  0
BLOCK
  5
10C
330
10B
100
AcDbEntity
  8
0
100
AcDbBlockBegin
  2
SW_DOWELSYMBOL_0
 70
     0
 10
0.0
 20
0.0
 30
0.0
  3
SW_DOWELSYMBOL_0
  1

  0
CIRCLE
  5
10E
330
10B
100
AcDbEntity
  8
해칭선
 62
     0
100
AcDbCircle
 10
0.0
 20
0.0
 30
0.0
 40
3.000000000000001
  0
HATCH
  5
10F
330
10B
100
AcDbEntity
  8
0
  6
Continuous
 62
     0
370
    18
100
AcDbHatch
 10
0.0
 20
0.0
 30
0.0
210
0.0
220
0.0
230
1.0
  2
SOLID
 70
     1
 71
     0
 91
        1
 92
        0
 93
        3
 72
     2
 10
0.0
 20
0.0
 40
3.000000000000001
 50
0.0
 51
90.0
 73
     1
 72
     1
 10
0.0
 20
3.000000000000001
 11
0.0
 21
0.0
 72
     1
 10
0.0
 20
0.0
 11
3.000000000000001
 21
0.0
 97
        0
 75
     0
 76
     1
 98
        1
 10
0.0
 20
0.0
  0
HATCH
  5
110
330
10B
100
AcDbEntity
  8
0
  6
Continuous
 62
     0
370
    18
100
AcDbHatch
 10
0.0
 20
0.0
 30
0.0
210
0.0
220
0.0
230
1.0
  2
SOLID
 70
     1
 71
     0
 91
        1
 92
        0
 93
        3
 72
     2
 10
0.0
 20
0.0
 40
3.000000000000001
 50
180.0
 51
270.0000000000007
 73
     1
 72
     1
 10
0.0
 20
-3.000000000000001
 11
0.0
 21
0.0
 72
     1
 10
0.0
 20
0.0
 11
-3.000000000000001
 21
0.0
 97
        0
 75
     0
 76
     1
 98
        1
 10
0.0
 20
0.0
  0
ENDBLK
  5
10D
330
10B
100
AcDbEntity
  8
0
100
AcDbBlockEnd
  0
ENDSEC
  0
SECTION
  2
ENTITIES
  0
LINE
  5
99
330
1F
100
AcDbEntity
  8
0
  6
Continuous
 62
     4
370
    25
100
AcDbLine
 10
4.732050807568845
 20
10.0
 30
0.0
 11
-47.76794919243115
 21
9.999999999999996
 31
0.0
  0
LINE
  5
9A
330
1F
100
AcDbEntity
  8
0
  6
Continuous
 62
     4
370
    25
100
AcDbLine
 10
-47.76794919243115
 20
-9.999999999999993
 30
0.0
 11
4.732050807568854
 21
-9.99999999999999
 31
0.0
  0
LINE
  5
9B
330
1F
100
AcDbEntity
  8
0
  6
Continuous
 62
     4
370
    25
100
AcDbLine
 10
4.732050807568845
 20
-9.267949192431121
 30
0.0
 11
5.232330913204114
 21
-9.133899542136794
 31
0.0
  0
LINE
  5
9D
330
1F
100
AcDbEntity
  8
0
  6
Continuous
 62
     4
370
    25
100
AcDbLine
 10
-47.76794919243115
 20
9.999999999999993
 30
0.0
 11
-48.26794919243115
 21
9.499999999999996
 31
0.0
  0
LINE
  5
9E
330
1F
100
AcDbEntity
  8
0
  6
Continuous
 62
     4
370
    25
100
AcDbLine
 10
-48.26794919243115
 20
-9.499999999999993
 30
0.0
 11
-47.76794919243115
 21
-9.99999999999999
 31
0.0
  0
LINE
  5
9F
330
1F
100
AcDbEntity
  8
0
  6
Continuous
 62
     1
370
    25
100
AcDbLine
 10
49.1598883122909
 20
-9.0
 30
0.0
 11
51.73205080756886
 21
-9.0
 31
0.0
  0
LINE
  5
A0
330
1F
100
AcDbEntity
  8
0
  6
Continuous
 62
     1
370
    25
100
AcDbLine
 10
18.11516209076439
 20
9.00000000000001
 30
0.0
 11
12.97035452190426
 21
9.00000000000001
 31
0.0
  0
LINE
  5
A1
330
1F
100
AcDbEntity
  8
0
  6
Continuous
 62
     1
370
    25
100
AcDbLine
 10
31.06387575417257
 20
-9.0
 30
0.0
 11
36.21030908430338
 21
-9.0
 31
0.0
  0
LINE
  5
A2
330
1F
100
AcDbEntity
  8
0
  6
Continuous
 62
     1
370
    25
100
AcDbLine
 10
36.21030908430338
 20
9.00000000000001
 30
0.0
 11
31.06387575417266
 21
9.00000000000001
 31
0.0
  0
LINE
  5
A3
330
1F
100
AcDbEntity
  8
0
  6
Continuous
 62
     1
370
    25
100
AcDbLine
 10
12.97035452190426
 20
-9.0
 30
0.0
 11
18.11516209076431
 21
-9.0
 31
0.0
  0
LINE
  5
A4
330
1F
100
AcDbEntity
  8
0
  6
Continuous
 62
     1
370
    25
100
AcDbLine
 10
51.73205080756886
 20
9.00000000000001
 30
0.0
 11
49.15988831229088
 21
9.00000000000001
 31
0.0
  0
LINE
  5
A6
330
1F
100
AcDbEntity
  8
0
  6
Continuous
 62
     4
370
    25
100
AcDbLine
 10
-47.76794919243115
 20
9.999999999999993
 30
0.0
 11
-47.76794919243115
 21
-10.0
 31
0.0
  0
SPLINE
  5
A7
330
1F
100
AcDbEntity
  8
0
  6
Continuous
 62
     4
370
    25
100
AcDbSpline
210
0.0
220
0.0
230
1.0
 70
     8
 71
     3
 72
    12
 73
     8
 74
     0
 42
0.000000001
 43
0.00000001
 40
0.0
 40
0.0
 40
0.0
 40
0.0
 40
0.25
 40
0.25
 40
0.5
 40
0.5
 40
1.0
 40
1.0
 40
1.0
 40
1.0
 10
5.232330913204114
 20
-8.823105211658387
 30
0.0
 10
5.232330913204114
 20
-8.792801517146676
 30
0.0
 10
5.242416227100964
 20
-8.75818725313092
 30
0.0
 10
5.283945298243832
 20
-8.680458378275306
 30
0.0
 10
5.315996365591472
 20
-8.63673796403887
 30
0.0
 10
5.442968566148819
 20
-8.49831716592203
 30
0.0
 10
5.570204053409867
 20
-8.394289316737241
 30
0.0
 10
5.732050807568536
 20
-8.290465445390605
 30
0.0
  0
LINE
  5
A8
330
1F
100
AcDbEntity
  8
0
  6
Continuous
 62
     4
370
    25
100
AcDbLine
 10
5.232330913204114
 20
-8.823105211658389
 30
0.0
 11
5.232330913204158
 21
-9.499719894364716
 31
0.0
  0
SPLINE
  5
A9
330
1F
100
AcDbEntity
  8
0
  6
Continuous
 62
     4
370
    25
100
AcDbSpline
210
0.0
220
0.0
230
1.0
 70
     8
 71
     3
 72
    12
 73
     8
 74
     0
 42
0.000000001
 43
0.00000001
 40
0.0
 40
0.0
 40
0.0
 40
0.0
 40
0.2499999999999998
 40
0.2499999999999998
 40
0.4999999999999996
 40
0.4999999999999996
 40
1.0
 40
1.0
 40
1.0
 40
1.0
 10
5.232330913204111
 20
8.8231052116584
 30
0.0
 10
5.232330913204114
 20
8.792801517146692
 30
0.0
 10
5.242416227100961
 20
8.758187253130927
 30
0.0
 10
5.283945298243829
 20
8.680458378275318
 30
0.0
 10
5.315996365591475
 20
8.63673796403888
 30
0.0
 10
5.442968566148819
 20
8.498317165922039
 30
0.0
 10
5.570204053409864
 20
8.394289316737252
 30
0.0
 10
5.732050807568536
 20
8.290465445390618
 30
0.0
  0
LINE
  5
AA
330
1F
100
AcDbEntity
  8
0
  6
Continuous
 62
     4
370
    25
100
AcDbLine
 10
5.232330913204111
 20
9.499719894364734
 30
0.0
 11
5.232330913204111
 21
8.56485997050329
 31
0.0
  0
SPLINE
  5
AB
330
1F
100
AcDbEntity
  8
0
  6
Continuous
 62
     4
370
    25
100
AcDbSpline
210
0.0
220
0.0
230
1.0
 70
     8
 71
     3
 72
    12
 73
     8
 74
     0
 42
0.000000001
 43
0.00000001
 40
0.0
 40
0.0
 40
0.0
 40
0.0
 40
0.2500000000000002
 40
0.2500000000000002
 40
0.5000000000000003
 40
0.5000000000000003
 40
1.0
 40
1.0
 40
1.0
 40
1.0
 10
5.732050807568855
 20
7.928395174073097
 30
0.0
 10
5.65116609560099
 20
7.986306165252403
 30
0.0
 10
5.579658109332327
 20
8.044455262396369
 30
0.0
 10
5.454758041159508
 20
8.160165517645513
 30
0.0
 10
5.40099587087404
 20
8.21836235954369
 30
0.0
 10
5.273925397548185
 20
8.383408090376596
 30
0.0
 10
5.232330913204066
 20
8.48342848439785
 30
0.0
 10
5.232330913204063
 20
8.5648599705033
 30
0.0
  0
SPLINE
  5
AD
330
1F
100
AcDbEntity
  8
0
  6
Continuous
 62
     4
370
    25
100
AcDbSpline
210
0.0
220
0.0
230
1.0
 70
     8
 71
     3
 72
    12
 73
     8
 74
     0
 42
0.000000001
 43
0.00000001
 40
0.0
 40
0.0
 40
0.0
 40
0.0
 40
0.2500000000000004
 40
0.2500000000000004
 40
0.5000000000000008
 40
0.5000000000000008
 40
1.0
 40
1.0
 40
1.0
 40
1.0
 10
5.232330913204114
 20
2.362400319559093
 30
0.0
 10
5.232330913204114
 20
2.475578718141709
 30
0.0
 10
5.242416227100964
 20
2.585700110188241
 30
0.0
 10
5.283945298243829
 20
2.799685176713597
 30
0.0
 10
5.315996365591475
 20
2.904718014664706
 30
0.0
 10
5.442968566148823
 20
3.197657625620419
 30
0.0
 10
5.570204053409864
 20
3.368282536947747
 30
0.0
 10
5.732050807568536
 20
3.502596565233461
 30
0.0
  0
LINE
  5
AE
330
1F
100
AcDbEntity
  8
0
  6
Continuous
 62
     4
370
    25
100
AcDbLine
 10
5.232330913204114
 20
2.362400319559093
 30
0.0
 11
5.232330913204114
 21
-3.17353029472192
 31
0.0
  0
SPLINE
  5
AF
330
1F
100
AcDbEntity
  8
0
  6
Continuous
 62
     4
370
    25
100
AcDbSpline
210
0.0
220
0.0
230
1.0
 70
     8
 71
     3
 72
    12
 73
     8
 74
     0
 42
0.000000001
 43
0.00000001
 40
0.0
 40
0.0
 40
0.0
 40
0.0
 40
0.2499999999999992
 40
0.2499999999999992
 40
0.4999999999999984
 40
0.4999999999999984
 40
1.0
 40
1.0
 40
1.0
 40
1.0
 10
5.732050807568855
 20
-4.259172450574772
 30
0.0
 10
5.651166095600992
 20
-4.19716878981907
 30
0.0
 10
5.579658109332327
 20
-4.127058885049389
 30
0.0
 10
5.454758041159508
 20
-3.970369139999832
 30
0.0
 10
5.400995870874036
 20
-3.882604051972429
 30
0.0
 10
5.273925397548185
 20
-3.604052143148101
 30
0.0
 10
5.232330913204073
 20
-3.393301089676412
 30
0.0
 10
5.232330913204073
 20
-3.173530294721932
 30
0.0
  0
LINE
  5
B1
330
1F
100
AcDbEntity
  8
0
  6
Continuous
 62
     4
370
    25
100
AcDbLine
 10
-48.26794919243115
 20
9.499999999999996
 30
0.0
 11
-48.26794919243115
 21
-9.500000000000002
 31
0.0
  0
SPLINE
  5
B2
330
1F
100
AcDbEntity
  8
0
  6
Continuous
 62
     4
370
    25
100
AcDbSpline
210
0.0
220
0.0
230
1.0
 70
     8
 71
     3
 72
    10
 73
     6
 74
     0
 42
0.000000001
 43
0.00000001
 40
0.0
 40
0.0
 40
0.0
 40
0.0
 40
0.5
 40
0.5
 40
1.0
 40
1.0
 40
1.0
 40
1.0
 10
5.732050807568855
 20
3.502596565233203
 30
0.0
 10
5.865236315217901
 20
3.632594490428405
 30
0.0
 10
6.017215701852733
 20
3.738302722570573
 30
0.0
 10
6.358595395004011
 20
3.903699475217627
 30
0.0
 10
6.540761993533994
 20
3.959650121828556
 30
0.0
 10
6.732050807568822
 20
3.988799636558606
 30
0.0
  0
SPLINE
  5
B3
330
1F
100
AcDbEntity
  8
0
  6
Continuous
 62
     4
370
    25
100
AcDbSpline
210
0.0
220
0.0
230
1.0
 70
    24
 71
     3
 72
    20
 73
    16
 74
     0
 42
0.000000001
 43
0.00000001
 40
0.0
 40
0.0
 40
0.0
 40
0.0
 40
0.2500000000000002
 40
0.2500000000000002
 40
0.3750000000000001
 40
0.3750000000000001
 40
0.5000000000000001
 40
0.5000000000000001
 40
0.6250000000000001
 40
0.6250000000000001
 40
0.75
 40
0.75
 40
0.875
 40
0.875
 40
1.0
 40
1.0
 40
1.0
 40
1.0
 10
6.732050807568854
 20
3.988799636558548
 30
0.0
 10
6.732050807568854
 20
3.717554313871598
 30
0.0
 10
6.732050807568854
 20
3.398760724110751
 30
0.0
 10
6.732050807568854
 20
2.844984822386022
 30
0.0
 10
6.732050807568857
 20
2.646907242326587
 30
0.0
 10
6.732050807568857
 20
2.235907394992323
 30
0.0
 10
6.732050807568857
 20
2.021672211882816
 30
0.0
 10
6.732050807568857
 20
1.574961146933854
 30
0.0
 10
6.732050807568857
 20
1.342497076118265
 30
0.0
 10
6.732050807568854
 20
0.8572752159704959
 30
0.0
 10
6.732050807568857
 20
0.6099404174996037
 30
0.0
 10
6.732050807568857
 20
0.1115024614918029
 30
0.0
 10
6.732050807568857
 20
-0.1405009831960665
 30
0.0
 10
6.732050807568857
 20
-0.6502546572884585
 30
0.0
 10
6.732050807568857
 20
-0.9088301299427389
 30
0.0
 10
6.732050807568857
 20
-1.163772984954037
 30
0.0
  0
SPLINE
  5
B4
330
1F
100
AcDbEntity
  8
0
  6
Continuous
 62
     4
370
    25
100
AcDbSpline
210
0.0
220
0.0
230
1.0
 70
     8
 71
     3
 72
     8
 73
     4
 74
     0
 42
0.000000001
 43
0.00000001
 40
0.0
 40
0.0
 40
0.0
 40
0.0
 40
1.0
 40
1.0
 40
1.0
 40
1.0
 10
5.92894414998951
 20
-4.416562519373984
 30
0.0
 10
5.858827173917591
 20
-4.368671526892227
 30
0.0
 10
5.793200530343148
 20
-4.316251159254658
 30
0.0
 10
5.732050807568925
 20
-4.259172450574694
 30
0.0
  0
SPLINE
  5
B5
330
1F
100
AcDbEntity
  8
0
  6
Continuous
 62
     4
370
    25
100
AcDbSpline
210
0.0
220
0.0
230
1.0
 70
     8
 71
     3
 72
     8
 73
     4
 74
     0
 42
0.000000001
 43
0.00000001
 40
0.0
 40
0.0
 40
0.0
 40
0.0
 40
1.0
 40
1.0
 40
1.0
 40
1.0
 10
5.92894414998951
 20
7.841809453975635
 30
0.0
 10
5.858827173917591
 20
7.86878199948977
 30
0.0
 10
5.793200530343148
 20
7.897732214144117
 30
0.0
 10
5.732050807568925
 20
7.928395174073141
 30
0.0
  0
SPLINE
  5
B6
330
1F
100
AcDbEntity
  8
0
  6
Continuous
 62
     4
370
    25
100
AcDbSpline
210
0.0
220
0.0
230
1.0
 70
     8
 71
     3
 72
     8
 73
     4
 74
     0
 42
0.000000001
 43
0.00000001
 40
0.0
 40
0.0
 40
0.0
 40
0.0
 40
1.0
 40
1.0
 40
1.0
 40
1.0
 10
6.73205080756885
 20
7.514892540974441
 30
0.0
 10
6.463576623175845
 20
7.630161263037528
 30
0.0
 10
6.195550567288899
 20
7.739251498287518
 30
0.0
 10
5.92894414998951
 20
7.841809453975635
 30
0.0
  0
SPLINE
  5
B7
330
1F
100
AcDbEntity
  8
0
  6
Continuous
 62
     4
370
    25
100
AcDbSpline
210
0.0
220
0.0
230
1.0
 70
     8
 71
     3
 72
    10
 73
     6
 74
     0
 42
0.000000001
 43
0.00000001
 40
0.0
 40
0.0
 40
0.0
 40
0.0
 40
0.4999999999999999
 40
0.4999999999999999
 40
1.0
 40
1.0
 40
1.0
 40
1.0
 10
5.732050807568855
 20
-8.29046544539062
 30
0.0
 10
5.865236315217901
 20
-8.235543283387122
 30
0.0
 10
6.017215701852733
 20
-8.187394917970773
 30
0.0
 10
6.358595395004011
 20
-8.109838049898267
 30
0.0
 10
6.540761993533998
 20
-8.08221679409958
 30
0.0
 10
6.732050807568822
 20
-8.067804996366064
 30
0.0
1001
PE_URL
1000

  0
SPLINE
  5
B8
330
1F
100
AcDbEntity
  8
0
  6
Continuous
 62
     4
370
    25
100
AcDbSpline
210
0.0
220
0.0
230
1.0
 70
     8
 71
     3
 72
     8
 73
     4
 74
     0
 42
0.000000001
 43
0.00000001
 40
0.0
 40
0.0
 40
0.0
 40
0.0
 40
1.0
 40
1.0
 40
1.0
 40
1.0
 10
6.732050807568854
 20
-4.952412553251949
 30
0.0
 10
6.463576623175845
 20
-4.777501426538415
 30
0.0
 10
6.195550567288903
 20
-4.598658876658085
 30
0.0
 10
5.92894414998951
 20
-4.416562519373982
 30
0.0
  0
SPLINE
  5
B9
330
1F
100
AcDbEntity
  8
0
  6
Continuous
 62
     4
370
    25
100
AcDbSpline
210
0.0
220
0.0
230
1.0
 70
     8
 71
     3
 72
    10
 73
     6
 74
     0
 42
0.000000001
 43
0.00000001
 40
0.0
 40
0.0
 40
0.0
 40
0.0
 40
0.5
 40
0.5
 40
1.0
 40
1.0
 40
1.0
 40
1.0
 10
5.732050807568855
 20
8.29046544539063
 30
0.0
 10
5.865236315217901
 20
8.23554328338713
 30
0.0
 10
6.017215701852733
 20
8.187394917970781
 30
0.0
 10
6.358595395004011
 20
8.109838049898281
 30
0.0
 10
6.540761993533998
 20
8.082216794099592
 30
0.0
 10
6.732050807568822
 20
8.067804996366075
 30
0.0
  0
LINE
  5
BA
330
1F
100
AcDbEntity
  8
0
  6
Continuous
 62
     4
370
    25
100
AcDbLine
 10
6.732050807568854
 20
8.0678049963661
 30
0.0
 11
6.732050807568854
 21
7.585820054381189
 31
0.0
  0
SPLINE
  5
BB
330
1F
100
AcDbEntity
  8
0
  6
Continuous
 62
     1
370
    25
100
AcDbSpline
210
0.0
220
0.0
230
1.0
 70
     8
 71
     3
 72
    30
 73
    26
 74
     0
 42
0.000000001
 43
0.00000001
 40
0.0
 40
0.0
 40
0.0
 40
0.0
 40
0.0477127456381408
 40
0.0954480788176303
 40
0.1431925527180887
 40
0.190911582901601
 40
0.2386157303532669
 40
0.2842613812129443
 40
0.3299235993147279
 40
0.3756207008267105
 40
0.42130037407693
 40
0.4669521552587669
 40
0.5125974127993416
 40
0.5582575651343873
 40
0.6039525955305856
 40
0.6496353460473223
 40
0.695288540163768
 40
0.7409335354813429
 40
0.7865917524467906
 40
0.8283037645768115
 40
0.8699791412717883
 40
0.9116250744051928
 40
0.9532950255517483
 40
0.9950089486070902
 40
0.9999999999999999
 40
0.9999999999999999
 40
0.9999999999999999
 40
0.9999999999999999
 10
6.732050807567653
 20
7.712640294503996
 30
0.0
 10
7.406804264836616
 20
7.961402456194
 30
0.0
 10
8.756630612293621
 20
8.459044545289187
 30
0.0
 10
10.78208624823077
 20
8.880975571061171
 30
0.0
 10
12.80786603974902
 20
9.046323594364932
 30
0.0
 10
14.83262206029858
 20
8.928347467300323
 30
0.0
 10
16.8276044024524
 20
8.542125516004692
 30
0.0
 10
18.79318561689571
 20
7.911269424982711
 30
0.0
 10
20.73061893158283
 20
7.066344235044306
 30
0.0
 10
22.66934013086484
 20
6.022390922120646
 30
0.0
 10
24.60745551248797
 20
4.808166380321531
 30
0.0
 10
26.54436610525701
 20
3.45818376562254
 30
0.0
 10
28.4809439781067
 20
2.010736720638398
 30
0.0
 10
30.41826917780366
 20
0.5062366234965825
 30
0.0
 10
32.35692246369999
 20
-1.011953809130424
 30
0.0
 10
34.29514988762722
 20
-2.501927991257023
 30
0.0
 10
36.2321264364583
 20
-3.921404704831129
 30
0.0
 10
38.1687125293134
 20
-5.230039153062356
 30
0.0
 10
40.04957972518981
 20
-6.357569861847899
 30
0.0
 10
41.87534458520808
 20
-7.288229476055239
 30
0.0
 10
43.64343517882092
 20
-8.017958628261413
 30
0.0
 10
45.41046144372401
 20
-8.564831201498203
 30
0.0
 10
47.17828107951873
 20
-8.88903801872877
 30
0.0
 10
48.42892409311602
 20
-9.026300262620403
 30
0.0
 10
49.08931654347661
 20
-8.992456761192534
 30
0.0
 10
49.1598883122909
 20
-8.988840130267498
 30
0.0
  0
SPLINE
  5
BC
330
1F
100
AcDbEntity
  8
0
  6
Continuous
 62
     1
370
    25
100
AcDbSpline
210
0.0
220
0.0
230
1.0
 70
     8
 71
     3
 72
    25
 73
    21
 74
     0
 42
0.000000001
 43
0.00000001
 40
0.0
 40
0.0
 40
0.0
 40
0.0
 40
0.057664278408436
 40
0.1152870580446633
 40
0.1728952631456449
 40
0.2305159296427842
 40
0.288175997957202
 40
0.3458442324894693
 40
0.4034692900598672
 40
0.461077660640048
 40
0.5186963788923091
 40
0.5763524001621111
 40
0.6340239198198915
 40
0.6916514200127114
 40
0.7492601215435173
 40
0.8068770565365191
 40
0.8645291940002507
 40
0.9222033276051851
 40
0.9798334349941487
 40
1.0
 40
1.0
 40
1.0
 40
1.0
 10
51.73205080756886
 20
-8.77649128519734
 30
0.0
 10
51.08574384344205
 20
-8.640777542897695
 30
0.0
 10
49.79359503755223
 20
-8.369447726279907
 30
0.0
 10
47.85644984803469
 20
-7.65968004988414
 30
0.0
 10
45.91989323533488
 20
-6.751611097281156
 30
0.0
 10
43.98283257250808
 20
-5.648082905606106
 30
0.0
 10
42.04449294105843
 20
-4.386593231729723
 30
0.0
 10
40.10592902295559
 20
-3.00115194470216
 30
0.0
 10
38.16869505173795
 20
-1.530625380824257
 30
0.0
 10
36.23213111981924
 20
-0.0171478189364247
 30
0.0
 10
34.29514863173736
 20
1.496986285849292
 30
0.0
 10
32.3569228004019
 20
2.968729208995323
 30
0.0
 10
30.41826908770371
 20
4.356410433876471
 30
0.0
 10
28.48094400203247
 20
5.621577709890712
 30
0.0
 10
26.54436609959134
 20
6.728151292249903
 30
0.0
 10
24.60745551122476
 20
7.643706726371911
 30
0.0
 10
22.66934014159671
 20
8.348075496861501
 30
0.0
 10
20.73061888991633
 20
8.799516432121798
 30
0.0
 10
19.21271705656961
 20
9.009018763994018
 30
0.0
 10
18.34110310856558
 20
8.978881616192062
 30
0.0
 10
18.1151620907644
 20
8.971069421511617
 30
0.0
  0
LINE
  5
BD
330
1F
100
AcDbEntity
  8
0
  6
Continuous
 62
     1
370
    25
100
AcDbLine
 10
51.73205080756886
 20
-9.000000000000002
 30
0.0
 11
51.73205080756886
 21
-8.776491285197347
 31
0.0
  0
SPLINE
  5
BE
330
1F
100
AcDbEntity
  8
0
  6
Continuous
 62
     1
370
    25
100
AcDbSpline
210
0.0
220
0.0
230
1.0
 70
     8
 71
     3
 72
    27
 73
    23
 74
     0
 42
0.000000001
 43
0.00000001
 40
0.0
 40
0.0
 40
0.0
 40
0.0
 40
0.0177751809861564
 40
0.0716970511298681
 40
0.1255785492637549
 40
0.1794444444625619
 40
0.2333200151063471
 40
0.2872304654110776
 40
0.3411554072651122
 40
0.3950391893386777
 40
0.4489053939882036
 40
0.5027792972205447
 40
0.5566861160271326
 40
0.6106135020156227
 40
0.6644997219112064
 40
0.7183663907186411
 40
0.7652823876884952
 40
0.8122662877573913
 40
0.8591840462429459
 40
0.9060858197850806
 40
0.9530576309378915
 40
1.0
 40
1.0
 40
1.0
 40
1.0
 10
42.68370526064133
 20
-7.592430603826488
 30
0.0
 10
42.47065845012908
 20
-7.687586985993602
 30
0.0
 10
41.61132384879662
 20
-8.07140484995136
 30
0.0
 10
40.10591331926197
 20
-8.520660388260092
 30
0.0
 10
38.1686992568995
 20
-8.914544375145992
 30
0.0
 10
36.23212999265294
 20
-9.041842666911906
 30
0.0
 10
34.29514893524686
 20
-8.917948337196501
 30
0.0
 10
32.35692271436746
 20
-8.541265265589308
 30
0.0
 10
30.41826912813321
 20
-7.923983903589071
 30
0.0
 10
28.48094392636369
 20
-7.082701432459053
 30
0.0
 10
26.5443663617981
 20
-6.041691857067495
 30
0.0
 10
24.60745453762848
 20
-4.830066253411551
 30
0.0
 10
22.6693437767044
 20
-3.482113804989593
 30
0.0
 10
20.7306053227941
 20
-2.036351075124565
 30
0.0
 10
18.79323635425434
 20
-0.5324404465834573
 30
0.0
 10
16.93981263053449
 20
0.9207391518266743
 30
0.0
 10
15.16981340885265
 20
2.285540445152392
 30
0.0
 10
13.48126054493336
 20
3.534978737010119
 30
0.0
 10
11.79445737653228
 20
4.711301964968603
 30
0.0
 10
10.10809200270635
 20
5.783720930334298
 30
0.0
 10
8.419848579357144
 20
6.742528206455932
 30
0.0
 10
7.29453246931727
 20
7.257491576465011
 30
0.0
 10
6.73205080756885
 20
7.514892540974446
 30
0.0
  0
SPLINE
  5
BF
330
1F
100
AcDbEntity
  8
0
  6
Continuous
 62
     1
370
    25
100
AcDbSpline
210
0.0
220
0.0
230
1.0
 70
     8
 71
     3
 72
    22
 73
    18
 74
     0
 42
0.000000001
 43
0.00000001
 40
0.0
 40
0.0
 40
0.0
 40
0.0
 40
0.000654123750718
 40
0.0747913488725449
 40
0.1489179797820903
 40
0.2230687994243041
 40
0.2972762600694435
 40
0.3714637785312871
 40
0.4456032982196886
 40
0.519729503286363
 40
0.593877179942085
 40
0.6616163295110857
 40
0.7292959841507543
 40
0.796927823263927
 40
0.8645986669635992
 40
0.9323409198222645
 40
1.0
 40
1.0
 40
1.0
 40
1.0
 10
24.59068024585174
 20
7.614445066949008
 30
0.0
 10
24.59637729242281
 20
7.617118593726638
 30
0.0
 10
25.24776748758391
 20
7.922804901136067
 30
0.0
 10
26.54433056501329
 20
8.339369026942093
 30
0.0
 10
28.48095350384875
 20
8.820369403329055
 30
0.0
 10
30.41826662241532
 20
9.027223668676692
 30
0.0
 10
32.35692315002801
 20
8.986033809229978
 30
0.0
 10
34.29514969797556
 20
8.689451000792653
 30
0.0
 10
36.23212650926262
 20
8.148011554626422
 30
0.0
 10
38.16871242765592
 20
7.376619877964179
 30
0.0
 10
40.04958004656386
 20
6.425127519519541
 30
0.0
 10
41.87534351099303
 20
5.340751746764388
 30
0.0
 10
43.6434391919544
 20
4.163652833102313
 30
0.0
 10
45.4104464717292
 20
2.888340641484113
 30
0.0
 10
47.17833701867637
 20
1.545639792534178
 30
0.0
 10
48.94767631323452
 20
0.1659038405737725
 30
0.0
 10
50.12647291721712
 20
-0.7527468969813759
 30
0.0
 10
50.71550917080158
 20
-1.211790116968509
 30
0.0
  0
SPLINE
  5
C0
330
1F
100
AcDbEntity
  8
0
  6
Continuous
 62
     1
370
    25
100
AcDbSpline
210
0.0
220
0.0
230
1.0
 70
     8
 71
     3
 72
    12
 73
     8
 74
     0
 42
0.000000001
 43
0.00000001
 40
0.0
 40
0.0
 40
0.0
 40
0.0
 40
0.5
 40
0.5
 40
0.75
 40
0.75
 40
1.0
 40
1.0
 40
1.0
 40
1.0
 10
51.73205080756886
 20
-6.567570641756568
 30
0.0
 10
50.91771066590938
 20
-6.281014925619632
 30
0.0
 10
50.1249416040594
 20
-5.90909584145593
 30
0.0
 10
48.97393613479466
 20
-5.200253409249577
 30
0.0
 10
48.5973417817428
 20
-4.935978073428323
 30
0.0
 10
47.85872286927258
 20
-4.349770267001984
 30
0.0
 10
47.50356595534542
 20
-4.03351232290221
 30
0.0
 10
47.16202357063818
 20
-3.699967521122573
 30
0.0
  0
LINE
  5
C1
330
1F
100
AcDbEntity
  8
0
  6
Continuous
 62
     1
370
    25
100
AcDbLine
 10
51.73205080756886
 20
-8.776491285197347
 30
0.0
 11
51.73205080756886
 21
-6.56757064175657
 31
0.0
  0
SPLINE
  5
C2
330
1F
100
AcDbEntity
  8
0
  6
Continuous
 62
     1
370
    25
100
AcDbSpline
210
0.0
220
0.0
230
1.0
 70
    24
 71
     3
 72
    26
 73
    22
 74
     0
 42
0.000000001
 43
0.00000001
 40
0.0
 40
0.0
 40
0.0
 40
0.0
 40
0.1249999999999985
 40
0.1249999999999985
 40
0.2499999999999969
 40
0.2499999999999969
 40
0.3749999999999954
 40
0.3749999999999954
 40
0.4374999999999947
 40
0.4374999999999947
 40
0.4999999999999939
 40
0.4999999999999939
 40
0.6249999999999939
 40
0.6249999999999939
 40
0.6874999999999949
 40
0.6874999999999949
 40
0.7499999999999959
 40
0.7499999999999959
 40
0.874999999999998
 40
0.874999999999998
 40
1.0
 40
1.0
 40
1.0
 40
1.0
 10
50.71550917080158
 20
-1.211790116968505
 30
0.0
 10
50.71383492281352
 20
-1.212962438030585
 30
0.0
 10
50.69792331218687
 20
-1.224103867736459
 30
0.0
 10
50.63133385395759
 20
-1.270730308353899
 30
0.0
 10
50.58068990788041
 20
-1.306191581161778
 30
0.0
 10
50.43968069243127
 20
-1.404927296776303
 30
0.0
 10
50.34929197184702
 20
-1.468218160298527
 30
0.0
 10
50.17565575989298
 20
-1.589799544814912
 30
0.0
 10
50.11127114831324
 20
-1.634882135188223
 30
0.0
 10
49.97203925183479
 20
-1.732373358661663
 30
0.0
 10
49.89682542378497
 20
-1.785038648039303
 30
0.0
 10
49.65338499550096
 20
-1.955497471028757
 30
0.0
 10
49.46469057956978
 20
-2.087622723481845
 30
0.0
 10
49.15960937465499
 20
-2.301242882929279
 30
0.0
 10
49.0537996021735
 20
-2.375331683237092
 30
0.0
 10
48.83399753616302
 20
-2.529238746771689
 30
0.0
 10
48.71914282428661
 20
-2.609660881826459
 30
0.0
 10
48.37057042072229
 20
-2.853733906414069
 30
0.0
 10
48.13215243686832
 20
-3.020675975953393
 30
0.0
 10
47.64443794052067
 20
-3.362177342790159
 30
0.0
 10
47.40153383051912
 20
-3.532260631675405
 30
0.0
 10
47.1620235706381
 20
-3.699967521122653
 30
0.0
  0
SPLINE
  5
C3
330
1F
100
AcDbEntity
  8
0
  6
Continuous
 62
     1
370
    25
100
AcDbSpline
210
0.0
220
0.0
230
1.0
 70
     8
 71
     3
 72
    20
 73
    16
 74
     0
 42
0.000000001
 43
0.00000001
 40
0.0
 40
0.0
 40
0.0
 40
0.0
 40
0.0831986849755475
 40
0.1664367567797487
 40
0.2496907676365902
 40
0.3329004112334366
 40
0.4160841031961462
 40
0.4956783096411081
 40
0.5753014050703125
 40
0.6549853281424703
 40
0.7346388608348525
 40
0.8142437569757295
 40
0.893837277573929
 40
0.9734567708403619
 40
1.0
 40
1.0
 40
1.0
 40
1.0
 10
6.732050807567653
 20
4.638445826738972
 30
0.0
 10
7.406804264845265
 20
4.172760334767744
 30
0.0
 10
8.756630612319565
 20
3.241168892116302
 30
0.0
 10
10.78208624812692
 20
1.705874913252582
 30
0.0
 10
12.80786604013841
 20
0.1285123272651347
 30
0.0
 10
14.83262205884586
 20
-1.455937779155479
 30
0.0
 10
16.82760440777353
 20
-2.972402191493556
 30
0.0
 10
18.79318559798538
 20
-4.379417913373493
 30
0.0
 10
20.73061900231247
 20
-5.642131235038097
 30
0.0
 10
22.66933986669157
 20
-6.745449483818305
 30
0.0
 10
24.60745649770468
 20
-7.657477477659989
 30
0.0
 10
26.54436243105763
 20
-8.35809179431581
 30
0.0
 10
28.48095769040513
 20
-8.805099763694578
 30
0.0
 10
29.98731283924005
 20
-9.010770863054056
 30
0.0
 10
30.84854663129322
 20
-8.979535227784599
 30
0.0
 10
31.06387575417257
 20
-8.971725569121393
 30
0.0
  0
SPLINE
  5
C4
330
1F
100
AcDbEntity
  8
0
  6
Continuous
 62
     1
370
    25
100
AcDbSpline
210
0.0
220
0.0
230
1.0
 70
     8
 71
     3
 72
    16
 73
    12
 74
     0
 42
0.000000001
 43
0.00000001
 40
0.0
 40
0.0
 40
0.0
 40
0.0
 40
0.1248874518746488
 40
0.2496850270342823
 40
0.3744510371311191
 40
0.499244035721628
 40
0.6241223695091594
 40
0.7490183894304087
 40
0.8738208980670917
 40
0.9985872665534914
 40
1.0
 40
1.0
 40
1.0
 40
1.0
 10
51.73205080756887
 20
1.99328892056702
 30
0.0
 10
51.0857438414665
 20
2.479966350255126
 30
0.0
 10
49.79359503162699
 20
3.452970966528481
 30
0.0
 10
47.85644987171318
 20
4.80050941509436
 30
0.0
 10
45.91989314655544
 20
6.016214256240752
 30
0.0
 10
43.98283290413033
 20
7.061787801359484
 30
0.0
 10
42.04449170238856
 20
7.905949727742792
 30
0.0
 10
40.10593364490099
 20
8.535135463835006
 30
0.0
 10
38.16867781899676
 20
8.892805526969319
 30
0.0
 10
36.8703967141435
 20
9.04131477284575
 30
0.0
 10
36.21761776412234
 20
8.999051899059987
 30
0.0
 10
36.21030908430338
 20
8.998578713132778
 30
0.0
  0
LINE
  5
C5
330
1F
100
AcDbEntity
  8
0
  6
Continuous
 62
     1
370
    25
100
AcDbLine
 10
51.73205080756886
 20
-0.5000000000000228
 30
0.0
 11
51.73205080756886
 21
1.99328892056702
 31
0.0
  0
LINE
  5
C6
330
1F
100
AcDbEntity
  8
0
  6
Continuous
 62
     1
370
    25
100
AcDbLine
 10
51.73205080756886
 20
-0.5000000000000235
 30
0.0
 11
50.71550917080158
 21
-1.211790116968508
 31
0.0
  0
SPLINE
  5
C7
330
1F
100
AcDbEntity
  8
0
  6
Continuous
 62
     1
370
    25
100
AcDbSpline
210
0.0
220
0.0
230
1.0
 70
     8
 71
     3
 72
    17
 73
    13
 74
     0
 42
0.000000001
 43
0.00000001
 40
0.0
 40
0.0
 40
0.0
 40
0.0
 40
0.1075631200299989
 40
0.216124547579269
 40
0.3246031035090343
 40
0.4330423010682665
 40
0.5274890744948827
 40
0.6220725439105942
 40
0.7165228634512223
 40
0.810941003640949
 40
0.9055001368133274
 40
1.0
 40
1.0
 40
1.0
 40
1.0
 10
24.59068024585166
 20
-7.614445066948988
 30
0.0
 10
23.95032342671381
 20
-7.86100712282174
 30
0.0
 10
22.66366655224913
 20
-8.356419609563023
 30
0.0
 10
20.73059961739394
 20
-8.807615778974686
 30
0.0
 10
18.7932378889161
 20
-9.027558696556113
 30
0.0
 10
16.93981227802293
 20
-8.990080476900667
 30
0.0
 10
15.16981349788993
 20
-8.73834952133469
 30
0.0
 10
13.48126052109912
 20
-8.311568463304706
 30
0.0
 10
11.79445738290991
 20
-7.706861057855521
 30
0.0
 10
10.10809200100302
 20
-6.934668509686069
 30
0.0
 10
8.419848579782931
 20
-6.022803803594391
 30
0.0
 10
7.294532469459167
 20
-5.309135058327698
 30
0.0
 10
6.732050807568854
 20
-4.952412553251953
 30
0.0
  0
SPLINE
  5
C8
330
1F
100
AcDbEntity
  8
0
  6
Continuous
 62
     1
370
    25
100
AcDbSpline
210
0.0
220
0.0
230
1.0
 70
     8
 71
     3
 72
    11
 73
     7
 74
     0
 42
0.000000001
 43
0.00000001
 40
0.0
 40
0.0
 40
0.0
 40
0.0
 40
0.3245412155376126
 40
0.6492360711147427
 40
0.9739931017072578
 40
1.0
 40
1.0
 40
1.0
 40
1.0
 10
6.732050807567653
 20
-7.712640294503983
 30
0.0
 10
7.406806540237154
 20
-7.962956837091646
 30
0.0
 10
8.756637439572419
 20
-8.463708423836739
 30
0.0
 10
10.78205892185164
 20
-8.862308263466275
 30
0.0
 10
12.18695426503572
 20
-9.038459103441241
 30
0.0
 10
12.91627971214394
 20
-8.993135046340658
 30
0.0
 10
12.97035452190426
 20
-8.989774557857778
 30
0.0
  0
SPLINE
  5
C9
330
1F
100
AcDbEntity
  8
0
  6
Continuous
 62
     1
370
    25
100
AcDbSpline
210
0.0
220
0.0
230
1.0
 70
     8
 71
     3
 72
    12
 73
     8
 74
     0
 42
0.000000001
 43
0.00000001
 40
0.0
 40
0.0
 40
0.0
 40
0.0
 40
0.1195313628545131
 40
0.339504875344923
 40
0.559605250804136
 40
0.7799378855621288
 40
1.0
 40
1.0
 40
1.0
 40
1.0
 10
42.68370526064133
 20
7.592430603826504
 30
0.0
 10
43.00374387150532
 20
7.72923596872412
 30
0.0
 10
43.91274939183214
 20
8.117804184185804
 30
0.0
 10
45.41042506023894
 20
8.556551340117146
 30
0.0
 10
47.17834273676094
 20
8.901191609939008
 30
0.0
 10
48.94767488513354
 20
9.042909457520992
 30
0.0
 10
50.12647244137845
 20
8.95965086186811
 30
0.0
 10
50.71550917080158
 20
8.918047135579464
 30
0.0
  0
SPLINE
  5
CA
330
1F
100
AcDbEntity
  8
0
  6
Continuous
 62
     1
370
    25
100
AcDbSpline
210
0.0
220
0.0
230
1.0
 70
     8
 71
     3
 72
    16
 73
    12
 74
     0
 42
0.000000001
 43
0.00000001
 40
0.0
 40
0.0
 40
0.0
 40
0.0
 40
0.1774304893263815
 40
0.3245665652068682
 40
0.4764586945397666
 40
0.5750136423404884
 40
0.6762301349702682
 40
0.774875632562525
 40
0.8767466373012214
 40
0.9702809756202607
 40
1.0
 40
1.0
 40
1.0
 40
1.0
 10
50.71550917080158
 20
8.918047135579464
 30
0.0
 10
50.70239790864467
 20
8.57039254810239
 30
0.0
 10
50.67841399618429
 20
7.934441783584779
 30
0.0
 10
50.4944798105097
 20
7.023900242924825
 30
0.0
 10
50.2348111443706
 20
6.307330690375495
 30
0.0
 10
49.91197611003481
 20
5.739573695601399
 30
0.0
 10
49.5762904819217
 20
5.319568804072302
 30
0.0
 10
49.18099170235622
 20
4.972768156927165
 30
0.0
 10
48.75161057890313
 20
4.731198279939735
 30
0.0
 10
48.40397406878881
 20
4.598936568245922
 30
0.0
 10
48.20726764749246
 20
4.57407890246992
 30
0.0
 10
48.15983751818682
 20
4.568085187093359
 30
0.0
  0
SPLINE
  5
CB
330
1F
100
AcDbEntity
  8
0
  6
Continuous
 62
     1
370
    25
100
AcDbSpline
210
0.0
220
0.0
230
1.0
 70
     8
 71
     3
 72
     9
 73
     5
 74
     0
 42
0.000000001
 43
0.00000001
 40
0.0
 40
0.0
 40
0.0
 40
0.0
 40
0.6444929269601787
 40
1.0
 40
1.0
 40
1.0
 40
1.0
 10
51.73205080756886
 20
2.208415107906854
 30
0.0
 10
51.43026704357285
 20
2.393094204104954
 30
0.0
 10
50.96201711968399
 20
2.679643657904485
 30
0.0
 10
50.50366973825091
 20
2.936392726879002
 30
0.0
 10
50.34072400224214
 20
3.02766883689583
 30
0.0
  0
LINE
  5
CC
330
1F
100
AcDbEntity
  8
0
  6
Continuous
 62
     1
370
    25
100
AcDbLine
 10
51.73205080756886
 20
2.000161373826599
 30
0.0
 11
51.73205080756886
 21
2.208415107906854
 31
0.0
  0
ELLIPSE
  5
CD
330
1F
100
AcDbEntity
  8
0
  6
Continuous
 62
     1
370
    25
100
AcDbEllipse
 10
52.44612481093991
 20
0.0000000000000058
 30
0.0
 11
12.85333206067899
 21
0.0
 31
0.0
210
0.0
220
0.0
230
1.0
 40
0.7002075382097123
 41
1.626380500075813
 42
1.705849849293672
  0
LINE
  5
CE
330
1F
100
AcDbEntity
  8
0
  6
Continuous
 62
     1
370
    25
100
AcDbLine
 10
51.73205080756886
 20
8.986100377805727
 30
0.0
 11
51.73205080756886
 21
9.000000000000012
 31
0.0
  0
LINE
  5
CF
330
1F
100
AcDbEntity
  8
0
  6
Continuous
 62
     1
370
    25
100
AcDbLine
 10
51.73205080756886
 20
-0.4999999999999915
 30
0.0
 11
51.73205080756886
 21
-6.567570641756568
 31
0.0
  0
LINE
  5
D0
330
1F
100
AcDbEntity
  8
0
  6
Continuous
 62
     1
370
    25
100
AcDbLine
 10
51.73205080756886
 20
2.208415107906854
 30
0.0
 11
51.73205080756886
 21
8.986100377805727
 31
0.0
  0
LINE
  5
D1
330
1F
100
AcDbEntity
  8
중심선
100
AcDbLine
 10
-51.26794919243115
 20
0.0000000000000019
 30
0.0
 11
54.73205080756886
 21
0.0000000000000148
 31
0.0
  0
CIRCLE
  5
D2
330
1F
100
AcDbEntity
  8
해칭선
100
AcDbCircle
 10
-0.0075947830819895
 20
-0.0000000000000043
 30
0.0
 40
3.000000000000001
  0
INSERT
  5
D3
330
1F
100
AcDbEntity
  8
0
  6
Continuous
 62
     7
100
AcDbBlockReference
 66
     1
  2
블럭10
 10
-7.448147820842457
 20
-52.04717430164393
 30
0.0
  0
ATTRIB
  5
D4
330
D3
100
AcDbEntity
  8
FORMAT
 62
     2
100
AcDbText
 10
-20.40808701570023
 20
-49.97180738881174
 30
0.0
 40
4.233333333333333
  1
SEME71180E [ 4 FLUTE ]
 41
0.75
  7
SLDTEXTSTYLE0
 11
-20.40808701570023
 21
-52.08847405547841
 31
0.0
100
AcDbAttribute
  2
AUTOATTR0
 70
     0
 74
     1
  0
SEQEND
  5
D5
330
D3
100
AcDbEntity
  8
0
  6
Continuous
 62
     7
  0
HATCH
  5
D6
330
1F
100
AcDbEntity
  8
중심선
100
AcDbHatch
 10
0.0
 20
0.0
 30
0.0
210
0.0
220
0.0
230
1.0
  2
SOLID
 70
     1
 71
     0
 91
        1
 92
        0
 93
        4
 72
     1
 10
-1.733238516461622
 20
-35.8
 11
-5.179513760298904
 21
-35.8
 72
     1
 10
-5.179513760298904
 20
-35.8
 11
-7.307743619502927
 21
-38.33632558057262
 72
     1
 10
-7.307743619502927
 20
-38.33632558057262
 11
-3.861435290552495
 21
-38.33628615127013
 72
     1
 10
-3.861435290552495
 20
-38.33628615127013
 11
-1.733238516461622
 21
-35.8
 97
        0
 75
     0
 76
     1
 98
        1
 10
0.0
 20
0.0
  0
HATCH
  5
D7
330
1F
100
AcDbEntity
  8
중심선
100
AcDbHatch
 10
0.0
 20
0.0
 30
0.0
210
0.0
220
0.0
230
1.0
  2
SOLID
 70
     1
 71
     0
 91
        1
 92
        0
 93
        4
 72
     1
 10
3.279525474574357
 20
-35.79999999999997
 11
-0.1667497692629247
 21
-35.8
 72
     1
 10
-0.166749769262925
 20
-35.8
 11
-4.697887777620341
 21
-41.20000000000002
 72
     1
 10
-4.697887777620341
 20
-41.20000000000002
 11
-1.251612533783058
 21
-41.20000000000002
 72
     1
 10
-1.251612533783059
 20
-41.20000000000002
 11
3.279525474574357
 21
-35.79999999999997
 97
        0
 75
     0
 76
     1
 98
        1
 10
0.0
 20
0.0
  0
HATCH
  5
D8
330
1F
100
AcDbEntity
  8
중심선
100
AcDbHatch
 10
0.0
 20
0.0
 30
0.0
210
0.0
220
0.0
230
1.0
  2
SOLID
 70
     1
 71
     0
 91
        1
 92
        0
 93
        4
 72
     1
 10
8.292289465610253
 20
-35.8
 11
4.846014221773165
 21
-35.79999999999997
 72
     1
 10
4.846014221773165
 20
-35.79999999999997
 11
-2.20242268011614
 21
-44.20000000000002
 72
     1
 10
-2.20242268011614
 20
-44.20000000000002
 11
1.243852563721143
 21
-44.20000000000002
 72
     1
 10
1.243852563721143
 20
-44.20000000000002
 11
8.292289465610253
 21
-35.8
 97
        0
 75
     0
 76
     1
 98
        1
 10
0.0
 20
0.0
  0
HATCH
  5
D9
330
1F
100
AcDbEntity
  8
중심선
100
AcDbHatch
 10
0.0
 20
0.0
 30
0.0
210
0.0
220
0.0
230
1.0
  2
SOLID
 70
     1
 71
     0
 91
        1
 92
        0
 93
        6
 72
     3
 10
13.09217989662242
 20
-40.00000000005127
 11
3.960054785062284
 21
1.540850780301639E-10
 40
0.3939339440162633
 50
17.09539180608433
 51
320.0019657685081
 73
     0
 72
     1
 10
14.77517955232302
 20
-38.5878940046383
 11
17.08048142602409
 21
-36.65356729459035
 72
     3
 10
13.09217989656958
 20
-40.00000000000015
 11
6.600054785286829
 21
-1.249000902703301E-13
 40
0.6363583540795982
 50
39.99873849337411
 51
368.4976242363724
 73
     1
 72
     1
 10
19.51751238847019
 20
-39.03999999993002
 11
11.77224720340553
 21
-39.03999999993002
 72
     1
 10
11.77224720340553
 20
-39.03999999993002
 11
11.77222215895957
 21
-40.95999999992991
 72
     1
 10
11.77222215895957
 20
-40.95999999992991
 11
16.2136019284316
 21
-40.95999999992988
 97
        0
 75
     0
 76
     1
 98
        1
 10
0.0
 20
0.0
  0
DIMENSION
  5
DA
330
1F
100
AcDbEntity
  8
치수문자_일반주서
100
AcDbDimension
  2
_D
 10
62.91225017866479
 20
9.000000000000057
 30
0.0
 11
62.91225017866476
 21
19.54150000000006
 31
0.0
 70
   160
  1
%%c<>
 71
     2
 42
18.00000000000002
 52
-270.0
  3
SLDDIMSTYLE0
100
AcDbAlignedDimension
 13
51.73205080756885
 23
-9.000000000000004
 33
0.0
 14
51.73205080756885
 24
9.000000000000014
 34
0.0
 50
90.0000000000002
100
AcDbRotatedDimension
  0
DIMENSION
  5
E8
330
1F
100
AcDbEntity
  8
치수문자_일반주서
100
AcDbDimension
  2
_D_1
 10
51.73205080756887
 20
27.38913260158165
 30
0.0
 11
1.732050807568853
 21
27.38913260158165
 31
0.0
 70
   160
  1
<>
 71
     2
 42
100.0
  3
SLDDIMSTYLE1
100
AcDbAlignedDimension
 13
-48.26794919243115
 23
9.499999999999996
 33
0.0
 14
51.73205080756886
 24
9.000000000000012
 34
0.0
 50
-0.000000000000002
100
AcDbRotatedDimension
  0
DIMENSION
  5
F3
330
1F
100
AcDbEntity
  8
치수문자_일반주서
100
AcDbDimension
  2
_D_2
 10
-56.92451129259734
 20
-10.00000000000004
 30
0.0
 11
-56.92451129259744
 21
20.76024999999995
 31
0.0
 70
   160
  1
%%c<>
 71
     2
 42
19.99999999999999
 52
-270.0
  3
SLDDIMSTYLE2
100
AcDbAlignedDimension
 13
-47.76794919243113
 23
9.999999999999986
 33
0.0
 14
-47.76794919243113
 24
-10.0
 34
0.0
 50
90.0000000000002
100
AcDbRotatedDimension
  0
DIMENSION
  5
101
330
1F
100
AcDbEntity
  8
치수문자_일반주서
100
AcDbDimension
  2
_D_3
 10
51.73205080756886
 20
18.55855859710569
 30
0.0
 11
29.23205080756887
 21
18.55855859710569
 31
0.0
 70
   160
  1
<>
 71
     2
 42
45.00000000000001
  3
SLDDIMSTYLE1
100
AcDbAlignedDimension
 13
6.732050807568854
 23
8.0678049963661
 33
0.0
 14
51.73205080756886
 24
9.000000000000012
 34
0.0
 50
-0.0000000000000271
100
AcDbRotatedDimension
  0
INSERT
  5
111
330
1F
100
AcDbEntity
  8
해칭선
100
AcDbBlockReference
  2
SW_DOWELSYMBOL_0
 10
-0.0075947830819895
 20
-0.0000000000000043
 30
0.0
  0
LINE
  5
136
330
1F
100
AcDbEntity
  8
0
  6
Continuous
 62
     4
370
    25
100
AcDbLine
 10
6.732050807568854
 20
8.0678049963661
 30
0.0
 11
6.732050807568822
 21
-8.067804996366064
 31
0.0
  0
LINE
  5
169
330
1F
100
AcDbEntity
  8
0
  6
Continuous
 62
     4
370
    25
100
AcDbLine
 10
5.232330913204111
 20
9.499719894364734
 30
0.0
 11
4.732050807568845
 21
10.0
 31
0.0
1001
PE_URL
1000

  0
LINE
  5
16B
330
1F
100
AcDbEntity
  8
0
  6
Continuous
 62
     4
370
    25
100
AcDbLine
 10
4.732050807568845
 20
10.0
 30
0.0
 11
4.732050807568845
 21
-9.990750327821228
 31
0.0
1001
PE_URL
1000

  0
LINE
  5
16C
330
1F
100
AcDbEntity
  8
0
100
AcDbLine
 10
4.732050807568845
 20
-9.990750327821228
 30
0.0
 11
4.732050807568845
 21
-9.99999999999999
 31
0.0
  0
LINE
  5
16D
330
1F
100
AcDbEntity
  8
0
  6
Continuous
 62
     4
370
    25
100
AcDbLine
 10
5.232330913204158
 20
-9.499719894364716
 30
0.0
 11
4.732050807568895
 21
-9.999999999999986
 31
0.0
1001
PE_URL
1000

  0
ENDSEC
  0
SECTION
  2
OBJECTS
  0
DICTIONARY
  5
C
330
0
100
AcDbDictionary
281
     1
  3
ACAD_GROUP
350
D
  3
ACAD_IMAGE_VARS
350
135
  3
ACAD_LAYOUT
350
1A
  3
ACAD_MLINESTYLE
350
17
  3
ACAD_PLOTSETTINGS
350
19
  3
ACAD_PLOTSTYLENAME
350
E
  3
ACAD_SCALELIST
350
47
  3
APPDATA
350
133
  3
DWGPROPS
350
170
  0
DICTIONARY
  5
16E
330
1F
100
AcDbDictionary
280
     1
281
     1
  3
DIM_BOUNDING_BOXES_V1
360
16F
  0
DICTIONARY
  5
D
102
{ACAD_REACTORS
330
C
102
}
330
C
100
AcDbDictionary
281
     1
  0
RASTERVARIABLES
  5
135
102
{ACAD_REACTORS
330
C
102
}
330
C
100
AcDbRasterVariables
 90
        0
 70
     1
 71
     1
 72
     1
  0
DICTIONARY
  5
1A
102
{ACAD_REACTORS
330
C
102
}
330
C
100
AcDbDictionary
281
     1
  3
Layout1
350
1E
  3
Layout2
350
26
  3
Model
350
22
  0
DICTIONARY
  5
17
102
{ACAD_REACTORS
330
C
102
}
330
C
100
AcDbDictionary
281
     1
  3
Standard
350
18
  0
DICTIONARY
  5
19
102
{ACAD_REACTORS
330
C
102
}
330
C
100
AcDbDictionary
281
     1
  0
ACDBDICTIONARYWDFLT
  5
E
102
{ACAD_REACTORS
330
C
102
}
330
C
100
AcDbDictionary
281
     1
  3
Normal
350
F
100
AcDbDictionaryWithDefault
340
F
  0
DICTIONARY
  5
47
102
{ACAD_REACTORS
330
C
102
}
330
C
100
AcDbDictionary
281
     1
  3
A0
350
48
  3
A1
350
49
  3
A2
350
4A
  3
A3
350
4B
  3
A4
350
4C
  3
A5
350
4D
  3
A6
350
4E
  3
A7
350
4F
  3
A8
350
50
  3
A9
350
51
  3
B0
350
52
  3
B1
350
53
  3
B2
350
54
  3
B3
350
55
  3
B4
350
56
  3
B5
350
57
  3
B6
350
58
  3
B7
350
59
  3
B8
350
5A
  3
B9
350
5B
  3
C0
350
5C
  3
C1
350
5D
  3
C2
350
5E
  3
C3
350
5F
  3
C4
350
60
  3
C5
350
61
  3
C6
350
62
  3
C7
350
63
  3
C8
350
64
  3
C9
350
65
  3
D0
350
66
  3
D1
350
67
  3
D2
350
68
  0
DICTIONARY
  5
133
102
{ACAD_REACTORS
330
C
102
}
330
C
100
AcDbDictionary
281
     1
  0
XRECORD
  5
170
102
{ACAD_REACTORS
330
C
102
}
330
C
100
AcDbXrecord
280
     1
  1
DWGPROPS COOKIE
  2

  3

  4

  6

  7

  8
12014102
  9

300
=
301
=
302
=
303
=
304
=
305
=
306
=
307
=
308
=
309
=
 40
0.0
 41
2458260.121192153
 42
2459699.239162488
  1

 90
        0
  0
DICTIONARY
  5
16F
102
{ACAD_REACTORS
330
16E
102
}
330
16E
100
AcDbDictionary
281
     1
  0
LAYOUT
  5
1E
102
{ACAD_REACTORS
330
1A
102
}
330
1A
100
AcDbPlotSettings
  1

  2
none_device
  4

  6

 40
0.0
 41
0.0
 42
0.0
 43
0.0
 44
0.0
 45
0.0
 46
0.0
 47
0.0
 48
0.0
 49
0.0
140
0.0
141
0.0
142
1.0
143
1.0
 70
   688
 72
     1
 73
     0
 74
     5
  7

 75
    16
147
1.0
148
0.0
149
0.0
100
AcDbLayout
  1
Layout1
 70
     1
 71
     1
 10
0.0
 20
0.0
 11
420.0
 21
297.0
 12
0.0
 22
0.0
 32
0.0
 14
1.000000000000000E+20
 24
1.000000000000000E+20
 34
1.000000000000000E+20
 15
-1.000000000000000E+20
 25
-1.000000000000000E+20
 35
-1.000000000000000E+20
146
0.0
 13
0.0
 23
0.0
 33
0.0
 16
1.0
 26
0.0
 36
0.0
 17
0.0
 27
1.0
 37
0.0
 76
     0
330
1B
  0
LAYOUT
  5
26
102
{ACAD_REACTORS
330
1A
102
}
330
1A
100
AcDbPlotSettings
  1

  2
none_device
  4

  6

 40
0.0
 41
0.0
 42
0.0
 43
0.0
 44
0.0
 45
0.0
 46
0.0
 47
0.0
 48
0.0
 49
0.0
140
0.0
141
0.0
142
1.0
143
1.0
 70
   688
 72
     1
 73
     0
 74
     5
  7

 75
    16
147
1.0
148
0.0
149
0.0
100
AcDbLayout
  1
Layout2
 70
     1
 71
     2
 10
0.0
 20
0.0
 11
0.0
 21
0.0
 12
0.0
 22
0.0
 32
0.0
 14
0.0
 24
0.0
 34
0.0
 15
0.0
 25
0.0
 35
0.0
146
0.0
 13
0.0
 23
0.0
 33
0.0
 16
1.0
 26
0.0
 36
0.0
 17
0.0
 27
1.0
 37
0.0
 76
     0
330
23
  0
LAYOUT
  5
22
102
{ACAD_REACTORS
330
1A
102
}
330
1A
100
AcDbPlotSettings
  1

  2
none_device
  4
ANSI_A_(11.00_x_8.50_Inches)
  6

 40
6.35
 41
19.05
 42
6.35000508
 43
19.05000254
 44
279.4
 45
215.9
 46
121.3194754074848
 47
108.1948624775287
 48
0.0
 49
0.0
140
0.0
141
0.0
142
0.0807487851913164
143
1.0
 70
  1696
 72
     0
 73
     0
 74
     0
  7

 75
     0
147
0.0235690232323232
148
0.0
149
0.0
100
AcDbLayout
  1
Model
 70
     1
 71
     0
 10
0.0
 20
0.0
 11
420.0
 21
297.0
 12
0.0
 22
0.0
 32
0.0
 14
-61.29951129259746
 24
-49.97180738881174
 34
0.0
 15
63.4625835119982
 25
31.76413260158165
 35
0.0
146
0.0
 13
0.0
 23
0.0
 33
0.0
 16
1.0
 26
0.0
 36
0.0
 17
0.0
 27
1.0
 37
0.0
 76
     0
330
1F
331
29
  0
MLINESTYLE
  5
18
102
{ACAD_REACTORS
330
17
102
}
330
17
100
AcDbMlineStyle
  2
Standard
 70
     0
  3

 62
   256
 51
90.0
 52
90.0
 71
     2
 49
0.5
 62
   256
  6
BYLAYER
 49
-0.5
 62
   256
  6
BYLAYER
  0
ACDBPLACEHOLDER
  5
F
102
{ACAD_REACTORS
330
E
102
}
330
E
  0
SCALE
  5
48
102
{ACAD_REACTORS
330
47
102
}
330
47
100
AcDbScale
 70
     0
300
1:1
140
1.0
141
1.0
290
     1
  0
SCALE
  5
49
102
{ACAD_REACTORS
330
47
102
}
330
47
100
AcDbScale
 70
     0
300
1:2
140
1.0
141
2.0
290
     0
  0
SCALE
  5
4A
102
{ACAD_REACTORS
330
47
102
}
330
47
100
AcDbScale
 70
     0
300
1:4
140
1.0
141
4.0
290
     0
  0
SCALE
  5
4B
102
{ACAD_REACTORS
330
47
102
}
330
47
100
AcDbScale
 70
     0
300
1:5
140
1.0
141
5.0
290
     0
  0
SCALE
  5
4C
102
{ACAD_REACTORS
330
47
102
}
330
47
100
AcDbScale
 70
     0
300
1:8
140
1.0
141
8.0
290
     0
  0
SCALE
  5
4D
102
{ACAD_REACTORS
330
47
102
}
330
47
100
AcDbScale
 70
     0
300
1:10
140
1.0
141
10.0
290
     0
  0
SCALE
  5
4E
102
{ACAD_REACTORS
330
47
102
}
330
47
100
AcDbScale
 70
     0
300
1:16
140
1.0
141
16.0
290
     0
  0
SCALE
  5
4F
102
{ACAD_REACTORS
330
47
102
}
330
47
100
AcDbScale
 70
     0
300
1:20
140
1.0
141
20.0
290
     0
  0
SCALE
  5
50
102
{ACAD_REACTORS
330
47
102
}
330
47
100
AcDbScale
 70
     0
300
1:30
140
1.0
141
30.0
290
     0
  0
SCALE
  5
51
102
{ACAD_REACTORS
330
47
102
}
330
47
100
AcDbScale
 70
     0
300
1:40
140
1.0
141
40.0
290
     0
  0
SCALE
  5
52
102
{ACAD_REACTORS
330
47
102
}
330
47
100
AcDbScale
 70
     0
300
1:50
140
1.0
141
50.0
290
     0
  0
SCALE
  5
53
102
{ACAD_REACTORS
330
47
102
}
330
47
100
AcDbScale
 70
     0
300
1:100
140
1.0
141
100.0
290
     0
  0
SCALE
  5
54
102
{ACAD_REACTORS
330
47
102
}
330
47
100
AcDbScale
 70
     0
300
2:1
140
2.0
141
1.0
290
     0
  0
SCALE
  5
55
102
{ACAD_REACTORS
330
47
102
}
330
47
100
AcDbScale
 70
     0
300
4:1
140
4.0
141
1.0
290
     0
  0
SCALE
  5
56
102
{ACAD_REACTORS
330
47
102
}
330
47
100
AcDbScale
 70
     0
300
8:1
140
8.0
141
1.0
290
     0
  0
SCALE
  5
57
102
{ACAD_REACTORS
330
47
102
}
330
47
100
AcDbScale
 70
     0
300
10:1
140
10.0
141
1.0
290
     0
  0
SCALE
  5
58
102
{ACAD_REACTORS
330
47
102
}
330
47
100
AcDbScale
 70
     0
300
100:1
140
100.0
141
1.0
290
     0
  0
SCALE
  5
59
102
{ACAD_REACTORS
330
47
102
}
330
47
100
AcDbScale
 70
     0
300
1/128" = 1'-0"
140
0.0078125
141
12.0
290
     0
  0
SCALE
  5
5A
102
{ACAD_REACTORS
330
47
102
}
330
47
100
AcDbScale
 70
     0
300
1/64" = 1'-0"
140
0.015625
141
12.0
290
     0
  0
SCALE
  5
5B
102
{ACAD_REACTORS
330
47
102
}
330
47
100
AcDbScale
 70
     0
300
1/32" = 1'-0"
140
0.03125
141
12.0
290
     0
  0
SCALE
  5
5C
102
{ACAD_REACTORS
330
47
102
}
330
47
100
AcDbScale
 70
     0
300
1/16" = 1'-0"
140
0.0625
141
12.0
290
     0
  0
SCALE
  5
5D
102
{ACAD_REACTORS
330
47
102
}
330
47
100
AcDbScale
 70
     0
300
3/32" = 1'-0"
140
0.09375
141
12.0
290
     0
  0
SCALE
  5
5E
102
{ACAD_REACTORS
330
47
102
}
330
47
100
AcDbScale
 70
     0
300
1/8" = 1'-0"
140
0.125
141
12.0
290
     0
  0
SCALE
  5
5F
102
{ACAD_REACTORS
330
47
102
}
330
47
100
AcDbScale
 70
     0
300
3/16" = 1'-0"
140
0.1875
141
12.0
290
     0
  0
SCALE
  5
60
102
{ACAD_REACTORS
330
47
102
}
330
47
100
AcDbScale
 70
     0
300
1/4" = 1'-0"
140
0.25
141
12.0
290
     0
  0
SCALE
  5
61
102
{ACAD_REACTORS
330
47
102
}
330
47
100
AcDbScale
 70
     0
300
3/8" = 1'-0"
140
0.375
141
12.0
290
     0
  0
SCALE
  5
62
102
{ACAD_REACTORS
330
47
102
}
330
47
100
AcDbScale
 70
     0
300
1/2" = 1'-0"
140
0.5
141
12.0
290
     0
  0
SCALE
  5
63
102
{ACAD_REACTORS
330
47
102
}
330
47
100
AcDbScale
 70
     0
300
3/4" = 1'-0"
140
0.75
141
12.0
290
     0
  0
SCALE
  5
64
102
{ACAD_REACTORS
330
47
102
}
330
47
100
AcDbScale
 70
     0
300
1" = 1'-0"
140
1.0
141
12.0
290
     0
  0
SCALE
  5
65
102
{ACAD_REACTORS
330
47
102
}
330
47
100
AcDbScale
 70
     0
300
1-1/2" = 1'-0"
140
1.5
141
12.0
290
     0
  0
SCALE
  5
66
102
{ACAD_REACTORS
330
47
102
}
330
47
100
AcDbScale
 70
     0
300
3" = 1'-0"
140
3.0
141
12.0
290
     0
  0
SCALE
  5
67
102
{ACAD_REACTORS
330
47
102
}
330
47
100
AcDbScale
 70
     0
300
6" = 1'-0"
140
6.0
141
12.0
290
     0
  0
SCALE
  5
68
102
{ACAD_REACTORS
330
47
102
}
330
47
100
AcDbScale
 70
     0
300
1'-0" = 1'-0"
140
12.0
141
12.0
290
     0
  0
ENDSEC
  0
EOF
