  0
SECTION
  2
HEADER
  9
$ACADVER
  1
AC1015
  9
$ACADMAINTVER
 70
     6
  9
$DWGCODEPAGE
  3
ANSI_949
  9
$INSBASE
 10
0.0
 20
0.0
 30
0.0
  9
$EXTMIN
 10
-56.96195599275605
 20
-49.97180738881175
 30
0.0
  9
$EXTMAX
 10
28.9975827087771
 20
24.76413260158164
 30
0.0
  9
$LIMMIN
 10
0.0
 20
0.0
  9
$LIMMAX
 10
420.0
 20
297.0
  9
$ORTHOMODE
 70
     0
  9
$REGENMODE
 70
     1
  9
$FILLMODE
 70
     1
  9
$QTEXTMODE
 70
     0
  9
$MIRRTEXT
 70
     1
  9
$LTSCALE
 40
1.0
  9
$ATTMODE
 70
     1
  9
$TEXTSIZE
 40
3.5
  9
$TRACEWID
 40
1.0
  9
$TEXTSTYLE
  7
Standard
  9
$CLAYER
  8
0
  9
$CELTYPE
  6
ByLayer
  9
$CECOLOR
 62
   256
  9
$CELTSCALE
 40
1.0
  9
$DISPSILH
 70
     0
  9
$DIMSCALE
 40
1.0
  9
$DIMASZ
 40
3.302
  9
$DIMEXO
 40
1.0
  9
$DIMDLI
 40
3.75
  9
$DIMRND
 40
0.0
  9
$DIMDLE
 40
0.0
  9
$DIMEXE
 40
1.0
  9
$DIMTP
 40
0.0
  9
$DIMTM
 40
0.0
  9
$DIMTXT
 40
3.5
  9
$DIMCEN
 40
2.5
  9
$DIMTSZ
 40
0.0
  9
$DIMTOL
 70
     0
  9
$DIMLIM
 70
     0
  9
$DIMTIH
 70
     1
  9
$DIMTOH
 70
     1
  9
$DIMSE1
 70
     0
  9
$DIMSE2
 70
     0
  9
$DIMTAD
 70
     1
  9
$DIMZIN
 70
     0
  9
$DIMBLK
  1

  9
$DIMASO
 70
     1
  9
$DIMSHO
 70
     1
  9
$DIMPOST
  1

  9
$DIMAPOST
  1

  9
$DIMALT
 70
     0
  9
$DIMALTD
 70
     3
  9
$DIMALTF
 40
0.0393700787401575
  9
$DIMLFAC
 40
1.0
  9
$DIMTOFL
 70
     1
  9
$DIMTVP
 40
0.0
  9
$DIMTIX
 70
     0
  9
$DIMSOXD
 70
     0
  9
$DIMSAH
 70
     0
  9
$DIMBLK1
  1

  9
$DIMBLK2
  1

  9
$DIMSTYLE
  2
ISO-25
  9
$DIMCLRD
 70
     0
  9
$DIMCLRE
 70
     0
  9
$DIMCLRT
 70
     0
  9
$DIMTFAC
 40
1.0
  9
$DIMGAP
 40
1.524
  9
$DIMJUST
 70
     0
  9
$DIMSD1
 70
     0
  9
$DIMSD2
 70
     0
  9
$DIMTOLJ
 70
     0
  9
$DIMTZIN
 70
     0
  9
$DIMALTZ
 70
     0
  9
$DIMALTTZ
 70
     0
  9
$DIMUPT
 70
     0
  9
$DIMDEC
 70
     2
  9
$DIMTDEC
 70
     2
  9
$DIMALTU
 70
     2
  9
$DIMALTTD
 70
     3
  9
$DIMTXSTY
  7
Standard
  9
$DIMAUNIT
 70
     0
  9
$DIMADEC
 70
     2
  9
$DIMALTRND
 40
0.0
  9
$DIMAZIN
 70
     0
  9
$DIMDSEP
 70
    44
  9
$DIMATFIT
 70
     3
  9
$DIMFRAC
 70
     0
  9
$DIMLDRBLK
  1

  9
$DIMLUNIT
 70
     2
  9
$DIMLWD
 70
    -2
  9
$DIMLWE
 70
    -2
  9
$DIMTMOVE
 70
     0
  9
$LUNITS
 70
     2
  9
$LUPREC
 70
     2
  9
$SKETCHINC
 40
1.0
  9
$FILLETRAD
 40
10.0
  9
$AUNITS
 70
     0
  9
$AUPREC
 70
     2
  9
$MENU
  1
.
  9
$ELEVATION
 40
0.0
  9
$PELEVATION
 40
0.0
  9
$THICKNESS
 40
0.0
  9
$LIMCHECK
 70
     0
  9
$CHAMFERA
 40
0.0
  9
$CHAMFERB
 40
0.0
  9
$CHAMFERC
 40
0.0
  9
$CHAMFERD
 40
0.0
  9
$SKPOLY
 70
     0
  9
$TDCREATE
 40
2458260.56568316
  9
$TDUCREATE
 40
2458260.19068316
  9
$TDUPDATE
 40
2458268.462034572
  9
$TDUUPDATE
 40
2458268.087034572
  9
$TDINDWG
 40
0.0018279977
  9
$TDUSRTIMER
 40
2458268.085206609
  9
$USRTIMER
 70
     1
  9
$ANGBASE
 50
0.0
  9
$ANGDIR
 70
     0
  9
$PDMODE
 70
     0
  9
$PDSIZE
 40
-1.0
  9
$PLINEWID
 40
0.0
  9
$SPLFRAME
 70
     0
  9
$SPLINETYPE
 70
     6
  9
$SPLINESEGS
 70
     8
  9
$HANDSEED
  5
15C
  9
$SURFTAB1
 70
     6
  9
$SURFTAB2
 70
     6
  9
$SURFTYPE
 70
     6
  9
$SURFU
 70
     6
  9
$SURFV
 70
     6
  9
$UCSBASE
  2

  9
$UCSNAME
  2

  9
$UCSORG
 10
0.0
 20
0.0
 30
0.0
  9
$UCSXDIR
 10
1.0
 20
0.0
 30
0.0
  9
$UCSYDIR
 10
0.0
 20
1.0
 30
0.0
  9
$UCSORTHOREF
  2

  9
$UCSORTHOVIEW
 70
     0
  9
$UCSORGTOP
 10
0.0
 20
0.0
 30
0.0
  9
$UCSORGBOTTOM
 10
0.0
 20
0.0
 30
0.0
  9
$UCSORGLEFT
 10
0.0
 20
0.0
 30
0.0
  9
$UCSORGRIGHT
 10
0.0
 20
0.0
 30
0.0
  9
$UCSORGFRONT
 10
0.0
 20
0.0
 30
0.0
  9
$UCSORGBACK
 10
0.0
 20
0.0
 30
0.0
  9
$PUCSBASE
  2

  9
$PUCSNAME
  2

  9
$PUCSORG
 10
0.0
 20
0.0
 30
0.0
  9
$PUCSXDIR
 10
1.0
 20
0.0
 30
0.0
  9
$PUCSYDIR
 10
0.0
 20
1.0
 30
0.0
  9
$PUCSORTHOREF
  2

  9
$PUCSORTHOVIEW
 70
     0
  9
$PUCSORGTOP
 10
0.0
 20
0.0
 30
0.0
  9
$PUCSORGBOTTOM
 10
0.0
 20
0.0
 30
0.0
  9
$PUCSORGLEFT
 10
0.0
 20
0.0
 30
0.0
  9
$PUCSORGRIGHT
 10
0.0
 20
0.0
 30
0.0
  9
$PUCSORGFRONT
 10
0.0
 20
0.0
 30
0.0
  9
$PUCSORGBACK
 10
0.0
 20
0.0
 30
0.0
  9
$USERI1
 70
     0
  9
$USERI2
 70
     0
  9
$USERI3
 70
     0
  9
$USERI4
 70
     0
  9
$USERI5
 70
     0
  9
$USERR1
 40
0.0
  9
$USERR2
 40
0.0
  9
$USERR3
 40
0.0
  9
$USERR4
 40
0.0
  9
$USERR5
 40
0.0
  9
$WORLDVIEW
 70
     1
  9
$SHADEDGE
 70
     3
  9
$SHADEDIF
 70
    70
  9
$TILEMODE
 70
     1
  9
$MAXACTVP
 70
    64
  9
$PINSBASE
 10
0.0
 20
0.0
 30
0.0
  9
$PLIMCHECK
 70
     0
  9
$PEXTMIN
 10
1.000000000000000E+20
 20
1.000000000000000E+20
 30
1.000000000000000E+20
  9
$PEXTMAX
 10
-1.000000000000000E+20
 20
-1.000000000000000E+20
 30
-1.000000000000000E+20
  9
$PLIMMIN
 10
0.0
 20
0.0
  9
$PLIMMAX
 10
0.0
 20
0.0
  9
$UNITMODE
 70
     0
  9
$VISRETAIN
 70
     1
  9
$PLINEGEN
 70
     0
  9
$PSLTSCALE
 70
     1
  9
$TREEDEPTH
 70
  3020
  9
$CMLSTYLE
  2
Standard
  9
$CMLJUST
 70
     0
  9
$CMLSCALE
 40
20.0
  9
$PROXYGRAPHICS
 70
     1
  9
$MEASUREMENT
 70
     1
  9
$CELWEIGHT
370
    -1
  9
$ENDCAPS
280
     0
  9
$JOINSTYLE
280
     0
  9
$LWDISPLAY
290
     1
  9
$INSUNITS
 70
     4
  9
$HYPERLINKBASE
  1

  9
$STYLESHEET
  1

  9
$XEDIT
290
     1
  9
$CEPSNTYPE
380
     0
  9
$PSTYLEMODE
290
     1
  9
$FINGERPRINTGUID
  2
{92F8DE1F-1921-41F2-84B0-A45902912350}
  9
$VERSIONGUID
  2
{FAEB1C32-E019-11D5-929B-00C0DF256EC4}
  9
$EXTNAMES
290
     1
  9
$PSVPSCALE
 40
0.0
  9
$OLESTARTUP
290
     0
  0
ENDSEC
  0
SECTION
  2
CLASSES
  0
CLASS
  1
ACDBDICTIONARYWDFLT
  2
AcDbDictionaryWithDefault
  3
ObjectDBX Classes
 90
        0
280
     0
281
     0
  0
CLASS
  1
VISUALSTYLE
  2
AcDbVisualStyle
  3
ObjectDBX Classes
 90
     4095
280
     0
281
     0
  0
CLASS
  1
MATERIAL
  2
AcDbMaterial
  3
ObjectDBX Classes
 90
     1153
280
     0
281
     0
  0
CLASS
  1
SCALE
  2
AcDbScale
  3
ObjectDBX Classes
 90
     1153
280
     0
281
     0
  0
CLASS
  1
TABLESTYLE
  2
AcDbTableStyle
  3
ObjectDBX Classes
 90
     4095
280
     0
281
     0
  0
CLASS
  1
MLEADERSTYLE
  2
AcDbMLeaderStyle
  3
ACDB_MLEADERSTYLE_CLASS
 90
     4095
280
     0
281
     0
  0
CLASS
  1
SUN
  2
AcDbSun
  3
SCENEOE
 90
     1153
280
     0
281
     0
  0
CLASS
  1
ACDBPLACEHOLDER
  2
AcDbPlaceHolder
  3
ObjectDBX Classes
 90
        0
280
     0
281
     0
  0
CLASS
  1
LAYOUT
  2
AcDbLayout
  3
ObjectDBX Classes
 90
        0
280
     0
281
     0
  0
CLASS
  1
RASTERVARIABLES
  2
AcDbRasterVariables
  3
ISM
 90
        0
280
     0
281
     0
  0
ENDSEC
  0
SECTION
  2
TABLES
  0
TABLE
  2
VPORT
  5
8
330
0
100
AcDbSymbolTable
 70
     1
  0
VPORT
  5
29
330
8
100
AcDbSymbolTableRecord
100
AcDbViewportTableRecord
  2
*Active
 70
     0
 10
0.0
 20
0.0
 11
1.0
 21
1.0
 12
-13.98218664198947
 22
-12.60383739361505
 13
0.0
 23
0.0
 14
10.0
 24
10.0
 15
10.0
 25
10.0
 16
0.0
 26
0.0
 36
1.0
 17
0.0
 27
0.0
 37
0.0
 40
76.23065879020126
 41
1.736434108527132
 42
50.0
 43
0.0
 44
0.0
 50
0.0
 51
0.0
 71
    16
 72
  2000
 73
     1
 74
     3
 75
     0
 76
     0
 77
     0
 78
     0
281
     0
 65
     1
110
0.0
120
0.0
130
0.0
111
1.0
121
0.0
131
0.0
112
0.0
122
1.0
132
0.0
 79
     0
146
0.0
  0
ENDTAB
  0
TABLE
  2
LTYPE
  5
5
330
0
100
AcDbSymbolTable
 70
     6
  0
LTYPE
  5
14
330
5
100
AcDbSymbolTableRecord
100
AcDbLinetypeTableRecord
  2
ByBlock
 70
     0
  3

 72
    65
 73
     0
 40
0.0
  0
LTYPE
  5
15
330
5
100
AcDbSymbolTableRecord
100
AcDbLinetypeTableRecord
  2
ByLayer
 70
     0
  3

 72
    65
 73
     0
 40
0.0
  0
LTYPE
  5
16
330
5
100
AcDbSymbolTableRecord
100
AcDbLinetypeTableRecord
  2
Continuous
 70
     0
  3
Solid line
 72
    65
 73
     0
 40
0.0
  0
LTYPE
  5
6E
330
5
100
AcDbSymbolTableRecord
100
AcDbLinetypeTableRecord
  2
HIDDEN
 70
     0
  3
Hidden __ __ __ __ __ __ __ __ __ __ __ __ __ __
 72
    65
 73
     2
 40
1.905
 49
1.27
 74
     0
 49
-0.635
 74
     0
  0
LTYPE
  5
6F
330
5
100
AcDbSymbolTableRecord
100
AcDbLinetypeTableRecord
  2
PHANTOM
 70
     0
  3
Phantom ______  __  __  ______  __  __  ______
 72
    65
 73
     6
 40
12.7
 49
6.35
 74
     0
 49
-1.27
 74
     0
 49
1.27
 74
     0
 49
-1.27
 74
     0
 49
1.27
 74
     0
 49
-1.27
 74
     0
  0
LTYPE
  5
70
330
5
100
AcDbSymbolTableRecord
100
AcDbLinetypeTableRecord
  2
CENTER
 70
     0
  3
Center ____ _ ____ _ ____ _ ____ _ ____ _ ____
 72
    65
 73
     4
 40
10.16
 49
6.35
 74
     0
 49
-1.27
 74
     0
 49
1.27
 74
     0
 49
-1.27
 74
     0
  0
LTYPE
  5
71
330
5
100
AcDbSymbolTableRecord
100
AcDbLinetypeTableRecord
  2
CENTERX2
 70
     0
  3
Center (2x) ________  __  ________  __  _____
 72
    65
 73
     4
 40
20.32
 49
12.7
 74
     0
 49
-2.54
 74
     0
 49
2.54
 74
     0
 49
-2.54
 74
     0
  0
LTYPE
  5
72
330
5
100
AcDbSymbolTableRecord
100
AcDbLinetypeTableRecord
  2
DOT2
 70
     0
  3
Dot (.5x) ........................................
 72
    65
 73
     2
 40
0.635
 49
0.0
 74
     0
 49
-0.635
 74
     0
  0
ENDTAB
  0
TABLE
  2
LAYER
  5
2
330
0
100
AcDbSymbolTable
 70
    17
  0
LAYER
  5
10
330
2
100
AcDbSymbolTableRecord
100
AcDbLayerTableRecord
  2
0
 70
     0
 62
     7
  6
Continuous
370
    -3
390
F
  0
LAYER
  5
73
330
2
100
AcDbSymbolTableRecord
100
AcDbLayerTableRecord
  2
FORMAT
 70
     0
 62
     2
  6
Continuous
370
    -3
390
F
  0
LAYER
  5
74
330
2
100
AcDbSymbolTableRecord
100
AcDbLayerTableRecord
  2
외형선
 70
     0
 62
   100
  6
Continuous
370
    35
390
F
  0
LAYER
  5
75
330
2
100
AcDbSymbolTableRecord
100
AcDbLayerTableRecord
  2
숨은선
 70
     0
 62
     2
  6
HIDDEN
370
    25
390
F
  0
LAYER
  5
76
330
2
100
AcDbSymbolTableRecord
100
AcDbLayerTableRecord
  2
중심선
 70
     0
 62
     1
  6
CENTERX2
370
    -3
390
F
  0
LAYER
  5
77
330
2
100
AcDbSymbolTableRecord
100
AcDbLayerTableRecord
  2
파단선
 70
     0
 62
     4
  6
Continuous
370
    -3
390
F
  0
LAYER
  5
78
330
2
100
AcDbSymbolTableRecord
100
AcDbLayerTableRecord
  2
해칭선
 70
     0
 62
   100
  6
Continuous
370
    -3
390
F
  0
LAYER
  5
79
330
2
100
AcDbSymbolTableRecord
100
AcDbLayerTableRecord
  2
가는실선
 70
     0
 62
     4
  6
Continuous
370
    -3
390
F
  0
LAYER
  5
7A
330
2
100
AcDbSymbolTableRecord
100
AcDbLayerTableRecord
  2
치수_보조선
 70
     0
 62
     4
  6
Continuous
370
    -3
390
F
  0
LAYER
  5
7B
330
2
100
AcDbSymbolTableRecord
100
AcDbLayerTableRecord
  2
치수문자_일반주서
 70
     0
 62
     7
  6
Continuous
370
    25
390
F
  0
LAYER
  5
7C
330
2
100
AcDbSymbolTableRecord
100
AcDbLayerTableRecord
  2
개별주서
 70
     0
 62
   100
  6
Continuous
370
    35
390
F
  0
LAYER
  5
7D
330
2
100
AcDbSymbolTableRecord
100
AcDbLayerTableRecord
  2
중간선
 70
     0
 62
     2
  6
Continuous
370
    25
390
F
  0
LAYER
  5
7E
330
2
100
AcDbSymbolTableRecord
100
AcDbLayerTableRecord
  2
윤곽선
 70
     0
 62
     3
  6
Continuous
370
    50
390
F
  0
LAYER
  5
7F
330
2
100
AcDbSymbolTableRecord
100
AcDbLayerTableRecord
  2
중심마크
 70
     0
 62
   100
  6
Continuous
370
    35
390
F
  0
LAYER
  5
80
330
2
100
AcDbSymbolTableRecord
100
AcDbLayerTableRecord
  2
가상선
 70
     0
 62
     4
  6
PHANTOM
370
    -3
390
F
  0
LAYER
  5
81
330
2
100
AcDbSymbolTableRecord
100
AcDbLayerTableRecord
  2
특수지정선
 70
     0
 62
     5
  6
CENTERX2
370
    70
390
F
  0
LAYER
  5
14A
330
2
100
AcDbSymbolTableRecord
100
AcDbLayerTableRecord
  2
Defpoints
 70
     0
 62
     7
  6
Continuous
290
     0
370
    -3
390
F
  0
ENDTAB
  0
TABLE
  2
STYLE
  5
3
330
0
100
AcDbSymbolTable
 70
     2
  0
STYLE
  5
11
330
3
100
AcDbSymbolTableRecord
100
AcDbTextStyleTableRecord
  2
Standard
 70
     0
 40
0.0
 41
1.0
 50
0.0
 71
     0
 42
3.5
  3
txt
  4

  0
STYLE
  5
97
330
3
100
AcDbSymbolTableRecord
100
AcDbTextStyleTableRecord
  2
SLDTEXTSTYLE0
 70
     0
 40
0.0
 41
0.75
 50
0.0
 71
     0
 42
3.5
  3
TXT
  4

  0
ENDTAB
  0
TABLE
  2
VIEW
  5
6
330
0
100
AcDbSymbolTable
 70
     0
  0
ENDTAB
  0
TABLE
  2
UCS
  5
7
330
0
100
AcDbSymbolTable
 70
     0
  0
ENDTAB
  0
TABLE
  2
APPID
  5
9
330
0
100
AcDbSymbolTable
 70
     1
  0
APPID
  5
12
330
9
100
AcDbSymbolTableRecord
100
AcDbRegAppTableRecord
  2
ACAD
 70
     0
  0
ENDTAB
  0
TABLE
  2
DIMSTYLE
  5
A
330
0
100
AcDbSymbolTable
 70
     4
100
AcDbDimStyleTable
  0
DIMSTYLE
105
27
330
A
100
AcDbSymbolTableRecord
100
AcDbDimStyleTableRecord
  2
ISO-25
 70
     0
 41
2.5
 42
0.625
 43
3.75
 44
1.25
 73
     0
 74
     0
 77
     1
 78
     8
140
2.5
141
2.5
143
0.03937007874016
147
0.625
171
     3
172
     1
178
     0
271
     2
272
     2
274
     3
278
    44
283
     0
284
     8
340
11
  0
DIMSTYLE
105
ED
102
{ACAD_REACTORS
330
EC
102
}
330
A
100
AcDbSymbolTableRecord
100
AcDbDimStyleTableRecord
  2
SLDDIMSTYLE0
 70
     0
 41
3.302
 44
0.0
 45
0.000000001
 73
     0
 74
     0
 77
     1
 78
    12
 79
     3
140
3.5
147
0.875
172
     1
173
     1
178
     0
271
     1
272
     1
276
     2
284
    12
289
     0
340
97
  0
DIMSTYLE
105
FB
102
{ACAD_REACTORS
330
FA
102
}
330
A
100
AcDbSymbolTableRecord
100
AcDbDimStyleTableRecord
  2
SLDDIMSTYLE1
 70
     0
 41
3.302
 44
0.0
 45
0.000000001
 73
     0
 74
     0
 77
     1
 78
    12
 79
     3
140
3.5
147
0.875
173
     1
178
     0
271
     2
272
     2
276
     2
284
    12
340
97
  0
DIMSTYLE
105
106
102
{ACAD_REACTORS
330
105
330
113
102
}
330
A
100
AcDbSymbolTableRecord
100
AcDbDimStyleTableRecord
  2
SLDDIMSTYLE2
 70
     0
 41
3.302
 44
0.0
 45
0.000000001
 73
     0
 74
     0
 77
     1
 78
    12
 79
     3
140
3.5
147
0.875
172
     1
173
     1
178
     0
271
     2
272
     2
276
     2
284
    12
289
     0
340
97
  0
ENDTAB
  0
TABLE
  2
BLOCK_RECORD
  5
1
330
0
100
AcDbSymbolTable
 70
     7
  0
BLOCK_RECORD
  5
1F
330
1
100
AcDbSymbolTableRecord
100
AcDbBlockTableRecord
  2
*Model_Space
340
22
  0
BLOCK_RECORD
  5
1B
330
1
100
AcDbSymbolTableRecord
100
AcDbBlockTableRecord
  2
*Paper_Space
340
1E
  0
BLOCK_RECORD
  5
23
330
1
100
AcDbSymbolTableRecord
100
AcDbBlockTableRecord
  2
*Paper_Space0
340
26
  0
BLOCK_RECORD
  5
82
330
1
100
AcDbSymbolTableRecord
100
AcDbBlockTableRecord
  2
블럭10
340
0
102
{BLKREFS
331
E5
102
}
  0
BLOCK_RECORD
  5
EE
330
1
100
AcDbSymbolTableRecord
100
AcDbBlockTableRecord
  2
_D
340
0
  0
BLOCK_RECORD
  5
FC
330
1
100
AcDbSymbolTableRecord
100
AcDbBlockTableRecord
  2
_D_1
340
0
  0
BLOCK_RECORD
  5
107
330
1
100
AcDbSymbolTableRecord
100
AcDbBlockTableRecord
  2
_D_2
340
0
  0
BLOCK_RECORD
  5
114
330
1
100
AcDbSymbolTableRecord
100
AcDbBlockTableRecord
  2
_D_3
340
0
  0
BLOCK_RECORD
  5
11F
330
1
100
AcDbSymbolTableRecord
100
AcDbBlockTableRecord
  2
SW_DOWELSYMBOL_0
340
0
102
{BLKREFS
331
125
102
}
  0
ENDTAB
  0
ENDSEC
  0
SECTION
  2
BLOCKS
  0
BLOCK
  5
20
330
1F
100
AcDbEntity
  8
0
100
AcDbBlockBegin
  2
*Model_Space
 70
     0
 10
0.0
 20
0.0
 30
0.0
  3
*Model_Space
  1

  0
ENDBLK
  5
21
330
1F
100
AcDbEntity
  8
0
100
AcDbBlockEnd
  0
BLOCK
  5
1C
330
1B
100
AcDbEntity
 67
     1
  8
0
100
AcDbBlockBegin
  2
*Paper_Space
 70
     0
 10
0.0
 20
0.0
 30
0.0
  3
*Paper_Space
  1

  0
ENDBLK
  5
1D
330
1B
100
AcDbEntity
 67
     1
  8
0
100
AcDbBlockEnd
  0
BLOCK
  5
24
330
23
100
AcDbEntity
  8
0
100
AcDbBlockBegin
  2
*Paper_Space0
 70
     0
 10
0.0
 20
0.0
 30
0.0
  3
*Paper_Space0
  1

  0
ENDBLK
  5
25
330
23
100
AcDbEntity
  8
0
100
AcDbBlockEnd
  0
BLOCK
  5
83
330
82
100
AcDbEntity
  8
0
100
AcDbBlockBegin
  2
블럭10
 70
     2
 10
0.0
 20
0.0
 30
0.0
  3
블럭10
  1

  0
ELLIPSE
  5
85
330
82
100
AcDbEntity
  8
중심선
100
AcDbEllipse
 10
20.54032771741204
 20
12.0471743016438
 30
0.0
 11
6.600054785286829
 21
-1.261213355974178E-13
 31
0.0
210
0.0
220
0.0
230
1.0
 40
0.636358354079598
 41
0.9219305317359503
 42
6.513795318482858
  0
ELLIPSE
  5
86
330
82
100
AcDbEntity
  8
중심선
100
AcDbEllipse
 10
20.54032771746488
 20
12.04717430159265
 30
0.0
 11
3.960054785062283
 21
1.540847449632565E-10
 31
0.0
210
0.0
220
0.0
230
1.0
 40
0.3939339440162632
 41
1.131841032648279
 42
5.62031148352944
  0
LINE
  5
87
330
82
100
AcDbEntity
  8
중심선
100
AcDbLine
 10
2.268634060543552
 20
16.24717430164393
 30
0.0
 11
5.714909304380834
 21
16.24717430164393
 31
0.0
  0
LINE
  5
88
330
82
100
AcDbEntity
  8
중심선
100
AcDbLine
 10
5.245725140726316
 20
7.84717430164391
 30
0.0
 11
8.692000384563599
 21
7.84717430164391
 31
0.0
  0
LINE
  5
89
330
82
100
AcDbEntity
  8
중심선
100
AcDbLine
 10
15.74043728645272
 20
16.24717430164393
 30
0.0
 11
8.692000384563599
 21
7.84717430164391
 31
0.0
  0
LINE
  5
8A
330
82
100
AcDbEntity
  8
중심선
100
AcDbLine
 10
0.1404042013395286
 20
13.71084872107135
 30
0.0
 11
3.58671253028996
 21
13.71088815037384
 31
0.0
  0
LINE
  5
8B
330
82
100
AcDbEntity
  8
중심선
100
AcDbLine
 10
2.750260043222114
 20
10.84717430164391
 30
0.0
 11
6.196535287059397
 21
10.84717430164391
 31
0.0
  0
LINE
  5
8C
330
82
100
AcDbEntity
  8
중심선
100
AcDbLine
 10
12.29416204261559
 20
16.24717430164393
 30
0.0
 11
5.245725140726316
 21
7.84717430164391
 31
0.0
  0
LINE
  5
8D
330
82
100
AcDbEntity
  8
중심선
100
AcDbLine
 10
10.72767329541681
 20
16.24717430164393
 30
0.0
 11
6.196535287059397
 21
10.84717430164391
 31
0.0
  0
LINE
  5
8E
330
82
100
AcDbEntity
  8
중심선
100
AcDbLine
 10
7.28139805157953
 20
16.24717430164393
 30
0.0
 11
2.750260043222114
 21
10.84717430164391
 31
0.0
  0
LINE
  5
8F
330
82
100
AcDbEntity
  8
중심선
100
AcDbLine
 10
5.714909304380834
 20
16.24717430164393
 30
0.0
 11
3.58671253028996
 21
13.71088815037384
 31
0.0
  0
LINE
  5
90
330
82
100
AcDbEntity
  8
중심선
100
AcDbLine
 10
2.268634060543552
 20
16.24717430164393
 30
0.0
 11
0.1404042013395286
 21
13.71084872107135
 31
0.0
  0
LINE
  5
91
330
82
100
AcDbEntity
  8
중심선
100
AcDbLine
 10
7.28139805157953
 20
16.24717430164393
 30
0.0
 11
10.72767329541681
 21
16.24717430164393
 31
0.0
  0
LINE
  5
92
330
82
100
AcDbEntity
  8
중심선
100
AcDbLine
 10
12.29416204261559
 20
16.24717430164393
 30
0.0
 11
15.74043728645272
 21
16.24717430164393
 31
0.0
  0
LINE
  5
93
330
82
100
AcDbEntity
  8
중심선
100
AcDbLine
 10
19.22036997980202
 20
11.08717430171403
 30
0.0
 11
23.66174974927406
 21
11.08717430171406
 31
0.0
  0
LINE
  5
94
330
82
100
AcDbEntity
  8
중심선
100
AcDbLine
 10
19.22039502424796
 20
13.00717430171391
 30
0.0
 11
19.22036997980202
 21
11.08717430171403
 31
0.0
  0
LINE
  5
95
330
82
100
AcDbEntity
  8
중심선
100
AcDbLine
 10
19.22039502424796
 20
13.00717430171391
 30
0.0
 11
26.96566020931264
 21
13.00717430171391
 31
0.0
  0
LINE
  5
96
330
82
100
AcDbEntity
  8
중심선
100
AcDbLine
 10
22.22332737316547
 20
13.45928029700563
 30
0.0
 11
24.52862924686651
 21
15.39360700705356
 31
0.0
  0
ATTDEF
  5
98
330
82
100
AcDbEntity
  8
FORMAT
 62
     2
100
AcDbText
 10
-16.11926103943555
 20
2.075366912832191
 30
0.0
 40
4.233333333333333
  1
SEME7201204E [ 4 FLUTE ]
 41
0.75
  7
SLDTEXTSTYLE0
 11
-16.11926103943555
 21
-0.0412997538344756
 31
0.0
100
AcDbAttributeDefinition
  3

  2
AUTOATTR0
 70
     0
 74
     1
  0
ENDBLK
  5
84
330
82
100
AcDbEntity
  8
0
100
AcDbBlockEnd
  0
BLOCK
  5
EF
330
EE
100
AcDbEntity
  8
0
100
AcDbBlockBegin
  2
_D
 70
     0
 10
0.0
 20
0.0
 30
0.0
  3
_D
  1

  0
LINE
  5
F1
330
EE
100
AcDbEntity
  8
치수문자_일반주서
 62
     0
370
    -2
100
AcDbLine
 10
16.01942193816529
 20
-0.600000000000004
 30
0.0
 11
28.44724937544375
 21
-0.5999999999999588
 31
0.0
  0
LINE
  5
F2
330
EE
100
AcDbEntity
  8
치수문자_일반주서
 62
     0
370
    -2
100
AcDbLine
 10
16.01942193816529
 20
0.6000000000000035
 30
0.0
 11
28.44724937544375
 21
0.6000000000000494
 31
0.0
  0
LINE
  5
F3
330
EE
100
AcDbEntity
  8
치수문자_일반주서
 62
     0
370
    -2
100
AcDbLine
 10
28.44724937544375
 20
-0.5999999999999588
 30
0.0
 11
28.4472493754437
 21
15.95400000000005
 31
0.0
  0
LINE
  5
F4
330
EE
100
AcDbEntity
  8
치수문자_일반주서
 62
     0
370
    -2
100
AcDbLine
 10
28.44724937544375
 20
-0.5999999999999588
 30
0.0
 11
28.44724937544375
 21
0.6000000000000494
 31
0.0
  0
LINE
  5
F5
330
EE
100
AcDbEntity
  8
치수문자_일반주서
 62
     0
370
    -2
100
AcDbLine
 10
28.44724937544376
 20
-3.901999999999958
 30
0.0
 11
28.44724937544377
 21
-7.203999999999958
 31
0.0
  0
LINE
  5
F6
330
EE
100
AcDbEntity
  8
치수문자_일반주서
 62
     0
370
    -2
100
AcDbLine
 10
28.44724937544374
 20
3.902000000000049
 30
0.0
 11
28.44724937544373
 21
7.204000000000049
 31
0.0
  0
SOLID
  5
F7
330
EE
100
AcDbEntity
  8
치수문자_일반주서
 62
     0
100
AcDbTrace
 10
28.9975827087771
 20
-3.901999999999957
 30
0.0
 11
27.89691604211043
 21
-3.90199999999996
 31
0.0
 12
28.44724937544375
 22
-0.5999999999999588
 32
0.0
 13
28.44724937544375
 23
-0.5999999999999588
 33
0.0
  0
SOLID
  5
F8
330
EE
100
AcDbEntity
  8
치수문자_일반주서
 62
     0
100
AcDbTrace
 10
27.8969160421104
 20
3.902000000000047
 30
0.0
 11
28.99758270877707
 21
3.902000000000051
 31
0.0
 12
28.44724937544375
 22
0.6000000000000494
 32
0.0
 13
28.44724937544375
 23
0.6000000000000494
 33
0.0
  0
MTEXT
  5
F9
330
EE
100
AcDbEntity
  8
치수문자_일반주서
 62
     0
100
AcDbMText
 10
24.07224937544372
 20
11.57900000000004
 30
0.0
 40
3.5
 41
0.0
 71
     2
 72
     1
  1
\A1;%%c1.2
  7
SLDTEXTSTYLE0
 11
-2.960594732333732E-15
 21
1.0
 31
0.0
 73
     1
 44
1.0
  0
POINT
  5
152
330
EE
100
AcDbEntity
  8
Defpoints
 62
     0
100
AcDbPoint
 10
15.9569219381653
 20
-0.6000000000000042
 30
0.0
  0
POINT
  5
153
330
EE
100
AcDbEntity
  8
Defpoints
 62
     0
100
AcDbPoint
 10
15.9569219381653
 20
0.6000000000000033
 30
0.0
  0
POINT
  5
154
330
EE
100
AcDbEntity
  8
Defpoints
 62
     0
100
AcDbPoint
 10
28.44724937544375
 20
0.6000000000000499
 30
0.0
  0
ENDBLK
  5
F0
330
EE
100
AcDbEntity
  8
0
100
AcDbBlockEnd
  0
BLOCK
  5
FD
330
FC
100
AcDbEntity
  8
0
100
AcDbBlockBegin
  2
_D_1
 70
     0
 10
0.0
 20
0.0
 30
0.0
  3
_D_1
  1

  0
LINE
  5
FF
330
FC
100
AcDbEntity
  8
치수문자_일반주서
 62
     0
370
    -2
100
AcDbLine
 10
-44.04307806183472
 20
2.562499999999993
 30
0.0
 11
-44.04307806183472
 21
20.38913260158164
 31
0.0
  0
LINE
  5
100
330
FC
100
AcDbEntity
  8
치수문자_일반주서
 62
     0
370
    -2
100
AcDbLine
 10
15.95692193816529
 20
0.6625000000000005
 30
0.0
 11
15.95692193816529
 21
20.38913260158164
 31
0.0
  0
LINE
  5
101
330
FC
100
AcDbEntity
  8
치수문자_일반주서
 62
     0
370
    -2
100
AcDbLine
 10
-40.74107806183472
 20
20.38913260158164
 30
0.0
 11
12.65492193816529
 21
20.38913260158164
 31
0.0
  0
SOLID
  5
102
330
FC
100
AcDbEntity
  8
치수문자_일반주서
 62
     0
100
AcDbTrace
 10
-40.74107806183472
 20
20.93946593491498
 30
0.0
 11
-40.74107806183472
 21
19.83879926824831
 31
0.0
 12
-44.04307806183472
 22
20.38913260158164
 32
0.0
 13
-44.04307806183472
 23
20.38913260158164
 33
0.0
  0
SOLID
  5
103
330
FC
100
AcDbEntity
  8
치수문자_일반주서
 62
     0
100
AcDbTrace
 10
12.65492193816529
 20
19.83879926824831
 30
0.0
 11
12.65492193816529
 21
20.93946593491498
 31
0.0
 12
15.95692193816529
 22
20.38913260158164
 32
0.0
 13
15.95692193816529
 23
20.38913260158164
 33
0.0
  0
MTEXT
  5
104
330
FC
100
AcDbEntity
  8
치수문자_일반주서
 62
     0
100
AcDbMText
 10
-14.04307806183472
 20
24.76413260158164
 30
0.0
 40
3.5
 41
0.0
 71
     2
 72
     1
  1
\A1;60
  7
SLDTEXTSTYLE0
 73
     1
 44
1.0
  0
POINT
  5
14B
330
FC
100
AcDbEntity
  8
Defpoints
 62
     0
100
AcDbPoint
 10
-44.04307806183472
 20
2.499999999999993
 30
0.0
  0
POINT
  5
14C
330
FC
100
AcDbEntity
  8
Defpoints
 62
     0
100
AcDbPoint
 10
15.95692193816529
 20
0.6000000000000005
 30
0.0
  0
POINT
  5
14D
330
FC
100
AcDbEntity
  8
Defpoints
 62
     0
100
AcDbPoint
 10
15.95692193816529
 20
20.38913260158164
 30
0.0
  0
ENDBLK
  5
FE
330
FC
100
AcDbEntity
  8
0
100
AcDbBlockEnd
  0
BLOCK
  5
108
330
107
100
AcDbEntity
  8
0
100
AcDbBlockBegin
  2
_D_2
 70
     0
 10
0.0
 20
0.0
 30
0.0
  3
_D_2
  1

  0
LINE
  5
10A
330
107
100
AcDbEntity
  8
치수문자_일반주서
 62
     0
370
    -2
100
AcDbLine
 10
-43.60557806183471
 20
3.000000000000003
 30
0.0
 11
-52.586955992756
 21
2.99999999999997
 31
0.0
  0
LINE
  5
10B
330
107
100
AcDbEntity
  8
치수문자_일반주서
 62
     0
370
    -2
100
AcDbLine
 10
-43.60557806183471
 20
-3.000000000000003
 30
0.0
 11
-52.58695599275598
 21
-3.000000000000036
 31
0.0
  0
LINE
  5
10C
330
107
100
AcDbEntity
  8
치수문자_일반주서
 62
     0
370
    -2
100
AcDbLine
 10
-52.586955992756
 20
2.99999999999997
 30
0.0
 11
-52.58695599275605
 21
15.72899999999997
 31
0.0
  0
LINE
  5
10D
330
107
100
AcDbEntity
  8
치수문자_일반주서
 62
     0
370
    -2
100
AcDbLine
 10
-52.586955992756
 20
2.99999999999997
 30
0.0
 11
-52.58695599275598
 21
-3.000000000000036
 31
0.0
  0
LINE
  5
10E
330
107
100
AcDbEntity
  8
치수문자_일반주서
 62
     0
370
    -2
100
AcDbLine
 10
-52.58695599275602
 20
6.301999999999969
 30
0.0
 11
-52.58695599275603
 21
9.603999999999969
 31
0.0
  0
LINE
  5
10F
330
107
100
AcDbEntity
  8
치수문자_일반주서
 62
     0
370
    -2
100
AcDbLine
 10
-52.58695599275597
 20
-6.302000000000035
 30
0.0
 11
-52.58695599275595
 21
-9.604000000000035
 31
0.0
  0
SOLID
  5
110
330
107
100
AcDbEntity
  8
치수문자_일반주서
 62
     0
100
AcDbTrace
 10
-53.13728932608935
 20
6.301999999999968
 30
0.0
 11
-52.03662265942268
 21
6.301999999999971
 31
0.0
 12
-52.586955992756
 22
2.99999999999997
 32
0.0
 13
-52.586955992756
 23
2.99999999999997
 33
0.0
  0
SOLID
  5
111
330
107
100
AcDbEntity
  8
치수문자_일반주서
 62
     0
100
AcDbTrace
 10
-52.03662265942263
 20
-6.302000000000033
 30
0.0
 11
-53.1372893260893
 21
-6.302000000000037
 31
0.0
 12
-52.58695599275598
 22
-3.000000000000036
 32
0.0
 13
-52.58695599275598
 23
-3.000000000000036
 33
0.0
  0
MTEXT
  5
112
330
107
100
AcDbEntity
  8
치수문자_일반주서
 62
     0
100
AcDbMText
 10
-56.96195599275604
 20
12.66649999999995
 30
0.0
 40
3.5
 41
0.0
 71
     2
 72
     1
  1
\A1;%%c6
  7
SLDTEXTSTYLE0
 11
-3.552713678800498E-15
 21
1.0
 31
0.0
 73
     1
 44
1.0
  0
POINT
  5
14F
330
107
100
AcDbEntity
  8
Defpoints
 62
     0
100
AcDbPoint
 10
-43.54307806183471
 20
3.000000000000003
 30
0.0
  0
POINT
  5
150
330
107
100
AcDbEntity
  8
Defpoints
 62
     0
100
AcDbPoint
 10
-43.54307806183471
 20
-3.000000000000002
 30
0.0
  0
POINT
  5
151
330
107
100
AcDbEntity
  8
Defpoints
 62
     0
100
AcDbPoint
 10
-52.58695599275599
 20
-3.000000000000036
 30
0.0
  0
ENDBLK
  5
109
330
107
100
AcDbEntity
  8
0
100
AcDbBlockEnd
  0
BLOCK
  5
115
330
114
100
AcDbEntity
  8
0
100
AcDbBlockBegin
  2
_D_3
 70
     0
 10
0.0
 20
0.0
 30
0.0
  3
_D_3
  1

  0
LINE
  5
117
330
114
100
AcDbEntity
  8
치수문자_일반주서
 62
     0
370
    -2
100
AcDbLine
 10
11.95692193816529
 20
0.5936400063731637
 30
0.0
 11
11.95692193816529
 21
11.54964907351456
 31
0.0
  0
LINE
  5
118
330
114
100
AcDbEntity
  8
치수문자_일반주서
 62
     0
370
    -2
100
AcDbLine
 10
15.95692193816529
 20
0.6625000000000005
 30
0.0
 11
15.95692193816529
 21
11.54964907351456
 31
0.0
  0
LINE
  5
119
330
114
100
AcDbEntity
  8
치수문자_일반주서
 62
     0
370
    -2
100
AcDbLine
 10
11.95692193816529
 20
11.54964907351456
 30
0.0
 11
1.852921938165286
 21
11.54964907351456
 31
0.0
  0
LINE
  5
11A
330
114
100
AcDbEntity
  8
치수문자_일반주서
 62
     0
370
    -2
100
AcDbLine
 10
11.95692193816529
 20
11.54964907351456
 30
0.0
 11
15.95692193816529
 21
11.54964907351456
 31
0.0
  0
LINE
  5
11B
330
114
100
AcDbEntity
  8
치수문자_일반주서
 62
     0
370
    -2
100
AcDbLine
 10
8.654921938165286
 20
11.54964907351456
 30
0.0
 11
5.352921938165286
 21
11.54964907351456
 31
0.0
  0
LINE
  5
11C
330
114
100
AcDbEntity
  8
치수문자_일반주서
 62
     0
370
    -2
100
AcDbLine
 10
19.25892193816529
 20
11.54964907351456
 30
0.0
 11
22.56092193816529
 21
11.54964907351456
 31
0.0
  0
SOLID
  5
11D
330
114
100
AcDbEntity
  8
치수문자_일반주서
 62
     0
100
AcDbTrace
 10
8.654921938165286
 20
10.99931574018123
 30
0.0
 11
8.654921938165286
 21
12.09998240684789
 31
0.0
 12
11.95692193816529
 22
11.54964907351456
 32
0.0
 13
11.95692193816529
 23
11.54964907351456
 33
0.0
  0
SOLID
  5
11E
330
114
100
AcDbEntity
  8
치수문자_일반주서
 62
     0
100
AcDbTrace
 10
19.25892193816529
 20
12.09998240684789
 30
0.0
 11
19.25892193816529
 21
10.99931574018123
 31
0.0
 12
15.95692193816529
 22
11.54964907351456
 32
0.0
 13
15.95692193816529
 23
11.54964907351456
 33
0.0
  0
MTEXT
  5
14E
330
114
100
AcDbEntity
  8
치수문자_일반주서
 62
     0
100
AcDbMText
 10
3.602921938165286
 20
15.92464907351456
 30
0.0
 40
3.5
 41
0.0
 71
     2
 72
     1
  1
\A1;4
  7
SLDTEXTSTYLE0
 73
     1
 44
1.0
  0
POINT
  5
155
330
114
100
AcDbEntity
  8
Defpoints
 62
     0
100
AcDbPoint
 10
11.95692193816529
 20
0.5311400063731637
 30
0.0
  0
POINT
  5
156
330
114
100
AcDbEntity
  8
Defpoints
 62
     0
100
AcDbPoint
 10
15.95692193816529
 20
0.6000000000000005
 30
0.0
  0
POINT
  5
157
330
114
100
AcDbEntity
  8
Defpoints
 62
     0
100
AcDbPoint
 10
15.95692193816529
 20
11.54964907351456
 30
0.0
  0
ENDBLK
  5
116
330
114
100
AcDbEntity
  8
0
100
AcDbBlockEnd
  0
BLOCK
  5
120
330
11F
100
AcDbEntity
  8
0
100
AcDbBlockBegin
  2
SW_DOWELSYMBOL_0
 70
     0
 10
0.0
 20
0.0
 30
0.0
  3
SW_DOWELSYMBOL_0
  1

  0
CIRCLE
  5
122
330
11F
100
AcDbEntity
  8
해칭선
 62
     0
100
AcDbCircle
 10
0.0
 20
0.0
 30
0.0
 40
3.000000000000003
  0
HATCH
  5
123
330
11F
100
AcDbEntity
  8
0
  6
Continuous
 62
     0
370
    18
100
AcDbHatch
 10
0.0
 20
0.0
 30
0.0
210
0.0
220
0.0
230
1.0
  2
SOLID
 70
     1
 71
     0
 91
        1
 92
        0
 93
        3
 72
     2
 10
0.0000000000000121
 20
-0.0000000000000043
 40
3.000000000000003
 50
0.0
 51
90.0
 73
     1
 72
     1
 10
0.0000000000000121
 20
2.999999999999998
 11
0.0000000000000121
 21
-0.0000000000000044
 72
     1
 10
0.0000000000000121
 20
-0.0000000000000043
 11
3.000000000000015
 21
-0.0000000000000043
 97
        0
 75
     0
 76
     1
 98
        1
 10
0.0
 20
0.0
  0
HATCH
  5
124
330
11F
100
AcDbEntity
  8
0
  6
Continuous
 62
     0
370
    18
100
AcDbHatch
 10
0.0
 20
0.0
 30
0.0
210
0.0
220
0.0
230
1.0
  2
SOLID
 70
     1
 71
     0
 91
        1
 92
        0
 93
        3
 72
     2
 10
0.0000000000000121
 20
-0.0000000000000043
 40
3.000000000000003
 50
180.0
 51
270.0000000000008
 73
     1
 72
     1
 10
0.0000000000000121
 20
-3.000000000000007
 11
0.0000000000000121
 21
-0.0000000000000044
 72
     1
 10
0.0000000000000121
 20
-0.0000000000000043
 11
-2.999999999999991
 21
-0.0000000000000043
 97
        0
 75
     0
 76
     1
 98
        1
 10
0.0
 20
0.0
  0
ENDBLK
  5
121
330
11F
100
AcDbEntity
  8
0
100
AcDbBlockEnd
  0
ENDSEC
  0
SECTION
  2
ENTITIES
  0
LINE
  5
99
330
1F
100
AcDbEntity
  8
0
  6
Continuous
 62
     4
370
    25
100
AcDbLine
 10
2.0
 20
2.999999999999998
 30
0.0
 11
-43.54307806183471
 21
2.999999999999995
 31
0.0
  0
LINE
  5
9A
330
1F
100
AcDbEntity
  8
0
  6
Continuous
 62
     4
370
    25
100
AcDbLine
 10
-43.54307806183471
 20
-3.000000000000001
 30
0.0
 11
1.999999999999996
 21
-2.999999999999998
 31
0.0
  0
LINE
  5
9B
330
1F
100
AcDbEntity
  8
0
  6
Continuous
 62
     4
370
    25
100
AcDbLine
 10
10.83432434421667
 20
-0.6328499262925282
 30
0.0
 11
10.95692193816529
 21
-0.5999999999999995
 31
0.0
  0
LINE
  5
9C
330
1F
100
AcDbEntity
  8
0
  6
Continuous
 62
     4
370
    25
100
AcDbLine
 10
2.0
 20
-3.0
 30
0.0
 11
10.45674825498187
 21
-0.7340211344842958
 31
0.0
  0
LINE
  5
9D
330
1F
100
AcDbEntity
  8
0
  6
Continuous
 62
     4
370
    25
100
AcDbLine
 10
10.45674825498187
 20
0.7340211344842967
 30
0.0
 11
2.0
 21
3.0
 31
0.0
  0
LINE
  5
9E
330
1F
100
AcDbEntity
  8
0
  6
Continuous
 62
     4
370
    25
100
AcDbLine
 10
10.95692193816529
 20
0.6000000000000004
 30
0.0
 11
10.83432434421667
 21
0.6328499262925318
 31
0.0
  0
LINE
  5
9F
330
1F
100
AcDbEntity
  8
0
  6
Continuous
 62
     4
370
    25
100
AcDbLine
 10
-43.54307806183471
 20
2.999999999999994
 30
0.0
 11
-44.04307806183472
 21
2.499999999999992
 31
0.0
  0
LINE
  5
A0
330
1F
100
AcDbEntity
  8
0
  6
Continuous
 62
     4
370
    25
100
AcDbLine
 10
-44.04307806183472
 20
-2.499999999999999
 30
0.0
 11
-43.54307806183471
 21
-3.0
 31
0.0
  0
LWPOLYLINE
  5
A1
330
1F
100
AcDbEntity
  8
0
  6
Continuous
 62
     4
370
    25
100
AcDbPolyline
 90
        3
 70
   128
 43
0.0
 10
10.47022136051881
 20
0.0828923878917254
 10
10.47093861009733
 20
0.0842539952869658
 10
10.47516958423885
 20
0.0915360477604368
  0
LINE
  5
A2
330
1F
100
AcDbEntity
  8
0
  6
Continuous
 62
     4
370
    25
100
AcDbLine
 10
11.29162818749778
 20
0.6000000000000003
 30
0.0
 11
10.95692193816529
 21
0.6000000000000003
 31
0.0
  0
LINE
  5
A3
330
1F
100
AcDbEntity
  8
0
  6
Continuous
 62
     4
370
    25
100
AcDbLine
 10
10.95692193816529
 20
-0.5999999999999994
 30
0.0
 11
11.29162818749778
 21
-0.5999999999999994
 31
0.0
  0
LINE
  5
A4
330
1F
100
AcDbEntity
  8
0
  6
Continuous
 62
     1
370
    25
100
AcDbLine
 10
14.09237963767916
 20
-0.5999999999999999
 30
0.0
 11
14.55658674882147
 21
-0.5999999999999999
 31
0.0
  0
LINE
  5
A5
330
1F
100
AcDbEntity
  8
0
  6
Continuous
 62
     1
370
    25
100
AcDbLine
 10
12.71551910330778
 20
-0.1381858146022644
 30
0.0
 11
12.61053912378957
 21
-0.086191301542301
 31
0.0
  0
LINE
  5
A6
330
1F
100
AcDbEntity
  8
0
  6
Continuous
 62
     1
370
    25
100
AcDbLine
 10
15.78701543763901
 20
-0.0364112424305107
 30
0.0
 11
15.75101469001324
 21
-0.0149846944475413
 31
0.0
  0
SPLINE
  5
A7
330
1F
100
AcDbEntity
  8
0
  6
Continuous
 62
     1
370
    25
100
AcDbSpline
210
0.0
220
0.0
230
1.0
 70
     8
 71
     3
 72
     9
 73
     5
 74
     0
 42
0.000000001
 43
0.00000001
 40
0.0
 40
0.0
 40
0.0
 40
0.0
 40
0.6016412910964127
 40
1.0
 40
1.0
 40
1.0
 40
1.0
 10
15.95692193816529
 20
-0.133586896198129
 30
0.0
 10
15.92298425891455
 20
-0.1150998946204676
 30
0.0
 10
15.86657576476201
 20
-0.0843722802574787
 30
0.0
 10
15.80968025818246
 20
-0.0500741866985142
 30
0.0
 10
15.78701543763901
 20
-0.0364112424305107
 30
0.0
  0
LINE
  5
A8
330
1F
100
AcDbEntity
  8
0
  6
Continuous
 62
     1
370
    25
100
AcDbLine
 10
14.35598790492892
 20
0.1120659402761252
 30
0.0
 11
14.40918296856422
 21
0.0851744049389556
 31
0.0
  0
LINE
  5
A9
330
1F
100
AcDbEntity
  8
0
  6
Continuous
 62
     1
370
    25
100
AcDbLine
 10
15.72474297038418
 20
-0.5999999999999999
 30
0.0
 11
15.95692193816529
 21
-0.5999999999999999
 31
0.0
  0
LINE
  5
AA
330
1F
100
AcDbEntity
  8
0
  6
Continuous
 62
     1
370
    25
100
AcDbLine
 10
12.92303433574745
 20
0.6000000000000006
 30
0.0
 11
12.45880413443915
 21
0.6000000000000006
 31
0.0
  0
LINE
  5
AB
330
1F
100
AcDbEntity
  8
0
  6
Continuous
 62
     1
370
    25
100
AcDbLine
 10
14.55658674882147
 20
0.6000000000000006
 30
0.0
 11
14.09237963767916
 21
0.6000000000000006
 31
0.0
  0
LINE
  5
AC
330
1F
100
AcDbEntity
  8
0
  6
Continuous
 62
     1
370
    25
100
AcDbLine
 10
12.45880413443915
 20
-0.5999999999999999
 30
0.0
 11
12.92303433574745
 21
-0.5999999999999999
 31
0.0
  0
LINE
  5
AD
330
1F
100
AcDbEntity
  8
0
  6
Continuous
 62
     1
370
    25
100
AcDbLine
 10
15.95692193816529
 20
0.6000000000000006
 30
0.0
 11
15.72474297038418
 21
0.6000000000000006
 31
0.0
  0
LINE
  5
AE
330
1F
100
AcDbEntity
  8
0
  6
Continuous
 62
     4
370
    25
100
AcDbLine
 10
2.0
 20
3.0
 30
0.0
 11
2.0
 21
-3.0
 31
0.0
  0
LINE
  5
AF
330
1F
100
AcDbEntity
  8
0
  6
Continuous
 62
     4
370
    25
100
AcDbLine
 10
-43.54307806183471
 20
2.999999999999994
 30
0.0
 11
-43.54307806183471
 21
-3.0
 31
0.0
  0
SPLINE
  5
B0
330
1F
100
AcDbEntity
  8
0
  6
Continuous
 62
     4
370
    25
100
AcDbSpline
210
0.0
220
0.0
230
1.0
 70
     8
 71
     3
 72
     8
 73
     4
 74
     0
 42
0.000000001
 43
0.00000001
 40
0.0
 40
0.0
 40
0.0
 40
0.0
 40
1.0
 40
1.0
 40
1.0
 40
1.0
 10
10.64231413840324
 20
0.125142826190361
 30
0.0
 10
10.74656748993162
 20
0.0547722061170727
 30
0.0
 10
10.85080957065529
 20
-0.0137941641318769
 30
0.0
 10
10.9569219381653
 20
-0.0748852093803851
 30
0.0
  0
SPLINE
  5
B1
330
1F
100
AcDbEntity
  8
0
  6
Continuous
 62
     4
370
    25
100
AcDbSpline
210
0.0
220
0.0
230
1.0
 70
     8
 71
     3
 72
    26
 73
    22
 74
     0
 42
0.000000001
 43
0.00000001
 40
0.0
 40
0.0
 40
0.0
 40
0.0
 40
0.0000386332536764
 40
0.0000386332536764
 40
0.0000386332536764
 40
0.0000771574225942
 40
0.0000771574225942
 40
0.0000771574225942
 40
0.0001172779941499
 40
0.0001172779941499
 40
0.0001172779941499
 40
0.0001595183222496
 40
0.0001595183222496
 40
0.0001595183222496
 40
0.0002025459471729
 40
0.0002025459471729
 40
0.0002025459471729
 40
0.0002449675353861
 40
0.0002449675353861
 40
0.0002449675353861
 40
0.000264416272858
 40
0.000264416272858
 40
0.000264416272858
 40
0.000264416272858
 10
10.45674825498187
 20
0.0274605719620703
 30
0.0
 10
10.45674825498187
 20
0.040329308221347
 30
0.0
 10
10.45887322808855
 20
0.0533376502555637
 30
0.0
 10
10.4628606001505
 20
0.0653917260584931
 30
0.0
 10
10.46684136732657
 20
0.0774258348772305
 30
0.0
 10
10.47277131355052
 20
0.0888386023735837
 30
0.0
 10
10.48013876116502
 20
0.0988241200067485
 30
0.0
 10
10.48781016339426
 20
0.1092216044870585
 30
0.0
 10
10.49723625431881
 20
0.1183474681814744
 30
0.0
 10
10.50771158612326
 20
0.1255862652052731
 30
0.0
 10
10.51872872840238
 20
0.1331994709947944
 30
0.0
 10
10.53120712869739
 20
0.1389286383137065
 30
0.0
 10
10.54419129239002
 20
0.1423340413065765
 30
0.0
 10
10.557406772243
 20
0.1458001124151105
 30
0.0
 10
10.57152145577152
 20
0.1469486624284373
 30
0.0
 10
10.58535300220027
 20
0.1456384791489835
 30
0.0
 10
10.59898930748611
 20
0.1443467899462571
 30
0.0
 10
10.61273677941844
 20
0.1406223356471767
 30
0.0
 10
10.62537398389767
 20
0.1347311076394817
 30
0.0
 10
10.63123655852947
 20
0.1319980851640754
 30
0.0
 10
10.63692166634254
 20
0.12878272454448
 30
0.0
 10
10.64231413840324
 20
0.125142826190361
 30
0.0
  0
LINE
  5
B2
330
1F
100
AcDbEntity
  8
0
  6
Continuous
 62
     4
370
    25
100
AcDbLine
 10
10.45674825498187
 20
0.0274605719620703
 30
0.0
 11
10.45674825498187
 21
-0.4610001298002956
 31
0.0
  0
SPLINE
  5
B3
330
1F
100
AcDbEntity
  8
0
  6
Continuous
 62
     4
370
    25
100
AcDbSpline
210
0.0
220
0.0
230
1.0
 70
     8
 71
     3
 72
    14
 73
    10
 74
     0
 42
0.000000001
 43
0.00000001
 40
0.0
 40
0.0
 40
0.0
 40
0.0
 40
0.0000418140240997
 40
0.0000418140240997
 40
0.0000418140240997
 40
0.0000837355328833
 40
0.0000837355328833
 40
0.0000837355328833
 40
0.0001190911213508
 40
0.0001190911213508
 40
0.0001190911213508
 40
0.0001190911213508
 10
10.509124284571
 20
-0.5255822128777402
 30
0.0
 10
10.49811094782079
 20
-0.5222573932631123
 30
0.0
 10
10.48820582269002
 20
-0.5172336615304194
 30
0.0
 10
10.48020843862196
 20
-0.510750594917485
 30
0.0
 10
10.47219943033546
 20
-0.5042581051504572
 30
0.0
 10
10.46588069165811
 20
-0.4960993796458422
 30
0.0
 10
10.46189914437391
 20
-0.4868427000038503
 30
0.0
 10
10.45852899990738
 20
-0.4790074677569069
 30
0.0
 10
10.45674825498186
 20
-0.4701941493489878
 30
0.0
 10
10.45674825498186
 20
-0.4610001298003022
 30
0.0
  0
SPLINE
  5
B4
330
1F
100
AcDbEntity
  8
0
  6
Continuous
 62
     4
370
    25
100
AcDbSpline
210
0.0
220
0.0
230
1.0
 70
     8
 71
     3
 72
     8
 73
     4
 74
     0
 42
0.000000001
 43
0.00000001
 40
0.0
 40
0.0
 40
0.0
 40
0.0
 40
1.0
 40
1.0
 40
1.0
 40
1.0
 10
10.95692193816527
 20
-0.569253382695366
 30
0.0
 10
10.79983982967187
 20
-0.5825492585704624
 30
0.0
 10
10.65382012608296
 20
-0.5692644849184976
 30
0.0
 10
10.50912428457062
 20
-0.5255822128765308
 30
0.0
  0
LINE
  5
B5
330
1F
100
AcDbEntity
  8
0
  6
Continuous
 62
     4
370
    25
100
AcDbLine
 10
10.95692193816529
 20
-0.5692533826950967
 30
0.0
 11
10.95692193816529
 21
-0.5999999999999995
 31
0.0
  0
SPLINE
  5
B6
330
1F
100
AcDbEntity
  8
0
  6
Continuous
 62
     4
370
    25
100
AcDbSpline
210
0.0
220
0.0
230
1.0
 70
     8
 71
     3
 72
    10
 73
     6
 74
     0
 42
0.000000001
 43
0.00000001
 40
0.0
 40
0.0
 40
0.0
 40
0.0
 40
0.1788872084634433
 40
0.7625856675538681
 40
1.0
 40
1.0
 40
1.0
 40
1.0
 10
10.64231413840324
 20
-0.6727586979296324
 30
0.0
 10
10.65373616524003
 20
-0.6709876932808129
 30
0.0
 10
10.7024275950799
 20
-0.66343800443519
 30
0.0
 10
10.76631999987836
 20
-0.651196980102733
 30
0.0
 10
10.81888600050086
 20
-0.6362714359602466
 30
0.0
 10
10.83408479179456
 20
-0.6319559044821014
 30
0.0
  0
SPLINE
  5
B7
330
1F
100
AcDbEntity
  8
0
  6
Continuous
 62
     4
370
    25
100
AcDbSpline
210
0.0
220
0.0
230
1.0
 70
     8
 71
     3
 72
    26
 73
    22
 74
     0
 42
0.000000001
 43
0.00000001
 40
0.0
 40
0.0
 40
0.0
 40
0.0
 40
0.0000386332536764
 40
0.0000386332536764
 40
0.0000386332536764
 40
0.0000771574225942
 40
0.0000771574225942
 40
0.0000771574225942
 40
0.0001172779941499
 40
0.0001172779941499
 40
0.0001172779941499
 40
0.0001595183222496
 40
0.0001595183222496
 40
0.0001595183222496
 40
0.0002025459471729
 40
0.0002025459471729
 40
0.0002025459471729
 40
0.0002449675353861
 40
0.0002449675353861
 40
0.0002449675353861
 40
0.000264416272858
 40
0.000264416272858
 40
0.000264416272858
 40
0.000264416272858
 10
10.45674825498187
 20
-0.7335072888916164
 30
0.0
 10
10.45674825498187
 20
-0.7330255174580391
 30
0.0
 10
10.45887322808855
 20
-0.7316114815756698
 30
0.0
 10
10.4628606001505
 20
-0.7294582056523684
 30
0.0
 10
10.46684136732657
 20
-0.7273084965248151
 30
0.0
 10
10.47277131355052
 20
-0.7243738196358059
 30
0.0
 10
10.48013876116502
 20
-0.7210126167335936
 30
0.0
 10
10.48781016339426
 20
-0.7175127425863735
 30
0.0
 10
10.49723625431881
 20
-0.7134660498667815
 30
0.0
 10
10.50771158612326
 20
-0.7093339249942368
 30
0.0
 10
10.51872872840238
 20
-0.704988076243504
 30
0.0
 10
10.53120712869739
 20
-0.7004371805707554
 30
0.0
 10
10.54419129239002
 20
-0.6961898930345639
 30
0.0
 10
10.557406772243
 20
-0.691866938996627
 30
0.0
 10
10.57152145577152
 20
-0.6877440797759484
 30
0.0
 10
10.58535300220027
 20
-0.6842337761635255
 30
0.0
 10
10.59898930748611
 20
-0.6807730227364568
 30
0.0
 10
10.61273677941844
 20
-0.6778112137954901
 30
0.0
 10
10.62537398389767
 20
-0.6755333655478586
 30
0.0
 10
10.63123655852947
 20
-0.6744766401167243
 30
0.0
 10
10.63692166634254
 20
-0.6735513181713101
 30
0.0
 10
10.64231413840324
 20
-0.6727586979296322
 30
0.0
  0
LINE
  5
B8
330
1F
100
AcDbEntity
  8
0
  6
Continuous
 62
     4
370
    25
100
AcDbLine
 10
10.45674825498187
 20
-0.7335072888916166
 30
0.0
 11
10.45674825498187
 21
-0.7340211344842958
 31
0.0
  0
LINE
  5
B9
330
1F
100
AcDbEntity
  8
0
  6
Continuous
 62
     4
370
    25
100
AcDbLine
 10
10.95692193816529
 20
0.6000000000000004
 30
0.0
 11
10.95692193816529
 21
0.5953084960052677
 31
0.0
  0
SPLINE
  5
BA
330
1F
100
AcDbEntity
  8
0
  6
Continuous
 62
     4
370
    25
100
AcDbSpline
210
0.0
220
0.0
230
1.0
 70
     8
 71
     3
 72
     8
 73
     4
 74
     0
 42
0.000000001
 43
0.00000001
 40
0.0
 40
0.0
 40
0.0
 40
0.0
 40
1.0
 40
1.0
 40
1.0
 40
1.0
 10
10.64231413840324
 20
0.6727586979296342
 30
0.0
 10
10.74656748993162
 20
0.6574348694973392
 30
0.0
 10
10.85080957065529
 20
0.6316500731348499
 30
0.0
 10
10.9569219381653
 20
0.5953084960052901
 30
0.0
  0
SPLINE
  5
BB
330
1F
100
AcDbEntity
  8
0
  6
Continuous
 62
     4
370
    25
100
AcDbSpline
210
0.0
220
0.0
230
1.0
 70
     8
 71
     3
 72
    26
 73
    22
 74
     0
 42
0.000000001
 43
0.00000001
 40
0.0
 40
0.0
 40
0.0
 40
0.0
 40
0.0000386332536764
 40
0.0000386332536764
 40
0.0000386332536764
 40
0.0000771574225942
 40
0.0000771574225942
 40
0.0000771574225942
 40
0.0001172779941499
 40
0.0001172779941499
 40
0.0001172779941499
 40
0.0001595183222496
 40
0.0001595183222496
 40
0.0001595183222496
 40
0.0002025459471729
 40
0.0002025459471729
 40
0.0002025459471729
 40
0.0002449675353861
 40
0.0002449675353861
 40
0.0002449675353861
 40
0.000264416272858
 40
0.000264416272858
 40
0.000264416272858
 40
0.000264416272858
 10
10.45674825498187
 20
0.7335072888916175
 30
0.0
 10
10.45674825498187
 20
0.7330255174580402
 30
0.0
 10
10.45887322808855
 20
0.7316114815756711
 30
0.0
 10
10.4628606001505
 20
0.7294582056523696
 30
0.0
 10
10.46684136732657
 20
0.7273084965248164
 30
0.0
 10
10.47277131355052
 20
0.7243738196358075
 30
0.0
 10
10.48013876116502
 20
0.7210126167335953
 30
0.0
 10
10.48781016339426
 20
0.7175127425863752
 30
0.0
 10
10.49723625431881
 20
0.7134660498667833
 30
0.0
 10
10.50771158612326
 20
0.7093339249942384
 30
0.0
 10
10.51872872840238
 20
0.7049880762435058
 30
0.0
 10
10.53120712869739
 20
0.7004371805707573
 30
0.0
 10
10.54419129239002
 20
0.6961898930345657
 30
0.0
 10
10.557406772243
 20
0.6918669389966288
 30
0.0
 10
10.57152145577152
 20
0.6877440797759504
 30
0.0
 10
10.58535300220027
 20
0.6842337761635274
 30
0.0
 10
10.59898930748611
 20
0.6807730227364586
 30
0.0
 10
10.61273677941844
 20
0.6778112137954919
 30
0.0
 10
10.62537398389767
 20
0.6755333655478603
 30
0.0
 10
10.63123655852947
 20
0.6744766401167259
 30
0.0
 10
10.63692166634254
 20
0.6735513181713116
 30
0.0
 10
10.64231413840324
 20
0.6727586979296337
 30
0.0
  0
LINE
  5
BC
330
1F
100
AcDbEntity
  8
0
  6
Continuous
 62
     4
370
    25
100
AcDbLine
 10
10.45674825498187
 20
0.7340211344842967
 30
0.0
 11
10.45674825498187
 21
0.5711969066738009
 31
0.0
  0
SPLINE
  5
BD
330
1F
100
AcDbEntity
  8
0
  6
Continuous
 62
     4
370
    25
100
AcDbSpline
210
0.0
220
0.0
230
1.0
 70
     8
 71
     3
 72
    14
 73
    10
 74
     0
 42
0.000000001
 43
0.00000001
 40
0.0
 40
0.0
 40
0.0
 40
0.0
 40
0.0000418140240998
 40
0.0000418140240998
 40
0.0000418140240998
 40
0.0000837355328833
 40
0.0000837355328833
 40
0.0000837355328833
 40
0.0001190911213508
 40
0.0001190911213508
 40
0.0001190911213508
 40
0.0001190911213508
 10
10.509124284571
 20
0.4920819504696729
 30
0.0
 10
10.49811094782079
 20
0.4999508802629495
 30
0.0
 10
10.48820582269002
 20
0.508997995669463
 30
0.0
 10
10.48020843862196
 20
0.5183937267902986
 30
0.0
 10
10.47219943033546
 20
0.5278031146306248
 30
0.0
 10
10.46588069165811
 20
0.5378326130002866
 30
0.0
 10
10.46189914437391
 20
0.5474915145872701
 30
0.0
 10
10.45852899990738
 20
0.5556672039393215
 30
0.0
 10
10.45674825498186
 20
0.5637766210318285
 30
0.0
 10
10.45674825498186
 20
0.5711969066738009
 30
0.0
  0
SPLINE
  5
BE
330
1F
100
AcDbEntity
  8
0
  6
Continuous
 62
     4
370
    25
100
AcDbSpline
210
0.0
220
0.0
230
1.0
 70
     8
 71
     3
 72
     8
 73
     4
 74
     0
 42
0.000000001
 43
0.00000001
 40
0.0
 40
0.0
 40
0.0
 40
0.0
 40
1.0
 40
1.0
 40
1.0
 40
1.0
 10
10.95692193816527
 20
0.1896063983358071
 30
0.0
 10
10.79983982967187
 20
0.2828801080161705
 30
0.0
 10
10.65382012608296
 20
0.3886980765291394
 30
0.0
 10
10.50912428457062
 20
0.4920819504685803
 30
0.0
  0
LINE
  5
BF
330
1F
100
AcDbEntity
  8
0
  6
Continuous
 62
     4
370
    25
100
AcDbLine
 10
10.95692193816529
 20
0.1896063983357225
 30
0.0
 11
10.95692193816529
 21
-0.0748852093803789
 31
0.0
  0
LINE
  5
C0
330
1F
100
AcDbEntity
  8
0
  6
Continuous
 62
     4
370
    25
100
AcDbLine
 10
-44.04307806183472
 20
2.499999999999993
 30
0.0
 11
-44.04307806183472
 21
-2.500000000000001
 31
0.0
  0
SPLINE
  5
C1
330
1F
100
AcDbEntity
  8
0
  6
Continuous
 62
     4
370
    25
100
AcDbSpline
210
0.0
220
0.0
230
1.0
 70
     8
 71
     3
 72
    14
 73
    10
 74
     0
 42
0.000000001
 43
0.00000001
 40
0.0
 40
0.0
 40
0.0
 40
0.0
 40
0.2500000000000001
 40
0.2500000000000001
 40
0.5000000000000001
 40
0.5000000000000001
 40
0.75
 40
0.75
 40
1.0
 40
1.0
 40
1.0
 40
1.0
 10
11.95692193816384
 20
0.2790883258943613
 30
0.0
 10
11.87265473976008
 20
0.3218204793215111
 30
0.0
 10
11.7908317242521
 20
0.361432109695584
 30
0.0
 10
11.62599131117082
 20
0.4332419847750343
 30
0.0
 10
11.5409324926207
 20
0.4656684021555012
 30
0.0
 10
11.37280428410263
 20
0.5206181915828614
 30
0.0
 10
11.2919837513954
 20
0.543004088513081
 30
0.0
 10
11.12587449006187
 20
0.5774112514982849
 30
0.0
 10
11.04065350896893
 20
0.589296488150754
 30
0.0
 10
10.95692193816529
 20
0.595308496005267
 30
0.0
  0
SPLINE
  5
C2
330
1F
100
AcDbEntity
  8
0
  6
Continuous
 62
     4
370
    25
100
AcDbSpline
210
0.0
220
0.0
230
1.0
 70
    24
 71
     3
 72
    16
 73
    12
 74
     0
 42
0.000000001
 43
0.00000001
 40
0.0
 40
0.0
 40
0.0
 40
0.0
 40
0.1249999999999999
 40
0.1249999999999999
 40
0.25
 40
0.25
 40
0.5
 40
0.5
 40
0.75
 40
0.75
 40
1.0
 40
1.0
 40
1.0
 40
1.0
 10
11.95692193816529
 20
0.2790883259085256
 30
0.0
 10
11.95692193816529
 20
0.2667010883209232
 30
0.0
 10
11.95692193816529
 20
0.254519289267832
 30
0.0
 10
11.95692193816529
 20
0.2254919415481013
 30
0.0
 10
11.95692193816529
 20
0.2088527102985944
 30
0.0
 10
11.95692193816529
 20
0.1513451820467481
 30
0.0
 10
11.95692193816529
 20
0.1024305688081694
 30
0.0
 10
11.95692193816529
 20
-0.0169982565830321
 30
0.0
 10
11.95692193816529
 20
-0.0879239879712111
 30
0.0
 10
11.95692193816529
 20
-0.2316811469343256
 30
0.0
 10
11.95692193816529
 20
-0.3033766667426925
 30
0.0
 10
11.95692193816529
 20
-0.3584802495873468
 30
0.0
  0
SPLINE
  5
C3
330
1F
100
AcDbEntity
  8
0
  6
Continuous
 62
     4
370
    25
100
AcDbSpline
210
0.0
220
0.0
230
1.0
 70
     8
 71
     3
 72
    14
 73
    10
 74
     0
 42
0.000000001
 43
0.00000001
 40
0.0
 40
0.0
 40
0.0
 40
0.0
 40
0.25
 40
0.25
 40
0.5
 40
0.5
 40
0.75
 40
0.75
 40
1.0
 40
1.0
 40
1.0
 40
1.0
 10
11.95692193816529
 20
-0.3584802495873475
 30
0.0
 10
11.8726547397614
 20
-0.3197710960742618
 30
0.0
 10
11.79083172425325
 20
-0.2779735401238027
 30
0.0
 10
11.62599131117178
 20
-0.1897161221951635
 30
0.0
 10
11.54093249262155
 20
-0.1428524246150034
 30
0.0
 10
11.37280428410322
 20
-0.0476084373637109
 30
0.0
 10
11.29198375139587
 20
0.0003117019818496
 30
0.0
 10
11.12587449006211
 20
0.0960811281142767
 30
0.0
 10
11.04065350896904
 20
0.1439050397324242
 30
0.0
 10
10.95692193816529
 20
0.1896063983357189
 30
0.0
  0
SPLINE
  5
C4
330
1F
100
AcDbEntity
  8
0
  6
Continuous
 62
     4
370
    25
100
AcDbSpline
210
0.0
220
0.0
230
1.0
 70
     8
 71
     3
 72
    14
 73
    10
 74
     0
 42
0.000000001
 43
0.00000001
 40
0.0
 40
0.0
 40
0.0
 40
0.0
 40
0.25
 40
0.25
 40
0.5
 40
0.5
 40
0.75
 40
0.75
 40
1.0
 40
1.0
 40
1.0
 40
1.0
 10
11.95692193816384
 20
-0.5311400063537643
 30
0.0
 10
11.87265473976008
 20
-0.5086863312037494
 30
0.0
 10
11.7908317242521
 20
-0.4813137748198476
 30
0.0
 10
11.62599131117082
 20
-0.4178486596586382
 30
0.0
 10
11.5409324926207
 20
-0.3814176187136165
 30
0.0
 10
11.37280428410263
 20
-0.3021310298930162
 30
0.0
 10
11.2919837513954
 20
-0.2597198430736035
 30
0.0
 10
11.12587449006187
 20
-0.1700120103736334
 30
0.0
 10
11.04065350896893
 20
-0.1226783501548452
 30
0.0
 10
10.95692193816529
 20
-0.0748852093803827
 30
0.0
  0
SPLINE
  5
C5
330
1F
100
AcDbEntity
  8
0
  6
Continuous
 62
     4
370
    25
100
AcDbSpline
210
0.0
220
0.0
230
1.0
 70
     8
 71
     3
 72
    10
 73
     6
 74
     0
 42
0.000000001
 43
0.00000001
 40
0.0
 40
0.0
 40
0.0
 40
0.0
 40
0.0476805390400079
 40
0.5239104326300119
 40
1.0
 40
1.0
 40
1.0
 40
1.0
 10
11.87532812857958
 20
-0.5068591390214213
 30
0.0
 10
11.86074377190796
 20
-0.5115177121861338
 30
0.0
 10
11.70049187947336
 20
-0.5627057887327336
 30
0.0
 10
11.39415717334727
 20
-0.6185599959039261
 30
0.0
 10
11.1026526986343
 20
-0.5856873058123393
 30
0.0
 10
10.95692193816805
 20
-0.5692533826956
 30
0.0
  0
LINE
  5
C6
330
1F
100
AcDbEntity
  8
0
  6
Continuous
 62
     4
370
    25
100
AcDbLine
 10
11.95692193816529
 20
-0.3584802495873475
 30
0.0
 11
11.95692193816529
 21
-0.5311400063731643
 31
0.0
  0
SPLINE
  5
C7
330
1F
100
AcDbEntity
  8
0
  6
Continuous
 62
     4
370
    25
100
AcDbSpline
210
0.0
220
0.0
230
1.0
 70
     8
 71
     3
 72
    10
 73
     6
 74
     0
 42
0.000000001
 43
0.00000001
 40
0.0
 40
0.0
 40
0.0
 40
0.0
 40
0.1885426798239252
 40
0.8458871641514041
 40
1.0
 40
1.0
 40
1.0
 40
1.0
 10
11.95692193816529
 20
0.4811360625181347
 30
0.0
 10
11.91514392410041
 20
0.4945510018642196
 30
0.0
 10
11.72770898430736
 20
0.5547364464082348
 30
0.0
 10
11.50577234451087
 20
0.6085730493857089
 30
0.0
 10
11.32580733347881
 20
0.5934079922915696
 30
0.0
 10
11.29162818749778
 20
0.5905278285460793
 30
0.0
  0
LINE
  5
C8
330
1F
100
AcDbEntity
  8
0
  6
Continuous
 62
     4
370
    25
100
AcDbLine
 10
11.95692193816529
 20
0.4811360625181346
 30
0.0
 11
11.95692193816529
 21
0.2790883259074081
 31
0.0
  0
LINE
  5
C9
330
1F
100
AcDbEntity
  8
0
  6
Continuous
 62
     4
370
    25
100
AcDbLine
 10
11.87532812857958
 20
0.5068591390214222
 30
0.0
 11
11.95692193816384
 21
0.5311400063537655
 31
0.0
  0
SPLINE
  5
CA
330
1F
100
AcDbEntity
  8
0
  6
Continuous
 62
     4
370
    25
100
AcDbSpline
210
0.0
220
0.0
230
1.0
 70
    24
 71
     3
 72
     9
 73
     5
 74
     0
 42
0.000000001
 43
0.00000001
 40
0.0
 40
0.0
 40
0.0
 40
0.0
 40
0.7194583767867458
 40
1.0
 40
1.0
 40
1.0
 40
1.0
 10
11.95692193816529
 20
0.5311400063731653
 30
0.0
 10
11.95692193816529
 20
0.5181610873119278
 30
0.0
 10
11.95692193816529
 20
0.5001212402825498
 30
0.0
 10
11.95692193816529
 20
0.4852953436304944
 30
0.0
 10
11.95692193816529
 20
0.4811360625181347
 30
0.0
  0
SPLINE
  5
CB
330
1F
100
AcDbEntity
  8
0
  6
Continuous
 62
     1
370
    25
100
AcDbSpline
210
0.0
220
0.0
230
1.0
 70
     8
 71
     3
 72
    12
 73
     8
 74
     0
 42
0.000000001
 43
0.00000001
 40
0.0
 40
0.0
 40
0.0
 40
0.0
 40
0.194955716408366
 40
0.3900268016633855
 40
0.5852794064375044
 40
0.7998630281733428
 40
1.0
 40
1.0
 40
1.0
 40
1.0
 10
11.95692193816384
 20
0.2790883258943615
 30
0.0
 10
12.0956467645495
 20
0.2037941785623297
 30
0.0
 10
12.37317851044185
 20
0.0531613271184113
 30
0.0
 10
12.78970509858708
 20
-0.1936506791307996
 30
0.0
 10
13.22026321706345
 20
-0.4112471364786782
 30
0.0
 10
13.65460363400203
 20
-0.5706517086296995
 30
0.0
 10
13.9498829544695
 20
-0.5880072939454417
 30
0.0
 10
14.09237963767916
 20
-0.5963827986666665
 30
0.0
  0
SPLINE
  5
CC
330
1F
100
AcDbEntity
  8
0
  6
Continuous
 62
     1
370
    25
100
AcDbSpline
210
0.0
220
0.0
230
1.0
 70
     8
 71
     3
 72
    15
 73
    11
 74
     0
 42
0.000000001
 43
0.00000001
 40
0.0
 40
0.0
 40
0.0
 40
0.0
 40
0.0419428487525672
 40
0.1756028354286932
 40
0.3195461533291398
 40
0.4634846687776303
 40
0.607418566001903
 40
0.7383860094673396
 40
0.8692316970802314
 40
1.0
 40
1.0
 40
1.0
 40
1.0
 10
15.14084411899573
 20
-0.498960216330795
 30
0.0
 10
15.09632710899051
 20
-0.5151001280759316
 30
0.0
 10
14.90994698903631
 20
-0.5826733700065096
 30
0.0
 10
14.57071623170041
 20
-0.6142971282081959
 30
0.0
 10
14.12325739974388
 20
-0.5678567876411361
 30
0.0
 10
13.66489531317156
 20
-0.4053028844003724
 30
0.0
 10
13.22026325894749
 20
-0.1735693193866867
 30
0.0
 10
12.78970508787764
 20
0.0781145236270371
 30
0.0
 10
12.37317851311742
 20
0.3148190992977167
 30
0.0
 10
12.09564676544216
 20
0.4257080083219483
 30
0.0
 10
11.9569219381653
 20
0.4811360625181288
 30
0.0
  0
SPLINE
  5
CD
330
1F
100
AcDbEntity
  8
0
  6
Continuous
 62
     1
370
    25
100
AcDbSpline
210
0.0
220
0.0
230
1.0
 70
     8
 71
     3
 72
    11
 73
     7
 74
     0
 42
0.000000001
 43
0.00000001
 40
0.0
 40
0.0
 40
0.0
 40
0.0
 40
0.193614949842086
 40
0.4626296798367851
 40
0.7313943162438646
 40
1.0
 40
1.0
 40
1.0
 40
1.0
 10
13.50669738382445
 20
-0.4965935432335704
 30
0.0
 10
13.40663647406713
 20
-0.5278385333696605
 30
0.0
 10
13.16754777413482
 20
-0.6024963002154152
 30
0.0
 10
12.78970622830397
 20
-0.6083403389678848
 30
0.0
 10
12.37317822831798
 20
-0.5350225182667315
 30
0.0
 10
12.09564667052774
 20
-0.4173160667331335
 30
0.0
 10
11.9569219381653
 20
-0.3584802495873565
 30
0.0
  0
SPLINE
  5
CE
330
1F
100
AcDbEntity
  8
0
  6
Continuous
 62
     4
370
    25
100
AcDbSpline
210
0.0
220
0.0
230
1.0
 70
    24
 71
     3
 72
    16
 73
    12
 74
     0
 42
0.000000001
 43
0.00000001
 40
0.0
 40
0.0
 40
0.0
 40
0.0
 40
0.1249999999999997
 40
0.1249999999999997
 40
0.2499999999999998
 40
0.2499999999999998
 40
0.4999999999999999
 40
0.4999999999999999
 40
0.75
 40
0.75
 40
1.0
 40
1.0
 40
1.0
 40
1.0
 10
11.95692193816529
 20
0.279088325908524
 30
0.0
 10
11.95692193816529
 20
0.2667010883209178
 30
0.0
 10
11.95692193816529
 20
0.2545192892678228
 30
0.0
 10
11.95692193816529
 20
0.2254919415480805
 30
0.0
 10
11.95692193816529
 20
0.2088527102985662
 30
0.0
 10
11.95692193816529
 20
0.1513451820466929
 30
0.0
 10
11.95692193816529
 20
0.1024305688080884
 30
0.0
 10
11.95692193816529
 20
-0.0169982565831749
 30
0.0
 10
11.95692193816529
 20
-0.0879239879713901
 30
0.0
 10
11.95692193816529
 20
-0.2316811469345482
 30
0.0
 10
11.95692193816529
 20
-0.3033766667429197
 30
0.0
 10
11.95692193816529
 20
-0.3584802495875511
 30
0.0
  0
SPLINE
  5
CF
330
1F
100
AcDbEntity
  8
0
  6
Continuous
 62
     1
370
    25
100
AcDbSpline
210
0.0
220
0.0
230
1.0
 70
     8
 71
     3
 72
    14
 73
    10
 74
     0
 42
0.000000001
 43
0.00000001
 40
0.0
 40
0.0
 40
0.0
 40
0.0
 40
0.1448247042395478
 40
0.2897685167840754
 40
0.434804182604196
 40
0.5909983845581123
 40
0.7471873753277815
 40
0.903371354820396
 40
1.0
 40
1.0
 40
1.0
 40
1.0
 10
15.8575260476027
 20
-0.5695977518359754
 30
0.0
 10
15.71589488394245
 20
-0.5346201204140165
 30
0.0
 10
15.43251607478328
 20
-0.4646360908868676
 30
0.0
 10
15.00721170078166
 20
-0.2578316663109965
 30
0.0
 10
14.57072003650492
 20
-0.0094112693192215
 30
0.0
 10
14.12325566803198
 20
0.2515790030220388
 30
0.0
 10
13.66489830014032
 20
0.4660628916848072
 30
0.0
 10
13.26475375670578
 20
0.5887623520638625
 30
0.0
 10
13.01752770996385
 20
0.5893310563215388
 30
0.0
 10
12.92303433574745
 20
0.5895484233220926
 30
0.0
  0
SPLINE
  5
D0
330
1F
100
AcDbEntity
  8
0
  6
Continuous
 62
     1
370
    25
100
AcDbSpline
210
0.0
220
0.0
230
1.0
 70
     8
 71
     3
 72
    13
 73
     9
 74
     0
 42
0.000000001
 43
0.00000001
 40
0.0
 40
0.0
 40
0.0
 40
0.0
 40
0.0645608253028521
 40
0.25163570346942
 40
0.4387168233157204
 40
0.6258044224841041
 40
0.8128987367580024
 40
1.0
 40
1.0
 40
1.0
 40
1.0
 10
13.50669738382446
 20
0.4965935432335716
 30
0.0
 10
13.55942586105876
 20
0.5157364090274403
 30
0.0
 10
13.76494317592398
 20
0.5903486599995177
 30
0.0
 10
14.12325740447977
 20
0.6154420458722406
 30
0.0
 10
14.58164549810515
 20
0.5532584141130261
 30
0.0
 10
15.0400528782569
 20
0.3793720414480926
 30
0.0
 10
15.49847966903349
 20
0.13274797336417
 30
0.0
 10
15.80410595658543
 20
-0.044340198036718
 30
0.0
 10
15.95692193816529
 20
-0.1328859280378002
 30
0.0
  0
LINE
  5
D1
330
1F
100
AcDbEntity
  8
0
  6
Continuous
 62
     1
370
    25
100
AcDbLine
 10
15.95692193816529
 20
-0.4999999999999997
 30
0.0
 11
15.95692193816529
 21
-0.1334255983611651
 31
0.0
  0
SPLINE
  5
D2
330
1F
100
AcDbEntity
  8
0
  6
Continuous
 62
     1
370
    25
100
AcDbSpline
210
0.0
220
0.0
230
1.0
 70
    24
 71
     3
 72
     8
 73
     4
 74
     0
 42
0.000000001
 43
0.00000001
 40
0.0
 40
0.0
 40
0.0
 40
0.0
 40
1.0
 40
1.0
 40
1.0
 40
1.0
 10
15.95692193816529
 20
-0.4999999999999998
 30
0.0
 10
15.92214974265161
 20
-0.5243477534187765
 30
0.0
 10
15.88909225046464
 20
-0.5474948586424049
 30
0.0
 10
15.85752604760612
 20
-0.5695977518365961
 30
0.0
  0
SPLINE
  5
D3
330
1F
100
AcDbEntity
  8
0
  6
Continuous
 62
     4
370
    25
100
AcDbSpline
210
0.0
220
0.0
230
1.0
 70
    24
 71
     3
 72
     9
 73
     5
 74
     0
 42
0.000000001
 43
0.00000001
 40
0.0
 40
0.0
 40
0.0
 40
0.0
 40
0.7194583767867367
 40
1.0
 40
1.0
 40
1.0
 40
1.0
 10
11.95692193816529
 20
0.5311400063731637
 30
0.0
 10
11.95692193816529
 20
0.5181610873119268
 30
0.0
 10
11.95692193816529
 20
0.5001212402825493
 30
0.0
 10
11.95692193816529
 20
0.4852953436304945
 30
0.0
 10
11.95692193816529
 20
0.4811360625181348
 30
0.0
  0
SPLINE
  5
D4
330
1F
100
AcDbEntity
  8
0
  6
Continuous
 62
     1
370
    25
100
AcDbSpline
210
0.0
220
0.0
230
1.0
 70
     8
 71
     3
 72
     9
 73
     5
 74
     0
 42
0.000000001
 43
0.00000001
 40
0.0
 40
0.0
 40
0.0
 40
0.0
 40
0.1105068383834637
 40
0.1500700169199251
 40
0.1500700169199251
 40
0.1500700169199251
 40
0.1500700169199251
 10
11.95692193816384
 20
0.5311400063537657
 30
0.0
 10
12.0956467620984
 20
0.5601010375965245
 30
0.0
 10
12.28403724525412
 20
0.5994305715167499
 30
0.0
 10
12.47244578444915
 20
0.6017118190999698
 30
0.0
 10
12.52211747282294
 20
0.6000000000000006
 30
0.0
  0
LINE
  5
D5
330
1F
100
AcDbEntity
  8
0
  6
Continuous
 62
     1
370
    25
100
AcDbLine
 10
15.85752604760573
 20
-0.5695977518368667
 30
0.0
 11
15.83267939799209
 21
-0.5869955631955937
 31
0.0
  0
ELLIPSE
  5
D6
330
1F
100
AcDbEntity
  8
0
  6
Continuous
 62
     1
370
    25
100
AcDbEllipse
 10
15.71269424518719
 20
0.0000000000000007
 30
0.0
 11
0.8335939833959767
 21
-0.330204603625058
 31
0.0
210
0.0
220
0.0
230
1.0
 40
0.6009688174887273
 41
5.086581568774599
 42
5.235119673336836
  0
LINE
  5
D7
330
1F
100
AcDbEntity
  8
0
  6
Continuous
 62
     1
370
    25
100
AcDbLine
 10
15.95692193816529
 20
-0.6000000000000003
 30
0.0
 11
15.95692193816529
 21
-0.5989188155876869
 31
0.0
  0
SPLINE
  5
D8
330
1F
100
AcDbEntity
  8
0
  6
Continuous
 62
     1
370
    25
100
AcDbSpline
210
0.0
220
0.0
230
1.0
 70
     8
 71
     3
 72
    11
 73
     7
 74
     0
 42
0.000000001
 43
0.00000001
 40
0.0
 40
0.0
 40
0.0
 40
0.0
 40
0.3266664260676507
 40
0.653601512682596
 40
0.9807437834338255
 40
1.0
 40
1.0
 40
1.0
 40
1.0
 10
15.85752604760269
 20
0.1885693535627217
 30
0.0
 10
15.71589475444163
 20
0.2637170577470969
 30
0.0
 10
15.43251568617431
 20
0.4140742699062677
 30
0.0
 10
15.00721325711997
 20
0.5521140256245319
 30
0.0
 10
14.71516946857339
 20
0.6157007198076853
 30
0.0
 10
14.56493807908678
 20
0.598009734374393
 30
0.0
 10
14.55658674882147
 20
0.5970262963420545
 30
0.0
  0
ELLIPSE
  5
D9
330
1F
100
AcDbEntity
  8
0
  6
Continuous
 62
     1
370
    25
100
AcDbEllipse
 10
16.67099594153634
 20
0.0000000000000004
 30
0.0
 11
0.8568888040452656
 21
0.0
 31
0.0
210
0.0
220
0.0
230
1.0
 40
0.7002075382097126
 41
2.821892147869353
 42
2.933012639234688
  0
ELLIPSE
  5
DA
330
1F
100
AcDbEntity
  8
0
  6
Continuous
 62
     1
370
    25
100
AcDbEllipse
 10
15.71269424518719
 20
0.0000000000000004
 30
0.0
 11
0.8514615395884686
 21
-0.5833044422444442
 31
0.0
210
0.0
220
0.0
230
1.0
 40
0.1650759015746637
 41
1.394381293938614
 42
1.542919398500848
  0
LINE
  5
DB
330
1F
100
AcDbEntity
  8
0
  6
Continuous
 62
     1
370
    25
100
AcDbLine
 10
15.95692193816529
 20
-0.1328859280378004
 30
0.0
 11
15.95692193816529
 21
0.0360035044827859
 31
0.0
  0
SPLINE
  5
DC
330
1F
100
AcDbEntity
  8
0
  6
Continuous
 62
     1
370
    25
100
AcDbSpline
210
0.0
220
0.0
230
1.0
 70
     8
 71
     3
 72
     8
 73
     4
 74
     0
 42
0.000000001
 43
0.00000001
 40
0.0
 40
0.0
 40
0.0
 40
0.0
 40
1.0
 40
1.0
 40
1.0
 40
1.0
 10
15.95692193816529
 20
0.1347180389801062
 30
0.0
 10
15.92214974265161
 20
0.1481566925502278
 30
0.0
 10
15.88909225046464
 20
0.1663119789696778
 30
0.0
 10
15.85752604760612
 20
0.1885693535608428
 30
0.0
  0
LINE
  5
DD
330
1F
100
AcDbEntity
  8
0
  6
Continuous
 62
     1
370
    25
100
AcDbLine
 10
15.95692193816529
 20
0.0360035044827861
 30
0.0
 11
15.95692193816529
 21
0.1347180389801061
 31
0.0
  0
SPLINE
  5
DE
330
1F
100
AcDbEntity
  8
0
  6
Continuous
 62
     1
370
    25
100
AcDbSpline
210
0.0
220
0.0
230
1.0
 70
     8
 71
     3
 72
     9
 73
     5
 74
     0
 42
0.000000001
 43
0.00000001
 40
0.0
 40
0.0
 40
0.0
 40
0.0
 40
0.8292636781146498
 40
1.0
 40
1.0
 40
1.0
 40
1.0
 10
11.95692193816384
 20
-0.5311400063537647
 30
0.0
 10
12.09564321488922
 20
-0.5665031082070074
 30
0.0
 10
12.26292568533429
 20
-0.609147085974901
 30
0.0
 10
12.43023786779859
 20
-0.5946491902834287
 30
0.0
 10
12.45880413443915
 20
-0.5921738728979894
 30
0.0
  0
SPLINE
  5
DF
330
1F
100
AcDbEntity
  8
0
  6
Continuous
 62
     1
370
    25
100
AcDbSpline
210
0.0
220
0.0
230
1.0
 70
     8
 71
     3
 72
     9
 73
     5
 74
     0
 42
0.000000001
 43
0.00000001
 40
0.0
 40
0.0
 40
0.0
 40
0.0
 40
0.4382328051134859
 40
1.0
 40
1.0
 40
1.0
 40
1.0
 10
15.14084411899573
 20
0.4989602163307962
 30
0.0
 10
15.26005412492143
 20
0.5343077451116169
 30
0.0
 10
15.53207850222663
 20
0.6149669937310059
 30
0.0
 10
15.80410588078193
 20
0.5958427767442215
 30
0.0
 10
15.95692193816528
 20
0.5850994190131545
 30
0.0
  0
LINE
  5
E0
330
1F
100
AcDbEntity
  8
0
  6
Continuous
 62
     1
370
    25
100
AcDbLine
 10
15.95692193816529
 20
0.1347180389801061
 30
0.0
 11
15.95692193816529
 21
0.5850994190131573
 31
0.0
  0
LINE
  5
E1
330
1F
100
AcDbEntity
  8
0
  6
Continuous
 62
     1
370
    25
100
AcDbLine
 10
15.95692193816529
 20
0.5850994190131573
 30
0.0
 11
15.95692193816529
 21
0.6000000000000011
 31
0.0
  0
LINE
  5
E2
330
1F
100
AcDbEntity
  8
0
  6
Continuous
 62
     1
370
    25
100
AcDbLine
 10
15.95692193816529
 20
-0.4999999999999993
 30
0.0
 11
15.95692193816529
 21
-0.5989188155876869
 31
0.0
  0
LINE
  5
E3
330
1F
100
AcDbEntity
  8
중심선
100
AcDbLine
 10
-47.04307806183471
 20
-0.0000000000000039
 30
0.0
 11
17.45692193816529
 21
0.000000000000004
 31
0.0
  0
CIRCLE
  5
E4
330
1F
100
AcDbEntity
  8
해칭선
100
AcDbCircle
 10
0.0000000000000121
 20
-0.0000000000000043
 30
0.0
 40
3.000000000000003
  0
INSERT
  5
E5
330
1F
100
AcDbEntity
  8
0
  6
Continuous
 62
     7
100
AcDbBlockReference
 66
     1
  2
블럭10
 10
-28.44009924894177
 20
-52.04717430164394
 30
0.0
  0
ATTRIB
  5
E6
330
E5
100
AcDbEntity
  8
FORMAT
 62
     2
100
AcDbText
 10
-44.55936028837733
 20
-49.97180738881175
 30
0.0
 40
4.233333333333333
  1
SEME7201204E [ 4 FLUTE ]
 41
0.75
  7
SLDTEXTSTYLE0
 11
-44.55936028837733
 21
-52.08847405547841
 31
0.0
100
AcDbAttribute
  2
AUTOATTR0
 70
     0
 74
     1
  0
SEQEND
  5
E7
330
E5
100
AcDbEntity
  8
0
  6
Continuous
 62
     7
  0
HATCH
  5
E8
330
1F
100
AcDbEntity
  8
중심선
100
AcDbHatch
 10
0.0
 20
0.0
 30
0.0
210
0.0
220
0.0
230
1.0
  2
SOLID
 70
     1
 71
     0
 91
        1
 92
        0
 93
        4
 72
     1
 10
-22.72518994456093
 20
-35.8
 11
-26.17146518839822
 21
-35.8
 72
     1
 10
-26.17146518839822
 20
-35.8
 11
-28.29969504760227
 21
-38.33632558057259
 72
     1
 10
-28.29969504760227
 20
-38.33632558057259
 11
-24.85338671865181
 21
-38.3362861512701
 72
     1
 10
-24.85338671865181
 20
-38.3362861512701
 11
-22.72518994456093
 21
-35.8
 97
        0
 75
     0
 76
     1
 98
        1
 10
0.0
 20
0.0
  0
HATCH
  5
E9
330
1F
100
AcDbEntity
  8
중심선
100
AcDbHatch
 10
0.0
 20
0.0
 30
0.0
210
0.0
220
0.0
230
1.0
  2
SOLID
 70
     1
 71
     0
 91
        1
 92
        0
 93
        4
 72
     1
 10
-17.71242595352496
 20
-35.8
 11
-21.15870119736224
 21
-35.8
 72
     1
 10
-21.15870119736224
 20
-35.8
 11
-25.68983920571966
 21
-41.20000000000002
 72
     1
 10
-25.68983920571966
 20
-41.20000000000002
 11
-22.24356396188237
 21
-41.20000000000002
 72
     1
 10
-22.24356396188237
 20
-41.20000000000002
 11
-17.71242595352496
 21
-35.8
 97
        0
 75
     0
 76
     1
 98
        1
 10
0.0
 20
0.0
  0
HATCH
  5
EA
330
1F
100
AcDbEntity
  8
중심선
100
AcDbHatch
 10
0.0
 20
0.0
 30
0.0
210
0.0
220
0.0
230
1.0
  2
SOLID
 70
     1
 71
     0
 91
        1
 92
        0
 93
        4
 72
     1
 10
-12.69966196248906
 20
-35.79999999999997
 11
-16.14593720632621
 21
-35.8
 72
     1
 10
-16.14593720632621
 20
-35.8
 11
-23.19437410821546
 21
-44.20000000000002
 72
     1
 10
-23.19437410821546
 20
-44.20000000000002
 11
-19.74809886437817
 21
-44.20000000000002
 72
     1
 10
-19.74809886437817
 20
-44.20000000000002
 11
-12.69966196248906
 21
-35.79999999999997
 97
        0
 75
     0
 76
     1
 98
        1
 10
0.0
 20
0.0
  0
HATCH
  5
EB
330
1F
100
AcDbEntity
  8
중심선
100
AcDbHatch
 10
0.0
 20
0.0
 30
0.0
210
0.0
220
0.0
230
1.0
  2
SOLID
 70
     1
 71
     0
 91
        1
 92
        0
 93
        6
 72
     3
 10
-7.89977153147689
 20
-40.00000000005127
 11
3.960054785062284
 21
1.540850780301639E-10
 40
0.3939339440162633
 50
17.09539180608433
 51
320.0019657685079
 73
     0
 72
     1
 10
-6.216771875776295
 20
-38.5878940046383
 11
-3.911470002075229
 21
-36.65356729459035
 72
     3
 10
-7.899771531529737
 20
-40.00000000000015
 11
6.600054785286829
 21
-1.249000902703301E-13
 40
0.6363583540795982
 50
39.99873849337412
 51
368.4976242363725
 73
     1
 72
     1
 10
-1.474439039629127
 20
-39.03999999993002
 11
-9.219704224693814
 21
-39.03999999992999
 72
     1
 10
-9.219704224693814
 20
-39.03999999992999
 11
-9.219729269139748
 21
-40.95999999992991
 72
     1
 10
-9.219729269139748
 20
-40.95999999992991
 11
-4.778349499667711
 21
-40.95999999992988
 97
        0
 75
     0
 76
     1
 98
        1
 10
0.0
 20
0.0
  0
DIMENSION
  5
EC
330
1F
100
AcDbEntity
  8
치수문자_일반주서
100
AcDbDimension
  2
_D
 10
28.44724937544375
 20
0.6000000000000494
 30
0.0
 11
28.44724937544372
 21
11.57900000000005
 31
0.0
 70
   160
  1
%%c<>
 71
     2
 42
1.200000000000008
 52
-270.0
  3
SLDDIMSTYLE0
100
AcDbAlignedDimension
 13
15.9569219381653
 23
-0.6000000000000042
 33
0.0
 14
15.9569219381653
 24
0.6000000000000033
 34
0.0
 50
90.0000000000002
100
AcDbRotatedDimension
  0
DIMENSION
  5
FA
330
1F
100
AcDbEntity
  8
치수문자_일반주서
100
AcDbDimension
  2
_D_1
 10
15.95692193816529
 20
20.38913260158164
 30
0.0
 11
-14.04307806183472
 21
20.38913260158164
 31
0.0
 70
   160
  1
<>
 71
     2
 42
60.00000000000001
  3
SLDDIMSTYLE1
100
AcDbAlignedDimension
 13
-44.04307806183472
 23
2.499999999999993
 33
0.0
 14
15.95692193816529
 24
0.6000000000000005
 34
0.0
 50
-0.0000000000000068
100
AcDbRotatedDimension
  0
DIMENSION
  5
105
330
1F
100
AcDbEntity
  8
치수문자_일반주서
100
AcDbDimension
  2
_D_2
 10
-52.58695599275598
 20
-3.000000000000036
 30
0.0
 11
-52.58695599275604
 21
12.66649999999997
 31
0.0
 70
   160
  1
%%c<>
 71
     2
 42
6.000000000000005
 52
-270.0
  3
SLDDIMSTYLE2
100
AcDbAlignedDimension
 13
-43.54307806183471
 23
3.000000000000003
 33
0.0
 14
-43.54307806183471
 24
-3.000000000000002
 34
0.0
 50
90.0000000000002
100
AcDbRotatedDimension
  0
DIMENSION
  5
113
330
1F
100
AcDbEntity
  8
치수문자_일반주서
100
AcDbDimension
  2
_D_3
 10
15.95692193816529
 20
11.54964907351456
 30
0.0
 11
3.602921938165286
 21
11.54964907351456
 31
0.0
 70
   160
  1
<>
 71
     2
 42
4.000000000000002
  3
SLDDIMSTYLE2
100
AcDbAlignedDimension
 13
11.95692193816529
 23
0.5311400063731637
 33
0.0
 14
15.95692193816529
 24
0.6000000000000005
 34
0.0
100
AcDbRotatedDimension
  0
INSERT
  5
125
330
1F
100
AcDbEntity
  8
해칭선
100
AcDbBlockReference
  2
SW_DOWELSYMBOL_0
 10
0.0000000000000121
 20
-0.0000000000000043
 30
0.0
  0
SPLINE
  5
158
330
1F
100
AcDbEntity
  8
0
  6
Continuous
 62
     1
370
    25
100
AcDbSpline
210
0.0
220
0.0
230
1.0
 70
     8
 71
     3
 72
    12
 73
     8
 74
     0
 42
0.000000001
 43
0.00000001
 40
0.566731827129847
 40
0.566731827129847
 40
0.566731827129847
 40
0.566731827129847
 40
0.5750231637368575
 40
0.6966636577436112
 40
0.8183083646177013
 40
0.9399574376659559
 40
1.0
 40
1.0
 40
1.0
 40
1.0
 10
14.09200816143218
 20
0.0000000000000007
 30
0.0
 10
14.10242299262563
 20
-0.0060180838645037
 30
0.0
 10
14.26563182033098
 20
-0.1003444050140728
 30
0.0
 10
14.58164613174488
 20
-0.2823224411920989
 30
0.0
 10
15.04005277194909
 20
-0.4862797836760517
 30
0.0
 10
15.42108709605927
 20
-0.5969421951479064
 30
0.0
 10
15.64932014260685
 20
-0.588322706701342
 30
0.0
 10
15.72474297038418
 20
-0.5854742752297916
 30
0.0
  0
ENDSEC
  0
SECTION
  2
OBJECTS
  0
DICTIONARY
  5
C
330
0
100
AcDbDictionary
281
     1
  3
ACAD_GROUP
350
D
  3
ACAD_IMAGE_VARS
350
149
  3
ACAD_LAYOUT
350
1A
  3
ACAD_MLINESTYLE
350
17
  3
ACAD_PLOTSETTINGS
350
19
  3
ACAD_PLOTSTYLENAME
350
E
  3
ACAD_SCALELIST
350
47
  3
APPDATA
350
147
  3
DWGPROPS
350
15B
  0
DICTIONARY
  5
D
102
{ACAD_REACTORS
330
C
102
}
330
C
100
AcDbDictionary
281
     1
  0
RASTERVARIABLES
  5
149
102
{ACAD_REACTORS
330
C
102
}
330
C
100
AcDbRasterVariables
 90
        0
 70
     1
 71
     1
 72
     1
  0
DICTIONARY
  5
1A
102
{ACAD_REACTORS
330
C
102
}
330
C
100
AcDbDictionary
281
     1
  3
Layout1
350
1E
  3
Layout2
350
26
  3
Model
350
22
  0
DICTIONARY
  5
17
102
{ACAD_REACTORS
330
C
102
}
330
C
100
AcDbDictionary
281
     1
  3
Standard
350
18
  0
DICTIONARY
  5
19
102
{ACAD_REACTORS
330
C
102
}
330
C
100
AcDbDictionary
281
     1
  0
ACDBDICTIONARYWDFLT
  5
E
102
{ACAD_REACTORS
330
C
102
}
330
C
100
AcDbDictionary
281
     1
  3
Normal
350
F
100
AcDbDictionaryWithDefault
340
F
  0
DICTIONARY
  5
47
102
{ACAD_REACTORS
330
C
102
}
330
C
100
AcDbDictionary
281
     1
  3
A0
350
48
  3
A1
350
49
  3
A2
350
4A
  3
A3
350
4B
  3
A4
350
4C
  3
A5
350
4D
  3
A6
350
4E
  3
A7
350
4F
  3
A8
350
50
  3
A9
350
51
  3
B0
350
52
  3
B1
350
53
  3
B2
350
54
  3
B3
350
55
  3
B4
350
56
  3
B5
350
57
  3
B6
350
58
  3
B7
350
59
  3
B8
350
5A
  3
B9
350
5B
  3
C0
350
5C
  3
C1
350
5D
  3
C2
350
5E
  3
C3
350
5F
  3
C4
350
60
  3
C5
350
61
  3
C6
350
62
  3
C7
350
63
  3
C8
350
64
  3
C9
350
65
  3
D0
350
66
  3
D1
350
67
  3
D2
350
68
  0
DICTIONARY
  5
147
102
{ACAD_REACTORS
330
C
102
}
330
C
100
AcDbDictionary
281
     1
  0
XRECORD
  5
15B
102
{ACAD_REACTORS
330
C
102
}
330
C
100
AcDbXrecord
280
     1
  1
DWGPROPS COOKIE
  2

  3

  4

  6

  7

  8
12014102
  9

300
=
301
=
302
=
303
=
304
=
305
=
306
=
307
=
308
=
309
=
 40
0.0
 41
2458260.19068316
 42
2458268.087034572
  1

 90
        0
  0
LAYOUT
  5
1E
102
{ACAD_REACTORS
330
1A
102
}
330
1A
100
AcDbPlotSettings
  1

  2
none_device
  4

  6

 40
0.0
 41
0.0
 42
0.0
 43
0.0
 44
0.0
 45
0.0
 46
0.0
 47
0.0
 48
0.0
 49
0.0
140
0.0
141
0.0
142
1.0
143
1.0
 70
   688
 72
     1
 73
     0
 74
     5
  7

 75
    16
147
1.0
148
0.0
149
0.0
100
AcDbLayout
  1
Layout1
 70
     1
 71
     1
 10
0.0
 20
0.0
 11
420.0
 21
297.0
 12
0.0
 22
0.0
 32
0.0
 14
1.000000000000000E+20
 24
1.000000000000000E+20
 34
1.000000000000000E+20
 15
-1.000000000000000E+20
 25
-1.000000000000000E+20
 35
-1.000000000000000E+20
146
0.0
 13
0.0
 23
0.0
 33
0.0
 16
1.0
 26
0.0
 36
0.0
 17
0.0
 27
1.0
 37
0.0
 76
     0
330
1B
  0
LAYOUT
  5
26
102
{ACAD_REACTORS
330
1A
102
}
330
1A
100
AcDbPlotSettings
  1

  2
none_device
  4

  6

 40
0.0
 41
0.0
 42
0.0
 43
0.0
 44
0.0
 45
0.0
 46
0.0
 47
0.0
 48
0.0
 49
0.0
140
0.0
141
0.0
142
1.0
143
1.0
 70
   688
 72
     1
 73
     0
 74
     5
  7

 75
    16
147
1.0
148
0.0
149
0.0
100
AcDbLayout
  1
Layout2
 70
     1
 71
     2
 10
0.0
 20
0.0
 11
0.0
 21
0.0
 12
0.0
 22
0.0
 32
0.0
 14
0.0
 24
0.0
 34
0.0
 15
0.0
 25
0.0
 35
0.0
146
0.0
 13
0.0
 23
0.0
 33
0.0
 16
1.0
 26
0.0
 36
0.0
 17
0.0
 27
1.0
 37
0.0
 76
     0
330
23
  0
LAYOUT
  5
22
102
{ACAD_REACTORS
330
1A
102
}
330
1A
100
AcDbPlotSettings
  1

  2
none_device
  4
ANSI_A_(11.00_x_8.50_Inches)
  6

 40
6.35
 41
19.05
 42
6.35000508
 43
19.05000254
 44
279.4
 45
215.9
 46
176.1066536815295
 47
125.3847137330092
 48
0.0
 49
0.0
140
0.0
141
0.0
142
0.1112850254374007
143
1.0
 70
  1696
 72
     0
 73
     0
 74
     0
  7

 75
     0
147
0.0235690232323232
148
0.0
149
0.0
100
AcDbLayout
  1
Model
 70
     1
 71
     0
 10
0.0
 20
0.0
 11
420.0
 21
297.0
 12
0.0
 22
0.0
 32
0.0
 14
-56.96195599275605
 24
-49.97180738881175
 34
0.0
 15
28.9975827087771
 25
24.76413260158164
 35
0.0
146
0.0
 13
0.0
 23
0.0
 33
0.0
 16
1.0
 26
0.0
 36
0.0
 17
0.0
 27
1.0
 37
0.0
 76
     0
330
1F
331
29
  0
MLINESTYLE
  5
18
102
{ACAD_REACTORS
330
17
102
}
330
17
100
AcDbMlineStyle
  2
Standard
 70
     0
  3

 62
   256
 51
90.0
 52
90.0
 71
     2
 49
0.5
 62
   256
  6
BYLAYER
 49
-0.5
 62
   256
  6
BYLAYER
  0
ACDBPLACEHOLDER
  5
F
102
{ACAD_REACTORS
330
E
102
}
330
E
  0
SCALE
  5
48
102
{ACAD_REACTORS
330
47
102
}
330
47
100
AcDbScale
 70
     0
300
1:1
140
1.0
141
1.0
290
     1
  0
SCALE
  5
49
102
{ACAD_REACTORS
330
47
102
}
330
47
100
AcDbScale
 70
     0
300
1:2
140
1.0
141
2.0
290
     0
  0
SCALE
  5
4A
102
{ACAD_REACTORS
330
47
102
}
330
47
100
AcDbScale
 70
     0
300
1:4
140
1.0
141
4.0
290
     0
  0
SCALE
  5
4B
102
{ACAD_REACTORS
330
47
102
}
330
47
100
AcDbScale
 70
     0
300
1:5
140
1.0
141
5.0
290
     0
  0
SCALE
  5
4C
102
{ACAD_REACTORS
330
47
102
}
330
47
100
AcDbScale
 70
     0
300
1:8
140
1.0
141
8.0
290
     0
  0
SCALE
  5
4D
102
{ACAD_REACTORS
330
47
102
}
330
47
100
AcDbScale
 70
     0
300
1:10
140
1.0
141
10.0
290
     0
  0
SCALE
  5
4E
102
{ACAD_REACTORS
330
47
102
}
330
47
100
AcDbScale
 70
     0
300
1:16
140
1.0
141
16.0
290
     0
  0
SCALE
  5
4F
102
{ACAD_REACTORS
330
47
102
}
330
47
100
AcDbScale
 70
     0
300
1:20
140
1.0
141
20.0
290
     0
  0
SCALE
  5
50
102
{ACAD_REACTORS
330
47
102
}
330
47
100
AcDbScale
 70
     0
300
1:30
140
1.0
141
30.0
290
     0
  0
SCALE
  5
51
102
{ACAD_REACTORS
330
47
102
}
330
47
100
AcDbScale
 70
     0
300
1:40
140
1.0
141
40.0
290
     0
  0
SCALE
  5
52
102
{ACAD_REACTORS
330
47
102
}
330
47
100
AcDbScale
 70
     0
300
1:50
140
1.0
141
50.0
290
     0
  0
SCALE
  5
53
102
{ACAD_REACTORS
330
47
102
}
330
47
100
AcDbScale
 70
     0
300
1:100
140
1.0
141
100.0
290
     0
  0
SCALE
  5
54
102
{ACAD_REACTORS
330
47
102
}
330
47
100
AcDbScale
 70
     0
300
2:1
140
2.0
141
1.0
290
     0
  0
SCALE
  5
55
102
{ACAD_REACTORS
330
47
102
}
330
47
100
AcDbScale
 70
     0
300
4:1
140
4.0
141
1.0
290
     0
  0
SCALE
  5
56
102
{ACAD_REACTORS
330
47
102
}
330
47
100
AcDbScale
 70
     0
300
8:1
140
8.0
141
1.0
290
     0
  0
SCALE
  5
57
102
{ACAD_REACTORS
330
47
102
}
330
47
100
AcDbScale
 70
     0
300
10:1
140
10.0
141
1.0
290
     0
  0
SCALE
  5
58
102
{ACAD_REACTORS
330
47
102
}
330
47
100
AcDbScale
 70
     0
300
100:1
140
100.0
141
1.0
290
     0
  0
SCALE
  5
59
102
{ACAD_REACTORS
330
47
102
}
330
47
100
AcDbScale
 70
     0
300
1/128" = 1'-0"
140
0.0078125
141
12.0
290
     0
  0
SCALE
  5
5A
102
{ACAD_REACTORS
330
47
102
}
330
47
100
AcDbScale
 70
     0
300
1/64" = 1'-0"
140
0.015625
141
12.0
290
     0
  0
SCALE
  5
5B
102
{ACAD_REACTORS
330
47
102
}
330
47
100
AcDbScale
 70
     0
300
1/32" = 1'-0"
140
0.03125
141
12.0
290
     0
  0
SCALE
  5
5C
102
{ACAD_REACTORS
330
47
102
}
330
47
100
AcDbScale
 70
     0
300
1/16" = 1'-0"
140
0.0625
141
12.0
290
     0
  0
SCALE
  5
5D
102
{ACAD_REACTORS
330
47
102
}
330
47
100
AcDbScale
 70
     0
300
3/32" = 1'-0"
140
0.09375
141
12.0
290
     0
  0
SCALE
  5
5E
102
{ACAD_REACTORS
330
47
102
}
330
47
100
AcDbScale
 70
     0
300
1/8" = 1'-0"
140
0.125
141
12.0
290
     0
  0
SCALE
  5
5F
102
{ACAD_REACTORS
330
47
102
}
330
47
100
AcDbScale
 70
     0
300
3/16" = 1'-0"
140
0.1875
141
12.0
290
     0
  0
SCALE
  5
60
102
{ACAD_REACTORS
330
47
102
}
330
47
100
AcDbScale
 70
     0
300
1/4" = 1'-0"
140
0.25
141
12.0
290
     0
  0
SCALE
  5
61
102
{ACAD_REACTORS
330
47
102
}
330
47
100
AcDbScale
 70
     0
300
3/8" = 1'-0"
140
0.375
141
12.0
290
     0
  0
SCALE
  5
62
102
{ACAD_REACTORS
330
47
102
}
330
47
100
AcDbScale
 70
     0
300
1/2" = 1'-0"
140
0.5
141
12.0
290
     0
  0
SCALE
  5
63
102
{ACAD_REACTORS
330
47
102
}
330
47
100
AcDbScale
 70
     0
300
3/4" = 1'-0"
140
0.75
141
12.0
290
     0
  0
SCALE
  5
64
102
{ACAD_REACTORS
330
47
102
}
330
47
100
AcDbScale
 70
     0
300
1" = 1'-0"
140
1.0
141
12.0
290
     0
  0
SCALE
  5
65
102
{ACAD_REACTORS
330
47
102
}
330
47
100
AcDbScale
 70
     0
300
1-1/2" = 1'-0"
140
1.5
141
12.0
290
     0
  0
SCALE
  5
66
102
{ACAD_REACTORS
330
47
102
}
330
47
100
AcDbScale
 70
     0
300
3" = 1'-0"
140
3.0
141
12.0
290
     0
  0
SCALE
  5
67
102
{ACAD_REACTORS
330
47
102
}
330
47
100
AcDbScale
 70
     0
300
6" = 1'-0"
140
6.0
141
12.0
290
     0
  0
SCALE
  5
68
102
{ACAD_REACTORS
330
47
102
}
330
47
100
AcDbScale
 70
     0
300
1'-0" = 1'-0"
140
12.0
141
12.0
290
     0
  0
ENDSEC
  0
EOF
