  0
SECTION
  2
HEADER
  9
$ACADVER
  1
AC1015
  9
$ACADMAINTVER
 70
     6
  9
$DWGCODEPAGE
  3
ANSI_949
  9
$INSBASE
 10
0.0
 20
0.0
 30
0.0
  9
$EXTMIN
 10
-55.82444842248566
 20
-49.97180738881174
 30
0.0
  9
$EXTMAX
 10
30.26698519200437
 20
24.76413260158165
 30
0.0
  9
$LIMMIN
 10
0.0
 20
0.0
  9
$LIMMAX
 10
420.0
 20
297.0
  9
$ORTHOMODE
 70
     0
  9
$REGENMODE
 70
     1
  9
$FILLMODE
 70
     1
  9
$QTEXTMODE
 70
     0
  9
$MIRRTEXT
 70
     1
  9
$LTSCALE
 40
1.0
  9
$ATTMODE
 70
     1
  9
$TEXTSIZE
 40
3.5
  9
$TRACEWID
 40
1.0
  9
$TEXTSTYLE
  7
Standard
  9
$CLAYER
  8
0
  9
$CELTYPE
  6
ByLayer
  9
$CECOLOR
 62
   256
  9
$CELTSCALE
 40
1.0
  9
$DISPSILH
 70
     0
  9
$DIMSCALE
 40
1.0
  9
$DIMASZ
 40
3.302
  9
$DIMEXO
 40
1.0
  9
$DIMDLI
 40
3.75
  9
$DIMRND
 40
0.0
  9
$DIMDLE
 40
0.0
  9
$DIMEXE
 40
1.0
  9
$DIMTP
 40
0.0
  9
$DIMTM
 40
0.0
  9
$DIMTXT
 40
3.5
  9
$DIMCEN
 40
2.5
  9
$DIMTSZ
 40
0.0
  9
$DIMTOL
 70
     0
  9
$DIMLIM
 70
     0
  9
$DIMTIH
 70
     1
  9
$DIMTOH
 70
     1
  9
$DIMSE1
 70
     0
  9
$DIMSE2
 70
     0
  9
$DIMTAD
 70
     1
  9
$DIMZIN
 70
     0
  9
$DIMBLK
  1

  9
$DIMASO
 70
     1
  9
$DIMSHO
 70
     1
  9
$DIMPOST
  1

  9
$DIMAPOST
  1

  9
$DIMALT
 70
     0
  9
$DIMALTD
 70
     3
  9
$DIMALTF
 40
0.0393700787401575
  9
$DIMLFAC
 40
1.0
  9
$DIMTOFL
 70
     1
  9
$DIMTVP
 40
0.0
  9
$DIMTIX
 70
     0
  9
$DIMSOXD
 70
     0
  9
$DIMSAH
 70
     0
  9
$DIMBLK1
  1

  9
$DIMBLK2
  1

  9
$DIMSTYLE
  2
ISO-25
  9
$DIMCLRD
 70
     0
  9
$DIMCLRE
 70
     0
  9
$DIMCLRT
 70
     0
  9
$DIMTFAC
 40
1.0
  9
$DIMGAP
 40
1.524
  9
$DIMJUST
 70
     0
  9
$DIMSD1
 70
     0
  9
$DIMSD2
 70
     0
  9
$DIMTOLJ
 70
     0
  9
$DIMTZIN
 70
     0
  9
$DIMALTZ
 70
     0
  9
$DIMALTTZ
 70
     0
  9
$DIMUPT
 70
     0
  9
$DIMDEC
 70
     2
  9
$DIMTDEC
 70
     2
  9
$DIMALTU
 70
     2
  9
$DIMALTTD
 70
     3
  9
$DIMTXSTY
  7
Standard
  9
$DIMAUNIT
 70
     0
  9
$DIMADEC
 70
     2
  9
$DIMALTRND
 40
0.0
  9
$DIMAZIN
 70
     0
  9
$DIMDSEP
 70
    44
  9
$DIMATFIT
 70
     3
  9
$DIMFRAC
 70
     0
  9
$DIMLDRBLK
  1

  9
$DIMLUNIT
 70
     2
  9
$DIMLWD
 70
    -2
  9
$DIMLWE
 70
    -2
  9
$DIMTMOVE
 70
     0
  9
$LUNITS
 70
     2
  9
$LUPREC
 70
     2
  9
$SKETCHINC
 40
1.0
  9
$FILLETRAD
 40
10.0
  9
$AUNITS
 70
     0
  9
$AUPREC
 70
     2
  9
$MENU
  1
.
  9
$ELEVATION
 40
0.0
  9
$PELEVATION
 40
0.0
  9
$THICKNESS
 40
0.0
  9
$LIMCHECK
 70
     0
  9
$CHAMFERA
 40
0.0
  9
$CHAMFERB
 40
0.0
  9
$CHAMFERC
 40
0.0
  9
$CHAMFERD
 40
0.0
  9
$SKPOLY
 70
     0
  9
$TDCREATE
 40
2458260.565870752
  9
$TDUCREATE
 40
2458260.190870752
  9
$TDUPDATE
 40
2458268.463243542
  9
$TDUUPDATE
 40
2458268.088243542
  9
$TDINDWG
 40
0.0011183912
  9
$TDUSRTIMER
 40
2458268.087125185
  9
$USRTIMER
 70
     1
  9
$ANGBASE
 50
0.0
  9
$ANGDIR
 70
     0
  9
$PDMODE
 70
     0
  9
$PDSIZE
 40
-1.0
  9
$PLINEWID
 40
0.0
  9
$SPLFRAME
 70
     0
  9
$SPLINETYPE
 70
     6
  9
$SPLINESEGS
 70
     8
  9
$HANDSEED
  5
160
  9
$SURFTAB1
 70
     6
  9
$SURFTAB2
 70
     6
  9
$SURFTYPE
 70
     6
  9
$SURFU
 70
     6
  9
$SURFV
 70
     6
  9
$UCSBASE
  2

  9
$UCSNAME
  2

  9
$UCSORG
 10
0.0
 20
0.0
 30
0.0
  9
$UCSXDIR
 10
1.0
 20
0.0
 30
0.0
  9
$UCSYDIR
 10
0.0
 20
1.0
 30
0.0
  9
$UCSORTHOREF
  2

  9
$UCSORTHOVIEW
 70
     0
  9
$UCSORGTOP
 10
0.0
 20
0.0
 30
0.0
  9
$UCSORGBOTTOM
 10
0.0
 20
0.0
 30
0.0
  9
$UCSORGLEFT
 10
0.0
 20
0.0
 30
0.0
  9
$UCSORGRIGHT
 10
0.0
 20
0.0
 30
0.0
  9
$UCSORGFRONT
 10
0.0
 20
0.0
 30
0.0
  9
$UCSORGBACK
 10
0.0
 20
0.0
 30
0.0
  9
$PUCSBASE
  2

  9
$PUCSNAME
  2

  9
$PUCSORG
 10
0.0
 20
0.0
 30
0.0
  9
$PUCSXDIR
 10
1.0
 20
0.0
 30
0.0
  9
$PUCSYDIR
 10
0.0
 20
1.0
 30
0.0
  9
$PUCSORTHOREF
  2

  9
$PUCSORTHOVIEW
 70
     0
  9
$PUCSORGTOP
 10
0.0
 20
0.0
 30
0.0
  9
$PUCSORGBOTTOM
 10
0.0
 20
0.0
 30
0.0
  9
$PUCSORGLEFT
 10
0.0
 20
0.0
 30
0.0
  9
$PUCSORGRIGHT
 10
0.0
 20
0.0
 30
0.0
  9
$PUCSORGFRONT
 10
0.0
 20
0.0
 30
0.0
  9
$PUCSORGBACK
 10
0.0
 20
0.0
 30
0.0
  9
$USERI1
 70
     0
  9
$USERI2
 70
     0
  9
$USERI3
 70
     0
  9
$USERI4
 70
     0
  9
$USERI5
 70
     0
  9
$USERR1
 40
0.0
  9
$USERR2
 40
0.0
  9
$USERR3
 40
0.0
  9
$USERR4
 40
0.0
  9
$USERR5
 40
0.0
  9
$WORLDVIEW
 70
     1
  9
$SHADEDGE
 70
     3
  9
$SHADEDIF
 70
    70
  9
$TILEMODE
 70
     1
  9
$MAXACTVP
 70
    64
  9
$PINSBASE
 10
0.0
 20
0.0
 30
0.0
  9
$PLIMCHECK
 70
     0
  9
$PEXTMIN
 10
1.000000000000000E+20
 20
1.000000000000000E+20
 30
1.000000000000000E+20
  9
$PEXTMAX
 10
-1.000000000000000E+20
 20
-1.000000000000000E+20
 30
-1.000000000000000E+20
  9
$PLIMMIN
 10
0.0
 20
0.0
  9
$PLIMMAX
 10
0.0
 20
0.0
  9
$UNITMODE
 70
     0
  9
$VISRETAIN
 70
     1
  9
$PLINEGEN
 70
     0
  9
$PSLTSCALE
 70
     1
  9
$TREEDEPTH
 70
  3020
  9
$CMLSTYLE
  2
Standard
  9
$CMLJUST
 70
     0
  9
$CMLSCALE
 40
20.0
  9
$PROXYGRAPHICS
 70
     1
  9
$MEASUREMENT
 70
     1
  9
$CELWEIGHT
370
    -1
  9
$ENDCAPS
280
     0
  9
$JOINSTYLE
280
     0
  9
$LWDISPLAY
290
     1
  9
$INSUNITS
 70
     4
  9
$HYPERLINKBASE
  1

  9
$STYLESHEET
  1

  9
$XEDIT
290
     1
  9
$CEPSNTYPE
380
     0
  9
$PSTYLEMODE
290
     1
  9
$FINGERPRINTGUID
  2
{0C3070E6-275C-42EF-9F54-E38AA27B491E}
  9
$VERSIONGUID
  2
{FAEB1C32-E019-11D5-929B-00C0DF256EC4}
  9
$EXTNAMES
290
     1
  9
$PSVPSCALE
 40
0.0
  9
$OLESTARTUP
290
     0
  0
ENDSEC
  0
SECTION
  2
CLASSES
  0
CLASS
  1
ACDBDICTIONARYWDFLT
  2
AcDbDictionaryWithDefault
  3
ObjectDBX Classes
 90
        0
280
     0
281
     0
  0
CLASS
  1
VISUALSTYLE
  2
AcDbVisualStyle
  3
ObjectDBX Classes
 90
     4095
280
     0
281
     0
  0
CLASS
  1
MATERIAL
  2
AcDbMaterial
  3
ObjectDBX Classes
 90
     1153
280
     0
281
     0
  0
CLASS
  1
SCALE
  2
AcDbScale
  3
ObjectDBX Classes
 90
     1153
280
     0
281
     0
  0
CLASS
  1
TABLESTYLE
  2
AcDbTableStyle
  3
ObjectDBX Classes
 90
     4095
280
     0
281
     0
  0
CLASS
  1
MLEADERSTYLE
  2
AcDbMLeaderStyle
  3
ACDB_MLEADERSTYLE_CLASS
 90
     4095
280
     0
281
     0
  0
CLASS
  1
SUN
  2
AcDbSun
  3
SCENEOE
 90
     1153
280
     0
281
     0
  0
CLASS
  1
ACDBPLACEHOLDER
  2
AcDbPlaceHolder
  3
ObjectDBX Classes
 90
        0
280
     0
281
     0
  0
CLASS
  1
LAYOUT
  2
AcDbLayout
  3
ObjectDBX Classes
 90
        0
280
     0
281
     0
  0
CLASS
  1
RASTERVARIABLES
  2
AcDbRasterVariables
  3
ISM
 90
        0
280
     0
281
     0
  0
ENDSEC
  0
SECTION
  2
TABLES
  0
TABLE
  2
VPORT
  5
8
330
0
100
AcDbSymbolTable
 70
     1
  0
VPORT
  5
29
330
8
100
AcDbSymbolTableRecord
100
AcDbViewportTableRecord
  2
*Active
 70
     0
 10
0.0
 20
0.0
 11
1.0
 21
1.0
 12
-12.77873161524064
 22
-12.60383739361504
 13
0.0
 23
0.0
 14
10.0
 24
10.0
 15
10.0
 25
10.0
 16
0.0
 26
0.0
 36
1.0
 17
0.0
 27
0.0
 37
0.0
 40
76.23065879020126
 41
1.736434108527132
 42
50.0
 43
0.0
 44
0.0
 50
0.0
 51
0.0
 71
    16
 72
  2000
 73
     1
 74
     3
 75
     0
 76
     0
 77
     0
 78
     0
281
     0
 65
     1
110
0.0
120
0.0
130
0.0
111
1.0
121
0.0
131
0.0
112
0.0
122
1.0
132
0.0
 79
     0
146
0.0
  0
ENDTAB
  0
TABLE
  2
LTYPE
  5
5
330
0
100
AcDbSymbolTable
 70
     6
  0
LTYPE
  5
14
330
5
100
AcDbSymbolTableRecord
100
AcDbLinetypeTableRecord
  2
ByBlock
 70
     0
  3

 72
    65
 73
     0
 40
0.0
  0
LTYPE
  5
15
330
5
100
AcDbSymbolTableRecord
100
AcDbLinetypeTableRecord
  2
ByLayer
 70
     0
  3

 72
    65
 73
     0
 40
0.0
  0
LTYPE
  5
16
330
5
100
AcDbSymbolTableRecord
100
AcDbLinetypeTableRecord
  2
Continuous
 70
     0
  3
Solid line
 72
    65
 73
     0
 40
0.0
  0
LTYPE
  5
6E
330
5
100
AcDbSymbolTableRecord
100
AcDbLinetypeTableRecord
  2
HIDDEN
 70
     0
  3
Hidden __ __ __ __ __ __ __ __ __ __ __ __ __ __
 72
    65
 73
     2
 40
1.905
 49
1.27
 74
     0
 49
-0.635
 74
     0
  0
LTYPE
  5
6F
330
5
100
AcDbSymbolTableRecord
100
AcDbLinetypeTableRecord
  2
PHANTOM
 70
     0
  3
Phantom ______  __  __  ______  __  __  ______
 72
    65
 73
     6
 40
12.7
 49
6.35
 74
     0
 49
-1.27
 74
     0
 49
1.27
 74
     0
 49
-1.27
 74
     0
 49
1.27
 74
     0
 49
-1.27
 74
     0
  0
LTYPE
  5
70
330
5
100
AcDbSymbolTableRecord
100
AcDbLinetypeTableRecord
  2
CENTER
 70
     0
  3
Center ____ _ ____ _ ____ _ ____ _ ____ _ ____
 72
    65
 73
     4
 40
10.16
 49
6.35
 74
     0
 49
-1.27
 74
     0
 49
1.27
 74
     0
 49
-1.27
 74
     0
  0
LTYPE
  5
71
330
5
100
AcDbSymbolTableRecord
100
AcDbLinetypeTableRecord
  2
CENTERX2
 70
     0
  3
Center (2x) ________  __  ________  __  _____
 72
    65
 73
     4
 40
20.32
 49
12.7
 74
     0
 49
-2.54
 74
     0
 49
2.54
 74
     0
 49
-2.54
 74
     0
  0
LTYPE
  5
72
330
5
100
AcDbSymbolTableRecord
100
AcDbLinetypeTableRecord
  2
DOT2
 70
     0
  3
Dot (.5x) ........................................
 72
    65
 73
     2
 40
0.635
 49
0.0
 74
     0
 49
-0.635
 74
     0
  0
ENDTAB
  0
TABLE
  2
LAYER
  5
2
330
0
100
AcDbSymbolTable
 70
    17
  0
LAYER
  5
10
330
2
100
AcDbSymbolTableRecord
100
AcDbLayerTableRecord
  2
0
 70
     0
 62
     7
  6
Continuous
370
    -3
390
F
  0
LAYER
  5
73
330
2
100
AcDbSymbolTableRecord
100
AcDbLayerTableRecord
  2
FORMAT
 70
     0
 62
     2
  6
Continuous
370
    -3
390
F
  0
LAYER
  5
74
330
2
100
AcDbSymbolTableRecord
100
AcDbLayerTableRecord
  2
외형선
 70
     0
 62
   100
  6
Continuous
370
    35
390
F
  0
LAYER
  5
75
330
2
100
AcDbSymbolTableRecord
100
AcDbLayerTableRecord
  2
숨은선
 70
     0
 62
     2
  6
HIDDEN
370
    25
390
F
  0
LAYER
  5
76
330
2
100
AcDbSymbolTableRecord
100
AcDbLayerTableRecord
  2
중심선
 70
     0
 62
     1
  6
CENTERX2
370
    -3
390
F
  0
LAYER
  5
77
330
2
100
AcDbSymbolTableRecord
100
AcDbLayerTableRecord
  2
파단선
 70
     0
 62
     4
  6
Continuous
370
    -3
390
F
  0
LAYER
  5
78
330
2
100
AcDbSymbolTableRecord
100
AcDbLayerTableRecord
  2
해칭선
 70
     0
 62
   100
  6
Continuous
370
    -3
390
F
  0
LAYER
  5
79
330
2
100
AcDbSymbolTableRecord
100
AcDbLayerTableRecord
  2
가는실선
 70
     0
 62
     4
  6
Continuous
370
    -3
390
F
  0
LAYER
  5
7A
330
2
100
AcDbSymbolTableRecord
100
AcDbLayerTableRecord
  2
치수_보조선
 70
     0
 62
     4
  6
Continuous
370
    -3
390
F
  0
LAYER
  5
7B
330
2
100
AcDbSymbolTableRecord
100
AcDbLayerTableRecord
  2
치수문자_일반주서
 70
     0
 62
     7
  6
Continuous
370
    25
390
F
  0
LAYER
  5
7C
330
2
100
AcDbSymbolTableRecord
100
AcDbLayerTableRecord
  2
개별주서
 70
     0
 62
   100
  6
Continuous
370
    35
390
F
  0
LAYER
  5
7D
330
2
100
AcDbSymbolTableRecord
100
AcDbLayerTableRecord
  2
중간선
 70
     0
 62
     2
  6
Continuous
370
    25
390
F
  0
LAYER
  5
7E
330
2
100
AcDbSymbolTableRecord
100
AcDbLayerTableRecord
  2
윤곽선
 70
     0
 62
     3
  6
Continuous
370
    50
390
F
  0
LAYER
  5
7F
330
2
100
AcDbSymbolTableRecord
100
AcDbLayerTableRecord
  2
중심마크
 70
     0
 62
   100
  6
Continuous
370
    35
390
F
  0
LAYER
  5
80
330
2
100
AcDbSymbolTableRecord
100
AcDbLayerTableRecord
  2
가상선
 70
     0
 62
     4
  6
PHANTOM
370
    -3
390
F
  0
LAYER
  5
81
330
2
100
AcDbSymbolTableRecord
100
AcDbLayerTableRecord
  2
특수지정선
 70
     0
 62
     5
  6
CENTERX2
370
    70
390
F
  0
LAYER
  5
150
330
2
100
AcDbSymbolTableRecord
100
AcDbLayerTableRecord
  2
Defpoints
 70
     0
 62
     7
  6
Continuous
290
     0
370
    -3
390
F
  0
ENDTAB
  0
TABLE
  2
STYLE
  5
3
330
0
100
AcDbSymbolTable
 70
     2
  0
STYLE
  5
11
330
3
100
AcDbSymbolTableRecord
100
AcDbTextStyleTableRecord
  2
Standard
 70
     0
 40
0.0
 41
1.0
 50
0.0
 71
     0
 42
3.5
  3
txt
  4

  0
STYLE
  5
97
330
3
100
AcDbSymbolTableRecord
100
AcDbTextStyleTableRecord
  2
SLDTEXTSTYLE0
 70
     0
 40
0.0
 41
0.75
 50
0.0
 71
     0
 42
3.5
  3
TXT
  4

  0
ENDTAB
  0
TABLE
  2
VIEW
  5
6
330
0
100
AcDbSymbolTable
 70
     0
  0
ENDTAB
  0
TABLE
  2
UCS
  5
7
330
0
100
AcDbSymbolTable
 70
     0
  0
ENDTAB
  0
TABLE
  2
APPID
  5
9
330
0
100
AcDbSymbolTable
 70
     1
  0
APPID
  5
12
330
9
100
AcDbSymbolTableRecord
100
AcDbRegAppTableRecord
  2
ACAD
 70
     0
  0
ENDTAB
  0
TABLE
  2
DIMSTYLE
  5
A
330
0
100
AcDbSymbolTable
 70
     4
100
AcDbDimStyleTable
  0
DIMSTYLE
105
27
330
A
100
AcDbSymbolTableRecord
100
AcDbDimStyleTableRecord
  2
ISO-25
 70
     0
 41
2.5
 42
0.625
 43
3.75
 44
1.25
 73
     0
 74
     0
 77
     1
 78
     8
140
2.5
141
2.5
143
0.03937007874016
147
0.625
171
     3
172
     1
178
     0
271
     2
272
     2
274
     3
278
    44
283
     0
284
     8
340
11
  0
DIMSTYLE
105
F3
102
{ACAD_REACTORS
330
F2
102
}
330
A
100
AcDbSymbolTableRecord
100
AcDbDimStyleTableRecord
  2
SLDDIMSTYLE0
 70
     0
 41
3.302
 44
0.0
 45
0.000000001
 73
     0
 74
     0
 77
     1
 78
    12
 79
     3
140
3.5
147
0.875
172
     1
173
     1
178
     0
271
     1
272
     1
276
     2
284
    12
289
     0
340
97
  0
DIMSTYLE
105
101
102
{ACAD_REACTORS
330
100
102
}
330
A
100
AcDbSymbolTableRecord
100
AcDbDimStyleTableRecord
  2
SLDDIMSTYLE1
 70
     0
 41
3.302
 44
0.0
 45
0.000000001
 73
     0
 74
     0
 77
     1
 78
    12
 79
     3
140
3.5
147
0.875
173
     1
178
     0
271
     2
272
     2
276
     2
284
    12
340
97
  0
DIMSTYLE
105
10C
102
{ACAD_REACTORS
330
10B
330
119
102
}
330
A
100
AcDbSymbolTableRecord
100
AcDbDimStyleTableRecord
  2
SLDDIMSTYLE2
 70
     0
 41
3.302
 44
0.0
 45
0.000000001
 73
     0
 74
     0
 77
     1
 78
    12
 79
     3
140
3.5
147
0.875
172
     1
173
     1
178
     0
271
     2
272
     2
276
     2
284
    12
289
     0
340
97
  0
ENDTAB
  0
TABLE
  2
BLOCK_RECORD
  5
1
330
0
100
AcDbSymbolTable
 70
     7
  0
BLOCK_RECORD
  5
1F
330
1
100
AcDbSymbolTableRecord
100
AcDbBlockTableRecord
  2
*Model_Space
340
22
  0
BLOCK_RECORD
  5
1B
330
1
100
AcDbSymbolTableRecord
100
AcDbBlockTableRecord
  2
*Paper_Space
340
1E
  0
BLOCK_RECORD
  5
23
330
1
100
AcDbSymbolTableRecord
100
AcDbBlockTableRecord
  2
*Paper_Space0
340
26
  0
BLOCK_RECORD
  5
82
330
1
100
AcDbSymbolTableRecord
100
AcDbBlockTableRecord
  2
블럭10
340
0
102
{BLKREFS
331
EB
102
}
  0
BLOCK_RECORD
  5
F4
330
1
100
AcDbSymbolTableRecord
100
AcDbBlockTableRecord
  2
_D
340
0
  0
BLOCK_RECORD
  5
102
330
1
100
AcDbSymbolTableRecord
100
AcDbBlockTableRecord
  2
_D_1
340
0
  0
BLOCK_RECORD
  5
10D
330
1
100
AcDbSymbolTableRecord
100
AcDbBlockTableRecord
  2
_D_2
340
0
  0
BLOCK_RECORD
  5
11A
330
1
100
AcDbSymbolTableRecord
100
AcDbBlockTableRecord
  2
_D_3
340
0
  0
BLOCK_RECORD
  5
125
330
1
100
AcDbSymbolTableRecord
100
AcDbBlockTableRecord
  2
SW_DOWELSYMBOL_0
340
0
102
{BLKREFS
331
12B
102
}
  0
ENDTAB
  0
ENDSEC
  0
SECTION
  2
BLOCKS
  0
BLOCK
  5
20
330
1F
100
AcDbEntity
  8
0
100
AcDbBlockBegin
  2
*Model_Space
 70
     0
 10
0.0
 20
0.0
 30
0.0
  3
*Model_Space
  1

  0
ENDBLK
  5
21
330
1F
100
AcDbEntity
  8
0
100
AcDbBlockEnd
  0
BLOCK
  5
1C
330
1B
100
AcDbEntity
 67
     1
  8
0
100
AcDbBlockBegin
  2
*Paper_Space
 70
     0
 10
0.0
 20
0.0
 30
0.0
  3
*Paper_Space
  1

  0
ENDBLK
  5
1D
330
1B
100
AcDbEntity
 67
     1
  8
0
100
AcDbBlockEnd
  0
BLOCK
  5
24
330
23
100
AcDbEntity
  8
0
100
AcDbBlockBegin
  2
*Paper_Space0
 70
     0
 10
0.0
 20
0.0
 30
0.0
  3
*Paper_Space0
  1

  0
ENDBLK
  5
25
330
23
100
AcDbEntity
  8
0
100
AcDbBlockEnd
  0
BLOCK
  5
83
330
82
100
AcDbEntity
  8
0
100
AcDbBlockBegin
  2
블럭10
 70
     2
 10
0.0
 20
0.0
 30
0.0
  3
블럭10
  1

  0
ELLIPSE
  5
85
330
82
100
AcDbEntity
  8
중심선
100
AcDbEllipse
 10
20.54032771741204
 20
12.0471743016438
 30
0.0
 11
6.600054785286829
 21
-1.261213355974178E-13
 31
0.0
210
0.0
220
0.0
230
1.0
 40
0.636358354079598
 41
0.9219305317359503
 42
6.513795318482858
  0
ELLIPSE
  5
86
330
82
100
AcDbEntity
  8
중심선
100
AcDbEllipse
 10
20.54032771746488
 20
12.04717430159265
 30
0.0
 11
3.960054785062283
 21
1.540847449632565E-10
 31
0.0
210
0.0
220
0.0
230
1.0
 40
0.3939339440162632
 41
1.131841032648279
 42
5.62031148352944
  0
LINE
  5
87
330
82
100
AcDbEntity
  8
중심선
100
AcDbLine
 10
2.268634060543552
 20
16.24717430164393
 30
0.0
 11
5.714909304380834
 21
16.24717430164393
 31
0.0
  0
LINE
  5
88
330
82
100
AcDbEntity
  8
중심선
100
AcDbLine
 10
5.245725140726316
 20
7.84717430164391
 30
0.0
 11
8.692000384563599
 21
7.84717430164391
 31
0.0
  0
LINE
  5
89
330
82
100
AcDbEntity
  8
중심선
100
AcDbLine
 10
15.74043728645272
 20
16.24717430164393
 30
0.0
 11
8.692000384563599
 21
7.84717430164391
 31
0.0
  0
LINE
  5
8A
330
82
100
AcDbEntity
  8
중심선
100
AcDbLine
 10
0.1404042013395286
 20
13.71084872107135
 30
0.0
 11
3.58671253028996
 21
13.71088815037384
 31
0.0
  0
LINE
  5
8B
330
82
100
AcDbEntity
  8
중심선
100
AcDbLine
 10
2.750260043222114
 20
10.84717430164391
 30
0.0
 11
6.196535287059397
 21
10.84717430164391
 31
0.0
  0
LINE
  5
8C
330
82
100
AcDbEntity
  8
중심선
100
AcDbLine
 10
12.29416204261559
 20
16.24717430164393
 30
0.0
 11
5.245725140726316
 21
7.84717430164391
 31
0.0
  0
LINE
  5
8D
330
82
100
AcDbEntity
  8
중심선
100
AcDbLine
 10
10.72767329541681
 20
16.24717430164393
 30
0.0
 11
6.196535287059397
 21
10.84717430164391
 31
0.0
  0
LINE
  5
8E
330
82
100
AcDbEntity
  8
중심선
100
AcDbLine
 10
7.28139805157953
 20
16.24717430164393
 30
0.0
 11
2.750260043222114
 21
10.84717430164391
 31
0.0
  0
LINE
  5
8F
330
82
100
AcDbEntity
  8
중심선
100
AcDbLine
 10
5.714909304380834
 20
16.24717430164393
 30
0.0
 11
3.58671253028996
 21
13.71088815037384
 31
0.0
  0
LINE
  5
90
330
82
100
AcDbEntity
  8
중심선
100
AcDbLine
 10
2.268634060543552
 20
16.24717430164393
 30
0.0
 11
0.1404042013395286
 21
13.71084872107135
 31
0.0
  0
LINE
  5
91
330
82
100
AcDbEntity
  8
중심선
100
AcDbLine
 10
7.28139805157953
 20
16.24717430164393
 30
0.0
 11
10.72767329541681
 21
16.24717430164393
 31
0.0
  0
LINE
  5
92
330
82
100
AcDbEntity
  8
중심선
100
AcDbLine
 10
12.29416204261559
 20
16.24717430164393
 30
0.0
 11
15.74043728645272
 21
16.24717430164393
 31
0.0
  0
LINE
  5
93
330
82
100
AcDbEntity
  8
중심선
100
AcDbLine
 10
19.22036997980202
 20
11.08717430171403
 30
0.0
 11
23.66174974927406
 21
11.08717430171406
 31
0.0
  0
LINE
  5
94
330
82
100
AcDbEntity
  8
중심선
100
AcDbLine
 10
19.22039502424796
 20
13.00717430171391
 30
0.0
 11
19.22036997980202
 21
11.08717430171403
 31
0.0
  0
LINE
  5
95
330
82
100
AcDbEntity
  8
중심선
100
AcDbLine
 10
19.22039502424796
 20
13.00717430171391
 30
0.0
 11
26.96566020931264
 21
13.00717430171391
 31
0.0
  0
LINE
  5
96
330
82
100
AcDbEntity
  8
중심선
100
AcDbLine
 10
22.22332737316547
 20
13.45928029700563
 30
0.0
 11
24.52862924686651
 21
15.39360700705356
 31
0.0
  0
ATTDEF
  5
98
330
82
100
AcDbEntity
  8
FORMAT
 62
     2
100
AcDbText
 10
-16.11926103943555
 20
2.075366912832191
 30
0.0
 40
4.233333333333333
  1
SEME7201206E [ 4 FLUTE ]
 41
0.75
  7
SLDTEXTSTYLE0
 11
-16.11926103943555
 21
-0.0412997538344756
 31
0.0
100
AcDbAttributeDefinition
  3

  2
AUTOATTR0
 70
     0
 74
     1
  0
ENDBLK
  5
84
330
82
100
AcDbEntity
  8
0
100
AcDbBlockEnd
  0
BLOCK
  5
F5
330
F4
100
AcDbEntity
  8
0
100
AcDbBlockBegin
  2
_D
 70
     0
 10
0.0
 20
0.0
 30
0.0
  3
_D
  1

  0
LINE
  5
F7
330
F4
100
AcDbEntity
  8
치수문자_일반주서
 62
     0
370
    -2
100
AcDbLine
 10
18.0194219381653
 20
-0.600000000000004
 30
0.0
 11
29.71665185867103
 21
-0.5999999999999606
 31
0.0
  0
LINE
  5
F8
330
F4
100
AcDbEntity
  8
치수문자_일반주서
 62
     0
370
    -2
100
AcDbLine
 10
18.0194219381653
 20
0.6000000000000035
 30
0.0
 11
29.71665185867103
 21
0.6000000000000476
 31
0.0
  0
LINE
  5
F9
330
F4
100
AcDbEntity
  8
치수문자_일반주서
 62
     0
370
    -2
100
AcDbLine
 10
29.71665185867103
 20
-0.5999999999999606
 30
0.0
 11
29.71665185867098
 21
15.95400000000005
 31
0.0
  0
LINE
  5
FA
330
F4
100
AcDbEntity
  8
치수문자_일반주서
 62
     0
370
    -2
100
AcDbLine
 10
29.71665185867103
 20
-0.5999999999999606
 30
0.0
 11
29.71665185867103
 21
0.6000000000000476
 31
0.0
  0
LINE
  5
FB
330
F4
100
AcDbEntity
  8
치수문자_일반주서
 62
     0
370
    -2
100
AcDbLine
 10
29.71665185867104
 20
-3.90199999999996
 30
0.0
 11
29.71665185867105
 21
-7.20399999999996
 31
0.0
  0
LINE
  5
FC
330
F4
100
AcDbEntity
  8
치수문자_일반주서
 62
     0
370
    -2
100
AcDbLine
 10
29.71665185867102
 20
3.902000000000047
 30
0.0
 11
29.71665185867101
 21
7.204000000000047
 31
0.0
  0
SOLID
  5
FD
330
F4
100
AcDbEntity
  8
치수문자_일반주서
 62
     0
100
AcDbTrace
 10
30.26698519200438
 20
-3.901999999999958
 30
0.0
 11
29.16631852533771
 21
-3.901999999999962
 31
0.0
 12
29.71665185867103
 22
-0.5999999999999606
 32
0.0
 13
29.71665185867103
 23
-0.5999999999999606
 33
0.0
  0
SOLID
  5
FE
330
F4
100
AcDbEntity
  8
치수문자_일반주서
 62
     0
100
AcDbTrace
 10
29.16631852533768
 20
3.902000000000045
 30
0.0
 11
30.26698519200435
 21
3.902000000000049
 31
0.0
 12
29.71665185867103
 22
0.6000000000000476
 32
0.0
 13
29.71665185867103
 23
0.6000000000000476
 33
0.0
  0
MTEXT
  5
FF
330
F4
100
AcDbEntity
  8
치수문자_일반주서
 62
     0
100
AcDbMText
 10
25.341651858671
 20
11.57900000000004
 30
0.0
 40
3.5
 41
0.0
 71
     2
 72
     1
  1
\A1;%%c1.2
  7
SLDTEXTSTYLE0
 11
-2.960594732333732E-15
 21
1.0
 31
0.0
 73
     1
 44
1.0
  0
POINT
  5
158
330
F4
100
AcDbEntity
  8
Defpoints
 62
     0
100
AcDbPoint
 10
17.9569219381653
 20
-0.6000000000000042
 30
0.0
  0
POINT
  5
159
330
F4
100
AcDbEntity
  8
Defpoints
 62
     0
100
AcDbPoint
 10
17.9569219381653
 20
0.6000000000000033
 30
0.0
  0
POINT
  5
15A
330
F4
100
AcDbEntity
  8
Defpoints
 62
     0
100
AcDbPoint
 10
29.71665185867103
 20
0.6000000000000473
 30
0.0
  0
ENDBLK
  5
F6
330
F4
100
AcDbEntity
  8
0
100
AcDbBlockEnd
  0
BLOCK
  5
103
330
102
100
AcDbEntity
  8
0
100
AcDbBlockBegin
  2
_D_1
 70
     0
 10
0.0
 20
0.0
 30
0.0
  3
_D_1
  1

  0
LINE
  5
105
330
102
100
AcDbEntity
  8
치수문자_일반주서
 62
     0
370
    -2
100
AcDbLine
 10
-42.04307806183472
 20
2.562499999999994
 30
0.0
 11
-42.04307806183472
 21
20.38913260158165
 31
0.0
  0
LINE
  5
106
330
102
100
AcDbEntity
  8
치수문자_일반주서
 62
     0
370
    -2
100
AcDbLine
 10
17.95692193816528
 20
0.6625000000000014
 30
0.0
 11
17.95692193816529
 21
20.38913260158165
 31
0.0
  0
LINE
  5
107
330
102
100
AcDbEntity
  8
치수문자_일반주서
 62
     0
370
    -2
100
AcDbLine
 10
-38.74107806183472
 20
20.38913260158165
 30
0.0
 11
14.65492193816529
 21
20.38913260158165
 31
0.0
  0
SOLID
  5
108
330
102
100
AcDbEntity
  8
치수문자_일반주서
 62
     0
100
AcDbTrace
 10
-38.74107806183472
 20
20.93946593491498
 30
0.0
 11
-38.74107806183472
 21
19.83879926824831
 31
0.0
 12
-42.04307806183472
 22
20.38913260158165
 32
0.0
 13
-42.04307806183472
 23
20.38913260158165
 33
0.0
  0
SOLID
  5
109
330
102
100
AcDbEntity
  8
치수문자_일반주서
 62
     0
100
AcDbTrace
 10
14.65492193816529
 20
19.83879926824831
 30
0.0
 11
14.65492193816529
 21
20.93946593491498
 31
0.0
 12
17.95692193816529
 22
20.38913260158165
 32
0.0
 13
17.95692193816529
 23
20.38913260158165
 33
0.0
  0
MTEXT
  5
10A
330
102
100
AcDbEntity
  8
치수문자_일반주서
 62
     0
100
AcDbMText
 10
-12.04307806183471
 20
24.76413260158165
 30
0.0
 40
3.5
 41
0.0
 71
     2
 72
     1
  1
\A1;60
  7
SLDTEXTSTYLE0
 73
     1
 44
1.0
  0
POINT
  5
151
330
102
100
AcDbEntity
  8
Defpoints
 62
     0
100
AcDbPoint
 10
-42.04307806183472
 20
2.499999999999994
 30
0.0
  0
POINT
  5
152
330
102
100
AcDbEntity
  8
Defpoints
 62
     0
100
AcDbPoint
 10
17.95692193816528
 20
0.6000000000000014
 30
0.0
  0
POINT
  5
153
330
102
100
AcDbEntity
  8
Defpoints
 62
     0
100
AcDbPoint
 10
17.95692193816528
 20
20.38913260158165
 30
0.0
  0
ENDBLK
  5
104
330
102
100
AcDbEntity
  8
0
100
AcDbBlockEnd
  0
BLOCK
  5
10E
330
10D
100
AcDbEntity
  8
0
100
AcDbBlockBegin
  2
_D_2
 70
     0
 10
0.0
 20
0.0
 30
0.0
  3
_D_2
  1

  0
LINE
  5
110
330
10D
100
AcDbEntity
  8
치수문자_일반주서
 62
     0
370
    -2
100
AcDbLine
 10
-41.60557806183471
 20
3.000000000000003
 30
0.0
 11
-51.44944842248562
 21
2.999999999999966
 31
0.0
  0
LINE
  5
111
330
10D
100
AcDbEntity
  8
치수문자_일반주서
 62
     0
370
    -2
100
AcDbLine
 10
-41.60557806183471
 20
-3.000000000000003
 30
0.0
 11
-51.4494484224856
 21
-3.000000000000039
 31
0.0
  0
LINE
  5
112
330
10D
100
AcDbEntity
  8
치수문자_일반주서
 62
     0
370
    -2
100
AcDbLine
 10
-51.44944842248562
 20
2.999999999999966
 30
0.0
 11
-51.44944842248567
 21
15.72899999999997
 31
0.0
  0
LINE
  5
113
330
10D
100
AcDbEntity
  8
치수문자_일반주서
 62
     0
370
    -2
100
AcDbLine
 10
-51.44944842248562
 20
2.999999999999966
 30
0.0
 11
-51.4494484224856
 21
-3.000000000000039
 31
0.0
  0
LINE
  5
114
330
10D
100
AcDbEntity
  8
치수문자_일반주서
 62
     0
370
    -2
100
AcDbLine
 10
-51.44944842248563
 20
6.301999999999966
 30
0.0
 11
-51.44944842248564
 21
9.603999999999965
 31
0.0
  0
LINE
  5
115
330
10D
100
AcDbEntity
  8
치수문자_일반주서
 62
     0
370
    -2
100
AcDbLine
 10
-51.44944842248558
 20
-6.302000000000039
 30
0.0
 11
-51.44944842248557
 21
-9.604000000000038
 31
0.0
  0
SOLID
  5
116
330
10D
100
AcDbEntity
  8
치수문자_일반주서
 62
     0
100
AcDbTrace
 10
-51.99978175581897
 20
6.301999999999964
 30
0.0
 11
-50.8991150891523
 21
6.301999999999968
 31
0.0
 12
-51.44944842248562
 22
2.999999999999966
 32
0.0
 13
-51.44944842248562
 23
2.999999999999966
 33
0.0
  0
SOLID
  5
117
330
10D
100
AcDbEntity
  8
치수문자_일반주서
 62
     0
100
AcDbTrace
 10
-50.89911508915225
 20
-6.302000000000037
 30
0.0
 11
-51.99978175581892
 21
-6.30200000000004
 31
0.0
 12
-51.4494484224856
 22
-3.000000000000039
 32
0.0
 13
-51.4494484224856
 23
-3.000000000000039
 33
0.0
  0
MTEXT
  5
118
330
10D
100
AcDbEntity
  8
치수문자_일반주서
 62
     0
100
AcDbMText
 10
-55.82444842248565
 20
12.66649999999995
 30
0.0
 40
3.5
 41
0.0
 71
     2
 72
     1
  1
\A1;%%c6
  7
SLDTEXTSTYLE0
 11
-3.552713678800498E-15
 21
1.0
 31
0.0
 73
     1
 44
1.0
  0
POINT
  5
155
330
10D
100
AcDbEntity
  8
Defpoints
 62
     0
100
AcDbPoint
 10
-41.54307806183471
 20
3.000000000000003
 30
0.0
  0
POINT
  5
156
330
10D
100
AcDbEntity
  8
Defpoints
 62
     0
100
AcDbPoint
 10
-41.54307806183471
 20
-3.000000000000002
 30
0.0
  0
POINT
  5
157
330
10D
100
AcDbEntity
  8
Defpoints
 62
     0
100
AcDbPoint
 10
-51.44944842248559
 20
-3.000000000000039
 30
0.0
  0
ENDBLK
  5
10F
330
10D
100
AcDbEntity
  8
0
100
AcDbBlockEnd
  0
BLOCK
  5
11B
330
11A
100
AcDbEntity
  8
0
100
AcDbBlockBegin
  2
_D_3
 70
     0
 10
0.0
 20
0.0
 30
0.0
  3
_D_3
  1

  0
LINE
  5
11D
330
11A
100
AcDbEntity
  8
치수문자_일반주서
 62
     0
370
    -2
100
AcDbLine
 10
11.95692193816529
 20
0.6379577624853392
 30
0.0
 11
11.95692193816529
 21
12.57262561257763
 31
0.0
  0
LINE
  5
11E
330
11A
100
AcDbEntity
  8
치수문자_일반주서
 62
     0
370
    -2
100
AcDbLine
 10
17.95692193816528
 20
0.6625000000000014
 30
0.0
 11
17.95692193816528
 21
12.57262561257763
 31
0.0
  0
LINE
  5
11F
330
11A
100
AcDbEntity
  8
치수문자_일반주서
 62
     0
370
    -2
100
AcDbLine
 10
11.95692193816529
 20
12.57262561257763
 30
0.0
 11
1.852921938165286
 21
12.57262561257763
 31
0.0
  0
LINE
  5
120
330
11A
100
AcDbEntity
  8
치수문자_일반주서
 62
     0
370
    -2
100
AcDbLine
 10
11.95692193816529
 20
12.57262561257763
 30
0.0
 11
17.95692193816528
 21
12.57262561257763
 31
0.0
  0
LINE
  5
121
330
11A
100
AcDbEntity
  8
치수문자_일반주서
 62
     0
370
    -2
100
AcDbLine
 10
8.654921938165286
 20
12.57262561257763
 30
0.0
 11
5.352921938165286
 21
12.57262561257763
 31
0.0
  0
LINE
  5
122
330
11A
100
AcDbEntity
  8
치수문자_일반주서
 62
     0
370
    -2
100
AcDbLine
 10
21.25892193816528
 20
12.57262561257763
 30
0.0
 11
24.56092193816528
 21
12.57262561257763
 31
0.0
  0
SOLID
  5
123
330
11A
100
AcDbEntity
  8
치수문자_일반주서
 62
     0
100
AcDbTrace
 10
8.654921938165286
 20
12.0222922792443
 30
0.0
 11
8.654921938165286
 21
13.12295894591096
 31
0.0
 12
11.95692193816529
 22
12.57262561257763
 32
0.0
 13
11.95692193816529
 23
12.57262561257763
 33
0.0
  0
SOLID
  5
124
330
11A
100
AcDbEntity
  8
치수문자_일반주서
 62
     0
100
AcDbTrace
 10
21.25892193816528
 20
13.12295894591096
 30
0.0
 11
21.25892193816528
 21
12.0222922792443
 31
0.0
 12
17.95692193816528
 22
12.57262561257763
 32
0.0
 13
17.95692193816528
 23
12.57262561257763
 33
0.0
  0
MTEXT
  5
154
330
11A
100
AcDbEntity
  8
치수문자_일반주서
 62
     0
100
AcDbMText
 10
3.602921938165286
 20
16.94762561257763
 30
0.0
 40
3.5
 41
0.0
 71
     2
 72
     1
  1
\A1;6
  7
SLDTEXTSTYLE0
 73
     1
 44
1.0
  0
POINT
  5
15B
330
11A
100
AcDbEntity
  8
Defpoints
 62
     0
100
AcDbPoint
 10
11.95692193816529
 20
0.5754577624853392
 30
0.0
  0
POINT
  5
15C
330
11A
100
AcDbEntity
  8
Defpoints
 62
     0
100
AcDbPoint
 10
17.95692193816528
 20
0.6000000000000014
 30
0.0
  0
POINT
  5
15D
330
11A
100
AcDbEntity
  8
Defpoints
 62
     0
100
AcDbPoint
 10
17.95692193816528
 20
12.57262561257763
 30
0.0
  0
ENDBLK
  5
11C
330
11A
100
AcDbEntity
  8
0
100
AcDbBlockEnd
  0
BLOCK
  5
126
330
125
100
AcDbEntity
  8
0
100
AcDbBlockBegin
  2
SW_DOWELSYMBOL_0
 70
     0
 10
0.0
 20
0.0
 30
0.0
  3
SW_DOWELSYMBOL_0
  1

  0
CIRCLE
  5
128
330
125
100
AcDbEntity
  8
해칭선
 62
     0
100
AcDbCircle
 10
0.0
 20
0.0
 30
0.0
 40
3.000000000000003
  0
HATCH
  5
129
330
125
100
AcDbEntity
  8
0
  6
Continuous
 62
     0
370
    18
100
AcDbHatch
 10
0.0
 20
0.0
 30
0.0
210
0.0
220
0.0
230
1.0
  2
SOLID
 70
     1
 71
     0
 91
        1
 92
        0
 93
        3
 72
     2
 10
0.0
 20
0.0
 40
3.000000000000003
 50
0.0
 51
90.0
 73
     1
 72
     1
 10
0.0
 20
3.000000000000003
 11
0.0
 21
0.0
 72
     1
 10
0.0
 20
0.0
 11
3.000000000000003
 21
0.0
 97
        0
 75
     0
 76
     1
 98
        1
 10
0.0
 20
0.0
  0
HATCH
  5
12A
330
125
100
AcDbEntity
  8
0
  6
Continuous
 62
     0
370
    18
100
AcDbHatch
 10
0.0
 20
0.0
 30
0.0
210
0.0
220
0.0
230
1.0
  2
SOLID
 70
     1
 71
     0
 91
        1
 92
        0
 93
        3
 72
     2
 10
0.0
 20
0.0
 40
3.000000000000003
 50
180.0
 51
270.0000000000008
 73
     1
 72
     1
 10
0.0
 20
-3.000000000000003
 11
0.0
 21
0.0
 72
     1
 10
0.0
 20
0.0
 11
-3.000000000000003
 21
0.0
 97
        0
 75
     0
 76
     1
 98
        1
 10
0.0
 20
0.0
  0
ENDBLK
  5
127
330
125
100
AcDbEntity
  8
0
100
AcDbBlockEnd
  0
ENDSEC
  0
SECTION
  2
ENTITIES
  0
LINE
  5
99
330
1F
100
AcDbEntity
  8
0
  6
Continuous
 62
     4
370
    25
100
AcDbLine
 10
2.0
 20
2.999999999999998
 30
0.0
 11
-41.54307806183472
 21
2.999999999999996
 31
0.0
  0
LINE
  5
9A
330
1F
100
AcDbEntity
  8
0
  6
Continuous
 62
     4
370
    25
100
AcDbLine
 10
-41.54307806183471
 20
-3.000000000000001
 30
0.0
 11
2.000000000000004
 21
-2.999999999999998
 31
0.0
  0
LINE
  5
9B
330
1F
100
AcDbEntity
  8
0
  6
Continuous
 62
     4
370
    25
100
AcDbLine
 10
2.0
 20
-3.0
 30
0.0
 11
10.45703547802816
 21
-0.7339441733009946
 31
0.0
  0
LINE
  5
9C
330
1F
100
AcDbEntity
  8
0
  6
Continuous
 62
     4
370
    25
100
AcDbLine
 10
10.45703547802816
 20
0.7339441733009955
 30
0.0
 11
2.0
 21
3.0
 31
0.0
  0
LINE
  5
9D
330
1F
100
AcDbEntity
  8
0
  6
Continuous
 62
     4
370
    25
100
AcDbLine
 10
-41.54307806183471
 20
2.999999999999994
 30
0.0
 11
-42.04307806183472
 21
2.499999999999994
 31
0.0
  0
LINE
  5
9E
330
1F
100
AcDbEntity
  8
0
  6
Continuous
 62
     4
370
    25
100
AcDbLine
 10
-42.04307806183472
 20
-2.5
 30
0.0
 11
-41.54307806183471
 21
-2.999999999999999
 31
0.0
  0
LINE
  5
9F
330
1F
100
AcDbEntity
  8
0
  6
Continuous
 62
     4
370
    25
100
AcDbLine
 10
11.65836596755839
 20
0.6000000000000003
 30
0.0
 11
11.19487791202362
 21
0.6000000000000003
 31
0.0
  0
LINE
  5
A0
330
1F
100
AcDbEntity
  8
0
  6
Continuous
 62
     4
370
    25
100
AcDbLine
 10
11.19487791202362
 20
-0.5999999999999994
 30
0.0
 11
11.6583659675584
 21
-0.5999999999999994
 31
0.0
  0
LINE
  5
A1
330
1F
100
AcDbEntity
  8
0
  6
Continuous
 62
     1
370
    25
100
AcDbLine
 10
16.0923939318269
 20
-0.6000000000000001
 30
0.0
 11
16.55666139573833
 21
-0.6000000000000001
 31
0.0
  0
LINE
  5
A2
330
1F
100
AcDbEntity
  8
0
  6
Continuous
 62
     1
370
    25
100
AcDbLine
 10
13.29176178499674
 20
0.6000000000000009
 30
0.0
 11
12.8275554407744
 21
0.6000000000000009
 31
0.0
  0
LINE
  5
A3
330
1F
100
AcDbEntity
  8
0
  6
Continuous
 62
     1
370
    25
100
AcDbLine
 10
13.09606275867615
 20
0.1093161630750047
 30
0.0
 11
13.14456191904953
 21
0.0850505622453063
 31
0.0
  0
LINE
  5
A4
330
1F
100
AcDbEntity
  8
0
  6
Continuous
 62
     1
370
    25
100
AcDbLine
 10
14.65085584313827
 20
-0.1071696822133713
 30
0.0
 11
14.60956679296157
 21
-0.0856345389847159
 31
0.0
  0
LINE
  5
A5
330
1F
100
AcDbEntity
  8
0
  6
Continuous
 62
     1
370
    25
100
AcDbLine
 10
17.76319880423484
 20
-0.0230454481550022
 30
0.0
 11
17.71856676620289
 21
0.0035924941134234
 31
0.0
  0
SPLINE
  5
A6
330
1F
100
AcDbEntity
  8
0
  6
Continuous
 62
     1
370
    25
100
AcDbSpline
210
0.0
220
0.0
230
1.0
 70
     8
 71
     3
 72
     9
 73
     5
 74
     0
 42
0.000000001
 43
0.00000001
 40
0.0
 40
0.0
 40
0.0
 40
0.0
 40
0.6101669570654107
 40
1.0
 40
1.0
 40
1.0
 40
1.0
 10
17.95692193816528
 20
-0.1335868961991213
 30
0.0
 10
17.91761373306047
 20
-0.1123359995303068
 30
0.0
 10
17.85319168488225
 20
-0.0775079964358419
 30
0.0
 10
17.78844082786032
 20
-0.0383216002296877
 30
0.0
 10
17.76319880423484
 20
-0.0230454481550022
 30
0.0
  0
LINE
  5
A7
330
1F
100
AcDbEntity
  8
0
  6
Continuous
 62
     1
370
    25
100
AcDbLine
 10
16.37019586768932
 20
0.1044955242682261
 30
0.0
 11
16.40940077467112
 21
0.0850505622453072
 31
0.0
  0
LINE
  5
A8
330
1F
100
AcDbEntity
  8
0
  6
Continuous
 62
     1
370
    25
100
AcDbLine
 10
16.2735409755458
 20
-0.1016233577626541
 30
0.0
 11
16.23960424603765
 21
-0.0850505622451928
 31
0.0
  0
LINE
  5
A9
330
1F
100
AcDbEntity
  8
0
  6
Continuous
 62
     1
370
    25
100
AcDbLine
 10
14.71479163296429
 20
0.1155016125502232
 30
0.0
 11
14.77459937212568
 21
0.0856345389847881
 31
0.0
  0
LINE
  5
AA
330
1F
100
AcDbEntity
  8
0
  6
Continuous
 62
     1
370
    25
100
AcDbLine
 10
14.46041748612311
 20
-0.6000000000000001
 30
0.0
 11
14.9245267466826
 21
-0.6000000000000001
 31
0.0
  0
LINE
  5
AB
330
1F
100
AcDbEntity
  8
0
  6
Continuous
 62
     1
370
    25
100
AcDbLine
 10
17.95692193816528
 20
0.6000000000000009
 30
0.0
 11
17.72487127966458
 21
0.6000000000000009
 31
0.0
  0
LINE
  5
AC
330
1F
100
AcDbEntity
  8
0
  6
Continuous
 62
     1
370
    25
100
AcDbLine
 10
17.72487127966458
 20
-0.6000000000000001
 30
0.0
 11
17.95692193816528
 21
-0.6000000000000001
 31
0.0
  0
LINE
  5
AD
330
1F
100
AcDbEntity
  8
0
  6
Continuous
 62
     1
370
    25
100
AcDbLine
 10
14.92452674668261
 20
0.6000000000000009
 30
0.0
 11
14.46041748612311
 21
0.6000000000000009
 31
0.0
  0
LINE
  5
AE
330
1F
100
AcDbEntity
  8
0
  6
Continuous
 62
     1
370
    25
100
AcDbLine
 10
13.0417448375979
 20
-0.1195389638948133
 30
0.0
 11
12.97476539041606
 21
-0.0850505622451931
 31
0.0
  0
LINE
  5
AF
330
1F
100
AcDbEntity
  8
0
  6
Continuous
 62
     1
370
    25
100
AcDbLine
 10
12.82755544077441
 20
-0.6000000000000001
 30
0.0
 11
13.29176178499674
 21
-0.6000000000000001
 31
0.0
  0
LINE
  5
B0
330
1F
100
AcDbEntity
  8
0
  6
Continuous
 62
     1
370
    25
100
AcDbLine
 10
16.55666139573833
 20
0.6000000000000009
 30
0.0
 11
16.0923939318269
 21
0.6000000000000009
 31
0.0
  0
LINE
  5
B1
330
1F
100
AcDbEntity
  8
0
  6
Continuous
 62
     4
370
    25
100
AcDbLine
 10
2.0
 20
3.0
 30
0.0
 11
2.0
 21
-3.0
 31
0.0
  0
LINE
  5
B2
330
1F
100
AcDbEntity
  8
0
  6
Continuous
 62
     4
370
    25
100
AcDbLine
 10
-41.54307806183471
 20
2.999999999999994
 30
0.0
 11
-41.54307806183471
 21
-2.999999999999999
 31
0.0
  0
SPLINE
  5
B3
330
1F
100
AcDbEntity
  8
0
  6
Continuous
 62
     4
370
    25
100
AcDbSpline
210
0.0
220
0.0
230
1.0
 70
     8
 71
     3
 72
     8
 73
     4
 74
     0
 42
0.000000001
 43
0.00000001
 40
0.0
 40
0.0
 40
0.0
 40
0.0
 40
1.0
 40
1.0
 40
1.0
 40
1.0
 10
10.64269628708883
 20
0.5881438986822932
 30
0.0
 10
10.74658850920795
 20
0.5980885643155066
 30
0.0
 10
10.85163199346753
 20
0.5968016569950312
 30
0.0
 10
10.95692193816529
 20
0.5842951214379996
 30
0.0
  0
LINE
  5
B4
330
1F
100
AcDbEntity
  8
0
  6
Continuous
 62
     4
370
    25
100
AcDbLine
 10
10.45703547802816
 20
0.7339441733009955
 30
0.0
 11
10.45703547802816
 21
0.6954708067809968
 31
0.0
  0
SPLINE
  5
B5
330
1F
100
AcDbEntity
  8
0
  6
Continuous
 62
     4
370
    25
100
AcDbSpline
210
0.0
220
0.0
230
1.0
 70
     8
 71
     3
 72
    14
 73
    10
 74
     0
 42
0.000000001
 43
0.00000001
 40
0.0
 40
0.0
 40
0.0
 40
0.0
 40
0.0000417723651907
 40
0.0000417723651907
 40
0.0000417723651907
 40
0.0000836537490015
 40
0.0000836537490015
 40
0.0000836537490015
 40
0.0001179624094228
 40
0.0001179624094228
 40
0.0001179624094228
 40
0.0001179624094228
 10
10.50852100704779
 20
0.6441335232377495
 30
0.0
 10
10.49758643325963
 20
0.6503796686336798
 30
0.0
 10
10.48777390618788
 20
0.6571281688375434
 30
0.0
 10
10.47987686738486
 20
0.6636841831967397
 30
0.0
 10
10.47196815986663
 20
0.6702498847648289
 30
0.0
 10
10.46576078739869
 20
0.6768056460878293
 30
0.0
 10
10.46189377989229
 20
0.6826220568907247
 30
0.0
 10
10.4587122199697
 20
0.6874074780395486
 30
0.0
 10
10.45703547802815
 20
0.6918049931753087
 30
0.0
 10
10.45703547802815
 20
0.6954708067809987
 30
0.0
  0
SPLINE
  5
B6
330
1F
100
AcDbEntity
  8
0
  6
Continuous
 62
     4
370
    25
100
AcDbSpline
210
0.0
220
0.0
230
1.0
 70
     8
 71
     3
 72
     8
 73
     4
 74
     0
 42
0.000000001
 43
0.00000001
 40
0.0
 40
0.0
 40
0.0
 40
0.0
 40
1.0
 40
1.0
 40
1.0
 40
1.0
 10
10.95692193816529
 20
0.3753874780454775
 30
0.0
 10
10.80053140155027
 20
0.468468633393044
 30
0.0
 10
10.6526567335339
 20
0.561799019687607
 30
0.0
 10
10.50852100704781
 20
0.6441335232377488
 30
0.0
  0
LINE
  5
B7
330
1F
100
AcDbEntity
  8
0
  6
Continuous
 62
     4
370
    25
100
AcDbLine
 10
10.95692193816529
 20
0.3753874780453311
 30
0.0
 11
10.95692193816529
 21
0.1363789245586529
 31
0.0
  0
SPLINE
  5
B8
330
1F
100
AcDbEntity
  8
0
  6
Continuous
 62
     4
370
    25
100
AcDbSpline
210
0.0
220
0.0
230
1.0
 70
     8
 71
     3
 72
     8
 73
     4
 74
     0
 42
0.000000001
 43
0.00000001
 40
0.0
 40
0.0
 40
0.0
 40
0.0
 40
1.0
 40
1.0
 40
1.0
 40
1.0
 10
10.64269628708883
 20
0.3495877829420789
 30
0.0
 10
10.74658850920795
 20
0.2783740662484632
 30
0.0
 10
10.85163199346753
 20
0.2069169912782524
 30
0.0
 10
10.95692193816529
 20
0.136378924558662
 30
0.0
  0
SPLINE
  5
B9
330
1F
100
AcDbEntity
  8
0
  6
Continuous
 62
     4
370
    25
100
AcDbSpline
210
0.0
220
0.0
230
1.0
 70
     8
 71
     3
 72
    26
 73
    22
 74
     0
 42
0.000000001
 43
0.00000001
 40
0.0
 40
0.0
 40
0.0
 40
0.0
 40
0.0000386311775972
 40
0.0000386311775972
 40
0.0000386311775972
 40
0.0000771533106821
 40
0.0000771533106821
 40
0.0000771533106821
 40
0.0001172712354787
 40
0.0001172712354787
 40
0.0001172712354787
 40
0.0001595094703266
 40
0.0001595094703266
 40
0.0001595094703266
 40
0.0002025363061948
 40
0.0002025363061948
 40
0.0002025363061948
 40
0.0002449583331045
 40
0.0002449583331045
 40
0.0002449583331045
 40
0.0002645277285066
 40
0.0002645277285066
 40
0.0002645277285066
 40
0.0002645277285066
 10
10.45703547802816
 20
0.2789526285723065
 30
0.0
 10
10.45703547802816
 20
0.290863346185294
 30
0.0
 10
10.45916028423225
 20
0.3025832806057497
 30
0.0
 10
10.46314741645188
 20
0.313152473888637
 30
0.0
 10
10.46712794667231
 20
0.3237041664211755
 30
0.0
 10
10.47305757829163
 20
0.3334017705029583
 30
0.0
 10
10.48042464379491
 20
0.3416126798634958
 30
0.0
 10
10.48809555236425
 20
0.350162235306937
 30
0.0
 10
10.49752101529624
 20
0.3573296622904567
 30
0.0
 10
10.50799562015537
 20
0.3626967096844513
 30
0.0
 10
10.51901218064386
 20
0.3683414478923103
 30
0.0
 10
10.53148989583518
 20
0.3721473013383317
 30
0.0
 10
10.5444733565899
 20
0.3738772552577861
 30
0.0
 10
10.55768852959361
 20
0.3756380831884846
 30
0.0
 10
10.57180289591494
 20
0.3752930174523681
 30
0.0
 10
10.58563420641319
 20
0.3728519418119239
 30
0.0
 10
10.59927066260499
 20
0.370445255834048
 30
0.0
 10
10.61301834523235
 20
0.3659276035221846
 30
0.0
 10
10.62565584233787
 20
0.3596124723176034
 30
0.0
 10
10.63155462373057
 20
0.3566647700842357
 30
0.0
 10
10.63727386657052
 20
0.3533046224774022
 30
0.0
 10
10.64269628708885
 20
0.3495877829420714
 30
0.0
  0
LINE
  5
BA
330
1F
100
AcDbEntity
  8
0
  6
Continuous
 62
     4
370
    25
100
AcDbLine
 10
10.45703547802816
 20
0.2789526285723065
 30
0.0
 11
10.45703547802816
 21
-0.2345088621734198
 31
0.0
  0
SPLINE
  5
BB
330
1F
100
AcDbEntity
  8
0
  6
Continuous
 62
     4
370
    25
100
AcDbSpline
210
0.0
220
0.0
230
1.0
 70
     8
 71
     3
 72
    14
 73
    10
 74
     0
 42
0.000000001
 43
0.00000001
 40
0.0
 40
0.0
 40
0.0
 40
0.0
 40
0.0000417723651907
 40
0.0000417723651907
 40
0.0000417723651907
 40
0.0000836537490015
 40
0.0000836537490015
 40
0.0000836537490015
 40
0.0001179624094228
 40
0.0001179624094228
 40
0.0001179624094228
 40
0.0001179624094228
 10
10.50852100704779
 20
-0.3220343263816112
 30
0.0
 10
10.49758643325963
 20
-0.3160927836760202
 30
0.0
 10
10.48777390618788
 20
-0.3081581961464133
 30
0.0
 10
10.47987686738486
 20
-0.2987488061649273
 30
0.0
 10
10.47196815986663
 20
-0.2893255128084166
 30
0.0
 10
10.46576078739869
 20
-0.2781370629492663
 30
0.0
 10
10.46189377989229
 20
-0.2660676732509228
 30
0.0
 10
10.4587122199697
 20
-0.2561376468698601
 30
0.0
 10
10.45703547802815
 20
-0.2453803760353289
 30
0.0
 10
10.45703547802815
 20
-0.2345088621734249
 30
0.0
  0
SPLINE
  5
BC
330
1F
100
AcDbEntity
  8
0
  6
Continuous
 62
     4
370
    25
100
AcDbSpline
210
0.0
220
0.0
230
1.0
 70
     8
 71
     3
 72
     8
 73
     4
 74
     0
 42
0.000000001
 43
0.00000001
 40
0.0
 40
0.0
 40
0.0
 40
0.0
 40
1.0
 40
1.0
 40
1.0
 40
1.0
 10
10.95692193816529
 20
-0.4680643559668448
 30
0.0
 10
10.80053140155027
 20
-0.4471299070162876
 30
0.0
 10
10.6526567335339
 20
-0.4003536638254074
 30
0.0
 10
10.50852100704781
 20
-0.3220343263816238
 30
0.0
  0
LINE
  5
BD
330
1F
100
AcDbEntity
  8
0
  6
Continuous
 62
     4
370
    25
100
AcDbLine
 10
10.95692193816529
 20
-0.4680643559665964
 30
0.0
 11
10.95692193816529
 21
-0.5842951214379785
 31
0.0
  0
SPLINE
  5
BE
330
1F
100
AcDbEntity
  8
0
  6
Continuous
 62
     4
370
    25
100
AcDbSpline
210
0.0
220
0.0
230
1.0
 70
     8
 71
     3
 72
     8
 73
     4
 74
     0
 42
0.000000001
 43
0.00000001
 40
0.0
 40
0.0
 40
0.0
 40
0.0
 40
1.0
 40
1.0
 40
1.0
 40
1.0
 10
10.64269628708883
 20
-0.5881438986822924
 30
0.0
 10
10.74658850920795
 20
-0.5980885643155057
 30
0.0
 10
10.85163199346753
 20
-0.5968016569950303
 30
0.0
 10
10.95692193816529
 20
-0.5842951214379988
 30
0.0
  0
SPLINE
  5
BF
330
1F
100
AcDbEntity
  8
0
  6
Continuous
 62
     4
370
    25
100
AcDbSpline
210
0.0
220
0.0
230
1.0
 70
     8
 71
     3
 72
    26
 73
    22
 74
     0
 42
0.000000001
 43
0.00000001
 40
0.0
 40
0.0
 40
0.0
 40
0.0
 40
0.0000386311775972
 40
0.0000386311775972
 40
0.0000386311775972
 40
0.0000771533106821
 40
0.0000771533106821
 40
0.0000771533106821
 40
0.0001172712354787
 40
0.0001172712354787
 40
0.0001172712354787
 40
0.0001595094703266
 40
0.0001595094703266
 40
0.0001595094703266
 40
0.0002025363061948
 40
0.0002025363061948
 40
0.0002025363061948
 40
0.0002449583331045
 40
0.0002449583331045
 40
0.0002449583331045
 40
0.0002645277285066
 40
0.0002645277285066
 40
0.0002645277285066
 40
0.0002645277285066
 10
10.45703547802816
 20
-0.6788663200771416
 30
0.0
 10
10.45703547802816
 20
-0.6739720929103736
 30
0.0
 10
10.45916028423225
 20
-0.6681547607567953
 30
0.0
 10
10.46314741645188
 20
-0.6619730471085868
 30
0.0
 10
10.46712794667231
 20
-0.6558015693056685
 30
0.0
 10
10.47305757829163
 20
-0.6491078762126321
 30
0.0
 10
10.48042464379491
 20
-0.6425065666643498
 30
0.0
 10
10.48809555236425
 20
-0.6356329964537707
 30
0.0
 10
10.49752101529624
 20
-0.6286851997444206
 30
0.0
 10
10.50799562015537
 20
-0.6223085894132894
 30
0.0
 10
10.51901218064386
 20
-0.6156020535229894
 30
0.0
 10
10.53148989583518
 20
-0.6093534247496372
 30
0.0
 10
10.5444733565899
 20
-0.6041918063651535
 30
0.0
 10
10.55768852959361
 20
-0.5989380699986541
 30
0.0
 10
10.57180289591494
 20
-0.5946721077909365
 30
0.0
 10
10.58563420641319
 20
-0.5918297394216468
 30
0.0
 10
10.59927066260499
 20
-0.589027414092194
 30
0.0
 10
10.61301834523235
 20
-0.5875331679319746
 30
0.0
 10
10.62565584233787
 20
-0.5874288276418169
 30
0.0
 10
10.63155462373057
 20
-0.5873801249155608
 30
0.0
 10
10.63727386657052
 20
-0.5876248592597308
 30
0.0
 10
10.64269628708885
 20
-0.5881438986822933
 30
0.0
  0
LINE
  5
C0
330
1F
100
AcDbEntity
  8
0
  6
Continuous
 62
     4
370
    25
100
AcDbLine
 10
10.45703547802816
 20
-0.6788663200771418
 30
0.0
 11
10.45703547802816
 21
-0.7339441733009946
 31
0.0
  0
SPLINE
  5
C1
330
1F
100
AcDbEntity
  8
0
  6
Continuous
 62
     4
370
    25
100
AcDbSpline
210
0.0
220
0.0
230
1.0
 70
     8
 71
     3
 72
    14
 73
    10
 74
     0
 42
0.000000001
 43
0.00000001
 40
0.0
 40
0.0
 40
0.0
 40
0.0
 40
0.0000417723651907
 40
0.0000417723651907
 40
0.0000417723651907
 40
0.0000836537490015
 40
0.0000836537490015
 40
0.0000836537490015
 40
0.0001179624094228
 40
0.0001179624094228
 40
0.0001179624094228
 40
0.0001179624094228
 10
10.50852100704779
 20
-0.6441335232377489
 30
0.0
 10
10.49758643325963
 20
-0.650379668633679
 30
0.0
 10
10.48777390618788
 20
-0.6571281688375425
 30
0.0
 10
10.47987686738486
 20
-0.6636841831967389
 30
0.0
 10
10.47196815986663
 20
-0.670249884764828
 30
0.0
 10
10.46576078739869
 20
-0.6768056460878283
 30
0.0
 10
10.46189377989229
 20
-0.6826220568907239
 30
0.0
 10
10.4587122199697
 20
-0.6874074780395477
 30
0.0
 10
10.45703547802815
 20
-0.691804993175308
 30
0.0
 10
10.45703547802815
 20
-0.6954708067809978
 30
0.0
  0
SPLINE
  5
C2
330
1F
100
AcDbEntity
  8
0
  6
Continuous
 62
     4
370
    25
100
AcDbSpline
210
0.0
220
0.0
230
1.0
 70
     8
 71
     3
 72
     9
 73
     5
 74
     0
 42
0.000000001
 43
0.00000001
 40
0.0
 40
0.0
 40
0.0
 40
0.0
 40
0.9886979770523956
 40
1.0
 40
1.0
 40
1.0
 40
1.0
 10
10.60072966356159
 20
-0.5901697929039347
 30
0.0
 10
10.57012870896997
 20
-0.6082908523590566
 30
0.0
 10
10.53917794816954
 20
-0.6266190576105191
 30
0.0
 10
10.50886362027728
 20
-0.643937786565678
 30
0.0
 10
10.5085210070478
 20
-0.6441335232377525
 30
0.0
  0
LINE
  5
C3
330
1F
100
AcDbEntity
  8
0
  6
Continuous
 62
     4
370
    25
100
AcDbLine
 10
-42.04307806183472
 20
2.499999999999994
 30
0.0
 11
-42.04307806183472
 21
-2.500000000000001
 31
0.0
  0
SPLINE
  5
C4
330
1F
100
AcDbEntity
  8
0
  6
Continuous
 62
     4
370
    25
100
AcDbSpline
210
0.0
220
0.0
230
1.0
 70
     8
 71
     3
 72
    14
 73
    10
 74
     0
 42
0.000000001
 43
0.00000001
 40
0.0
 40
0.0
 40
0.0
 40
0.0
 40
0.2500000000000001
 40
0.2500000000000001
 40
0.5000000000000001
 40
0.5000000000000001
 40
0.75
 40
0.75
 40
1.0
 40
1.0
 40
1.0
 40
1.0
 10
11.95692193816531
 20
0.4456368925040651
 30
0.0
 10
11.87410657432929
 20
0.4778102087655572
 30
0.0
 10
11.79258456591847
 20
0.5055596326898887
 30
0.0
 10
11.62387807410076
 20
0.5513480766917167
 30
0.0
 10
11.53884571116753
 20
0.569078959054886
 30
0.0
 10
11.37467807651078
 20
0.5929816524563075
 30
0.0
 10
11.29174167569333
 20
0.5994014202960667
 30
0.0
 10
11.12279185935966
 20
0.6005185564011042
 30
0.0
 10
11.03836155466718
 20
0.5951561552089194
 30
0.0
 10
10.95692193816529
 20
0.5842951214379793
 30
0.0
  0
SPLINE
  5
C5
330
1F
100
AcDbEntity
  8
0
  6
Continuous
 62
     4
370
    25
100
AcDbSpline
210
0.0
220
0.0
230
1.0
 70
    24
 71
     3
 72
    16
 73
    12
 74
     0
 42
0.000000001
 43
0.00000001
 40
0.0
 40
0.0
 40
0.0
 40
0.0
 40
0.1249999999999998
 40
0.1249999999999998
 40
0.2499999999999997
 40
0.2499999999999997
 40
0.4999999999999997
 40
0.4999999999999997
 40
0.7499999999999998
 40
0.7499999999999998
 40
1.0
 40
1.0
 40
1.0
 40
1.0
 10
11.95692193816529
 20
0.44563689250412
 30
0.0
 10
11.95692193816529
 20
0.4281007135574858
 30
0.0
 10
11.95692193816529
 20
0.4116732268636995
 30
0.0
 10
11.95692193816529
 20
0.3741180224570151
 30
0.0
 10
11.95692193816529
 20
0.3533514426400233
 30
0.0
 10
11.95692193816529
 20
0.2845945109148142
 30
0.0
 10
11.95692193816529
 20
0.229611531920451
 30
0.0
 10
11.95692193816529
 20
0.1070306237356614
 30
0.0
 10
11.95692193816529
 20
0.0393103759049058
 30
0.0
 10
11.95692193816529
 20
-0.0835245414953631
 30
0.0
 10
11.95692193816529
 20
-0.1372813515917231
 30
0.0
 10
11.95692193816529
 20
-0.1698480603216383
 30
0.0
  0
SPLINE
  5
C6
330
1F
100
AcDbEntity
  8
0
  6
Continuous
 62
     4
370
    25
100
AcDbSpline
210
0.0
220
0.0
230
1.0
 70
     8
 71
     3
 72
    14
 73
    10
 74
     0
 42
0.000000001
 43
0.00000001
 40
0.0
 40
0.0
 40
0.0
 40
0.0
 40
0.2500000000000001
 40
0.2500000000000001
 40
0.5000000000000002
 40
0.5000000000000002
 40
0.7500000000000001
 40
0.7500000000000001
 40
1.0
 40
1.0
 40
1.0
 40
1.0
 10
11.95692193816531
 20
-0.1698480603216531
 30
0.0
 10
11.8741065743293
 20
-0.1237643884649676
 30
0.0
 10
11.79258456591847
 20
-0.0762906014547038
 30
0.0
 10
11.62387807410076
 20
0.0202919607347772
 30
0.0
 10
11.53884571116754
 20
0.0689783829363326
 30
0.0
 10
11.37467807651078
 20
0.1629870422879044
 30
0.0
 10
11.29174167569333
 20
0.2090444468970304
 30
0.0
 10
11.12279185935966
 20
0.2967655290771198
 30
0.0
 10
11.03836155466718
 20
0.3381114634882565
 30
0.0
 10
10.95692193816529
 20
0.3753874780453312
 30
0.0
  0
SPLINE
  5
C7
330
1F
100
AcDbEntity
  8
0
  6
Continuous
 62
     4
370
    25
100
AcDbSpline
210
0.0
220
0.0
230
1.0
 70
     8
 71
     3
 72
    14
 73
    10
 74
     0
 42
0.000000001
 43
0.00000001
 40
0.0
 40
0.0
 40
0.0
 40
0.0
 40
0.2500000000000001
 40
0.2500000000000001
 40
0.5000000000000001
 40
0.5000000000000001
 40
0.75
 40
0.75
 40
1.0
 40
1.0
 40
1.0
 40
1.0
 10
11.95692193816531
 20
-0.4017558463038459
 30
0.0
 10
11.87410657432929
 20
-0.3660684585228643
 30
0.0
 10
11.79258456591847
 20
-0.3267209744459869
 30
0.0
 10
11.62387807410076
 20
-0.2415624881408847
 30
0.0
 10
11.53884571116753
 20
-0.1960722013633928
 30
0.0
 10
11.37467807651078
 20
-0.1032856700451037
 30
0.0
 10
11.29174167569333
 20
-0.0552930462493587
 30
0.0
 10
11.12279185935966
 20
0.0414348528947453
 30
0.0
 10
11.03836155466718
 20
0.0898464484691809
 30
0.0
 10
10.95692193816529
 20
0.1363789245586529
 30
0.0
  0
SPLINE
  5
C8
330
1F
100
AcDbEntity
  8
0
  6
Continuous
 62
     4
370
    25
100
AcDbSpline
210
0.0
220
0.0
230
1.0
 70
    24
 71
     3
 72
    12
 73
     8
 74
     0
 42
0.000000001
 43
0.00000001
 40
0.0
 40
0.0
 40
0.0
 40
0.0
 40
0.0551370409595531
 40
0.3555000680719643
 40
0.6645736433186571
 40
0.8315641801668221
 40
1.0
 40
1.0
 40
1.0
 40
1.0
 10
11.95692193816528
 20
-0.4017558463038369
 30
0.0
 10
11.95692193816528
 20
-0.4038792187983584
 30
0.0
 10
11.95692193816528
 20
-0.4175698168646974
 30
0.0
 10
11.95692193816529
 20
-0.452868256894943
 30
0.0
 10
11.95692193816529
 20
-0.4983928384694771
 30
0.0
 10
11.95692193816529
 20
-0.5404511413725935
 30
0.0
 10
11.95692193816529
 20
-0.5637554176744964
 30
0.0
 10
11.95692193816529
 20
-0.5754577624853395
 30
0.0
  0
SPLINE
  5
C9
330
1F
100
AcDbEntity
  8
0
  6
Continuous
 62
     4
370
    25
100
AcDbSpline
210
0.0
220
0.0
230
1.0
 70
     8
 71
     3
 72
    14
 73
    10
 74
     0
 42
0.000000001
 43
0.00000001
 40
0.0
 40
0.0
 40
0.0
 40
0.0
 40
0.25
 40
0.25
 40
0.5
 40
0.5
 40
0.75
 40
0.75
 40
1.0
 40
1.0
 40
1.0
 40
1.0
 10
11.95692193816531
 20
-0.5754577624853348
 30
0.0
 10
11.8741065743293
 20
-0.5890594945109012
 30
0.0
 10
11.79258456591847
 20
-0.5970903461602817
 30
0.0
 10
11.62387807410076
 20
-0.6016023384908541
 30
0.0
 10
11.53884571116754
 20
-0.5979441048071502
 30
0.0
 10
11.37467807651078
 20
-0.5794224657642961
 30
0.0
 10
11.29174167569333
 20
-0.5644818888482144
 30
0.0
 10
11.12279185935966
 20
-0.5237075561491458
 30
0.0
 10
11.03836155466718
 20
-0.4979597088551208
 30
0.0
 10
10.95692193816529
 20
-0.4680643559665964
 30
0.0
  0
LINE
  5
CA
330
1F
100
AcDbEntity
  8
0
  6
Continuous
 62
     4
370
    25
100
AcDbLine
 10
11.95692193816529
 20
-0.1698480603216378
 30
0.0
 11
11.95692193816529
 21
-0.4017558463038656
 31
0.0
  0
LINE
  5
CB
330
1F
100
AcDbEntity
  8
0
  6
Continuous
 62
     4
370
    25
100
AcDbLine
 10
10.95692193816515
 20
-0.5842951214379598
 30
0.0
 11
11.19487791202362
 21
-0.5827408591459122
 31
0.0
  0
LINE
  5
CC
330
1F
100
AcDbEntity
  8
0
  6
Continuous
 62
     4
370
    25
100
AcDbLine
 10
11.95692193816531
 20
0.5754577624853358
 30
0.0
 11
11.65836596755839
 21
0.5833523531093643
 31
0.0
  0
LINE
  5
CD
330
1F
100
AcDbEntity
  8
0
  6
Continuous
 62
     4
370
    25
100
AcDbLine
 10
11.95692193816529
 20
0.5754577624853392
 30
0.0
 11
11.95692193816529
 21
0.4456368925041189
 31
0.0
  0
SPLINE
  5
CE
330
1F
100
AcDbEntity
  8
0
  6
Continuous
 62
     1
370
    25
100
AcDbSpline
210
0.0
220
0.0
230
1.0
 70
     8
 71
     3
 72
    17
 73
    13
 74
     0
 42
0.000000001
 43
0.00000001
 40
0.0
 40
0.0
 40
0.0
 40
0.0
 40
0.0231790413081404
 40
0.1449451104053735
 40
0.2667108297988425
 40
0.3884761957219461
 40
0.5102412044167671
 40
0.6320058521341583
 40
0.7537701351338241
 40
0.8755340496844082
 40
0.9972975920635732
 40
1.0
 40
1.0
 40
1.0
 40
1.0
 10
12.24282066750584
 20
0.5017600568851817
 30
0.0
 10
12.27256249570487
 20
0.5125723077895243
 30
0.0
 10
12.458546571347
 20
0.5801843750975091
 30
0.0
 10
12.80079749077241
 20
0.6163416726067127
 30
0.0
 10
13.26954140382147
 20
0.5665860062718263
 30
0.0
 10
13.73828784294852
 20
0.3971183416478505
 30
0.0
 10
14.207031520946
 20
0.1496683814264942
 30
0.0
 10
14.6757738297384
 20
-0.1271879310831138
 30
0.0
 10
15.14451438534386
 20
-0.3821941318863682
 30
0.0
 10
15.61325322855602
 20
-0.5469047490122511
 30
0.0
 10
15.92921291105424
 20
-0.6190783049574458
 30
0.0
 10
16.08892623206517
 20
-0.5991292905578816
 30
0.0
 10
16.0923939318269
 20
-0.5986961570406378
 30
0.0
  0
SPLINE
  5
CF
330
1F
100
AcDbEntity
  8
0
  6
Continuous
 62
     1
370
    25
100
AcDbSpline
210
0.0
220
0.0
230
1.0
 70
     8
 71
     3
 72
    16
 73
    12
 74
     0
 42
0.000000001
 43
0.00000001
 40
0.0
 40
0.0
 40
0.0
 40
0.0
 40
0.0442794406670853
 40
0.1596375483523488
 40
0.2750266458130851
 40
0.3968168087207277
 40
0.5186073438811546
 40
0.6403982475712159
 40
0.7621895160587385
 40
0.8839811456026101
 40
1.0
 40
1.0
 40
1.0
 40
1.0
 10
17.14040868792626
 20
-0.4973124302350503
 30
0.0
 10
17.08361059343553
 20
-0.5174691781573318
 30
0.0
 10
16.87884042427832
 20
-0.5901388815815946
 30
0.0
 10
16.52603716743011
 20
-0.614623943589428
 30
0.0
 10
16.07378313008976
 20
-0.5550054953650395
 30
0.0
 10
15.61325208830955
 20
-0.3816626741368697
 30
0.0
 10
15.14451469394109
 20
-0.1306846967871719
 30
0.0
 10
14.67577373560071
 20
0.1475597460003769
 30
0.0
 10
14.20703158889845
 20
0.3935969200191925
 30
0.0
 10
13.74569408774655
 20
0.5677351222117396
 30
0.0
 10
13.44060389624246
 20
0.5875948693334351
 30
0.0
 10
13.29176178499674
 20
0.5972836983181575
 30
0.0
  0
SPLINE
  5
D0
330
1F
100
AcDbEntity
  8
0
  6
Continuous
 62
     1
370
    25
100
AcDbSpline
210
0.0
220
0.0
230
1.0
 70
     8
 71
     3
 72
    15
 73
    11
 74
     0
 42
0.000000001
 43
0.00000001
 40
0.0
 40
0.0
 40
0.0
 40
0.0
 40
0.1020918969459741
 40
0.2341302475749719
 40
0.3661689936953704
 40
0.4982081312512813
 40
0.6302476561772162
 40
0.7622875643981771
 40
0.8943278518297496
 40
1.0
 40
1.0
 40
1.0
 40
1.0
 10
15.50694424715665
 20
-0.4987079409328745
 30
0.0
 10
15.3861344475114
 20
-0.5335828983242263
 30
0.0
 10
15.10907790192294
 20
-0.6135626288656696
 30
0.0
 10
14.67577382084067
 20
-0.6009359879667769
 30
0.0
 10
14.20703154015327
 20
-0.4791073961982327
 30
0.0
 10
13.73828777501688
 20
-0.2583404377369474
 30
0.0
 10
13.26954165634175
 20
0.0137691849400865
 30
0.0
 10
12.80079654861917
 20
0.2813784775032762
 30
0.0
 10
12.36324361173485
 20
0.4854672833807419
 30
0.0
 10
12.08196215873249
 20
0.5477643607100101
 30
0.0
 10
11.95692193816532
 20
0.5754577624853334
 30
0.0
  0
SPLINE
  5
D1
330
1F
100
AcDbEntity
  8
0
  6
Continuous
 62
     1
370
    25
100
AcDbSpline
210
0.0
220
0.0
230
1.0
 70
     8
 71
     3
 72
    14
 73
    10
 74
     0
 42
0.000000001
 43
0.00000001
 40
0.0
 40
0.0
 40
0.0
 40
0.0
 40
0.1512960129276328
 40
0.3026238595368543
 40
0.4539879950040016
 40
0.6053927928976297
 40
0.7651965820445042
 40
0.925000859633171
 40
1.0
 40
1.0
 40
1.0
 40
1.0
 10
17.85752604760271
 20
-0.5695977518359775
 30
0.0
 10
17.70962721464052
 20
-0.5326295106075418
 30
0.0
 10
17.41379842982366
 20
-0.4586852497882574
 30
0.0
 10
16.9699812702344
 20
-0.2379141195407874
 30
0.0
 10
16.52603800863923
 20
0.0178469380365935
 30
0.0
 10
16.07378289843875
 20
0.2786496953589385
 30
0.0
 10
15.61325212094533
 20
0.4850536734602597
 30
0.0
 10
15.22743197926482
 20
0.5981011645229777
 30
0.0
 10
14.99785613485585
 20
0.5880672016217883
 30
0.0
 10
14.92452674668261
 20
0.5848622287188617
 30
0.0
  0
LINE
  5
D2
330
1F
100
AcDbEntity
  8
0
  6
Continuous
 62
     1
370
    25
100
AcDbLine
 10
12.24282066750585
 20
-0.501760056885181
 30
0.0
 11
11.95692193816532
 21
-0.5754577624853336
 31
0.0
  0
SPLINE
  5
D3
330
1F
100
AcDbEntity
  8
0
  6
Continuous
 62
     4
370
    25
100
AcDbSpline
210
0.0
220
0.0
230
1.0
 70
    24
 71
     3
 72
    11
 73
     7
 74
     0
 42
0.000000001
 43
0.00000001
 40
0.0
 40
0.0
 40
0.0
 40
0.0
 40
0.0551569380684189
 40
0.3556283561235975
 40
0.6648134656577387
 40
0.9999999999999999
 40
0.9999999999999999
 40
0.9999999999999999
 40
0.9999999999999999
 10
11.95692193816529
 20
-0.4017558463038376
 30
0.0
 10
11.95692193816529
 20
-0.4038789116361112
 30
0.0
 10
11.95692193816529
 20
-0.4175675292515942
 30
0.0
 10
11.95692193816529
 20
-0.4529338788816768
 30
0.0
 10
11.95692193816529
 20
-0.5079967857140815
 30
0.0
 10
11.95692193816529
 20
-0.5523738747592905
 30
0.0
 10
11.95692193816529
 20
-0.5754577624856019
 30
0.0
  0
SPLINE
  5
D4
330
1F
100
AcDbEntity
  8
0
  6
Continuous
 62
     1
370
    25
100
AcDbSpline
210
0.0
220
0.0
230
1.0
 70
     8
 71
     3
 72
    10
 73
     6
 74
     0
 42
0.000000001
 43
0.00000001
 40
0.0
 40
0.0
 40
0.0
 40
0.0
 40
0.4308744980708244
 40
0.9692641641968686
 40
1.0
 40
1.0
 40
1.0
 40
1.0
 10
11.9569219381653
 20
-0.4017558463038438
 30
0.0
 10
12.08196206871502
 20
-0.4482502184003816
 30
0.0
 10
12.36324331922065
 20
-0.5528406012422118
 30
0.0
 10
12.65346590712218
 20
-0.6175780317200592
 30
0.0
 10
12.81863540045042
 20
-0.5978270504757982
 30
0.0
 10
12.82755544077441
 20
-0.5967603913392518
 30
0.0
  0
SPLINE
  5
D5
330
1F
100
AcDbEntity
  8
0
  6
Continuous
 62
     1
370
    25
100
AcDbSpline
210
0.0
220
0.0
230
1.0
 70
     8
 71
     3
 72
    13
 73
     9
 74
     0
 42
0.000000001
 43
0.00000001
 40
0.0
 40
0.0
 40
0.0
 40
0.0
 40
0.0433919235814613
 40
0.2347147317195582
 40
0.4260369492432065
 40
0.617358570332368
 40
0.8086795891815621
 40
1.0
 40
1.0
 40
1.0
 40
1.0
 10
15.50694424715666
 20
0.4987079409328762
 30
0.0
 10
15.54238072624181
 20
0.512213185532297
 30
0.0
 10
15.73406302550518
 20
0.5852654865442376
 30
0.0
 10
16.08199038295752
 20
0.6156212119035748
 30
0.0
 10
16.55072581812632
 20
0.562603775702378
 30
0.0
 10
17.01945947311839
 20
0.3896855549648999
 30
0.0
 10
17.48819138804316
 20
0.1390039551339626
 30
0.0
 10
17.80067858697564
 20
-0.042256062990071
 30
0.0
 10
17.95692193816528
 20
-0.1328859280378001
 30
0.0
  0
LINE
  5
D6
330
1F
100
AcDbEntity
  8
0
  6
Continuous
 62
     1
370
    25
100
AcDbLine
 10
17.95692193816528
 20
-0.4999999999999994
 30
0.0
 11
17.95692193816528
 21
-0.1334295366590162
 31
0.0
  0
SPLINE
  5
D7
330
1F
100
AcDbEntity
  8
0
  6
Continuous
 62
     1
370
    25
100
AcDbSpline
210
0.0
220
0.0
230
1.0
 70
    24
 71
     3
 72
     8
 73
     4
 74
     0
 42
0.000000001
 43
0.00000001
 40
0.0
 40
0.0
 40
0.0
 40
0.0
 40
1.0
 40
1.0
 40
1.0
 40
1.0
 10
17.95692193816528
 20
-0.4999999999999993
 30
0.0
 10
17.92214974265162
 20
-0.5243477534187754
 30
0.0
 10
17.88909225046463
 20
-0.547494858642404
 30
0.0
 10
17.85752604760612
 20
-0.5695977518365951
 30
0.0
  0
SPLINE
  5
D8
330
1F
100
AcDbEntity
  8
0
  6
Continuous
 62
     1
370
    25
100
AcDbSpline
210
0.0
220
0.0
230
1.0
 70
     8
 71
     3
 72
    16
 73
    12
 74
     0
 42
0.000000001
 43
0.00000001
 40
0.0
 40
0.0
 40
0.0
 40
0.0
 40
0.0856406046954035
 40
0.2074761971800665
 40
0.3293114247345056
 40
0.4511462836251905
 40
0.5729807701276147
 40
0.6948148805263806
 40
0.8166486111152842
 40
0.9384819581973916
 40
1.0
 40
1.0
 40
1.0
 40
1.0
 10
13.87754375926843
 20
0.4969749612280107
 30
0.0
 10
13.98737318007817
 20
0.5301764499839001
 30
0.0
 10
14.25345012627841
 20
0.6106116436900746
 30
0.0
 10
14.67577381174105
 20
0.6050114792868085
 30
0.0
 10
15.14451438481976
 20
0.4915819988436602
 30
0.0
 10
15.61325324864959
 20
0.2760044411500186
 30
0.0
 10
16.08199039737193
 20
0.0066417750058927
 30
0.0
 10
16.55072581576877
 20
-0.2659478505673258
 30
0.0
 10
17.01945946813427
 20
-0.4791690298751959
 30
0.0
 10
17.41084113457057
 20
-0.5961814883396638
 30
0.0
 10
17.64597813428933
 20
-0.5876638623146041
 30
0.0
 10
17.72487127966458
 20
-0.5848060291830639
 30
0.0
  0
SPLINE
  5
D9
330
1F
100
AcDbEntity
  8
0
  6
Continuous
 62
     1
370
    25
100
AcDbSpline
210
0.0
220
0.0
230
1.0
 70
     8
 71
     3
 72
    13
 73
     9
 74
     0
 42
0.000000001
 43
0.00000001
 40
0.0
 40
0.0
 40
0.0
 40
0.0
 40
0.1498456836848399
 40
0.337082032019962
 40
0.524317842625187
 40
0.7115531097087154
 40
0.898787827492101
 40
1.0
 40
1.0
 40
1.0
 40
1.0
 10
11.9569219381653
 20
0.4456368925040671
 30
0.0
 10
12.08196215875843
 20
0.3917739738164118
 30
0.0
 10
12.36324361181918
 20
0.2706078405299329
 30
0.0
 10
12.80079654818145
 20
0.0154607406208633
 30
0.0
 10
13.26954165797105
 20
-0.2566159107905574
 30
0.0
 10
13.73828776893741
 20
-0.4732091505734896
 30
0.0
 10
14.13524595430787
 20
-0.594209219701853
 30
0.0
 10
14.37595565701456
 20
-0.587322106657078
 30
0.0
 10
14.46041748612311
 20
-0.5849055104064985
 30
0.0
  0
SPLINE
  5
DA
330
1F
100
AcDbEntity
  8
0
  6
Continuous
 62
     1
370
    25
100
AcDbSpline
210
0.0
220
0.0
230
1.0
 70
     8
 71
     3
 72
     9
 73
     5
 74
     0
 42
0.000000001
 43
0.00000001
 40
0.0
 40
0.0
 40
0.0
 40
0.0
 40
0.4259367599464887
 40
1.0
 40
1.0
 40
1.0
 40
1.0
 10
17.14040868792626
 20
0.4973124302350516
 30
0.0
 10
17.25633641477807
 20
0.5325358810500767
 30
0.0
 10
17.52850763302739
 20
0.6152323142469913
 30
0.0
 10
17.80067859429279
 20
0.5960889313973848
 30
0.0
 10
17.95692193816528
 20
0.5850994190131548
 30
0.0
  0
LINE
  5
DB
330
1F
100
AcDbEntity
  8
0
  6
Continuous
 62
     1
370
    25
100
AcDbLine
 10
17.95692193816528
 20
0.5850994190131575
 30
0.0
 11
17.95692193816528
 21
0.6000000000000014
 31
0.0
  0
LINE
  5
DC
330
1F
100
AcDbEntity
  8
0
  6
Continuous
 62
     1
370
    25
100
AcDbLine
 10
17.85752604760573
 20
-0.5695977518368667
 30
0.0
 11
17.83267939799209
 21
-0.5869955631955939
 31
0.0
  0
ELLIPSE
  5
DD
330
1F
100
AcDbEntity
  8
0
  6
Continuous
 62
     1
370
    25
100
AcDbEllipse
 10
17.71269424518719
 20
0.0000000000000008
 30
0.0
 11
0.8335939833959822
 21
-0.3302046036250577
 31
0.0
210
0.0
220
0.0
230
1.0
 40
0.6009688174887251
 41
5.086581568774593
 42
5.235119673336826
  0
LINE
  5
DE
330
1F
100
AcDbEntity
  8
0
  6
Continuous
 62
     1
370
    25
100
AcDbLine
 10
17.95692193816528
 20
-0.6000000000000006
 30
0.0
 11
17.95692193816528
 21
-0.598918815587687
 31
0.0
  0
SPLINE
  5
DF
330
1F
100
AcDbEntity
  8
0
  6
Continuous
 62
     1
370
    25
100
AcDbSpline
210
0.0
220
0.0
230
1.0
 70
     8
 71
     3
 72
    10
 73
     6
 74
     0
 42
0.000000001
 43
0.00000001
 40
0.0
 40
0.0
 40
0.0
 40
0.0
 40
0.3410956605832696
 40
0.6822630899490761
 40
1.0
 40
1.0
 40
1.0
 40
1.0
 10
17.85752604760269
 20
0.1885693535627219
 30
0.0
 10
17.70962710828437
 20
0.2657737604279559
 30
0.0
 10
17.41379811073289
 20
0.4201988184761548
 30
0.0
 10
16.98017796790975
 20
0.5721599169372806
 30
0.0
 10
16.69444673612863
 20
0.5886039120869444
 30
0.0
 10
16.55666139573833
 20
0.5965335369128663
 30
0.0
  0
SPLINE
  5
E0
330
1F
100
AcDbEntity
  8
0
  6
Continuous
 62
     1
370
    25
100
AcDbSpline
210
0.0
220
0.0
230
1.0
 70
     8
 71
     3
 72
    12
 73
     8
 74
     0
 42
0.000000001
 43
0.00000001
 40
0.0
 40
0.0
 40
0.0
 40
0.0
 40
0.0725049970203357
 40
0.3165623586312319
 40
0.5606204287116021
 40
0.8046791997119537
 40
1.0
 40
1.0
 40
1.0
 40
1.0
 10
13.87754375926843
 20
-0.4969749612280094
 30
0.0
 10
13.83112520419128
 20
-0.5142153440045768
 30
0.0
 10
13.62845824490084
 20
-0.5894881729093866
 30
0.0
 10
13.26954162810961
 20
-0.6160669202884526
 30
0.0
 10
12.80079655620386
 20
-0.5535296701974849
 30
0.0
 10
12.36324361027344
 20
-0.3868063058490306
 30
0.0
 10
12.08196215828275
 20
-0.2366141440412008
 30
0.0
 10
11.95692193816532
 20
-0.1698480603216602
 30
0.0
  0
SPLINE
  5
E1
330
1F
100
AcDbEntity
  8
0
  6
Continuous
 62
     4
370
    25
100
AcDbSpline
210
0.0
220
0.0
230
1.0
 70
    24
 71
     3
 72
    16
 73
    12
 74
     0
 42
0.000000001
 43
0.00000001
 40
0.0
 40
0.0
 40
0.0
 40
0.0
 40
0.1249999999999999
 40
0.1249999999999999
 40
0.2499999999999998
 40
0.2499999999999998
 40
0.4999999999999998
 40
0.4999999999999998
 40
0.7499999999999999
 40
0.7499999999999999
 40
1.0
 40
1.0
 40
1.0
 40
1.0
 10
11.95692193816529
 20
0.4456368925041201
 30
0.0
 10
11.95692193816529
 20
0.4281007135574806
 30
0.0
 10
11.95692193816529
 20
0.4116732268636896
 30
0.0
 10
11.95692193816529
 20
0.3741180224569908
 30
0.0
 10
11.95692193816529
 20
0.3533514426399907
 30
0.0
 10
11.95692193816529
 20
0.2845945109147526
 30
0.0
 10
11.95692193816529
 20
0.2296115319203638
 30
0.0
 10
11.95692193816529
 20
0.1070306237355225
 30
0.0
 10
11.95692193816529
 20
0.0393103759047412
 30
0.0
 10
11.95692193816529
 20
-0.0835245414955397
 30
0.0
 10
11.95692193816529
 20
-0.1372813515918832
 30
0.0
 10
11.95692193816529
 20
-0.1698480603217587
 30
0.0
  0
LINE
  5
E2
330
1F
100
AcDbEntity
  8
0
  6
Continuous
 62
     1
370
    25
100
AcDbLine
 10
17.95692193816528
 20
0.1347180389801061
 30
0.0
 11
17.95692193816528
 21
0.5850994190131575
 31
0.0
  0
SPLINE
  5
E3
330
1F
100
AcDbEntity
  8
0
  6
Continuous
 62
     1
370
    25
100
AcDbSpline
210
0.0
220
0.0
230
1.0
 70
     8
 71
     3
 72
     8
 73
     4
 74
     0
 42
0.000000001
 43
0.00000001
 40
0.0
 40
0.0
 40
0.0
 40
0.0
 40
1.0
 40
1.0
 40
1.0
 40
1.0
 10
17.95692193816528
 20
0.1347180389801062
 30
0.0
 10
17.92214974265162
 20
0.1481566925502291
 30
0.0
 10
17.88909225046463
 20
0.1663119789696775
 30
0.0
 10
17.85752604760612
 20
0.1885693535608423
 30
0.0
  0
ELLIPSE
  5
E4
330
1F
100
AcDbEntity
  8
0
  6
Continuous
 62
     1
370
    25
100
AcDbEllipse
 10
18.67099594153634
 20
0.0000000000000004
 30
0.0
 11
0.8568888040452691
 21
0.0
 31
0.0
210
0.0
220
0.0
230
1.0
 40
0.7002075382097099
 41
2.821892147869351
 42
2.933012639234688
  0
ELLIPSE
  5
E5
330
1F
100
AcDbEntity
  8
0
  6
Continuous
 62
     1
370
    25
100
AcDbEllipse
 10
17.71269424518719
 20
0.0000000000000004
 30
0.0
 11
0.8514615395884668
 21
-0.5833044422444436
 31
0.0
210
0.0
220
0.0
230
1.0
 40
0.1650759015746661
 41
1.394381293938613
 42
1.542919398500848
  0
LINE
  5
E6
330
1F
100
AcDbEntity
  8
0
  6
Continuous
 62
     1
370
    25
100
AcDbLine
 10
17.95692193816528
 20
-0.1328859280378003
 30
0.0
 11
17.95692193816528
 21
0.036003504482786
 31
0.0
  0
LINE
  5
E7
330
1F
100
AcDbEntity
  8
0
  6
Continuous
 62
     1
370
    25
100
AcDbLine
 10
17.95692193816528
 20
0.0360035044827865
 30
0.0
 11
17.95692193816528
 21
0.1347180389801061
 31
0.0
  0
LINE
  5
E8
330
1F
100
AcDbEntity
  8
0
  6
Continuous
 62
     1
370
    25
100
AcDbLine
 10
17.95692193816528
 20
-0.4999999999999992
 30
0.0
 11
17.95692193816528
 21
-0.598918815587687
 31
0.0
  0
LINE
  5
E9
330
1F
100
AcDbEntity
  8
중심선
100
AcDbLine
 10
-45.04307806183471
 20
-0.0000000000000043
 30
0.0
 11
19.45692193816528
 21
0.0000000000000036
 31
0.0
  0
CIRCLE
  5
EA
330
1F
100
AcDbEntity
  8
해칭선
100
AcDbCircle
 10
0.0002872230463035
 20
-0.0000000000000041
 30
0.0
 40
3.000000000000003
  0
INSERT
  5
EB
330
1F
100
AcDbEntity
  8
0
  6
Continuous
 62
     7
100
AcDbBlockReference
 66
     1
  2
블럭10
 10
-26.44009924894177
 20
-52.04717430164393
 30
0.0
  0
ATTRIB
  5
EC
330
EB
100
AcDbEntity
  8
FORMAT
 62
     2
100
AcDbText
 10
-42.55936028837733
 20
-49.97180738881174
 30
0.0
 40
4.233333333333333
  1
SEME7201206E [ 4 FLUTE ]
 41
0.75
  7
SLDTEXTSTYLE0
 11
-42.55936028837733
 21
-52.08847405547841
 31
0.0
100
AcDbAttribute
  2
AUTOATTR0
 70
     0
 74
     1
  0
SEQEND
  5
ED
330
EB
100
AcDbEntity
  8
0
  6
Continuous
 62
     7
  0
HATCH
  5
EE
330
1F
100
AcDbEntity
  8
중심선
100
AcDbHatch
 10
0.0
 20
0.0
 30
0.0
210
0.0
220
0.0
230
1.0
  2
SOLID
 70
     1
 71
     0
 91
        1
 92
        0
 93
        4
 72
     1
 10
-20.72518994456093
 20
-35.8
 11
-24.17146518839822
 21
-35.8
 72
     1
 10
-24.17146518839822
 20
-35.8
 11
-26.29969504760224
 21
-38.33632558057259
 72
     1
 10
-26.29969504760224
 20
-38.33632558057259
 11
-22.85338671865181
 21
-38.3362861512701
 72
     1
 10
-22.85338671865181
 20
-38.3362861512701
 11
-20.72518994456093
 21
-35.8
 97
        0
 75
     0
 76
     1
 98
        1
 10
0.0
 20
0.0
  0
HATCH
  5
EF
330
1F
100
AcDbEntity
  8
중심선
100
AcDbHatch
 10
0.0
 20
0.0
 30
0.0
210
0.0
220
0.0
230
1.0
  2
SOLID
 70
     1
 71
     0
 91
        1
 92
        0
 93
        4
 72
     1
 10
-15.71242595352496
 20
-35.8
 11
-19.15870119736224
 21
-35.8
 72
     1
 10
-19.15870119736224
 20
-35.8
 11
-23.68983920571965
 21
-41.20000000000002
 72
     1
 10
-23.68983920571965
 20
-41.20000000000002
 11
-20.24356396188237
 21
-41.20000000000002
 72
     1
 10
-20.24356396188237
 20
-41.20000000000002
 11
-15.71242595352496
 21
-35.8
 97
        0
 75
     0
 76
     1
 98
        1
 10
0.0
 20
0.0
  0
HATCH
  5
F0
330
1F
100
AcDbEntity
  8
중심선
100
AcDbHatch
 10
0.0
 20
0.0
 30
0.0
210
0.0
220
0.0
230
1.0
  2
SOLID
 70
     1
 71
     0
 91
        1
 92
        0
 93
        4
 72
     1
 10
-10.69966196248909
 20
-35.8
 11
-14.14593720632618
 21
-35.79999999999997
 72
     1
 10
-14.14593720632618
 20
-35.79999999999997
 11
-21.19437410821545
 21
-44.20000000000002
 72
     1
 10
-21.19437410821545
 20
-44.20000000000002
 11
-17.74809886437817
 21
-44.20000000000002
 72
     1
 10
-17.74809886437817
 20
-44.20000000000002
 11
-10.69966196248909
 21
-35.8
 97
        0
 75
     0
 76
     1
 98
        1
 10
0.0
 20
0.0
  0
HATCH
  5
F1
330
1F
100
AcDbEntity
  8
중심선
100
AcDbHatch
 10
0.0
 20
0.0
 30
0.0
210
0.0
220
0.0
230
1.0
  2
SOLID
 70
     1
 71
     0
 91
        1
 92
        0
 93
        6
 72
     3
 10
-5.899771531476889
 20
-40.00000000005127
 11
3.960054785062284
 21
1.540850780301639E-10
 40
0.3939339440162633
 50
17.09539180608433
 51
320.0019657685081
 73
     0
 72
     1
 10
-4.21677187577632
 20
-38.58789400463833
 11
-1.911470002075283
 21
-36.65356729459038
 72
     3
 10
-5.899771531529735
 20
-40.00000000000015
 11
6.600054785286829
 21
-1.249000902703301E-13
 40
0.6363583540795982
 50
39.99873849337427
 51
368.4976242363725
 73
     1
 72
     1
 10
0.5255609603708744
 20
-39.03999999993002
 11
-7.219704224693812
 21
-39.03999999993002
 72
     1
 10
-7.219704224693812
 20
-39.03999999993002
 11
-7.219729269139746
 21
-40.95999999992991
 72
     1
 10
-7.219729269139746
 20
-40.95999999992991
 11
-2.778349499667709
 21
-40.95999999992988
 97
        0
 75
     0
 76
     1
 98
        1
 10
0.0
 20
0.0
  0
DIMENSION
  5
F2
330
1F
100
AcDbEntity
  8
치수문자_일반주서
100
AcDbDimension
  2
_D
 10
29.71665185867103
 20
0.6000000000000476
 30
0.0
 11
29.716651858671
 21
11.57900000000005
 31
0.0
 70
   160
  1
%%c<>
 71
     2
 42
1.200000000000008
 52
-270.0
  3
SLDDIMSTYLE0
100
AcDbAlignedDimension
 13
17.9569219381653
 23
-0.6000000000000042
 33
0.0
 14
17.9569219381653
 24
0.6000000000000033
 34
0.0
 50
90.0000000000002
100
AcDbRotatedDimension
  0
DIMENSION
  5
100
330
1F
100
AcDbEntity
  8
치수문자_일반주서
100
AcDbDimension
  2
_D_1
 10
17.95692193816529
 20
20.38913260158165
 30
0.0
 11
-12.04307806183471
 21
20.38913260158165
 31
0.0
 70
   160
  1
<>
 71
     2
 42
60.0
  3
SLDDIMSTYLE1
100
AcDbAlignedDimension
 13
-42.04307806183472
 23
2.499999999999994
 33
0.0
 14
17.95692193816528
 24
0.6000000000000014
 34
0.0
 50
-0.0000000000000068
100
AcDbRotatedDimension
  0
DIMENSION
  5
10B
330
1F
100
AcDbEntity
  8
치수문자_일반주서
100
AcDbDimension
  2
_D_2
 10
-51.4494484224856
 20
-3.000000000000039
 30
0.0
 11
-51.44944842248565
 21
12.66649999999997
 31
0.0
 70
   160
  1
%%c<>
 71
     2
 42
6.000000000000005
 52
-270.0
  3
SLDDIMSTYLE2
100
AcDbAlignedDimension
 13
-41.54307806183471
 23
3.000000000000003
 33
0.0
 14
-41.54307806183471
 24
-3.000000000000002
 34
0.0
 50
90.0000000000002
100
AcDbRotatedDimension
  0
DIMENSION
  5
119
330
1F
100
AcDbEntity
  8
치수문자_일반주서
100
AcDbDimension
  2
_D_3
 10
17.95692193816528
 20
12.57262561257763
 30
0.0
 11
3.602921938165286
 21
12.57262561257763
 31
0.0
 70
   160
  1
<>
 71
     2
 42
5.999999999999998
  3
SLDDIMSTYLE2
100
AcDbAlignedDimension
 13
11.95692193816529
 23
0.5754577624853392
 33
0.0
 14
17.95692193816528
 24
0.6000000000000014
 34
0.0
100
AcDbRotatedDimension
  0
INSERT
  5
12B
330
1F
100
AcDbEntity
  8
해칭선
100
AcDbBlockReference
  2
SW_DOWELSYMBOL_0
 10
0.0002872230463035
 20
-0.0000000000000041
 30
0.0
  0
ENDSEC
  0
SECTION
  2
OBJECTS
  0
DICTIONARY
  5
C
330
0
100
AcDbDictionary
281
     1
  3
ACAD_GROUP
350
D
  3
ACAD_IMAGE_VARS
350
14F
  3
ACAD_LAYOUT
350
1A
  3
ACAD_MLINESTYLE
350
17
  3
ACAD_PLOTSETTINGS
350
19
  3
ACAD_PLOTSTYLENAME
350
E
  3
ACAD_SCALELIST
350
47
  3
APPDATA
350
14D
  3
DWGPROPS
350
15F
  0
DICTIONARY
  5
D
102
{ACAD_REACTORS
330
C
102
}
330
C
100
AcDbDictionary
281
     1
  0
RASTERVARIABLES
  5
14F
102
{ACAD_REACTORS
330
C
102
}
330
C
100
AcDbRasterVariables
 90
        0
 70
     1
 71
     1
 72
     1
  0
DICTIONARY
  5
1A
102
{ACAD_REACTORS
330
C
102
}
330
C
100
AcDbDictionary
281
     1
  3
Layout1
350
1E
  3
Layout2
350
26
  3
Model
350
22
  0
DICTIONARY
  5
17
102
{ACAD_REACTORS
330
C
102
}
330
C
100
AcDbDictionary
281
     1
  3
Standard
350
18
  0
DICTIONARY
  5
19
102
{ACAD_REACTORS
330
C
102
}
330
C
100
AcDbDictionary
281
     1
  0
ACDBDICTIONARYWDFLT
  5
E
102
{ACAD_REACTORS
330
C
102
}
330
C
100
AcDbDictionary
281
     1
  3
Normal
350
F
100
AcDbDictionaryWithDefault
340
F
  0
DICTIONARY
  5
47
102
{ACAD_REACTORS
330
C
102
}
330
C
100
AcDbDictionary
281
     1
  3
A0
350
48
  3
A1
350
49
  3
A2
350
4A
  3
A3
350
4B
  3
A4
350
4C
  3
A5
350
4D
  3
A6
350
4E
  3
A7
350
4F
  3
A8
350
50
  3
A9
350
51
  3
B0
350
52
  3
B1
350
53
  3
B2
350
54
  3
B3
350
55
  3
B4
350
56
  3
B5
350
57
  3
B6
350
58
  3
B7
350
59
  3
B8
350
5A
  3
B9
350
5B
  3
C0
350
5C
  3
C1
350
5D
  3
C2
350
5E
  3
C3
350
5F
  3
C4
350
60
  3
C5
350
61
  3
C6
350
62
  3
C7
350
63
  3
C8
350
64
  3
C9
350
65
  3
D0
350
66
  3
D1
350
67
  3
D2
350
68
  0
DICTIONARY
  5
14D
102
{ACAD_REACTORS
330
C
102
}
330
C
100
AcDbDictionary
281
     1
  0
XRECORD
  5
15F
102
{ACAD_REACTORS
330
C
102
}
330
C
100
AcDbXrecord
280
     1
  1
DWGPROPS COOKIE
  2

  3

  4

  6

  7

  8
12014102
  9

300
=
301
=
302
=
303
=
304
=
305
=
306
=
307
=
308
=
309
=
 40
0.0
 41
2458260.190870752
 42
2458268.088243542
  1

 90
        0
  0
LAYOUT
  5
1E
102
{ACAD_REACTORS
330
1A
102
}
330
1A
100
AcDbPlotSettings
  1

  2
none_device
  4

  6

 40
0.0
 41
0.0
 42
0.0
 43
0.0
 44
0.0
 45
0.0
 46
0.0
 47
0.0
 48
0.0
 49
0.0
140
0.0
141
0.0
142
1.0
143
1.0
 70
   688
 72
     1
 73
     0
 74
     5
  7

 75
    16
147
1.0
148
0.0
149
0.0
100
AcDbLayout
  1
Layout1
 70
     1
 71
     1
 10
0.0
 20
0.0
 11
420.0
 21
297.0
 12
0.0
 22
0.0
 32
0.0
 14
1.000000000000000E+20
 24
1.000000000000000E+20
 34
1.000000000000000E+20
 15
-1.000000000000000E+20
 25
-1.000000000000000E+20
 35
-1.000000000000000E+20
146
0.0
 13
0.0
 23
0.0
 33
0.0
 16
1.0
 26
0.0
 36
0.0
 17
0.0
 27
1.0
 37
0.0
 76
     0
330
1B
  0
LAYOUT
  5
26
102
{ACAD_REACTORS
330
1A
102
}
330
1A
100
AcDbPlotSettings
  1

  2
none_device
  4

  6

 40
0.0
 41
0.0
 42
0.0
 43
0.0
 44
0.0
 45
0.0
 46
0.0
 47
0.0
 48
0.0
 49
0.0
140
0.0
141
0.0
142
1.0
143
1.0
 70
   688
 72
     1
 73
     0
 74
     5
  7

 75
    16
147
1.0
148
0.0
149
0.0
100
AcDbLayout
  1
Layout2
 70
     1
 71
     2
 10
0.0
 20
0.0
 11
0.0
 21
0.0
 12
0.0
 22
0.0
 32
0.0
 14
0.0
 24
0.0
 34
0.0
 15
0.0
 25
0.0
 35
0.0
146
0.0
 13
0.0
 23
0.0
 33
0.0
 16
1.0
 26
0.0
 36
0.0
 17
0.0
 27
1.0
 37
0.0
 76
     0
330
23
  0
LAYOUT
  5
22
102
{ACAD_REACTORS
330
1A
102
}
330
1A
100
AcDbPlotSettings
  1

  2
none_device
  4
ANSI_A_(11.00_x_8.50_Inches)
  6

 40
6.35
 41
19.05
 42
6.35000508
 43
19.05000254
 44
279.4
 45
215.9
 46
170.4533743893095
 47
125.3847137330092
 48
0.0
 49
0.0
140
0.0
141
0.0
142
0.1112850254374008
143
1.0
 70
  1696
 72
     0
 73
     0
 74
     0
  7

 75
     0
147
0.0235690232323232
148
0.0
149
0.0
100
AcDbLayout
  1
Model
 70
     1
 71
     0
 10
0.0
 20
0.0
 11
420.0
 21
297.0
 12
0.0
 22
0.0
 32
0.0
 14
-55.82444842248566
 24
-49.97180738881174
 34
0.0
 15
30.26698519200437
 25
24.76413260158165
 35
0.0
146
0.0
 13
0.0
 23
0.0
 33
0.0
 16
1.0
 26
0.0
 36
0.0
 17
0.0
 27
1.0
 37
0.0
 76
     0
330
1F
331
29
  0
MLINESTYLE
  5
18
102
{ACAD_REACTORS
330
17
102
}
330
17
100
AcDbMlineStyle
  2
Standard
 70
     0
  3

 62
   256
 51
90.0
 52
90.0
 71
     2
 49
0.5
 62
   256
  6
BYLAYER
 49
-0.5
 62
   256
  6
BYLAYER
  0
ACDBPLACEHOLDER
  5
F
102
{ACAD_REACTORS
330
E
102
}
330
E
  0
SCALE
  5
48
102
{ACAD_REACTORS
330
47
102
}
330
47
100
AcDbScale
 70
     0
300
1:1
140
1.0
141
1.0
290
     1
  0
SCALE
  5
49
102
{ACAD_REACTORS
330
47
102
}
330
47
100
AcDbScale
 70
     0
300
1:2
140
1.0
141
2.0
290
     0
  0
SCALE
  5
4A
102
{ACAD_REACTORS
330
47
102
}
330
47
100
AcDbScale
 70
     0
300
1:4
140
1.0
141
4.0
290
     0
  0
SCALE
  5
4B
102
{ACAD_REACTORS
330
47
102
}
330
47
100
AcDbScale
 70
     0
300
1:5
140
1.0
141
5.0
290
     0
  0
SCALE
  5
4C
102
{ACAD_REACTORS
330
47
102
}
330
47
100
AcDbScale
 70
     0
300
1:8
140
1.0
141
8.0
290
     0
  0
SCALE
  5
4D
102
{ACAD_REACTORS
330
47
102
}
330
47
100
AcDbScale
 70
     0
300
1:10
140
1.0
141
10.0
290
     0
  0
SCALE
  5
4E
102
{ACAD_REACTORS
330
47
102
}
330
47
100
AcDbScale
 70
     0
300
1:16
140
1.0
141
16.0
290
     0
  0
SCALE
  5
4F
102
{ACAD_REACTORS
330
47
102
}
330
47
100
AcDbScale
 70
     0
300
1:20
140
1.0
141
20.0
290
     0
  0
SCALE
  5
50
102
{ACAD_REACTORS
330
47
102
}
330
47
100
AcDbScale
 70
     0
300
1:30
140
1.0
141
30.0
290
     0
  0
SCALE
  5
51
102
{ACAD_REACTORS
330
47
102
}
330
47
100
AcDbScale
 70
     0
300
1:40
140
1.0
141
40.0
290
     0
  0
SCALE
  5
52
102
{ACAD_REACTORS
330
47
102
}
330
47
100
AcDbScale
 70
     0
300
1:50
140
1.0
141
50.0
290
     0
  0
SCALE
  5
53
102
{ACAD_REACTORS
330
47
102
}
330
47
100
AcDbScale
 70
     0
300
1:100
140
1.0
141
100.0
290
     0
  0
SCALE
  5
54
102
{ACAD_REACTORS
330
47
102
}
330
47
100
AcDbScale
 70
     0
300
2:1
140
2.0
141
1.0
290
     0
  0
SCALE
  5
55
102
{ACAD_REACTORS
330
47
102
}
330
47
100
AcDbScale
 70
     0
300
4:1
140
4.0
141
1.0
290
     0
  0
SCALE
  5
56
102
{ACAD_REACTORS
330
47
102
}
330
47
100
AcDbScale
 70
     0
300
8:1
140
8.0
141
1.0
290
     0
  0
SCALE
  5
57
102
{ACAD_REACTORS
330
47
102
}
330
47
100
AcDbScale
 70
     0
300
10:1
140
10.0
141
1.0
290
     0
  0
SCALE
  5
58
102
{ACAD_REACTORS
330
47
102
}
330
47
100
AcDbScale
 70
     0
300
100:1
140
100.0
141
1.0
290
     0
  0
SCALE
  5
59
102
{ACAD_REACTORS
330
47
102
}
330
47
100
AcDbScale
 70
     0
300
1/128" = 1'-0"
140
0.0078125
141
12.0
290
     0
  0
SCALE
  5
5A
102
{ACAD_REACTORS
330
47
102
}
330
47
100
AcDbScale
 70
     0
300
1/64" = 1'-0"
140
0.015625
141
12.0
290
     0
  0
SCALE
  5
5B
102
{ACAD_REACTORS
330
47
102
}
330
47
100
AcDbScale
 70
     0
300
1/32" = 1'-0"
140
0.03125
141
12.0
290
     0
  0
SCALE
  5
5C
102
{ACAD_REACTORS
330
47
102
}
330
47
100
AcDbScale
 70
     0
300
1/16" = 1'-0"
140
0.0625
141
12.0
290
     0
  0
SCALE
  5
5D
102
{ACAD_REACTORS
330
47
102
}
330
47
100
AcDbScale
 70
     0
300
3/32" = 1'-0"
140
0.09375
141
12.0
290
     0
  0
SCALE
  5
5E
102
{ACAD_REACTORS
330
47
102
}
330
47
100
AcDbScale
 70
     0
300
1/8" = 1'-0"
140
0.125
141
12.0
290
     0
  0
SCALE
  5
5F
102
{ACAD_REACTORS
330
47
102
}
330
47
100
AcDbScale
 70
     0
300
3/16" = 1'-0"
140
0.1875
141
12.0
290
     0
  0
SCALE
  5
60
102
{ACAD_REACTORS
330
47
102
}
330
47
100
AcDbScale
 70
     0
300
1/4" = 1'-0"
140
0.25
141
12.0
290
     0
  0
SCALE
  5
61
102
{ACAD_REACTORS
330
47
102
}
330
47
100
AcDbScale
 70
     0
300
3/8" = 1'-0"
140
0.375
141
12.0
290
     0
  0
SCALE
  5
62
102
{ACAD_REACTORS
330
47
102
}
330
47
100
AcDbScale
 70
     0
300
1/2" = 1'-0"
140
0.5
141
12.0
290
     0
  0
SCALE
  5
63
102
{ACAD_REACTORS
330
47
102
}
330
47
100
AcDbScale
 70
     0
300
3/4" = 1'-0"
140
0.75
141
12.0
290
     0
  0
SCALE
  5
64
102
{ACAD_REACTORS
330
47
102
}
330
47
100
AcDbScale
 70
     0
300
1" = 1'-0"
140
1.0
141
12.0
290
     0
  0
SCALE
  5
65
102
{ACAD_REACTORS
330
47
102
}
330
47
100
AcDbScale
 70
     0
300
1-1/2" = 1'-0"
140
1.5
141
12.0
290
     0
  0
SCALE
  5
66
102
{ACAD_REACTORS
330
47
102
}
330
47
100
AcDbScale
 70
     0
300
3" = 1'-0"
140
3.0
141
12.0
290
     0
  0
SCALE
  5
67
102
{ACAD_REACTORS
330
47
102
}
330
47
100
AcDbScale
 70
     0
300
6" = 1'-0"
140
6.0
141
12.0
290
     0
  0
SCALE
  5
68
102
{ACAD_REACTORS
330
47
102
}
330
47
100
AcDbScale
 70
     0
300
1'-0" = 1'-0"
140
12.0
141
12.0
290
     0
  0
ENDSEC
  0
EOF
