  0
SECTION
  2
HEADER
  9
$ACADVER
  1
AC1015
  9
$ACADMAINTVER
 70
     6
  9
$DWGCODEPAGE
  3
ANSI_949
  9
$INSBASE
 10
0.0
 20
0.0
 30
0.0
  9
$EXTMIN
 10
-51.76187276814511
 20
-49.97180738881174
 30
0.0
  9
$EXTMAX
 10
33.31498459283054
 20
24.76413260158165
 30
0.0
  9
$LIMMIN
 10
0.0
 20
0.0
  9
$LIMMAX
 10
420.0
 20
297.0
  9
$ORTHOMODE
 70
     0
  9
$REGENMODE
 70
     1
  9
$FILLMODE
 70
     1
  9
$QTEXTMODE
 70
     0
  9
$MIRRTEXT
 70
     1
  9
$LTSCALE
 40
1.0
  9
$ATTMODE
 70
     1
  9
$TEXTSIZE
 40
3.5
  9
$TRACEWID
 40
1.0
  9
$TEXTSTYLE
  7
Standard
  9
$CLAYER
  8
0
  9
$CELTYPE
  6
ByLayer
  9
$CECOLOR
 62
   256
  9
$CELTSCALE
 40
1.0
  9
$DISPSILH
 70
     0
  9
$DIMSCALE
 40
1.0
  9
$DIMASZ
 40
3.302
  9
$DIMEXO
 40
1.0
  9
$DIMDLI
 40
3.75
  9
$DIMRND
 40
0.0
  9
$DIMDLE
 40
0.0
  9
$DIMEXE
 40
1.0
  9
$DIMTP
 40
0.0
  9
$DIMTM
 40
0.0
  9
$DIMTXT
 40
3.5
  9
$DIMCEN
 40
2.5
  9
$DIMTSZ
 40
0.0
  9
$DIMTOL
 70
     0
  9
$DIMLIM
 70
     0
  9
$DIMTIH
 70
     1
  9
$DIMTOH
 70
     1
  9
$DIMSE1
 70
     0
  9
$DIMSE2
 70
     0
  9
$DIMTAD
 70
     1
  9
$DIMZIN
 70
     0
  9
$DIMBLK
  1

  9
$DIMASO
 70
     1
  9
$DIMSHO
 70
     1
  9
$DIMPOST
  1

  9
$DIMAPOST
  1

  9
$DIMALT
 70
     0
  9
$DIMALTD
 70
     3
  9
$DIMALTF
 40
0.0393700787401575
  9
$DIMLFAC
 40
1.0
  9
$DIMTOFL
 70
     1
  9
$DIMTVP
 40
0.0
  9
$DIMTIX
 70
     0
  9
$DIMSOXD
 70
     0
  9
$DIMSAH
 70
     0
  9
$DIMBLK1
  1

  9
$DIMBLK2
  1

  9
$DIMSTYLE
  2
ISO-25
  9
$DIMCLRD
 70
     0
  9
$DIMCLRE
 70
     0
  9
$DIMCLRT
 70
     0
  9
$DIMTFAC
 40
1.0
  9
$DIMGAP
 40
1.524
  9
$DIMJUST
 70
     0
  9
$DIMSD1
 70
     0
  9
$DIMSD2
 70
     0
  9
$DIMTOLJ
 70
     0
  9
$DIMTZIN
 70
     0
  9
$DIMALTZ
 70
     0
  9
$DIMALTTZ
 70
     0
  9
$DIMUPT
 70
     0
  9
$DIMDEC
 70
     2
  9
$DIMTDEC
 70
     2
  9
$DIMALTU
 70
     2
  9
$DIMALTTD
 70
     3
  9
$DIMTXSTY
  7
Standard
  9
$DIMAUNIT
 70
     0
  9
$DIMADEC
 70
     2
  9
$DIMALTRND
 40
0.0
  9
$DIMAZIN
 70
     0
  9
$DIMDSEP
 70
    44
  9
$DIMATFIT
 70
     3
  9
$DIMFRAC
 70
     0
  9
$DIMLDRBLK
  1

  9
$DIMLUNIT
 70
     2
  9
$DIMLWD
 70
    -2
  9
$DIMLWE
 70
    -2
  9
$DIMTMOVE
 70
     0
  9
$LUNITS
 70
     2
  9
$LUPREC
 70
     2
  9
$SKETCHINC
 40
1.0
  9
$FILLETRAD
 40
10.0
  9
$AUNITS
 70
     0
  9
$AUPREC
 70
     2
  9
$MENU
  1
.
  9
$ELEVATION
 40
0.0
  9
$PELEVATION
 40
0.0
  9
$THICKNESS
 40
0.0
  9
$LIMCHECK
 70
     0
  9
$CHAMFERA
 40
0.0
  9
$CHAMFERB
 40
0.0
  9
$CHAMFERC
 40
0.0
  9
$CHAMFERD
 40
0.0
  9
$SKPOLY
 70
     0
  9
$TDCREATE
 40
2458260.566248843
  9
$TDUCREATE
 40
2458260.191248843
  9
$TDUPDATE
 40
2458268.465557465
  9
$TDUUPDATE
 40
2458268.090557465
  9
$TDINDWG
 40
0.0009040856
  9
$TDUSRTIMER
 40
2458268.089653414
  9
$USRTIMER
 70
     1
  9
$ANGBASE
 50
0.0
  9
$ANGDIR
 70
     0
  9
$PDMODE
 70
     0
  9
$PDSIZE
 40
-1.0
  9
$PLINEWID
 40
0.0
  9
$SPLFRAME
 70
     0
  9
$SPLINETYPE
 70
     6
  9
$SPLINESEGS
 70
     8
  9
$HANDSEED
  5
161
  9
$SURFTAB1
 70
     6
  9
$SURFTAB2
 70
     6
  9
$SURFTYPE
 70
     6
  9
$SURFU
 70
     6
  9
$SURFV
 70
     6
  9
$UCSBASE
  2

  9
$UCSNAME
  2

  9
$UCSORG
 10
0.0
 20
0.0
 30
0.0
  9
$UCSXDIR
 10
1.0
 20
0.0
 30
0.0
  9
$UCSYDIR
 10
0.0
 20
1.0
 30
0.0
  9
$UCSORTHOREF
  2

  9
$UCSORTHOVIEW
 70
     0
  9
$UCSORGTOP
 10
0.0
 20
0.0
 30
0.0
  9
$UCSORGBOTTOM
 10
0.0
 20
0.0
 30
0.0
  9
$UCSORGLEFT
 10
0.0
 20
0.0
 30
0.0
  9
$UCSORGRIGHT
 10
0.0
 20
0.0
 30
0.0
  9
$UCSORGFRONT
 10
0.0
 20
0.0
 30
0.0
  9
$UCSORGBACK
 10
0.0
 20
0.0
 30
0.0
  9
$PUCSBASE
  2

  9
$PUCSNAME
  2

  9
$PUCSORG
 10
0.0
 20
0.0
 30
0.0
  9
$PUCSXDIR
 10
1.0
 20
0.0
 30
0.0
  9
$PUCSYDIR
 10
0.0
 20
1.0
 30
0.0
  9
$PUCSORTHOREF
  2

  9
$PUCSORTHOVIEW
 70
     0
  9
$PUCSORGTOP
 10
0.0
 20
0.0
 30
0.0
  9
$PUCSORGBOTTOM
 10
0.0
 20
0.0
 30
0.0
  9
$PUCSORGLEFT
 10
0.0
 20
0.0
 30
0.0
  9
$PUCSORGRIGHT
 10
0.0
 20
0.0
 30
0.0
  9
$PUCSORGFRONT
 10
0.0
 20
0.0
 30
0.0
  9
$PUCSORGBACK
 10
0.0
 20
0.0
 30
0.0
  9
$USERI1
 70
     0
  9
$USERI2
 70
     0
  9
$USERI3
 70
     0
  9
$USERI4
 70
     0
  9
$USERI5
 70
     0
  9
$USERR1
 40
0.0
  9
$USERR2
 40
0.0
  9
$USERR3
 40
0.0
  9
$USERR4
 40
0.0
  9
$USERR5
 40
0.0
  9
$WORLDVIEW
 70
     1
  9
$SHADEDGE
 70
     3
  9
$SHADEDIF
 70
    70
  9
$TILEMODE
 70
     1
  9
$MAXACTVP
 70
    64
  9
$PINSBASE
 10
0.0
 20
0.0
 30
0.0
  9
$PLIMCHECK
 70
     0
  9
$PEXTMIN
 10
1.000000000000000E+20
 20
1.000000000000000E+20
 30
1.000000000000000E+20
  9
$PEXTMAX
 10
-1.000000000000000E+20
 20
-1.000000000000000E+20
 30
-1.000000000000000E+20
  9
$PLIMMIN
 10
0.0
 20
0.0
  9
$PLIMMAX
 10
0.0
 20
0.0
  9
$UNITMODE
 70
     0
  9
$VISRETAIN
 70
     1
  9
$PLINEGEN
 70
     0
  9
$PSLTSCALE
 70
     1
  9
$TREEDEPTH
 70
  3020
  9
$CMLSTYLE
  2
Standard
  9
$CMLJUST
 70
     0
  9
$CMLSCALE
 40
20.0
  9
$PROXYGRAPHICS
 70
     1
  9
$MEASUREMENT
 70
     1
  9
$CELWEIGHT
370
    -1
  9
$ENDCAPS
280
     0
  9
$JOINSTYLE
280
     0
  9
$LWDISPLAY
290
     1
  9
$INSUNITS
 70
     4
  9
$HYPERLINKBASE
  1

  9
$STYLESHEET
  1

  9
$XEDIT
290
     1
  9
$CEPSNTYPE
380
     0
  9
$PSTYLEMODE
290
     1
  9
$FINGERPRINTGUID
  2
{5B405899-A007-403F-9F83-ACA8FD6844D3}
  9
$VERSIONGUID
  2
{FAEB1C32-E019-11D5-929B-00C0DF256EC4}
  9
$EXTNAMES
290
     1
  9
$PSVPSCALE
 40
0.0
  9
$OLESTARTUP
290
     0
  0
ENDSEC
  0
SECTION
  2
CLASSES
  0
CLASS
  1
ACDBDICTIONARYWDFLT
  2
AcDbDictionaryWithDefault
  3
ObjectDBX Classes
 90
        0
280
     0
281
     0
  0
CLASS
  1
VISUALSTYLE
  2
AcDbVisualStyle
  3
ObjectDBX Classes
 90
     4095
280
     0
281
     0
  0
CLASS
  1
MATERIAL
  2
AcDbMaterial
  3
ObjectDBX Classes
 90
     1153
280
     0
281
     0
  0
CLASS
  1
SCALE
  2
AcDbScale
  3
ObjectDBX Classes
 90
     1153
280
     0
281
     0
  0
CLASS
  1
TABLESTYLE
  2
AcDbTableStyle
  3
ObjectDBX Classes
 90
     4095
280
     0
281
     0
  0
CLASS
  1
MLEADERSTYLE
  2
AcDbMLeaderStyle
  3
ACDB_MLEADERSTYLE_CLASS
 90
     4095
280
     0
281
     0
  0
CLASS
  1
SUN
  2
AcDbSun
  3
SCENEOE
 90
     1153
280
     0
281
     0
  0
CLASS
  1
ACDBPLACEHOLDER
  2
AcDbPlaceHolder
  3
ObjectDBX Classes
 90
        0
280
     0
281
     0
  0
CLASS
  1
LAYOUT
  2
AcDbLayout
  3
ObjectDBX Classes
 90
        0
280
     0
281
     0
  0
CLASS
  1
RASTERVARIABLES
  2
AcDbRasterVariables
  3
ISM
 90
        0
280
     0
281
     0
  0
ENDSEC
  0
SECTION
  2
TABLES
  0
TABLE
  2
VPORT
  5
8
330
0
100
AcDbSymbolTable
 70
     1
  0
VPORT
  5
29
330
8
100
AcDbSymbolTableRecord
100
AcDbViewportTableRecord
  2
*Active
 70
     0
 10
0.0
 20
0.0
 11
1.0
 21
1.0
 12
-9.223444087657285
 22
-12.60383739361504
 13
0.0
 23
0.0
 14
10.0
 24
10.0
 15
10.0
 25
10.0
 16
0.0
 26
0.0
 36
1.0
 17
0.0
 27
0.0
 37
0.0
 40
76.23065879020126
 41
1.737726098191214
 42
50.0
 43
0.0
 44
0.0
 50
0.0
 51
0.0
 71
    16
 72
  2000
 73
     1
 74
     3
 75
     0
 76
     0
 77
     0
 78
     0
281
     0
 65
     1
110
0.0
120
0.0
130
0.0
111
1.0
121
0.0
131
0.0
112
0.0
122
1.0
132
0.0
 79
     0
146
0.0
  0
ENDTAB
  0
TABLE
  2
LTYPE
  5
5
330
0
100
AcDbSymbolTable
 70
     6
  0
LTYPE
  5
14
330
5
100
AcDbSymbolTableRecord
100
AcDbLinetypeTableRecord
  2
ByBlock
 70
     0
  3

 72
    65
 73
     0
 40
0.0
  0
LTYPE
  5
15
330
5
100
AcDbSymbolTableRecord
100
AcDbLinetypeTableRecord
  2
ByLayer
 70
     0
  3

 72
    65
 73
     0
 40
0.0
  0
LTYPE
  5
16
330
5
100
AcDbSymbolTableRecord
100
AcDbLinetypeTableRecord
  2
Continuous
 70
     0
  3
Solid line
 72
    65
 73
     0
 40
0.0
  0
LTYPE
  5
6E
330
5
100
AcDbSymbolTableRecord
100
AcDbLinetypeTableRecord
  2
HIDDEN
 70
     0
  3
Hidden __ __ __ __ __ __ __ __ __ __ __ __ __ __
 72
    65
 73
     2
 40
1.905
 49
1.27
 74
     0
 49
-0.635
 74
     0
  0
LTYPE
  5
6F
330
5
100
AcDbSymbolTableRecord
100
AcDbLinetypeTableRecord
  2
PHANTOM
 70
     0
  3
Phantom ______  __  __  ______  __  __  ______
 72
    65
 73
     6
 40
12.7
 49
6.35
 74
     0
 49
-1.27
 74
     0
 49
1.27
 74
     0
 49
-1.27
 74
     0
 49
1.27
 74
     0
 49
-1.27
 74
     0
  0
LTYPE
  5
70
330
5
100
AcDbSymbolTableRecord
100
AcDbLinetypeTableRecord
  2
CENTER
 70
     0
  3
Center ____ _ ____ _ ____ _ ____ _ ____ _ ____
 72
    65
 73
     4
 40
10.16
 49
6.35
 74
     0
 49
-1.27
 74
     0
 49
1.27
 74
     0
 49
-1.27
 74
     0
  0
LTYPE
  5
71
330
5
100
AcDbSymbolTableRecord
100
AcDbLinetypeTableRecord
  2
CENTERX2
 70
     0
  3
Center (2x) ________  __  ________  __  _____
 72
    65
 73
     4
 40
20.32
 49
12.7
 74
     0
 49
-2.54
 74
     0
 49
2.54
 74
     0
 49
-2.54
 74
     0
  0
LTYPE
  5
72
330
5
100
AcDbSymbolTableRecord
100
AcDbLinetypeTableRecord
  2
DOT2
 70
     0
  3
Dot (.5x) ........................................
 72
    65
 73
     2
 40
0.635
 49
0.0
 74
     0
 49
-0.635
 74
     0
  0
ENDTAB
  0
TABLE
  2
LAYER
  5
2
330
0
100
AcDbSymbolTable
 70
    17
  0
LAYER
  5
10
330
2
100
AcDbSymbolTableRecord
100
AcDbLayerTableRecord
  2
0
 70
     0
 62
     7
  6
Continuous
370
    -3
390
F
  0
LAYER
  5
73
330
2
100
AcDbSymbolTableRecord
100
AcDbLayerTableRecord
  2
FORMAT
 70
     0
 62
     2
  6
Continuous
370
    -3
390
F
  0
LAYER
  5
74
330
2
100
AcDbSymbolTableRecord
100
AcDbLayerTableRecord
  2
외형선
 70
     0
 62
   100
  6
Continuous
370
    35
390
F
  0
LAYER
  5
75
330
2
100
AcDbSymbolTableRecord
100
AcDbLayerTableRecord
  2
숨은선
 70
     0
 62
     2
  6
HIDDEN
370
    25
390
F
  0
LAYER
  5
76
330
2
100
AcDbSymbolTableRecord
100
AcDbLayerTableRecord
  2
중심선
 70
     0
 62
     1
  6
CENTERX2
370
    -3
390
F
  0
LAYER
  5
77
330
2
100
AcDbSymbolTableRecord
100
AcDbLayerTableRecord
  2
파단선
 70
     0
 62
     4
  6
Continuous
370
    -3
390
F
  0
LAYER
  5
78
330
2
100
AcDbSymbolTableRecord
100
AcDbLayerTableRecord
  2
해칭선
 70
     0
 62
   100
  6
Continuous
370
    -3
390
F
  0
LAYER
  5
79
330
2
100
AcDbSymbolTableRecord
100
AcDbLayerTableRecord
  2
가는실선
 70
     0
 62
     4
  6
Continuous
370
    -3
390
F
  0
LAYER
  5
7A
330
2
100
AcDbSymbolTableRecord
100
AcDbLayerTableRecord
  2
치수_보조선
 70
     0
 62
     4
  6
Continuous
370
    -3
390
F
  0
LAYER
  5
7B
330
2
100
AcDbSymbolTableRecord
100
AcDbLayerTableRecord
  2
치수문자_일반주서
 70
     0
 62
     7
  6
Continuous
370
    25
390
F
  0
LAYER
  5
7C
330
2
100
AcDbSymbolTableRecord
100
AcDbLayerTableRecord
  2
개별주서
 70
     0
 62
   100
  6
Continuous
370
    35
390
F
  0
LAYER
  5
7D
330
2
100
AcDbSymbolTableRecord
100
AcDbLayerTableRecord
  2
중간선
 70
     0
 62
     2
  6
Continuous
370
    25
390
F
  0
LAYER
  5
7E
330
2
100
AcDbSymbolTableRecord
100
AcDbLayerTableRecord
  2
윤곽선
 70
     0
 62
     3
  6
Continuous
370
    50
390
F
  0
LAYER
  5
7F
330
2
100
AcDbSymbolTableRecord
100
AcDbLayerTableRecord
  2
중심마크
 70
     0
 62
   100
  6
Continuous
370
    35
390
F
  0
LAYER
  5
80
330
2
100
AcDbSymbolTableRecord
100
AcDbLayerTableRecord
  2
가상선
 70
     0
 62
     4
  6
PHANTOM
370
    -3
390
F
  0
LAYER
  5
81
330
2
100
AcDbSymbolTableRecord
100
AcDbLayerTableRecord
  2
특수지정선
 70
     0
 62
     5
  6
CENTERX2
370
    70
390
F
  0
LAYER
  5
154
330
2
100
AcDbSymbolTableRecord
100
AcDbLayerTableRecord
  2
Defpoints
 70
     0
 62
     7
  6
Continuous
290
     0
370
    -3
390
F
  0
ENDTAB
  0
TABLE
  2
STYLE
  5
3
330
0
100
AcDbSymbolTable
 70
     2
  0
STYLE
  5
11
330
3
100
AcDbSymbolTableRecord
100
AcDbTextStyleTableRecord
  2
Standard
 70
     0
 40
0.0
 41
1.0
 50
0.0
 71
     0
 42
3.5
  3
txt
  4

  0
STYLE
  5
97
330
3
100
AcDbSymbolTableRecord
100
AcDbTextStyleTableRecord
  2
SLDTEXTSTYLE0
 70
     0
 40
0.0
 41
0.75
 50
0.0
 71
     0
 42
3.5
  3
TXT
  4

  0
ENDTAB
  0
TABLE
  2
VIEW
  5
6
330
0
100
AcDbSymbolTable
 70
     0
  0
ENDTAB
  0
TABLE
  2
UCS
  5
7
330
0
100
AcDbSymbolTable
 70
     0
  0
ENDTAB
  0
TABLE
  2
APPID
  5
9
330
0
100
AcDbSymbolTable
 70
     1
  0
APPID
  5
12
330
9
100
AcDbSymbolTableRecord
100
AcDbRegAppTableRecord
  2
ACAD
 70
     0
  0
ENDTAB
  0
TABLE
  2
DIMSTYLE
  5
A
330
0
100
AcDbSymbolTable
 70
     4
100
AcDbDimStyleTable
  0
DIMSTYLE
105
27
330
A
100
AcDbSymbolTableRecord
100
AcDbDimStyleTableRecord
  2
ISO-25
 70
     0
 41
2.5
 42
0.625
 43
3.75
 44
1.25
 73
     0
 74
     0
 77
     1
 78
     8
140
2.5
141
2.5
143
0.03937007874016
147
0.625
171
     3
172
     1
178
     0
271
     2
272
     2
274
     3
278
    44
283
     0
284
     8
340
11
  0
DIMSTYLE
105
F7
102
{ACAD_REACTORS
330
F6
102
}
330
A
100
AcDbSymbolTableRecord
100
AcDbDimStyleTableRecord
  2
SLDDIMSTYLE0
 70
     0
 41
3.302
 44
0.0
 45
0.000000001
 73
     0
 74
     0
 77
     1
 78
    12
 79
     3
140
3.5
147
0.875
172
     1
173
     1
178
     0
271
     1
272
     1
276
     2
284
    12
289
     0
340
97
  0
DIMSTYLE
105
105
102
{ACAD_REACTORS
330
104
102
}
330
A
100
AcDbSymbolTableRecord
100
AcDbDimStyleTableRecord
  2
SLDDIMSTYLE1
 70
     0
 41
3.302
 44
0.0
 45
0.000000001
 73
     0
 74
     0
 77
     1
 78
    12
 79
     3
140
3.5
147
0.875
173
     1
178
     0
271
     2
272
     2
276
     2
284
    12
340
97
  0
DIMSTYLE
105
110
102
{ACAD_REACTORS
330
10F
330
11D
102
}
330
A
100
AcDbSymbolTableRecord
100
AcDbDimStyleTableRecord
  2
SLDDIMSTYLE2
 70
     0
 41
3.302
 44
0.0
 45
0.000000001
 73
     0
 74
     0
 77
     1
 78
    12
 79
     3
140
3.5
147
0.875
172
     1
173
     1
178
     0
271
     2
272
     2
276
     2
284
    12
289
     0
340
97
  0
ENDTAB
  0
TABLE
  2
BLOCK_RECORD
  5
1
330
0
100
AcDbSymbolTable
 70
     7
  0
BLOCK_RECORD
  5
1F
330
1
100
AcDbSymbolTableRecord
100
AcDbBlockTableRecord
  2
*Model_Space
340
22
  0
BLOCK_RECORD
  5
1B
330
1
100
AcDbSymbolTableRecord
100
AcDbBlockTableRecord
  2
*Paper_Space
340
1E
  0
BLOCK_RECORD
  5
23
330
1
100
AcDbSymbolTableRecord
100
AcDbBlockTableRecord
  2
*Paper_Space0
340
26
  0
BLOCK_RECORD
  5
82
330
1
100
AcDbSymbolTableRecord
100
AcDbBlockTableRecord
  2
블럭10
340
0
102
{BLKREFS
331
EF
102
}
  0
BLOCK_RECORD
  5
F8
330
1
100
AcDbSymbolTableRecord
100
AcDbBlockTableRecord
  2
_D
340
0
  0
BLOCK_RECORD
  5
106
330
1
100
AcDbSymbolTableRecord
100
AcDbBlockTableRecord
  2
_D_1
340
0
  0
BLOCK_RECORD
  5
111
330
1
100
AcDbSymbolTableRecord
100
AcDbBlockTableRecord
  2
_D_2
340
0
  0
BLOCK_RECORD
  5
11E
330
1
100
AcDbSymbolTableRecord
100
AcDbBlockTableRecord
  2
_D_3
340
0
  0
BLOCK_RECORD
  5
129
330
1
100
AcDbSymbolTableRecord
100
AcDbBlockTableRecord
  2
SW_DOWELSYMBOL_0
340
0
102
{BLKREFS
331
12F
102
}
  0
ENDTAB
  0
ENDSEC
  0
SECTION
  2
BLOCKS
  0
BLOCK
  5
20
330
1F
100
AcDbEntity
  8
0
100
AcDbBlockBegin
  2
*Model_Space
 70
     0
 10
0.0
 20
0.0
 30
0.0
  3
*Model_Space
  1

  0
ENDBLK
  5
21
330
1F
100
AcDbEntity
  8
0
100
AcDbBlockEnd
  0
BLOCK
  5
1C
330
1B
100
AcDbEntity
 67
     1
  8
0
100
AcDbBlockBegin
  2
*Paper_Space
 70
     0
 10
0.0
 20
0.0
 30
0.0
  3
*Paper_Space
  1

  0
ENDBLK
  5
1D
330
1B
100
AcDbEntity
 67
     1
  8
0
100
AcDbBlockEnd
  0
BLOCK
  5
24
330
23
100
AcDbEntity
  8
0
100
AcDbBlockBegin
  2
*Paper_Space0
 70
     0
 10
0.0
 20
0.0
 30
0.0
  3
*Paper_Space0
  1

  0
ENDBLK
  5
25
330
23
100
AcDbEntity
  8
0
100
AcDbBlockEnd
  0
BLOCK
  5
83
330
82
100
AcDbEntity
  8
0
100
AcDbBlockBegin
  2
블럭10
 70
     2
 10
0.0
 20
0.0
 30
0.0
  3
블럭10
  1

  0
ELLIPSE
  5
85
330
82
100
AcDbEntity
  8
중심선
100
AcDbEllipse
 10
20.54032771741204
 20
12.0471743016438
 30
0.0
 11
6.600054785286829
 21
-1.261213355974178E-13
 31
0.0
210
0.0
220
0.0
230
1.0
 40
0.636358354079598
 41
0.9219305317359503
 42
6.513795318482858
  0
ELLIPSE
  5
86
330
82
100
AcDbEntity
  8
중심선
100
AcDbEllipse
 10
20.54032771746488
 20
12.04717430159265
 30
0.0
 11
3.960054785062283
 21
1.540847449632565E-10
 31
0.0
210
0.0
220
0.0
230
1.0
 40
0.3939339440162632
 41
1.131841032648279
 42
5.62031148352944
  0
LINE
  5
87
330
82
100
AcDbEntity
  8
중심선
100
AcDbLine
 10
2.268634060543552
 20
16.24717430164393
 30
0.0
 11
5.714909304380834
 21
16.24717430164393
 31
0.0
  0
LINE
  5
88
330
82
100
AcDbEntity
  8
중심선
100
AcDbLine
 10
5.245725140726316
 20
7.84717430164391
 30
0.0
 11
8.692000384563599
 21
7.84717430164391
 31
0.0
  0
LINE
  5
89
330
82
100
AcDbEntity
  8
중심선
100
AcDbLine
 10
15.74043728645272
 20
16.24717430164393
 30
0.0
 11
8.692000384563599
 21
7.84717430164391
 31
0.0
  0
LINE
  5
8A
330
82
100
AcDbEntity
  8
중심선
100
AcDbLine
 10
0.1404042013395286
 20
13.71084872107135
 30
0.0
 11
3.58671253028996
 21
13.71088815037384
 31
0.0
  0
LINE
  5
8B
330
82
100
AcDbEntity
  8
중심선
100
AcDbLine
 10
2.750260043222114
 20
10.84717430164391
 30
0.0
 11
6.196535287059397
 21
10.84717430164391
 31
0.0
  0
LINE
  5
8C
330
82
100
AcDbEntity
  8
중심선
100
AcDbLine
 10
12.29416204261559
 20
16.24717430164393
 30
0.0
 11
5.245725140726316
 21
7.84717430164391
 31
0.0
  0
LINE
  5
8D
330
82
100
AcDbEntity
  8
중심선
100
AcDbLine
 10
10.72767329541681
 20
16.24717430164393
 30
0.0
 11
6.196535287059397
 21
10.84717430164391
 31
0.0
  0
LINE
  5
8E
330
82
100
AcDbEntity
  8
중심선
100
AcDbLine
 10
7.28139805157953
 20
16.24717430164393
 30
0.0
 11
2.750260043222114
 21
10.84717430164391
 31
0.0
  0
LINE
  5
8F
330
82
100
AcDbEntity
  8
중심선
100
AcDbLine
 10
5.714909304380834
 20
16.24717430164393
 30
0.0
 11
3.58671253028996
 21
13.71088815037384
 31
0.0
  0
LINE
  5
90
330
82
100
AcDbEntity
  8
중심선
100
AcDbLine
 10
2.268634060543552
 20
16.24717430164393
 30
0.0
 11
0.1404042013395286
 21
13.71084872107135
 31
0.0
  0
LINE
  5
91
330
82
100
AcDbEntity
  8
중심선
100
AcDbLine
 10
7.28139805157953
 20
16.24717430164393
 30
0.0
 11
10.72767329541681
 21
16.24717430164393
 31
0.0
  0
LINE
  5
92
330
82
100
AcDbEntity
  8
중심선
100
AcDbLine
 10
12.29416204261559
 20
16.24717430164393
 30
0.0
 11
15.74043728645272
 21
16.24717430164393
 31
0.0
  0
LINE
  5
93
330
82
100
AcDbEntity
  8
중심선
100
AcDbLine
 10
19.22036997980202
 20
11.08717430171403
 30
0.0
 11
23.66174974927406
 21
11.08717430171406
 31
0.0
  0
LINE
  5
94
330
82
100
AcDbEntity
  8
중심선
100
AcDbLine
 10
19.22039502424796
 20
13.00717430171391
 30
0.0
 11
19.22036997980202
 21
11.08717430171403
 31
0.0
  0
LINE
  5
95
330
82
100
AcDbEntity
  8
중심선
100
AcDbLine
 10
19.22039502424796
 20
13.00717430171391
 30
0.0
 11
26.96566020931264
 21
13.00717430171391
 31
0.0
  0
LINE
  5
96
330
82
100
AcDbEntity
  8
중심선
100
AcDbLine
 10
22.22332737316547
 20
13.45928029700563
 30
0.0
 11
24.52862924686651
 21
15.39360700705356
 31
0.0
  0
ATTDEF
  5
98
330
82
100
AcDbEntity
  8
FORMAT
 62
     2
100
AcDbText
 10
-16.11926103943555
 20
2.075366912832191
 30
0.0
 40
4.233333333333333
  1
SEME7201210E [ 4 FLUTE ]
 41
0.75
  7
SLDTEXTSTYLE0
 11
-16.11926103943555
 21
-0.0412997538344756
 31
0.0
100
AcDbAttributeDefinition
  3

  2
AUTOATTR0
 70
     0
 74
     1
  0
ENDBLK
  5
84
330
82
100
AcDbEntity
  8
0
100
AcDbBlockEnd
  0
BLOCK
  5
F9
330
F8
100
AcDbEntity
  8
0
100
AcDbBlockBegin
  2
_D
 70
     0
 10
0.0
 20
0.0
 30
0.0
  3
_D
  1

  0
LINE
  5
FB
330
F8
100
AcDbEntity
  8
치수문자_일반주서
 62
     0
370
    -2
100
AcDbLine
 10
22.0194219381653
 20
-0.600000000000004
 30
0.0
 11
32.76465125949719
 21
-0.5999999999999641
 31
0.0
  0
LINE
  5
FC
330
F8
100
AcDbEntity
  8
치수문자_일반주서
 62
     0
370
    -2
100
AcDbLine
 10
22.0194219381653
 20
0.6000000000000035
 30
0.0
 11
32.76465125949718
 21
0.600000000000044
 31
0.0
  0
LINE
  5
FD
330
F8
100
AcDbEntity
  8
치수문자_일반주서
 62
     0
370
    -2
100
AcDbLine
 10
32.76465125949719
 20
-0.5999999999999641
 30
0.0
 11
32.76465125949709
 21
15.95400000000004
 31
0.0
  0
LINE
  5
FE
330
F8
100
AcDbEntity
  8
치수문자_일반주서
 62
     0
370
    -2
100
AcDbLine
 10
32.76465125949719
 20
-0.5999999999999641
 30
0.0
 11
32.76465125949718
 21
0.600000000000044
 31
0.0
  0
LINE
  5
FF
330
F8
100
AcDbEntity
  8
치수문자_일반주서
 62
     0
370
    -2
100
AcDbLine
 10
32.76465125949721
 20
-3.901999999999964
 30
0.0
 11
32.76465125949723
 21
-7.203999999999963
 31
0.0
  0
LINE
  5
100
330
F8
100
AcDbEntity
  8
치수문자_일반주서
 62
     0
370
    -2
100
AcDbLine
 10
32.76465125949716
 20
3.902000000000044
 30
0.0
 11
32.76465125949714
 21
7.204000000000043
 31
0.0
  0
SOLID
  5
101
330
F8
100
AcDbEntity
  8
치수문자_일반주서
 62
     0
100
AcDbTrace
 10
33.31498459283054
 20
-3.901999999999961
 30
0.0
 11
32.21431792616387
 21
-3.901999999999967
 31
0.0
 12
32.76465125949719
 22
-0.5999999999999641
 32
0.0
 13
32.76465125949719
 23
-0.5999999999999641
 33
0.0
  0
SOLID
  5
102
330
F8
100
AcDbEntity
  8
치수문자_일반주서
 62
     0
100
AcDbTrace
 10
32.21431792616382
 20
3.902000000000041
 30
0.0
 11
33.31498459283049
 21
3.902000000000047
 31
0.0
 12
32.76465125949718
 22
0.600000000000044
 32
0.0
 13
32.76465125949718
 23
0.600000000000044
 33
0.0
  0
MTEXT
  5
103
330
F8
100
AcDbEntity
  8
치수문자_일반주서
 62
     0
100
AcDbMText
 10
28.38965125949711
 20
11.57900000000002
 30
0.0
 40
3.5
 41
0.0
 71
     2
 72
     1
  1
\A1;%%c1.2
  7
SLDTEXTSTYLE0
 11
-5.921189464667465E-15
 21
1.0
 31
0.0
 73
     1
 44
1.0
  0
POINT
  5
15C
330
F8
100
AcDbEntity
  8
Defpoints
 62
     0
100
AcDbPoint
 10
21.9569219381653
 20
-0.6000000000000042
 30
0.0
  0
POINT
  5
15D
330
F8
100
AcDbEntity
  8
Defpoints
 62
     0
100
AcDbPoint
 10
21.9569219381653
 20
0.6000000000000033
 30
0.0
  0
POINT
  5
15E
330
F8
100
AcDbEntity
  8
Defpoints
 62
     0
100
AcDbPoint
 10
32.76465125949718
 20
0.6000000000000437
 30
0.0
  0
ENDBLK
  5
FA
330
F8
100
AcDbEntity
  8
0
100
AcDbBlockEnd
  0
BLOCK
  5
107
330
106
100
AcDbEntity
  8
0
100
AcDbBlockBegin
  2
_D_1
 70
     0
 10
0.0
 20
0.0
 30
0.0
  3
_D_1
  1

  0
LINE
  5
109
330
106
100
AcDbEntity
  8
치수문자_일반주서
 62
     0
370
    -2
100
AcDbLine
 10
-38.04307806183472
 20
2.562499999999994
 30
0.0
 11
-38.04307806183472
 21
20.38913260158165
 31
0.0
  0
LINE
  5
10A
330
106
100
AcDbEntity
  8
치수문자_일반주서
 62
     0
370
    -2
100
AcDbLine
 10
21.95692193816529
 20
0.6625000000000014
 30
0.0
 11
21.95692193816529
 21
20.38913260158165
 31
0.0
  0
LINE
  5
10B
330
106
100
AcDbEntity
  8
치수문자_일반주서
 62
     0
370
    -2
100
AcDbLine
 10
-34.74107806183472
 20
20.38913260158165
 30
0.0
 11
18.65492193816529
 21
20.38913260158165
 31
0.0
  0
SOLID
  5
10C
330
106
100
AcDbEntity
  8
치수문자_일반주서
 62
     0
100
AcDbTrace
 10
-34.74107806183472
 20
20.93946593491498
 30
0.0
 11
-34.74107806183472
 21
19.83879926824831
 31
0.0
 12
-38.04307806183472
 22
20.38913260158165
 32
0.0
 13
-38.04307806183472
 23
20.38913260158165
 33
0.0
  0
SOLID
  5
10D
330
106
100
AcDbEntity
  8
치수문자_일반주서
 62
     0
100
AcDbTrace
 10
18.65492193816529
 20
19.83879926824831
 30
0.0
 11
18.65492193816529
 21
20.93946593491498
 31
0.0
 12
21.95692193816529
 22
20.38913260158165
 32
0.0
 13
21.95692193816529
 23
20.38913260158165
 33
0.0
  0
MTEXT
  5
10E
330
106
100
AcDbEntity
  8
치수문자_일반주서
 62
     0
100
AcDbMText
 10
-8.043078061834718
 20
24.76413260158165
 30
0.0
 40
3.5
 41
0.0
 71
     2
 72
     1
  1
\A1;60
  7
SLDTEXTSTYLE0
 73
     1
 44
1.0
  0
POINT
  5
155
330
106
100
AcDbEntity
  8
Defpoints
 62
     0
100
AcDbPoint
 10
-38.04307806183472
 20
2.499999999999994
 30
0.0
  0
POINT
  5
156
330
106
100
AcDbEntity
  8
Defpoints
 62
     0
100
AcDbPoint
 10
21.95692193816529
 20
0.6000000000000014
 30
0.0
  0
POINT
  5
157
330
106
100
AcDbEntity
  8
Defpoints
 62
     0
100
AcDbPoint
 10
21.95692193816529
 20
20.38913260158165
 30
0.0
  0
ENDBLK
  5
108
330
106
100
AcDbEntity
  8
0
100
AcDbBlockEnd
  0
BLOCK
  5
112
330
111
100
AcDbEntity
  8
0
100
AcDbBlockBegin
  2
_D_2
 70
     0
 10
0.0
 20
0.0
 30
0.0
  3
_D_2
  1

  0
LINE
  5
114
330
111
100
AcDbEntity
  8
치수문자_일반주서
 62
     0
370
    -2
100
AcDbLine
 10
-37.60557806183471
 20
3.000000000000003
 30
0.0
 11
-47.38687276814507
 21
2.999999999999968
 31
0.0
  0
LINE
  5
115
330
111
100
AcDbEntity
  8
치수문자_일반주서
 62
     0
370
    -2
100
AcDbLine
 10
-37.60557806183471
 20
-3.000000000000003
 30
0.0
 11
-47.38687276814505
 21
-3.000000000000037
 31
0.0
  0
LINE
  5
116
330
111
100
AcDbEntity
  8
치수문자_일반주서
 62
     0
370
    -2
100
AcDbLine
 10
-47.38687276814507
 20
2.999999999999968
 30
0.0
 11
-47.38687276814512
 21
15.72899999999997
 31
0.0
  0
LINE
  5
117
330
111
100
AcDbEntity
  8
치수문자_일반주서
 62
     0
370
    -2
100
AcDbLine
 10
-47.38687276814507
 20
2.999999999999968
 30
0.0
 11
-47.38687276814505
 21
-3.000000000000037
 31
0.0
  0
LINE
  5
118
330
111
100
AcDbEntity
  8
치수문자_일반주서
 62
     0
370
    -2
100
AcDbLine
 10
-47.38687276814509
 20
6.301999999999968
 30
0.0
 11
-47.3868727681451
 21
9.603999999999967
 31
0.0
  0
LINE
  5
119
330
111
100
AcDbEntity
  8
치수문자_일반주서
 62
     0
370
    -2
100
AcDbLine
 10
-47.38687276814504
 20
-6.302000000000037
 30
0.0
 11
-47.38687276814503
 21
-9.604000000000037
 31
0.0
  0
SOLID
  5
11A
330
111
100
AcDbEntity
  8
치수문자_일반주서
 62
     0
100
AcDbTrace
 10
-47.93720610147842
 20
6.301999999999966
 30
0.0
 11
-46.83653943481175
 21
6.301999999999969
 31
0.0
 12
-47.38687276814507
 22
2.999999999999968
 32
0.0
 13
-47.38687276814507
 23
2.999999999999968
 33
0.0
  0
SOLID
  5
11B
330
111
100
AcDbEntity
  8
치수문자_일반주서
 62
     0
100
AcDbTrace
 10
-46.83653943481171
 20
-6.302000000000035
 30
0.0
 11
-47.93720610147837
 21
-6.302000000000039
 31
0.0
 12
-47.38687276814505
 22
-3.000000000000037
 32
0.0
 13
-47.38687276814505
 23
-3.000000000000037
 33
0.0
  0
MTEXT
  5
11C
330
111
100
AcDbEntity
  8
치수문자_일반주서
 62
     0
100
AcDbMText
 10
-51.76187276814511
 20
12.66649999999995
 30
0.0
 40
3.5
 41
0.0
 71
     2
 72
     1
  1
\A1;%%c6
  7
SLDTEXTSTYLE0
 11
-3.552713678800497E-15
 21
1.0
 31
0.0
 73
     1
 44
1.0
  0
POINT
  5
159
330
111
100
AcDbEntity
  8
Defpoints
 62
     0
100
AcDbPoint
 10
-37.54307806183471
 20
3.000000000000003
 30
0.0
  0
POINT
  5
15A
330
111
100
AcDbEntity
  8
Defpoints
 62
     0
100
AcDbPoint
 10
-37.54307806183471
 20
-3.000000000000002
 30
0.0
  0
POINT
  5
15B
330
111
100
AcDbEntity
  8
Defpoints
 62
     0
100
AcDbPoint
 10
-47.38687276814505
 20
-3.000000000000039
 30
0.0
  0
ENDBLK
  5
113
330
111
100
AcDbEntity
  8
0
100
AcDbBlockEnd
  0
BLOCK
  5
11F
330
11E
100
AcDbEntity
  8
0
100
AcDbBlockBegin
  2
_D_3
 70
     0
 10
0.0
 20
0.0
 30
0.0
  3
_D_3
  1

  0
LINE
  5
121
330
11E
100
AcDbEntity
  8
치수문자_일반주서
 62
     0
370
    -2
100
AcDbLine
 10
11.95692193816529
 20
0.6623067422439949
 30
0.0
 11
11.95692193816529
 21
11.44572504483165
 31
0.0
  0
LINE
  5
122
330
11E
100
AcDbEntity
  8
치수문자_일반주서
 62
     0
370
    -2
100
AcDbLine
 10
21.95692193816529
 20
0.6625000000000014
 30
0.0
 11
21.95692193816529
 21
11.44572504483165
 31
0.0
  0
LINE
  5
123
330
11E
100
AcDbEntity
  8
치수문자_일반주서
 62
     0
370
    -2
100
AcDbLine
 10
15.25892193816528
 20
11.44572504483165
 30
0.0
 11
18.65492193816529
 21
11.44572504483165
 31
0.0
  0
SOLID
  5
124
330
11E
100
AcDbEntity
  8
치수문자_일반주서
 62
     0
100
AcDbTrace
 10
15.25892193816528
 20
11.99605837816498
 30
0.0
 11
15.25892193816528
 21
10.89539171149831
 31
0.0
 12
11.95692193816529
 22
11.44572504483165
 32
0.0
 13
11.95692193816529
 23
11.44572504483165
 33
0.0
  0
SOLID
  5
125
330
11E
100
AcDbEntity
  8
치수문자_일반주서
 62
     0
100
AcDbTrace
 10
18.65492193816529
 20
10.89539171149831
 30
0.0
 11
18.65492193816529
 21
11.99605837816498
 31
0.0
 12
21.95692193816529
 22
11.44572504483165
 32
0.0
 13
21.95692193816529
 23
11.44572504483165
 33
0.0
  0
MTEXT
  5
126
330
11E
100
AcDbEntity
  8
치수문자_일반주서
 62
     0
100
AcDbMText
 10
16.95692193816529
 20
15.82072504483165
 30
0.0
 40
3.5
 41
0.0
 71
     2
 72
     1
  1
\A1;10
  7
SLDTEXTSTYLE0
 73
     1
 44
1.0
  0
POINT
  5
127
330
11E
100
AcDbEntity
  8
Defpoints
 62
     0
100
AcDbPoint
 10
11.95692193816529
 20
0.5998067422439949
 30
0.0
  0
POINT
  5
128
330
11E
100
AcDbEntity
  8
Defpoints
 62
     0
100
AcDbPoint
 10
21.95692193816529
 20
0.6000000000000014
 30
0.0
  0
POINT
  5
158
330
11E
100
AcDbEntity
  8
Defpoints
 62
     0
100
AcDbPoint
 10
21.95692193816529
 20
11.44572504483165
 30
0.0
  0
ENDBLK
  5
120
330
11E
100
AcDbEntity
  8
0
100
AcDbBlockEnd
  0
BLOCK
  5
12A
330
129
100
AcDbEntity
  8
0
100
AcDbBlockBegin
  2
SW_DOWELSYMBOL_0
 70
     0
 10
0.0
 20
0.0
 30
0.0
  3
SW_DOWELSYMBOL_0
  1

  0
CIRCLE
  5
12C
330
129
100
AcDbEntity
  8
해칭선
 62
     0
100
AcDbCircle
 10
0.0
 20
0.0
 30
0.0
 40
3.000000000000003
  0
HATCH
  5
12D
330
129
100
AcDbEntity
  8
0
  6
Continuous
 62
     0
370
    18
100
AcDbHatch
 10
0.0
 20
0.0
 30
0.0
210
0.0
220
0.0
230
1.0
  2
SOLID
 70
     1
 71
     0
 91
        1
 92
        0
 93
        3
 72
     2
 10
0.0
 20
0.0
 40
3.000000000000003
 50
0.0
 51
90.0
 73
     1
 72
     1
 10
0.0
 20
3.000000000000003
 11
0.0
 21
0.0
 72
     1
 10
0.0
 20
0.0
 11
3.000000000000003
 21
0.0
 97
        0
 75
     0
 76
     1
 98
        1
 10
0.0
 20
0.0
  0
HATCH
  5
12E
330
129
100
AcDbEntity
  8
0
  6
Continuous
 62
     0
370
    18
100
AcDbHatch
 10
0.0
 20
0.0
 30
0.0
210
0.0
220
0.0
230
1.0
  2
SOLID
 70
     1
 71
     0
 91
        1
 92
        0
 93
        3
 72
     2
 10
0.0
 20
0.0
 40
3.000000000000003
 50
180.0
 51
270.0000000000008
 73
     1
 72
     1
 10
0.0
 20
-3.000000000000003
 11
0.0
 21
0.0
 72
     1
 10
0.0
 20
0.0
 11
-3.000000000000003
 21
0.0
 97
        0
 75
     0
 76
     1
 98
        1
 10
0.0
 20
0.0
  0
ENDBLK
  5
12B
330
129
100
AcDbEntity
  8
0
100
AcDbBlockEnd
  0
ENDSEC
  0
SECTION
  2
ENTITIES
  0
LINE
  5
99
330
1F
100
AcDbEntity
  8
0
  6
Continuous
 62
     4
370
    25
100
AcDbLine
 10
2.0
 20
2.999999999999998
 30
0.0
 11
-37.54307806183472
 21
2.999999999999996
 31
0.0
  0
LINE
  5
9A
330
1F
100
AcDbEntity
  8
0
  6
Continuous
 62
     4
370
    25
100
AcDbLine
 10
-37.54307806183472
 20
-3.000000000000001
 30
0.0
 11
1.999999999999996
 21
-2.999999999999998
 31
0.0
  0
LINE
  5
9B
330
1F
100
AcDbEntity
  8
0
  6
Continuous
 62
     4
370
    25
100
AcDbLine
 10
2.0
 20
-3.0
 30
0.0
 11
10.75670791579073
 21
-0.6536471856086478
 31
0.0
  0
LINE
  5
9C
330
1F
100
AcDbEntity
  8
0
  6
Continuous
 62
     4
370
    25
100
AcDbLine
 10
10.75670791579073
 20
0.6536471856086498
 30
0.0
 11
2.0
 21
3.0
 31
0.0
  0
LINE
  5
9D
330
1F
100
AcDbEntity
  8
0
  6
Continuous
 62
     4
370
    25
100
AcDbLine
 10
-37.54307806183472
 20
2.999999999999994
 30
0.0
 11
-38.04307806183472
 21
2.499999999999994
 31
0.0
  0
LINE
  5
9E
330
1F
100
AcDbEntity
  8
0
  6
Continuous
 62
     4
370
    25
100
AcDbLine
 10
-38.04307806183472
 20
-2.5
 30
0.0
 11
-37.54307806183472
 21
-2.999999999999999
 31
0.0
  0
LINE
  5
9F
330
1F
100
AcDbEntity
  8
0
  6
Continuous
 62
     4
370
    25
100
AcDbLine
 10
11.95692193816528
 20
-0.0173228612756314
 30
0.0
 11
11.91968421157318
 21
0.0067223639432558
 31
0.0
  0
LINE
  5
A0
330
1F
100
AcDbEntity
  8
0
  6
Continuous
 62
     4
370
    25
100
AcDbLine
 10
11.93032661455576
 20
-0.5999999999999993
 30
0.0
 11
11.95692193816529
 21
-0.5999999999999993
 31
0.0
  0
LINE
  5
A1
330
1F
100
AcDbEntity
  8
0
  6
Continuous
 62
     4
370
    25
100
AcDbLine
 10
11.95692193816529
 20
0.6000000000000004
 30
0.0
 11
11.93032661455576
 21
0.6000000000000004
 31
0.0
  0
LINE
  5
A2
330
1F
100
AcDbEntity
  8
0
  6
Continuous
 62
     1
370
    25
100
AcDbLine
 10
20.09241550957451
 20
-0.6000000000000005
 30
0.0
 11
20.55666279252004
 21
-0.6000000000000005
 31
0.0
  0
LINE
  5
A3
330
1F
100
AcDbEntity
  8
0
  6
Continuous
 62
     1
370
    25
100
AcDbLine
 10
13.56273779833134
 20
-0.6000000000000005
 30
0.0
 11
14.02698508127685
 21
-0.6000000000000005
 31
0.0
  0
LINE
  5
A4
330
1F
100
AcDbEntity
  8
0
  6
Continuous
 62
     1
370
    25
100
AcDbLine
 10
17.29168731026464
 20
0.6000000000000013
 30
0.0
 11
16.82751993638072
 21
0.6000000000000013
 31
0.0
  0
LINE
  5
A5
330
1F
100
AcDbEntity
  8
0
  6
Continuous
 62
     4
370
    25
100
AcDbLine
 10
15.63000874091256
 20
0.0176109177840994
 30
0.0
 11
15.6655993988873
 21
-0.00359249411498
 31
0.0
  0
SPLINE
  5
A6
330
1F
100
AcDbEntity
  8
0
  6
Continuous
 62
     1
370
    25
100
AcDbSpline
210
0.0
220
0.0
230
1.0
 70
     8
 71
     3
 72
     9
 73
     5
 74
     0
 42
0.000000001
 43
0.00000001
 40
0.0
 40
0.0
 40
0.0
 40
0.0
 40
0.5825391296627651
 40
1.0
 40
1.0
 40
1.0
 40
1.0
 10
15.42724422692418
 20
0.1333242808733807
 30
0.0
 10
15.46657667115206
 20
0.1120804485579127
 30
0.0
 10
15.53409564494299
 20
0.0756127998906614
 30
0.0
 10
15.60176107259374
 20
0.0346932349697881
 30
0.0
 10
15.63000874091256
 20
0.0176109177840994
 30
0.0
  0
LINE
  5
A7
330
1F
100
AcDbEntity
  8
0
  6
Continuous
 62
     1
370
    25
100
AcDbLine
 10
17.0108794810937
 20
-0.103646076494813
 30
0.0
 11
16.9747653904162
 21
-0.0850505622452729
 31
0.0
  0
LINE
  5
A8
330
1F
100
AcDbEntity
  8
0
  6
Continuous
 62
     1
370
    25
100
AcDbLine
 10
18.46053905689604
 20
-0.6000000000000005
 30
0.0
 11
18.92554583813812
 21
-0.6000000000000005
 31
0.0
  0
LINE
  5
A9
330
1F
100
AcDbEntity
  8
0
  6
Continuous
 62
     1
370
    25
100
AcDbLine
 10
11.95692193816529
 20
-0.6000000000000005
 30
0.0
 11
12.39586812689493
 21
-0.6000000000000005
 31
0.0
  0
LINE
  5
AA
330
1F
100
AcDbEntity
  8
0
  6
Continuous
 62
     1
370
    25
100
AcDbLine
 10
15.66068226358567
 20
0.6000000000000013
 30
0.0
 11
15.19624490024135
 21
0.6000000000000013
 31
0.0
  0
LINE
  5
AB
330
1F
100
AcDbEntity
  8
0
  6
Continuous
 62
     1
370
    25
100
AcDbLine
 10
21.95692193816529
 20
0.6000000000000013
 30
0.0
 11
21.72592261148454
 21
0.6000000000000013
 31
0.0
  0
LINE
  5
AC
330
1F
100
AcDbEntity
  8
0
  6
Continuous
 62
     1
370
    25
100
AcDbLine
 10
21.72592261148454
 20
-0.6000000000000005
 30
0.0
 11
21.95692193816529
 21
-0.6000000000000005
 31
0.0
  0
LINE
  5
AD
330
1F
100
AcDbEntity
  8
0
  6
Continuous
 62
     1
370
    25
100
AcDbLine
 10
15.19624490024135
 20
-0.6000000000000005
 30
0.0
 11
15.66068226358568
 21
-0.6000000000000005
 31
0.0
  0
LINE
  5
AE
330
1F
100
AcDbEntity
  8
0
  6
Continuous
 62
     1
370
    25
100
AcDbLine
 10
12.39586812689492
 20
0.6000000000000013
 30
0.0
 11
11.95689693816415
 21
0.6000000000000013
 31
0.0
  0
LINE
  5
AF
330
1F
100
AcDbEntity
  8
0
  6
Continuous
 62
     1
370
    25
100
AcDbLine
 10
18.92554583813812
 20
0.6000000000000013
 30
0.0
 11
18.46053905689604
 21
0.6000000000000013
 31
0.0
  0
LINE
  5
B0
330
1F
100
AcDbEntity
  8
0
  6
Continuous
 62
     1
370
    25
100
AcDbLine
 10
16.82751993638073
 20
-0.6000000000000005
 30
0.0
 11
17.29168731026463
 21
-0.6000000000000005
 31
0.0
  0
LINE
  5
B1
330
1F
100
AcDbEntity
  8
0
  6
Continuous
 62
     1
370
    25
100
AcDbLine
 10
14.02698508127686
 20
0.6000000000000013
 30
0.0
 11
13.56273779833134
 21
0.6000000000000013
 31
0.0
  0
LINE
  5
B2
330
1F
100
AcDbEntity
  8
0
  6
Continuous
 62
     1
370
    25
100
AcDbLine
 10
20.55666279252004
 20
0.6000000000000013
 30
0.0
 11
20.09241550957453
 21
0.6000000000000013
 31
0.0
  0
LINE
  5
B3
330
1F
100
AcDbEntity
  8
0
  6
Continuous
 62
     4
370
    25
100
AcDbLine
 10
2.0
 20
3.0
 30
0.0
 11
2.0
 21
-3.0
 31
0.0
  0
LINE
  5
B4
330
1F
100
AcDbEntity
  8
0
  6
Continuous
 62
     4
370
    25
100
AcDbLine
 10
-37.54307806183472
 20
2.999999999999994
 30
0.0
 11
-37.54307806183472
 21
-2.999999999999999
 31
0.0
  0
SPLINE
  5
B5
330
1F
100
AcDbEntity
  8
0
  6
Continuous
 62
     4
370
    25
100
AcDbSpline
210
0.0
220
0.0
230
1.0
 70
     8
 71
     3
 72
     8
 73
     4
 74
     0
 42
0.000000001
 43
0.00000001
 40
0.0
 40
0.0
 40
0.0
 40
0.0
 40
1.0
 40
1.0
 40
1.0
 40
1.0
 10
10.64257375949485
 20
-0.2189293561540883
 30
0.0
 10
10.74660114771237
 20
-0.273067741760926
 30
0.0
 10
10.85077614094824
 20
-0.3202175066647621
 30
0.0
 10
10.9569219381653
 20
-0.3556440414979675
 30
0.0
  0
SPLINE
  5
B6
330
1F
100
AcDbEntity
  8
0
  6
Continuous
 62
     4
370
    25
100
AcDbSpline
210
0.0
220
0.0
230
1.0
 70
     8
 71
     3
 72
    26
 73
    22
 74
     0
 42
0.000000001
 43
0.00000001
 40
0.0
 40
0.0
 40
0.0
 40
0.0
 40
0.0000386350035343
 40
0.0000386350035343
 40
0.0000386350035343
 40
0.0000771608671683
 40
0.0000771608671683
 40
0.0000771608671683
 40
0.0001172839808373
 40
0.0001172839808373
 40
0.0001172839808373
 40
0.0001595268821507
 40
0.0001595268821507
 40
0.0001595268821507
 40
0.0002025559874515
 40
0.0002025559874515
 40
0.0002025559874515
 40
0.000244977438924
 40
0.000244977438924
 40
0.000244977438924
 40
0.0002646757041236
 40
0.0002646757041236
 40
0.0002646757041236
 40
0.0002646757041236
 10
10.45679552996508
 20
-0.3337315880767169
 30
0.0
 10
10.45679552996508
 20
-0.322261370608975
 30
0.0
 10
10.45892064568509
 20
-0.3102145968221027
 30
0.0
 10
10.462908208118
 20
-0.2986404377465842
 30
0.0
 10
10.46688916198917
 20
-0.2870854604509354
 30
0.0
 10
10.47281934103037
 20
-0.275690128108433
 30
0.0
 10
10.48018705164667
 20
-0.2653328264633195
 30
0.0
 10
10.48785887206794
 20
-0.2545480165802536
 30
0.0
 10
10.49728548750072
 20
-0.244606729432956
 30
0.0
 10
10.50776143356104
 20
-0.2362713552677952
 30
0.0
 10
10.5187791900356
 20
-0.227504879939719
 30
0.0
 10
10.53125832957565
 20
-0.2202833235193384
 30
0.0
 10
10.5442432862676
 20
-0.2152387790042253
 30
0.0
 10
10.5574592226664
 20
-0.2101045008503341
 30
0.0
 10
10.5715744256128
 20
-0.2070911895349981
 30
0.0
 10
10.58540643202187
 20
-0.206523372975592
 30
0.0
 10
10.59904268538785
 20
-0.2059635922582848
 30
0.0
 10
10.61279008087084
 20
-0.2077710568423506
 30
0.0
 10
10.62542711329574
 20
-0.2118037796919952
 30
0.0
 10
10.63136435055136
 20
-0.2136984675854382
 30
0.0
 10
10.63711976245138
 20
-0.2160909633029594
 30
0.0
 10
10.64257375949485
 20
-0.2189293561540882
 30
0.0
  0
LINE
  5
B7
330
1F
100
AcDbEntity
  8
0
  6
Continuous
 62
     4
370
    25
100
AcDbLine
 10
10.45679552996508
 20
-0.3337315880767169
 30
0.0
 11
10.45679552996508
 21
-0.6809794949598679
 31
0.0
  0
SPLINE
  5
B8
330
1F
100
AcDbEntity
  8
0
  6
Continuous
 62
     4
370
    25
100
AcDbSpline
210
0.0
220
0.0
230
1.0
 70
     8
 71
     3
 72
    14
 73
    10
 74
     0
 42
0.000000001
 43
0.00000001
 40
0.0000000000000003
 40
0.0000000000000003
 40
0.0000000000000003
 40
0.0000000000000003
 40
0.000041819522535
 40
0.000041819522535
 40
0.000041819522535
 40
0.0000837462924004
 40
0.0000837462924004
 40
0.0000837462924004
 40
0.0001192702275284
 40
0.0001192702275284
 40
0.0001192702275284
 40
0.0001192702275284
 10
10.50931427822726
 20
-0.6987775323564482
 30
0.0
 10
10.49828862947831
 20
-0.6997193773331196
 30
0.0
 10
10.48836890320164
 20
-0.6997532383631424
 30
0.0
 10
10.48035559956562
 20
-0.6986831330008403
 30
0.0
 10
10.47233067801642
 20
-0.6976114761696602
 30
0.0
 10
10.4659941846722
 20
-0.69538787045195
 30
0.0
 10
10.46199428839856
 20
-0.692024237948406
 30
0.0
 10
10.45859331247349
 20
-0.6891642554931849
 30
0.0
 10
10.45679552996506
 20
-0.6854091891782358
 30
0.0
 10
10.45679552996506
 20
-0.6809794949598739
 30
0.0
  0
SPLINE
  5
B9
330
1F
100
AcDbEntity
  8
0
  6
Continuous
 62
     4
370
    25
100
AcDbSpline
210
0.0
220
0.0
230
1.0
 70
     8
 71
     3
 72
     8
 73
     4
 74
     0
 42
0.000000001
 43
0.00000001
 40
0.0
 40
0.0
 40
0.0
 40
0.0
 40
1.0
 40
1.0
 40
1.0
 40
1.0
 10
10.95692193816529
 20
-0.5894504058139782
 30
0.0
 10
10.79976591825601
 20
-0.6464950650397436
 30
0.0
 10
10.65401555206648
 20
-0.6864167025324853
 30
0.0
 10
10.50931427822672
 20
-0.6987775323563292
 30
0.0
  0
SPLINE
  5
BA
330
1F
100
AcDbEntity
  8
0
  6
Continuous
 62
     4
370
    25
100
AcDbSpline
210
0.0
220
0.0
230
1.0
 70
     8
 71
     3
 72
     9
 73
     5
 74
     0
 42
0.000000001
 43
0.00000001
 40
0.0
 40
0.0
 40
0.0
 40
0.0
 40
0.55517676786175
 40
1.0
 40
1.0
 40
1.0
 40
1.0
 10
10.95692193816529
 20
0.589450405813979
 30
0.0
 10
10.91920554451744
 20
0.602879636990875
 30
0.0
 10
10.85126971609093
 20
0.6270687456753367
 30
0.0
 10
10.78572033530001
 20
0.6450886291395469
 30
0.0
 10
10.75656244787194
 20
0.6531042919448515
 30
0.0
  0
LINE
  5
BB
330
1F
100
AcDbEntity
  8
0
  6
Continuous
 62
     4
370
    25
100
AcDbLine
 10
10.95692193816529
 20
0.5894504058137063
 30
0.0
 11
10.95692193816529
 21
0.4832362939049565
 31
0.0
  0
SPLINE
  5
BC
330
1F
100
AcDbEntity
  8
0
  6
Continuous
 62
     4
370
    25
100
AcDbSpline
210
0.0
220
0.0
230
1.0
 70
     8
 71
     3
 72
     8
 73
     4
 74
     0
 42
0.000000001
 43
0.00000001
 40
0.0
 40
0.0
 40
0.0
 40
0.0
 40
1.0
 40
1.0
 40
1.0
 40
1.0
 10
10.64257375949485
 20
0.648258997295867
 30
0.0
 10
10.74660114771237
 20
0.6005547184876706
 30
0.0
 10
10.85077614094824
 20
0.5446229173541318
 30
0.0
 10
10.9569219381653
 20
0.4832362939049733
 30
0.0
  0
SPLINE
  5
BD
330
1F
100
AcDbEntity
  8
0
  6
Continuous
 62
     4
370
    25
100
AcDbSpline
210
0.0
220
0.0
230
1.0
 70
     8
 71
     3
 72
    26
 73
    22
 74
     0
 42
0.000000001
 43
0.00000001
 40
0.0
 40
0.0
 40
0.0
 40
0.0
 40
0.0000386350035343
 40
0.0000386350035343
 40
0.0000386350035343
 40
0.0000771608671683
 40
0.0000771608671683
 40
0.0000771608671683
 40
0.0001172839808373
 40
0.0001172839808373
 40
0.0001172839808373
 40
0.0001595268821507
 40
0.0001595268821507
 40
0.0001595268821507
 40
0.0002025559874515
 40
0.0002025559874515
 40
0.0002025559874515
 40
0.000244977438924
 40
0.000244977438924
 40
0.000244977438924
 40
0.0002646757041236
 40
0.0002646757041236
 40
0.0002646757041236
 40
0.0002646757041236
 10
10.45679552996508
 20
0.6537519843392176
 30
0.0
 10
10.45679552996508
 20
0.6596073759598855
 30
0.0
 10
10.45892064568509
 20
0.6647168905870996
 30
0.0
 10
10.462908208118
 20
0.6687156012951844
 30
0.0
 10
10.46688916198917
 20
0.6727076849655669
 30
0.0
 10
10.47281934103037
 20
0.6757114104351964
 30
0.0
 10
10.48018705164667
 20
0.6776467060108832
 30
0.0
 10
10.48785887206794
 20
0.679661882894446
 30
0.0
 10
10.49728548750072
 20
0.6805794621804577
 30
0.0
 10
10.50776143356104
 20
0.6805021166557991
 30
0.0
 10
10.5187791900356
 20
0.6804207708613308
 30
0.0
 10
10.53125832957565
 20
0.6792415453406039
 30
0.0
 10
10.5442432862676
 20
0.6771940749764565
 30
0.0
 10
10.5574592226664
 20
0.6751101836895647
 30
0.0
 10
10.5715744256128
 20
0.6720707589694219
 30
0.0
 10
10.58540643202187
 20
0.6683670347614361
 30
0.0
 10
10.59904268538785
 20
0.6647157263247417
 30
0.0
 10
10.61279008087084
 20
0.6603136387710701
 30
0.0
 10
10.62542711329574
 20
0.6554520164571999
 30
0.0
 10
10.63136435055136
 20
0.6531678880199103
 30
0.0
 10
10.63711976245138
 20
0.6507600597568118
 30
0.0
 10
10.64257375949485
 20
0.648258997295867
 30
0.0
  0
LINE
  5
BE
330
1F
100
AcDbEntity
  8
0
  6
Continuous
 62
     4
370
    25
100
AcDbLine
 10
10.45679552996508
 20
0.6537519843392176
 30
0.0
 11
10.45679552996508
 21
0.2739258245435711
 31
0.0
  0
SPLINE
  5
BF
330
1F
100
AcDbEntity
  8
0
  6
Continuous
 62
     4
370
    25
100
AcDbSpline
210
0.0
220
0.0
230
1.0
 70
     8
 71
     3
 72
    14
 73
    10
 74
     0
 42
0.000000001
 43
0.00000001
 40
0.0000000000000003
 40
0.0000000000000003
 40
0.0000000000000003
 40
0.0000000000000003
 40
0.000041819522535
 40
0.000041819522535
 40
0.000041819522535
 40
0.0000837462924004
 40
0.0000837462924004
 40
0.0000837462924004
 40
0.0001192702275284
 40
0.0001192702275284
 40
0.0001192702275284
 40
0.0001192702275284
 10
10.50931427822726
 20
0.1732569311882784
 30
0.0
 10
10.49828862947831
 20
0.1817343813054065
 30
0.0
 10
10.48836890320164
 20
0.1920713216959289
 30
0.0
 10
10.48035559956562
 20
0.2034274214724503
 30
0.0
 10
10.47233067801642
 20
0.2147999856421026
 30
0.0
 10
10.4659941846722
 20
0.2275293884887105
 30
0.0
 10
10.46199428839856
 20
0.2404742653212167
 30
0.0
 10
10.45859331247349
 20
0.2514808543546375
 30
0.0
 10
10.45679552996506
 20
0.2629136064123518
 30
0.0
 10
10.45679552996506
 20
0.2739258245435678
 30
0.0
  0
SPLINE
  5
C0
330
1F
100
AcDbEntity
  8
0
  6
Continuous
 62
     4
370
    25
100
AcDbSpline
210
0.0
220
0.0
230
1.0
 70
     8
 71
     3
 72
     8
 73
     4
 74
     0
 42
0.000000001
 43
0.00000001
 40
0.0
 40
0.0
 40
0.0
 40
0.0
 40
1.0
 40
1.0
 40
1.0
 40
1.0
 10
10.95692193816529
 20
-0.1120188336206783
 30
0.0
 10
10.79976591825601
 20
-0.0373965572789467
 30
0.0
 10
10.65401555206648
 20
0.06199836865024
 30
0.0
 10
10.50931427822672
 20
0.1732569311886245
 30
0.0
  0
LINE
  5
C1
330
1F
100
AcDbEntity
  8
0
  6
Continuous
 62
     4
370
    25
100
AcDbLine
 10
10.95692193816529
 20
-0.1120188336205846
 30
0.0
 11
10.95692193816529
 21
-0.355644041497952
 31
0.0
  0
LINE
  5
C2
330
1F
100
AcDbEntity
  8
0
  6
Continuous
 62
     4
370
    25
100
AcDbLine
 10
-38.04307806183472
 20
2.499999999999994
 30
0.0
 11
-38.04307806183472
 21
-2.500000000000001
 31
0.0
  0
SPLINE
  5
C3
330
1F
100
AcDbEntity
  8
0
  6
Continuous
 62
     4
370
    25
100
AcDbSpline
210
0.0
220
0.0
230
1.0
 70
     8
 71
     3
 72
    12
 73
     8
 74
     0
 42
0.000000001
 43
0.00000001
 40
0.0
 40
0.0
 40
0.0
 40
0.0
 40
0.5
 40
0.5
 40
0.75
 40
0.75
 40
1.0
 40
1.0
 40
1.0
 40
1.0
 10
11.95692193816531
 20
-0.015227342449863
 30
0.0
 10
11.78836691677795
 20
0.0812759573179513
 30
0.0
 10
11.62555693705495
 20
0.1772291041534703
 30
0.0
 10
11.37259764101623
 20
0.3072898705604109
 30
0.0
 10
11.28942361194657
 20
0.3478608193078196
 30
0.0
 10
11.12593905350856
 20
0.4212152421262684
 30
0.0
 10
11.04115398197153
 20
0.4546315374100852
 30
0.0
 10
10.95692193816529
 20
0.4832362939049564
 30
0.0
  0
SPLINE
  5
C4
330
1F
100
AcDbEntity
  8
0
  6
Continuous
 62
     4
370
    25
100
AcDbSpline
210
0.0
220
0.0
230
1.0
 70
    24
 71
     3
 72
    16
 73
    12
 74
     0
 42
0.000000001
 43
0.00000001
 40
0.0
 40
0.0
 40
0.0
 40
0.0
 40
0.125
 40
0.125
 40
0.25
 40
0.25
 40
0.5
 40
0.5
 40
0.75
 40
0.75
 40
1.0
 40
1.0
 40
1.0
 40
1.0
 10
11.95692193816529
 20
-0.015227342449901
 30
0.0
 10
11.95692193816529
 20
-0.0177116476440163
 30
0.0
 10
11.95692193816529
 20
-0.0213069027591524
 30
0.0
 10
11.95692193816529
 20
-0.0321122735317201
 30
0.0
 10
11.95692193816529
 20
-0.0393783011714618
 30
0.0
 10
11.95692193816529
 20
-0.0687384799550917
 30
0.0
 10
11.95692193816529
 20
-0.0986423507837035
 30
0.0
 10
11.95692193816529
 20
-0.1880869307695192
 30
0.0
 10
11.95692193816529
 20
-0.2483585503672145
 30
0.0
 10
11.95692193816529
 20
-0.3908424869710851
 30
0.0
 10
11.95692193816529
 20
-0.4724745194669294
 30
0.0
 10
11.95692193816529
 20
-0.5475409597650436
 30
0.0
  0
SPLINE
  5
C5
330
1F
100
AcDbEntity
  8
0
  6
Continuous
 62
     4
370
    25
100
AcDbSpline
210
0.0
220
0.0
230
1.0
 70
     8
 71
     3
 72
    12
 73
     8
 74
     0
 42
0.000000001
 43
0.00000001
 40
0.0
 40
0.0
 40
0.0
 40
0.0
 40
0.5
 40
0.5
 40
0.75
 40
0.75
 40
1.0
 40
1.0
 40
1.0
 40
1.0
 10
11.95692193816529
 20
-0.5475409597650439
 30
0.0
 10
11.78836691677792
 20
-0.5080656916256278
 30
0.0
 10
11.62555693705492
 20
-0.4477193973912554
 30
0.0
 10
11.37259764101622
 20
-0.3340813265217916
 30
0.0
 10
11.28942361194657
 20
-0.2927505183370794
 30
0.0
 10
11.12593905350855
 20
-0.2058290816329689
 30
0.0
 10
11.04115398197153
 20
-0.1594288373228411
 30
0.0
 10
10.95692193816529
 20
-0.1120188336205847
 30
0.0
  0
SPLINE
  5
C6
330
1F
100
AcDbEntity
  8
0
  6
Continuous
 62
     4
370
    25
100
AcDbSpline
210
0.0
220
0.0
230
1.0
 70
     8
 71
     3
 72
    10
 73
     6
 74
     0
 42
0.000000001
 43
0.00000001
 40
0.0
 40
0.0
 40
0.0
 40
0.0
 40
0.4816543661137134
 40
0.9633089902613516
 40
1.0
 40
1.0
 40
1.0
 40
1.0
 10
10.95692193816529
 20
-0.355644041497952
 30
0.0
 10
11.11320297413149
 20
-0.4210567085415587
 30
0.0
 10
11.42576512978743
 20
-0.5518820776719244
 30
0.0
 10
11.75024080822831
 20
-0.5999254886873702
 30
0.0
 10
11.91842194096412
 20
-0.5997527279943442
 30
0.0
 10
11.93032661455576
 20
-0.5997404991573367
 30
0.0
  0
LINE
  5
C7
330
1F
100
AcDbEntity
  8
0
  6
Continuous
 62
     4
370
    25
100
AcDbLine
 10
11.34438990117581
 20
-0.5003535471647148
 30
0.0
 11
10.95692193816529
 21
-0.5894504058137058
 31
0.0
  0
SPLINE
  5
C8
330
1F
100
AcDbEntity
  8
0
  6
Continuous
 62
     4
370
    25
100
AcDbSpline
210
0.0
220
0.0
230
1.0
 70
     8
 71
     3
 72
    10
 73
     6
 74
     0
 42
0.000000001
 43
0.00000001
 40
0.0
 40
0.0
 40
0.0
 40
0.0
 40
0.1328533369987645
 40
0.8982726904702878
 40
1.0
 40
1.0
 40
1.0
 40
1.0
 10
11.34438990117581
 20
0.5003535471647156
 30
0.0
 10
11.37151559513427
 20
0.5108863693447765
 30
0.0
 10
11.55492288202211
 20
0.5821028455859145
 30
0.0
 10
11.75910614995966
 20
0.5999996246181348
 30
0.0
 10
11.93615219051168
 20
0.5998269940063002
 30
0.0
 10
11.95692193816419
 20
0.5998067422444775
 30
0.0
  0
SPLINE
  5
C9
330
1F
100
AcDbEntity
  8
0
  6
Continuous
 62
     4
370
    25
100
AcDbSpline
210
0.0
220
0.0
230
1.0
 70
    24
 71
     3
 72
    11
 73
     7
 74
     0
 42
0.000000001
 43
0.00000001
 40
0.0
 40
0.0
 40
0.0
 40
0.0
 40
0.2512710116064055
 40
0.5278376681048526
 40
0.8044043246033026
 40
1.0
 40
1.0
 40
1.0
 40
1.0
 10
11.95692193816529
 20
0.5998067422439949
 30
0.0
 10
11.95692193816529
 20
0.5576157683200608
 30
0.0
 10
11.95692193816529
 20
0.4689864228627105
 30
0.0
 10
11.95692193816529
 20
0.3549461191158917
 30
0.0
 10
11.95692193816528
 20
0.2729498604121061
 30
0.0
 10
11.95692193816529
 20
0.2534376637903873
 30
0.0
 10
11.95692193816529
 20
0.2453546359440537
 30
0.0
  0
SPLINE
  5
CA
330
1F
100
AcDbEntity
  8
0
  6
Continuous
 62
     4
370
    25
100
AcDbSpline
210
0.0
220
0.0
230
1.0
 70
     8
 71
     3
 72
    12
 73
     8
 74
     0
 42
0.000000001
 43
0.00000001
 40
0.0
 40
0.0
 40
0.0
 40
0.0
 40
0.5000000000000001
 40
0.5000000000000001
 40
0.7500000000000002
 40
0.7500000000000002
 40
1.0
 40
1.0
 40
1.0
 40
1.0
 10
11.95692193816529
 20
0.2453546359440452
 30
0.0
 10
11.78836691677792
 20
0.3334488597229194
 30
0.0
 10
11.62555693705492
 20
0.4109371541329662
 30
0.0
 10
11.37259764101622
 20
0.5007196502345487
 30
0.0
 10
11.28942361194656
 20
0.5259087951963182
 30
0.0
 10
11.12593905350855
 20
0.5656123372112736
 30
0.0
 10
11.04115398197153
 20
0.5804406345686725
 30
0.0
 10
10.95692193816529
 20
0.5894504058137067
 30
0.0
  0
LINE
  5
CB
330
1F
100
AcDbEntity
  8
0
  6
Continuous
 62
     4
370
    25
100
AcDbLine
 10
11.95692193816529
 20
0.2453546359440452
 30
0.0
 11
11.95692193816529
 21
-0.0152273424499014
 31
0.0
  0
LINE
  5
CC
330
1F
100
AcDbEntity
  8
0
  6
Continuous
 62
     4
370
    25
100
AcDbLine
 10
11.95692193816529
 20
-0.5475409597650439
 30
0.0
 11
11.95692193816529
 21
-0.5999999999999993
 31
0.0
  0
LINE
  5
CD
330
1F
100
AcDbEntity
  8
0
  6
Continuous
 62
     4
370
    25
100
AcDbLine
 10
11.95692193816529
 20
0.6000000000000004
 30
0.0
 11
11.95692193816529
 21
0.5998067422439949
 31
0.0
  0
SPLINE
  5
CE
330
1F
100
AcDbEntity
  8
0
  6
Continuous
 62
     1
370
    25
100
AcDbSpline
210
0.0
220
0.0
230
1.0
 70
     8
 71
     3
 72
    11
 73
     7
 74
     0
 42
0.000000001
 43
0.00000001
 40
0.0
 40
0.0
 40
0.0
 40
0.0
 40
0.285552883109002
 40
0.5711048929822119
 40
0.8566563763467365
 40
0.9999999999999999
 40
0.9999999999999999
 40
0.9999999999999999
 40
0.9999999999999999
 10
11.95692193816419
 20
-0.0152273424492177
 30
0.0
 10
12.10976344586254
 20
-0.1034799379737491
 30
0.0
 10
12.41544599386184
 20
-0.2799848591417157
 30
0.0
 10
12.87398736256143
 20
-0.4844974541693203
 30
0.0
 10
13.25634690313117
 20
-0.5972408372034789
 30
0.0
 10
13.48598804544261
 20
-0.5874286150846826
 30
0.0
 10
13.56273779833134
 20
-0.5841492130780269
 30
0.0
  0
SPLINE
  5
CF
330
1F
100
AcDbEntity
  8
0
  6
Continuous
 62
     1
370
    25
100
AcDbSpline
210
0.0
220
0.0
230
1.0
 70
     8
 71
     3
 72
    16
 73
    12
 74
     0
 42
0.000000001
 43
0.00000001
 40
0.0
 40
0.0
 40
0.0
 40
0.0
 40
0.1149413312088403
 40
0.2394683762263654
 40
0.3639901929404977
 40
0.473271195883846
 40
0.5826286470655561
 40
0.7018102402230917
 40
0.8209914689170232
 40
0.9401724778613125
 40
1.0
 40
1.0
 40
1.0
 40
1.0
 10
16.24507763091284
 20
0.5039097411211556
 30
0.0
 10
16.39252116076746
 20
0.5418775500408632
 30
0.0
 10
16.6997045064625
 20
0.6209795532563616
 30
0.0
 10
17.16658384717641
 20
0.587396406955643
 30
0.0
 10
17.6263286353849
 20
0.4454973379153948
 30
0.0
 10
18.06617157445918
 20
0.2282779028772896
 30
0.0
 10
18.49913872733177
 20
-0.0226872739301008
 30
0.0
 10
18.94514028688065
 20
-0.2799333591030068
 30
0.0
 10
19.40366055206149
 20
-0.4845114978972572
 30
0.0
 10
19.78602511912211
 20
-0.5972392695469448
 30
0.0
 10
20.01566588312319
 20
-0.5874282223926882
 30
0.0
 10
20.09241550957452
 20
-0.5841492130780265
 30
0.0
  0
SPLINE
  5
D0
330
1F
100
AcDbEntity
  8
0
  6
Continuous
 62
     1
370
    25
100
AcDbSpline
210
0.0
220
0.0
230
1.0
 70
     8
 71
     3
 72
    16
 73
    12
 74
     0
 42
0.000000001
 43
0.00000001
 40
0.0
 40
0.0
 40
0.0
 40
0.0
 40
0.0457283727383727
 40
0.1615406620129555
 40
0.2859371369181756
 40
0.4103424596667956
 40
0.5347560397523969
 40
0.6591772807934083
 40
0.783605580937802
 40
0.9080403332761351
 40
1.0
 40
1.0
 40
1.0
 40
1.0
 10
21.14214784756222
 20
-0.4965679466793592
 30
0.0
 10
21.0834676966078
 20
-0.5173507800233502
 30
0.0
 10
20.87617340939511
 20
-0.5907684954557656
 30
0.0
 10
20.5092499467644
 20
-0.6156323048393261
 30
0.0
 10
20.04125042948688
 20
-0.5476718321497068
 30
0.0
 10
19.56223480532925
 20
-0.3574654582580538
 30
0.0
 10
19.08317279642428
 20
-0.094577987694591
 30
0.0
 10
18.60407767475238
 20
0.1896267445868028
 30
0.0
 10
18.12494922756744
 20
0.4299594153767091
 30
0.0
 10
17.68748289053886
 20
0.5816167058542282
 30
0.0
 10
17.40972443489042
 20
0.5859485329697254
 30
0.0
 10
17.29168731026464
 20
0.5877894001213502
 30
0.0
  0
SPLINE
  5
D1
330
1F
100
AcDbEntity
  8
0
  6
Continuous
 62
     1
370
    25
100
AcDbSpline
210
0.0
220
0.0
230
1.0
 70
     8
 71
     3
 72
    14
 73
    10
 74
     0
 42
0.000000001
 43
0.00000001
 40
0.0
 40
0.0
 40
0.0
 40
0.0
 40
0.0663001630633996
 40
0.2342128440499064
 40
0.4145714721146953
 40
0.5949429283958635
 40
0.7753263567362931
 40
0.9557208924606614
 40
1.0
 40
1.0
 40
1.0
 40
1.0
 10
14.61247013631903
 20
-0.49656794667936
 30
0.0
 10
14.55379000355578
 20
-0.5173508522204806
 30
0.0
 10
14.34649578060549
 20
-0.5907688226974425
 30
0.0
 10
13.97957122623512
 20
-0.6156282991850337
 30
0.0
 10
13.51157669343302
 20
-0.5476876088795581
 30
0.0
 10
13.03254231841812
 20
-0.3574068165926853
 30
0.0
 10
12.55355021761496
 20
-0.0947967972772546
 30
0.0
 10
12.1947683580801
 20
0.1186959018393405
 30
0.0
 10
11.99607984665871
 20
0.2245021416254708
 30
0.0
 10
11.95692193816415
 20
0.2453546359446383
 30
0.0
  0
SPLINE
  5
D2
330
1F
100
AcDbEntity
  8
0
  6
Continuous
 62
     1
370
    25
100
AcDbSpline
210
0.0
220
0.0
230
1.0
 70
     8
 71
     3
 72
    16
 73
    12
 74
     0
 42
0.000000001
 43
0.00000001
 40
0.0
 40
0.0
 40
0.0
 40
0.0
 40
0.1122849527658424
 40
0.2365461008648111
 40
0.3608142989842065
 40
0.4850889409954966
 40
0.6093694161394787
 40
0.7336551094536338
 40
0.8579454022059668
 40
0.9720785217796445
 40
1.0
 40
1.0
 40
1.0
 40
1.0
 10
19.5160980955806
 20
-0.5005041798868473
 30
0.0
 10
19.37179309423788
 20
-0.5388526785473634
 30
0.0
 10
19.06779167141058
 20
-0.6196398865277728
 30
0.0
 10
18.6040775535464
 20
-0.5905829419911847
 30
0.0
 10
18.12494901086345
 20
-0.4468466797550373
 30
0.0
 10
17.64579266783494
 20
-0.2070455337188511
 30
0.0
 10
17.16660140069343
 20
0.0746297318392429
 30
0.0
 10
16.68741583407355
 20
0.3434580191127383
 30
0.0
 10
16.22115961341212
 20
0.5258806775517901
 30
0.0
 10
15.87906057503792
 20
0.6082024944372837
 30
0.0
 10
15.69655463698071
 20
0.5930855801755057
 30
0.0
 10
15.66068226358567
 20
0.5901142818235074
 30
0.0
  0
SPLINE
  5
D3
330
1F
100
AcDbEntity
  8
0
  6
Continuous
 62
     1
370
    25
100
AcDbSpline
210
0.0
220
0.0
230
1.0
 70
     8
 71
     3
 72
    10
 73
     6
 74
     0
 42
0.000000001
 43
0.00000001
 40
0.0
 40
0.0
 40
0.0
 40
0.0
 40
0.4204690781267759
 40
0.88578494727182
 40
1.0
 40
1.0
 40
1.0
 40
1.0
 10
12.98642038433742
 20
-0.5005041798868477
 30
0.0
 10
12.84213007086077
 20
-0.538789321432009
 30
0.0
 10
12.538159590358
 20
-0.6194430575782136
 30
0.0
 10
12.19476838118987
 20
-0.598738976359936
 30
0.0
 10
11.99607985046339
 20
-0.555969958820743
 30
0.0
 10
11.95692193816415
 20
-0.5475409597647789
 30
0.0
  0
SPLINE
  5
D4
330
1F
100
AcDbEntity
  8
0
  6
Continuous
 62
     4
370
    25
100
AcDbSpline
210
0.0
220
0.0
230
1.0
 70
    24
 71
     3
 72
    16
 73
    12
 74
     0
 42
0.000000001
 43
0.00000001
 40
0.0
 40
0.0
 40
0.0
 40
0.0
 40
0.1249999999999999
 40
0.1249999999999999
 40
0.2499999999999997
 40
0.2499999999999997
 40
0.4999999999999998
 40
0.4999999999999998
 40
0.7499999999999999
 40
0.7499999999999999
 40
1.0
 40
1.0
 40
1.0
 40
1.0
 10
11.95692193816529
 20
-0.0152273424499019
 30
0.0
 10
11.95692193816529
 20
-0.0177116476440168
 30
0.0
 10
11.95692193816529
 20
-0.0213069027591522
 30
0.0
 10
11.95692193816529
 20
-0.0321122735317175
 30
0.0
 10
11.95692193816529
 20
-0.0393783011714576
 30
0.0
 10
11.95692193816529
 20
-0.0687384799550798
 30
0.0
 10
11.95692193816529
 20
-0.0986423507836829
 30
0.0
 10
11.95692193816529
 20
-0.1880869307694725
 30
0.0
 10
11.95692193816529
 20
-0.2483585503671494
 30
0.0
 10
11.95692193816529
 20
-0.3908424869709869
 30
0.0
 10
11.95692193816529
 20
-0.4724745194668176
 30
0.0
 10
11.95692193816529
 20
-0.547540959764929
 30
0.0
  0
SPLINE
  5
D5
330
1F
100
AcDbEntity
  8
0
  6
Continuous
 62
     1
370
    25
100
AcDbSpline
210
0.0
220
0.0
230
1.0
 70
     8
 71
     3
 72
    14
 73
    10
 74
     0
 42
0.000000001
 43
0.00000001
 40
0.0
 40
0.0
 40
0.0
 40
0.0
 40
0.1520235022061513
 40
0.3040732471754956
 40
0.4561526385274784
 40
0.6195043890922608
 40
0.7828677582395568
 40
0.946241970543397
 40
1.0
 40
1.0
 40
1.0
 40
1.0
 10
21.85752604760269
 20
-0.569597751835974
 30
0.0
 10
21.70897302695677
 20
-0.532422314606883
 30
0.0
 10
21.4118413419869
 20
-0.4580650228107128
 30
0.0
 10
20.9660772521818
 20
-0.2357770350517165
 30
0.0
 10
20.50925024073113
 20
0.0275414418906103
 30
0.0
 10
20.04125039963288
 20
0.2976959378217575
 30
0.0
 10
19.56223462311126
 20
0.5027731897873933
 30
0.0
 10
19.1903258165881
 20
0.6054870632805076
 30
0.0
 10
18.97809128326275
 20
0.5898717948392472
 30
0.0
 10
18.92554583813812
 20
0.5860057358236351
 30
0.0
  0
SPLINE
  5
D6
330
1F
100
AcDbEntity
  8
0
  6
Continuous
 62
     1
370
    25
100
AcDbSpline
210
0.0
220
0.0
230
1.0
 70
     8
 71
     3
 72
    17
 73
    13
 74
     0
 42
0.000000001
 43
0.00000001
 40
0.0
 40
0.0
 40
0.0
 40
0.0
 40
0.009585848938138
 40
0.1238872660205939
 40
0.2383331740016467
 40
0.3541244324041593
 40
0.4699356790488184
 40
0.5857695063596443
 40
0.7101891157335966
 40
0.8346175745964144
 40
0.9590542923318611
 40
1.0
 40
1.0
 40
1.0
 40
1.0
 10
16.24507763091284
 20
-0.5039097411211535
 30
0.0
 10
16.2327753473871
 20
-0.5088386589893192
 30
0.0
 10
16.0737809503703
 20
-0.572539867204449
 30
0.0
 10
15.76814277653948
 20
-0.6088614062392059
 30
0.0
 10
15.32612267309141
 20
-0.588427661228545
 30
0.0
 10
14.88216353970509
 20
-0.4528782791159519
 30
0.0
 10
14.43639956528157
 20
-0.2371639260590004
 30
0.0
 10
13.97957252242335
 20
0.0279439331556929
 30
0.0
 10
13.51157269034388
 20
0.297584601847892
 30
0.0
 10
13.03255691132876
 20
0.5028039165651764
 30
0.0
 10
12.66064810538181
 20
0.6054849609164743
 30
0.0
 10
12.44841357202689
 20
0.5898713776262288
 30
0.0
 10
12.39586812689492
 20
0.5860057358236344
 30
0.0
  0
SPLINE
  5
D7
330
1F
100
AcDbEntity
  8
0
  6
Continuous
 62
     1
370
    25
100
AcDbSpline
210
0.0
220
0.0
230
1.0
 70
     8
 71
     3
 72
    16
 73
    12
 74
     0
 42
0.000000001
 43
0.00000001
 40
0.0
 40
0.0
 40
0.0
 40
0.0
 40
0.090120887529926
 40
0.2148981013441711
 40
0.3396744791603019
 40
0.4644493866175698
 40
0.5892221904269045
 40
0.7139922588312838
 40
0.8387589620637034
 40
0.9635216728020357
 40
1.0
 40
1.0
 40
1.0
 40
1.0
 10
12.98642038433743
 20
0.5005041798868487
 30
0.0
 10
13.10177308450976
 20
0.5338836068946442
 30
0.0
 10
13.37683779959844
 20
0.6134786451209342
 30
0.0
 10
13.81180825495779
 20
0.60167818269026
 30
0.0
 10
14.29108746539598
 20
0.4758291079301276
 30
0.0
 10
14.77037781524584
 20
0.246993337316805
 30
0.0
 10
15.24965365354805
 20
-0.0318569249302891
 30
0.0
 10
15.72891824951991
 20
-0.3067419525230763
 30
0.0
 10
16.20816671631211
 20
-0.5083661587441225
 30
0.0
 10
16.57436605158753
 20
-0.6073368128630185
 30
0.0
 10
16.78081419142423
 20
-0.5906642314110213
 30
0.0
 10
16.82751993638073
 20
-0.586892313980913
 30
0.0
  0
SPLINE
  5
D8
330
1F
100
AcDbEntity
  8
0
  6
Continuous
 62
     1
370
    25
100
AcDbSpline
210
0.0
220
0.0
230
1.0
 70
     8
 71
     3
 72
    13
 73
     9
 74
     0
 42
0.000000001
 43
0.00000001
 40
0.0
 40
0.0
 40
0.0
 40
0.0
 40
0.1417946837569476
 40
0.3381170465054156
 40
0.5344380939085569
 40
0.7307568278738739
 40
0.9270722519950294
 40
1.0
 40
1.0
 40
1.0
 40
1.0
 10
19.51609809558061
 20
0.5005041798868493
 30
0.0
 10
19.63145128006708
 20
0.5338825609236941
 30
0.0
 10
19.90651715002886
 20
0.6134751049760194
 30
0.0
 10
20.34147637232524
 20
0.6016989025382203
 30
0.0
 10
20.82080076643339
 20
0.475752244820179
 30
0.0
 10
21.29992276372638
 20
0.247280064426116
 30
0.0
 10
21.67928745542391
 20
0.0257761099615944
 30
0.0
 10
21.89774900322653
 20
-0.0990698891974985
 30
0.0
 10
21.95692193816529
 20
-0.1328859280378001
 30
0.0
  0
LINE
  5
D9
330
1F
100
AcDbEntity
  8
0
  6
Continuous
 62
     1
370
    25
100
AcDbLine
 10
21.95692193816529
 20
-0.4999999999999994
 30
0.0
 11
21.95692193816529
 21
-0.1334295366590168
 31
0.0
  0
SPLINE
  5
DA
330
1F
100
AcDbEntity
  8
0
  6
Continuous
 62
     1
370
    25
100
AcDbSpline
210
0.0
220
0.0
230
1.0
 70
    24
 71
     3
 72
     8
 73
     4
 74
     0
 42
0.000000001
 43
0.00000001
 40
0.0
 40
0.0
 40
0.0
 40
0.0
 40
1.0
 40
1.0
 40
1.0
 40
1.0
 10
21.95692193816529
 20
-0.4999999999999994
 30
0.0
 10
21.92214974265161
 20
-0.5243477534187756
 30
0.0
 10
21.88909225046464
 20
-0.5474948586424039
 30
0.0
 10
21.85752604760612
 20
-0.569597751836595
 30
0.0
  0
SPLINE
  5
DB
330
1F
100
AcDbEntity
  8
0
  6
Continuous
 62
     1
370
    25
100
AcDbSpline
210
0.0
220
0.0
230
1.0
 70
     8
 71
     3
 72
    10
 73
     6
 74
     0
 42
0.000000001
 43
0.00000001
 40
0.0
 40
0.0
 40
0.0
 40
0.0
 40
0.3426022644362117
 40
0.6852636699260347
 40
1.0
 40
1.0
 40
1.0
 40
1.0
 10
21.85752604760269
 20
0.1885693535627213
 30
0.0
 10
21.70897261526252
 20
0.2660846012262675
 30
0.0
 10
21.4118401068331
 20
0.4211284774731427
 30
0.0
 10
20.97822003812022
 20
0.5727509737222978
 30
0.0
 10
20.69314538796251
 20
0.5884120011469653
 30
0.0
 10
20.55666279252004
 20
0.5959098886968828
 30
0.0
  0
SPLINE
  5
DC
330
1F
100
AcDbEntity
  8
0
  6
Continuous
 62
     1
370
    25
100
AcDbSpline
210
0.0
220
0.0
230
1.0
 70
     8
 71
     3
 72
    16
 73
    12
 74
     0
 42
0.000000001
 43
0.00000001
 40
0.0
 40
0.0
 40
0.0
 40
0.0
 40
0.0586841169011538
 40
0.1833049385818628
 40
0.3079309927228908
 40
0.4325616588978232
 40
0.547007336111208
 40
0.6615976865855476
 40
0.7775350854517921
 40
0.8934924977873964
 40
0.9999999999999999
 40
0.9999999999999999
 40
0.9999999999999999
 40
0.9999999999999999
 10
17.87144517896478
 20
-0.495927285407717
 30
0.0
 10
17.79622970304501
 20
-0.5216924673637376
 30
0.0
 10
17.56128762805216
 20
-0.602172252106073
 30
0.0
 10
17.16660143632731
 20
-0.6134078107868225
 30
0.0
 10
16.68741479007043
 20
-0.5202319912736506
 30
0.0
 10
16.22116361272175
 20
-0.3182751469854767
 30
0.0
 10
15.76812956088639
 20
-0.0643372557075568
 30
0.0
 10
15.32612658851788
 20
0.1957592505283786
 30
0.0
 10
14.88216125098169
 20
0.4194379552518188
 30
0.0
 10
14.44854258600648
 20
0.5731336933843458
 30
0.0
 10
14.1634677606146
 20
0.588535909758069
 30
0.0
 10
14.02698508127686
 20
0.5959098886968823
 30
0.0
  0
SPLINE
  5
DD
330
1F
100
AcDbEntity
  8
0
  6
Continuous
 62
     1
370
    25
100
AcDbSpline
210
0.0
220
0.0
230
1.0
 70
     8
 71
     3
 72
    16
 73
    12
 74
     0
 42
0.000000001
 43
0.00000001
 40
0.0
 40
0.0
 40
0.0
 40
0.0
 40
0.0410293173375611
 40
0.1655596570841852
 40
0.2900872667414146
 40
0.414611517766036
 40
0.5391317840549625
 40
0.6636474423954002
 40
0.7881578729105179
 40
0.8974288832655724
 40
1.0
 40
1.0
 40
1.0
 40
1.0
 10
14.61247013631903
 20
0.4965679466793613
 30
0.0
 10
14.66510658951285
 20
0.5158757890822707
 30
0.0
 10
14.87750283947239
 20
0.5937859268737851
 30
0.0
 10
15.24965369234484
 20
0.616249456163079
 30
0.0
 10
15.72891862028614
 20
0.54281391855865
 30
0.0
 10
16.20816519451727
 20
0.3489000986053593
 30
0.0
 10
16.68740364484671
 20
0.0841989058242134
 30
0.0
 10
17.16658259959135
 20
-0.1992955142230744
 30
0.0
 10
17.62633302767027
 20
-0.4286422477293425
 30
0.0
 10
18.05747145866742
 20
-0.5748895483511995
 30
0.0
 10
18.32904620638199
 20
-0.5899027620758645
 30
0.0
 10
18.46053905689604
 20
-0.5971719588058473
 30
0.0
  0
SPLINE
  5
DE
330
1F
100
AcDbEntity
  8
0
  6
Continuous
 62
     1
370
    25
100
AcDbSpline
210
0.0
220
0.0
230
1.0
 70
     8
 71
     3
 72
    10
 73
     6
 74
     0
 42
0.000000001
 43
0.00000001
 40
0.0
 40
0.0
 40
0.0
 40
0.0
 40
0.1936985188022381
 40
0.7816035564709531
 40
1.0
 40
1.0
 40
1.0
 40
1.0
 10
21.14214784756222
 20
0.4965679466793613
 30
0.0
 10
21.19477724798223
 20
0.5158585646283987
 30
0.0
 10
21.40714503890592
 20
0.5936991990778748
 30
0.0
 10
21.67929238738347
 20
0.6110895163896741
 30
0.0
 10
21.89775005438745
 20
0.5906387537741984
 30
0.0
 10
21.95692193816529
 20
0.5850994190131584
 30
0.0
  0
LINE
  5
DF
330
1F
100
AcDbEntity
  8
0
  6
Continuous
 62
     1
370
    25
100
AcDbLine
 10
21.95692193816529
 20
0.1347180389801061
 30
0.0
 11
21.95692193816529
 21
0.5850994190131584
 31
0.0
  0
SPLINE
  5
E0
330
1F
100
AcDbEntity
  8
0
  6
Continuous
 62
     1
370
    25
100
AcDbSpline
210
0.0
220
0.0
230
1.0
 70
     8
 71
     3
 72
     8
 73
     4
 74
     0
 42
0.000000001
 43
0.00000001
 40
0.0
 40
0.0
 40
0.0
 40
0.0
 40
1.0
 40
1.0
 40
1.0
 40
1.0
 10
21.95692193816529
 20
0.1347180389801062
 30
0.0
 10
21.92214974265161
 20
0.1481566925502289
 30
0.0
 10
21.88909225046464
 20
0.1663119789696771
 30
0.0
 10
21.85752604760612
 20
0.188569353560842
 30
0.0
  0
SPLINE
  5
E1
330
1F
100
AcDbEntity
  8
0
  6
Continuous
 62
     4
370
    25
100
AcDbSpline
210
0.0
220
0.0
230
1.0
 70
    24
 71
     3
 72
    14
 73
    10
 74
     0
 42
0.000000001
 43
0.00000001
 40
0.0
 40
0.0
 40
0.0
 40
0.0
 40
0.2581974499353415
 40
0.3987612658178499
 40
0.5434014418834199
 40
0.6839652577703287
 40
0.8286054338315055
 40
0.9691692497140303
 40
1.0
 40
1.0
 40
1.0
 40
1.0
 10
11.95692193816529
 20
0.5998067422439949
 30
0.0
 10
11.95692193816528
 20
0.5576312710441531
 30
0.0
 10
11.95692193816528
 20
0.4924952896999345
 30
0.0
 10
11.95692193816529
 20
0.4137448625611907
 30
0.0
 10
11.95692193816528
 20
0.3585530698139052
 30
0.0
 10
11.95692193816528
 20
0.3109307627079058
 30
0.0
 10
11.95692193816529
 20
0.2742892529165447
 30
0.0
 10
11.95692193816528
 20
0.2522199204409015
 30
0.0
 10
11.95692193816529
 20
0.2464012995155364
 30
0.0
 10
11.95692193816529
 20
0.2453546359440536
 30
0.0
  0
SPLINE
  5
E2
330
1F
100
AcDbEntity
  8
0
  6
Continuous
 62
     1
370
    25
100
AcDbSpline
210
0.0
220
0.0
230
1.0
 70
     8
 71
     3
 72
    14
 73
    10
 74
     0
 42
0.000000001
 43
0.00000001
 40
0.0
 40
0.0
 40
0.0
 40
0.0
 40
0.1415724838244338
 40
0.2831445347127378
 40
0.4247163245665829
 40
0.5726611913166835
 40
0.7206050668471069
 40
0.8685471990139833
 40
1.0
 40
1.0
 40
1.0
 40
1.0
 10
11.95692193816419
 20
0.5998067422444776
 30
0.0
 10
12.10976367822095
 20
0.5861475015481574
 30
0.0
 10
12.41544669093635
 20
0.5588290619261964
 30
0.0
 10
12.87398457427548
 20
0.37994896754943
 30
0.0
 10
13.33934423404057
 20
0.1330590336189488
 30
0.0
 10
13.81180756145618
 20
-0.1481166931467605
 30
0.0
 10
14.29108762540419
 20
-0.3987513313014013
 30
0.0
 10
14.75257362469858
 20
-0.5711248143220609
 30
0.0
 10
15.05429004193022
 20
-0.58651888295411
 30
0.0
 10
15.19624490024135
 20
-0.5937616536708807
 30
0.0
  0
SPLINE
  5
E3
330
1F
100
AcDbEntity
  8
0
  6
Continuous
 62
     1
370
    25
100
AcDbSpline
210
0.0
220
0.0
230
1.0
 70
     8
 71
     3
 72
    16
 73
    12
 74
     0
 42
0.000000001
 43
0.00000001
 40
0.0
 40
0.0
 40
0.0
 40
0.0
 40
0.0505157967812653
 40
0.1596761059772241
 40
0.2786428468710486
 40
0.3976092239582986
 40
0.5165753816920556
 40
0.6408969882201809
 40
0.7652177618027269
 40
0.8895370703952286
 40
1.0
 40
1.0
 40
1.0
 40
1.0
 10
17.87144517896478
 20
0.4959272854077188
 30
0.0
 10
17.93632190025208
 20
0.5182402171341114
 30
0.0
 10
18.14139165830384
 20
0.5887694827900253
 30
0.0
 10
18.49913072555706
 20
0.6146272035062985
 30
0.0
 10
18.94514318748911
 20
0.5544024891395558
 30
0.0
 10
19.40365725941335
 20
0.3811333196603002
 30
0.0
 10
19.8690233596715
 20
0.1327257471075381
 30
0.0
 10
20.34148488671384
 20
-0.1480257394688956
 30
0.0
 10
20.82076543998178
 20
-0.3987756810333143
 30
0.0
 10
21.2822513134392
 20
-0.5711195118166867
 30
0.0
 10
21.58396774597361
 20
-0.5865171863908196
 30
0.0
 10
21.72592261148454
 20
-0.5937616536708804
 30
0.0
  0
LINE
  5
E4
330
1F
100
AcDbEntity
  8
0
  6
Continuous
 62
     1
370
    25
100
AcDbLine
 10
21.95692193816529
 20
0.5850994190131584
 30
0.0
 11
21.95692193816529
 21
0.6000000000000023
 31
0.0
  0
LINE
  5
E5
330
1F
100
AcDbEntity
  8
0
  6
Continuous
 62
     1
370
    25
100
AcDbLine
 10
21.85752604760573
 20
-0.5695977518368673
 30
0.0
 11
21.8326793979921
 21
-0.5869955631955938
 31
0.0
  0
ELLIPSE
  5
E6
330
1F
100
AcDbEntity
  8
0
  6
Continuous
 62
     1
370
    25
100
AcDbEllipse
 10
21.71269424518718
 20
0.0000000000000011
 30
0.0
 11
0.8335939833959749
 21
-0.3302046036250583
 31
0.0
210
0.0
220
0.0
230
1.0
 40
0.6009688174887292
 41
5.086581568774607
 42
5.235119673336841
  0
LINE
  5
E7
330
1F
100
AcDbEntity
  8
0
  6
Continuous
 62
     1
370
    25
100
AcDbLine
 10
21.95692193816529
 20
-0.6000000000000014
 30
0.0
 11
21.95692193816529
 21
-0.5989188155876871
 31
0.0
  0
ELLIPSE
  5
E8
330
1F
100
AcDbEntity
  8
0
  6
Continuous
 62
     1
370
    25
100
AcDbEllipse
 10
22.67099594153634
 20
0.0000000000000004
 30
0.0
 11
0.8568888040452691
 21
0.0
 31
0.0
210
0.0
220
0.0
230
1.0
 40
0.7002075382097105
 41
2.821892147869354
 42
2.933012639234685
  0
ELLIPSE
  5
E9
330
1F
100
AcDbEntity
  8
0
  6
Continuous
 62
     1
370
    25
100
AcDbEllipse
 10
21.71269424518718
 20
0.0000000000000004
 30
0.0
 11
0.8514615395884704
 21
-0.5833044422444441
 31
0.0
210
0.0
220
0.0
230
1.0
 40
0.1650759015746655
 41
1.394381293938612
 42
1.542919398500844
  0
LINE
  5
EA
330
1F
100
AcDbEntity
  8
0
  6
Continuous
 62
     1
370
    25
100
AcDbLine
 10
21.95692193816529
 20
-0.1328859280378001
 30
0.0
 11
21.95692193816529
 21
0.0360035044827862
 31
0.0
  0
LINE
  5
EB
330
1F
100
AcDbEntity
  8
0
  6
Continuous
 62
     1
370
    25
100
AcDbLine
 10
21.95692193816529
 20
0.0360035044827863
 30
0.0
 11
21.95692193816529
 21
0.1347180389801061
 31
0.0
  0
LINE
  5
EC
330
1F
100
AcDbEntity
  8
0
  6
Continuous
 62
     1
370
    25
100
AcDbLine
 10
21.95692193816529
 20
-0.4999999999999989
 30
0.0
 11
21.95692193816529
 21
-0.5989188155876871
 31
0.0
  0
LINE
  5
ED
330
1F
100
AcDbEntity
  8
중심선
100
AcDbLine
 10
-41.04307806183471
 20
-0.0000000000000043
 30
0.0
 11
23.45692193816527
 21
0.0000000000000036
 31
0.0
  0
CIRCLE
  5
EE
330
1F
100
AcDbEntity
  8
해칭선
100
AcDbCircle
 10
0.000047274983218
 20
-0.0000000000000042
 30
0.0
 40
3.000000000000003
  0
INSERT
  5
EF
330
1F
100
AcDbEntity
  8
0
  6
Continuous
 62
     7
100
AcDbBlockReference
 66
     1
  2
블럭10
 10
-22.44009924894178
 20
-52.04717430164393
 30
0.0
  0
ATTRIB
  5
F0
330
EF
100
AcDbEntity
  8
FORMAT
 62
     2
100
AcDbText
 10
-38.55936028837733
 20
-49.97180738881174
 30
0.0
 40
4.233333333333333
  1
SEME7201210E [ 4 FLUTE ]
 41
0.75
  7
SLDTEXTSTYLE0
 11
-38.55936028837733
 21
-52.08847405547841
 31
0.0
100
AcDbAttribute
  2
AUTOATTR0
 70
     0
 74
     1
  0
SEQEND
  5
F1
330
EF
100
AcDbEntity
  8
0
  6
Continuous
 62
     7
  0
HATCH
  5
F2
330
1F
100
AcDbEntity
  8
중심선
100
AcDbHatch
 10
0.0
 20
0.0
 30
0.0
210
0.0
220
0.0
230
1.0
  2
SOLID
 70
     1
 71
     0
 91
        1
 92
        0
 93
        4
 72
     1
 10
-16.72518994456093
 20
-35.8
 11
-20.17146518839821
 21
-35.8
 72
     1
 10
-20.17146518839821
 20
-35.8
 11
-22.29969504760223
 21
-38.33632558057259
 72
     1
 10
-22.29969504760223
 20
-38.33632558057259
 11
-18.85338671865181
 21
-38.3362861512701
 72
     1
 10
-18.85338671865181
 20
-38.3362861512701
 11
-16.72518994456093
 21
-35.8
 97
        0
 75
     0
 76
     1
 98
        1
 10
0.0
 20
0.0
  0
HATCH
  5
F3
330
1F
100
AcDbEntity
  8
중심선
100
AcDbHatch
 10
0.0
 20
0.0
 30
0.0
210
0.0
220
0.0
230
1.0
  2
SOLID
 70
     1
 71
     0
 91
        1
 92
        0
 93
        4
 72
     1
 10
-11.71242595352495
 20
-35.8
 11
-15.15870119736223
 21
-35.8
 72
     1
 10
-15.15870119736223
 20
-35.8
 11
-19.68983920571965
 21
-41.20000000000002
 72
     1
 10
-19.68983920571965
 20
-41.20000000000002
 11
-16.24356396188237
 21
-41.20000000000002
 72
     1
 10
-16.24356396188237
 20
-41.20000000000002
 11
-11.71242595352495
 21
-35.8
 97
        0
 75
     0
 76
     1
 98
        1
 10
0.0
 20
0.0
  0
HATCH
  5
F4
330
1F
100
AcDbEntity
  8
중심선
100
AcDbHatch
 10
0.0
 20
0.0
 30
0.0
210
0.0
220
0.0
230
1.0
  2
SOLID
 70
     1
 71
     0
 91
        1
 92
        0
 93
        4
 72
     1
 10
-6.699661962489084
 20
-35.8
 11
-10.14593720632617
 21
-35.8
 72
     1
 10
-10.14593720632617
 20
-35.8
 11
-17.19437410821545
 21
-44.20000000000002
 72
     1
 10
-17.19437410821545
 20
-44.20000000000002
 11
-13.74809886437817
 21
-44.20000000000002
 72
     1
 10
-13.74809886437817
 20
-44.20000000000002
 11
-6.699661962489084
 21
-35.8
 97
        0
 75
     0
 76
     1
 98
        1
 10
0.0
 20
0.0
  0
HATCH
  5
F5
330
1F
100
AcDbEntity
  8
중심선
100
AcDbHatch
 10
0.0
 20
0.0
 30
0.0
210
0.0
220
0.0
230
1.0
  2
SOLID
 70
     1
 71
     0
 91
        1
 92
        0
 93
        6
 72
     3
 10
-1.899771531476885
 20
-40.00000000005127
 11
3.960054785062284
 21
1.540850780301639E-10
 40
0.3939339440162633
 50
17.09539180608433
 51
320.0019657685086
 73
     0
 72
     1
 10
-0.2167718757762893
 20
-38.58789400463833
 11
2.088529997924748
 21
-36.65356729459038
 72
     3
 10
-1.899771531529731
 20
-40.00000000000015
 11
6.600054785286829
 21
-1.249000902703301E-13
 40
0.6363583540795982
 50
39.99873849337408
 51
368.4976242363725
 73
     1
 72
     1
 10
4.525560960370878
 20
-39.03999999993002
 11
-3.219704224693809
 21
-39.03999999993002
 72
     1
 10
-3.219704224693809
 20
-39.03999999993002
 11
-3.219729269139743
 21
-40.95999999992991
 72
     1
 10
-3.219729269139743
 20
-40.95999999992991
 11
1.221650500332294
 21
-40.95999999992988
 97
        0
 75
     0
 76
     1
 98
        1
 10
0.0
 20
0.0
  0
DIMENSION
  5
F6
330
1F
100
AcDbEntity
  8
치수문자_일반주서
100
AcDbDimension
  2
_D
 10
32.76465125949718
 20
0.600000000000044
 30
0.0
 11
32.76465125949711
 21
11.57900000000004
 31
0.0
 70
   160
  1
%%c<>
 71
     2
 42
1.200000000000008
 52
-270.0
  3
SLDDIMSTYLE0
100
AcDbAlignedDimension
 13
21.9569219381653
 23
-0.6000000000000042
 33
0.0
 14
21.9569219381653
 24
0.6000000000000033
 34
0.0
 50
90.0000000000002
100
AcDbRotatedDimension
  0
DIMENSION
  5
104
330
1F
100
AcDbEntity
  8
치수문자_일반주서
100
AcDbDimension
  2
_D_1
 10
21.95692193816529
 20
20.38913260158165
 30
0.0
 11
-8.043078061834718
 21
20.38913260158165
 31
0.0
 70
   160
  1
<>
 71
     2
 42
60.00000000000001
  3
SLDDIMSTYLE1
100
AcDbAlignedDimension
 13
-38.04307806183472
 23
2.499999999999994
 33
0.0
 14
21.95692193816529
 24
0.6000000000000014
 34
0.0
 50
-0.0000000000000068
100
AcDbRotatedDimension
  0
DIMENSION
  5
10F
330
1F
100
AcDbEntity
  8
치수문자_일반주서
100
AcDbDimension
  2
_D_2
 10
-47.38687276814505
 20
-3.000000000000037
 30
0.0
 11
-47.38687276814511
 21
12.66649999999997
 31
0.0
 70
   160
  1
%%c<>
 71
     2
 42
6.000000000000005
 52
-270.0
  3
SLDDIMSTYLE2
100
AcDbAlignedDimension
 13
-37.54307806183471
 23
3.000000000000003
 33
0.0
 14
-37.54307806183471
 24
-3.000000000000002
 34
0.0
 50
90.0000000000002
100
AcDbRotatedDimension
  0
DIMENSION
  5
11D
330
1F
100
AcDbEntity
  8
치수문자_일반주서
100
AcDbDimension
  2
_D_3
 10
21.95692193816529
 20
11.44572504483165
 30
0.0
 11
16.95692193816529
 21
11.44572504483165
 31
0.0
 70
   160
  1
<>
 71
     2
 42
10.0
  3
SLDDIMSTYLE2
100
AcDbAlignedDimension
 13
11.95692193816529
 23
0.5998067422439949
 33
0.0
 14
21.95692193816529
 24
0.6000000000000014
 34
0.0
100
AcDbRotatedDimension
  0
INSERT
  5
12F
330
1F
100
AcDbEntity
  8
해칭선
100
AcDbBlockReference
  2
SW_DOWELSYMBOL_0
 10
0.000047274983218
 20
-0.0000000000000042
 30
0.0
  0
ENDSEC
  0
SECTION
  2
OBJECTS
  0
DICTIONARY
  5
C
330
0
100
AcDbDictionary
281
     1
  3
ACAD_GROUP
350
D
  3
ACAD_IMAGE_VARS
350
153
  3
ACAD_LAYOUT
350
1A
  3
ACAD_MLINESTYLE
350
17
  3
ACAD_PLOTSETTINGS
350
19
  3
ACAD_PLOTSTYLENAME
350
E
  3
ACAD_SCALELIST
350
47
  3
APPDATA
350
151
  3
DWGPROPS
350
160
  0
DICTIONARY
  5
D
102
{ACAD_REACTORS
330
C
102
}
330
C
100
AcDbDictionary
281
     1
  0
RASTERVARIABLES
  5
153
102
{ACAD_REACTORS
330
C
102
}
330
C
100
AcDbRasterVariables
 90
        0
 70
     1
 71
     1
 72
     1
  0
DICTIONARY
  5
1A
102
{ACAD_REACTORS
330
C
102
}
330
C
100
AcDbDictionary
281
     1
  3
Layout1
350
1E
  3
Layout2
350
26
  3
Model
350
22
  0
DICTIONARY
  5
17
102
{ACAD_REACTORS
330
C
102
}
330
C
100
AcDbDictionary
281
     1
  3
Standard
350
18
  0
DICTIONARY
  5
19
102
{ACAD_REACTORS
330
C
102
}
330
C
100
AcDbDictionary
281
     1
  0
ACDBDICTIONARYWDFLT
  5
E
102
{ACAD_REACTORS
330
C
102
}
330
C
100
AcDbDictionary
281
     1
  3
Normal
350
F
100
AcDbDictionaryWithDefault
340
F
  0
DICTIONARY
  5
47
102
{ACAD_REACTORS
330
C
102
}
330
C
100
AcDbDictionary
281
     1
  3
A0
350
48
  3
A1
350
49
  3
A2
350
4A
  3
A3
350
4B
  3
A4
350
4C
  3
A5
350
4D
  3
A6
350
4E
  3
A7
350
4F
  3
A8
350
50
  3
A9
350
51
  3
B0
350
52
  3
B1
350
53
  3
B2
350
54
  3
B3
350
55
  3
B4
350
56
  3
B5
350
57
  3
B6
350
58
  3
B7
350
59
  3
B8
350
5A
  3
B9
350
5B
  3
C0
350
5C
  3
C1
350
5D
  3
C2
350
5E
  3
C3
350
5F
  3
C4
350
60
  3
C5
350
61
  3
C6
350
62
  3
C7
350
63
  3
C8
350
64
  3
C9
350
65
  3
D0
350
66
  3
D1
350
67
  3
D2
350
68
  0
DICTIONARY
  5
151
102
{ACAD_REACTORS
330
C
102
}
330
C
100
AcDbDictionary
281
     1
  0
XRECORD
  5
160
102
{ACAD_REACTORS
330
C
102
}
330
C
100
AcDbXrecord
280
     1
  1
DWGPROPS COOKIE
  2

  3

  4

  6

  7

  8
12014102
  9

300
=
301
=
302
=
303
=
304
=
305
=
306
=
307
=
308
=
309
=
 40
0.0
 41
2458260.191248843
 42
2458268.090557465
  1

 90
        0
  0
LAYOUT
  5
1E
102
{ACAD_REACTORS
330
1A
102
}
330
1A
100
AcDbPlotSettings
  1

  2
none_device
  4

  6

 40
0.0
 41
0.0
 42
0.0
 43
0.0
 44
0.0
 45
0.0
 46
0.0
 47
0.0
 48
0.0
 49
0.0
140
0.0
141
0.0
142
1.0
143
1.0
 70
   688
 72
     1
 73
     0
 74
     5
  7

 75
    16
147
1.0
148
0.0
149
0.0
100
AcDbLayout
  1
Layout1
 70
     1
 71
     1
 10
0.0
 20
0.0
 11
420.0
 21
297.0
 12
0.0
 22
0.0
 32
0.0
 14
1.000000000000000E+20
 24
1.000000000000000E+20
 34
1.000000000000000E+20
 15
-1.000000000000000E+20
 25
-1.000000000000000E+20
 35
-1.000000000000000E+20
146
0.0
 13
0.0
 23
0.0
 33
0.0
 16
1.0
 26
0.0
 36
0.0
 17
0.0
 27
1.0
 37
0.0
 76
     0
330
1B
  0
LAYOUT
  5
26
102
{ACAD_REACTORS
330
1A
102
}
330
1A
100
AcDbPlotSettings
  1

  2
none_device
  4

  6

 40
0.0
 41
0.0
 42
0.0
 43
0.0
 44
0.0
 45
0.0
 46
0.0
 47
0.0
 48
0.0
 49
0.0
140
0.0
141
0.0
142
1.0
143
1.0
 70
   688
 72
     1
 73
     0
 74
     5
  7

 75
    16
147
1.0
148
0.0
149
0.0
100
AcDbLayout
  1
Layout2
 70
     1
 71
     2
 10
0.0
 20
0.0
 11
0.0
 21
0.0
 12
0.0
 22
0.0
 32
0.0
 14
0.0
 24
0.0
 34
0.0
 15
0.0
 25
0.0
 35
0.0
146
0.0
 13
0.0
 23
0.0
 33
0.0
 16
1.0
 26
0.0
 36
0.0
 17
0.0
 27
1.0
 37
0.0
 76
     0
330
23
  0
LAYOUT
  5
22
102
{ACAD_REACTORS
330
1A
102
}
330
1A
100
AcDbPlotSettings
  1

  2
none_device
  4
ANSI_A_(11.00_x_8.50_Inches)
  6

 40
6.35
 41
19.05
 42
6.35000508
 43
19.05000254
 44
279.4
 45
215.9
 46
159.1468158048696
 47
125.3847137330092
 48
0.0
 49
0.0
140
0.0
141
0.0
142
0.1112850254374008
143
1.0
 70
  1696
 72
     0
 73
     0
 74
     0
  7

 75
     0
147
0.0235690232323232
148
0.0
149
0.0
100
AcDbLayout
  1
Model
 70
     1
 71
     0
 10
0.0
 20
0.0
 11
420.0
 21
297.0
 12
0.0
 22
0.0
 32
0.0
 14
-51.76187276814511
 24
-49.97180738881174
 34
0.0
 15
33.31498459283054
 25
24.76413260158165
 35
0.0
146
0.0
 13
0.0
 23
0.0
 33
0.0
 16
1.0
 26
0.0
 36
0.0
 17
0.0
 27
1.0
 37
0.0
 76
     0
330
1F
331
29
  0
MLINESTYLE
  5
18
102
{ACAD_REACTORS
330
17
102
}
330
17
100
AcDbMlineStyle
  2
Standard
 70
     0
  3

 62
   256
 51
90.0
 52
90.0
 71
     2
 49
0.5
 62
   256
  6
BYLAYER
 49
-0.5
 62
   256
  6
BYLAYER
  0
ACDBPLACEHOLDER
  5
F
102
{ACAD_REACTORS
330
E
102
}
330
E
  0
SCALE
  5
48
102
{ACAD_REACTORS
330
47
102
}
330
47
100
AcDbScale
 70
     0
300
1:1
140
1.0
141
1.0
290
     1
  0
SCALE
  5
49
102
{ACAD_REACTORS
330
47
102
}
330
47
100
AcDbScale
 70
     0
300
1:2
140
1.0
141
2.0
290
     0
  0
SCALE
  5
4A
102
{ACAD_REACTORS
330
47
102
}
330
47
100
AcDbScale
 70
     0
300
1:4
140
1.0
141
4.0
290
     0
  0
SCALE
  5
4B
102
{ACAD_REACTORS
330
47
102
}
330
47
100
AcDbScale
 70
     0
300
1:5
140
1.0
141
5.0
290
     0
  0
SCALE
  5
4C
102
{ACAD_REACTORS
330
47
102
}
330
47
100
AcDbScale
 70
     0
300
1:8
140
1.0
141
8.0
290
     0
  0
SCALE
  5
4D
102
{ACAD_REACTORS
330
47
102
}
330
47
100
AcDbScale
 70
     0
300
1:10
140
1.0
141
10.0
290
     0
  0
SCALE
  5
4E
102
{ACAD_REACTORS
330
47
102
}
330
47
100
AcDbScale
 70
     0
300
1:16
140
1.0
141
16.0
290
     0
  0
SCALE
  5
4F
102
{ACAD_REACTORS
330
47
102
}
330
47
100
AcDbScale
 70
     0
300
1:20
140
1.0
141
20.0
290
     0
  0
SCALE
  5
50
102
{ACAD_REACTORS
330
47
102
}
330
47
100
AcDbScale
 70
     0
300
1:30
140
1.0
141
30.0
290
     0
  0
SCALE
  5
51
102
{ACAD_REACTORS
330
47
102
}
330
47
100
AcDbScale
 70
     0
300
1:40
140
1.0
141
40.0
290
     0
  0
SCALE
  5
52
102
{ACAD_REACTORS
330
47
102
}
330
47
100
AcDbScale
 70
     0
300
1:50
140
1.0
141
50.0
290
     0
  0
SCALE
  5
53
102
{ACAD_REACTORS
330
47
102
}
330
47
100
AcDbScale
 70
     0
300
1:100
140
1.0
141
100.0
290
     0
  0
SCALE
  5
54
102
{ACAD_REACTORS
330
47
102
}
330
47
100
AcDbScale
 70
     0
300
2:1
140
2.0
141
1.0
290
     0
  0
SCALE
  5
55
102
{ACAD_REACTORS
330
47
102
}
330
47
100
AcDbScale
 70
     0
300
4:1
140
4.0
141
1.0
290
     0
  0
SCALE
  5
56
102
{ACAD_REACTORS
330
47
102
}
330
47
100
AcDbScale
 70
     0
300
8:1
140
8.0
141
1.0
290
     0
  0
SCALE
  5
57
102
{ACAD_REACTORS
330
47
102
}
330
47
100
AcDbScale
 70
     0
300
10:1
140
10.0
141
1.0
290
     0
  0
SCALE
  5
58
102
{ACAD_REACTORS
330
47
102
}
330
47
100
AcDbScale
 70
     0
300
100:1
140
100.0
141
1.0
290
     0
  0
SCALE
  5
59
102
{ACAD_REACTORS
330
47
102
}
330
47
100
AcDbScale
 70
     0
300
1/128" = 1'-0"
140
0.0078125
141
12.0
290
     0
  0
SCALE
  5
5A
102
{ACAD_REACTORS
330
47
102
}
330
47
100
AcDbScale
 70
     0
300
1/64" = 1'-0"
140
0.015625
141
12.0
290
     0
  0
SCALE
  5
5B
102
{ACAD_REACTORS
330
47
102
}
330
47
100
AcDbScale
 70
     0
300
1/32" = 1'-0"
140
0.03125
141
12.0
290
     0
  0
SCALE
  5
5C
102
{ACAD_REACTORS
330
47
102
}
330
47
100
AcDbScale
 70
     0
300
1/16" = 1'-0"
140
0.0625
141
12.0
290
     0
  0
SCALE
  5
5D
102
{ACAD_REACTORS
330
47
102
}
330
47
100
AcDbScale
 70
     0
300
3/32" = 1'-0"
140
0.09375
141
12.0
290
     0
  0
SCALE
  5
5E
102
{ACAD_REACTORS
330
47
102
}
330
47
100
AcDbScale
 70
     0
300
1/8" = 1'-0"
140
0.125
141
12.0
290
     0
  0
SCALE
  5
5F
102
{ACAD_REACTORS
330
47
102
}
330
47
100
AcDbScale
 70
     0
300
3/16" = 1'-0"
140
0.1875
141
12.0
290
     0
  0
SCALE
  5
60
102
{ACAD_REACTORS
330
47
102
}
330
47
100
AcDbScale
 70
     0
300
1/4" = 1'-0"
140
0.25
141
12.0
290
     0
  0
SCALE
  5
61
102
{ACAD_REACTORS
330
47
102
}
330
47
100
AcDbScale
 70
     0
300
3/8" = 1'-0"
140
0.375
141
12.0
290
     0
  0
SCALE
  5
62
102
{ACAD_REACTORS
330
47
102
}
330
47
100
AcDbScale
 70
     0
300
1/2" = 1'-0"
140
0.5
141
12.0
290
     0
  0
SCALE
  5
63
102
{ACAD_REACTORS
330
47
102
}
330
47
100
AcDbScale
 70
     0
300
3/4" = 1'-0"
140
0.75
141
12.0
290
     0
  0
SCALE
  5
64
102
{ACAD_REACTORS
330
47
102
}
330
47
100
AcDbScale
 70
     0
300
1" = 1'-0"
140
1.0
141
12.0
290
     0
  0
SCALE
  5
65
102
{ACAD_REACTORS
330
47
102
}
330
47
100
AcDbScale
 70
     0
300
1-1/2" = 1'-0"
140
1.5
141
12.0
290
     0
  0
SCALE
  5
66
102
{ACAD_REACTORS
330
47
102
}
330
47
100
AcDbScale
 70
     0
300
3" = 1'-0"
140
3.0
141
12.0
290
     0
  0
SCALE
  5
67
102
{ACAD_REACTORS
330
47
102
}
330
47
100
AcDbScale
 70
     0
300
6" = 1'-0"
140
6.0
141
12.0
290
     0
  0
SCALE
  5
68
102
{ACAD_REACTORS
330
47
102
}
330
47
100
AcDbScale
 70
     0
300
1'-0" = 1'-0"
140
12.0
141
12.0
290
     0
  0
ENDSEC
  0
EOF
