  0
SECTION
  2
HEADER
  9
$ACADVER
  1
AC1015
  9
$ACADMAINTVER
 70
     6
  9
$DWGCODEPAGE
  3
ANSI_949
  9
$INSBASE
 10
0.0
 20
0.0
 30
0.0
  9
$EXTMIN
 10
-51.58129952378746
 20
-49.97180738881174
 30
0.0
  9
$EXTMAX
 10
32.68389683437654
 20
24.76413260158165
 30
0.0
  9
$LIMMIN
 10
0.0
 20
0.0
  9
$LIMMAX
 10
420.0
 20
297.0
  9
$ORTHOMODE
 70
     0
  9
$REGENMODE
 70
     1
  9
$FILLMODE
 70
     1
  9
$QTEXTMODE
 70
     0
  9
$MIRRTEXT
 70
     1
  9
$LTSCALE
 40
1.0
  9
$ATTMODE
 70
     1
  9
$TEXTSIZE
 40
3.5
  9
$TRACEWID
 40
1.0
  9
$TEXTSTYLE
  7
Standard
  9
$CLAYER
  8
0
  9
$CELTYPE
  6
ByLayer
  9
$CECOLOR
 62
   256
  9
$CELTSCALE
 40
1.0
  9
$DISPSILH
 70
     0
  9
$DIMSCALE
 40
1.0
  9
$DIMASZ
 40
3.302
  9
$DIMEXO
 40
1.0
  9
$DIMDLI
 40
3.75
  9
$DIMRND
 40
0.0
  9
$DIMDLE
 40
0.0
  9
$DIMEXE
 40
1.0
  9
$DIMTP
 40
0.0
  9
$DIMTM
 40
0.0
  9
$DIMTXT
 40
3.5
  9
$DIMCEN
 40
2.5
  9
$DIMTSZ
 40
0.0
  9
$DIMTOL
 70
     0
  9
$DIMLIM
 70
     0
  9
$DIMTIH
 70
     1
  9
$DIMTOH
 70
     1
  9
$DIMSE1
 70
     0
  9
$DIMSE2
 70
     0
  9
$DIMTAD
 70
     1
  9
$DIMZIN
 70
     0
  9
$DIMBLK
  1

  9
$DIMASO
 70
     1
  9
$DIMSHO
 70
     1
  9
$DIMPOST
  1

  9
$DIMAPOST
  1

  9
$DIMALT
 70
     0
  9
$DIMALTD
 70
     3
  9
$DIMALTF
 40
0.0393700787401575
  9
$DIMLFAC
 40
1.0
  9
$DIMTOFL
 70
     1
  9
$DIMTVP
 40
0.0
  9
$DIMTIX
 70
     0
  9
$DIMSOXD
 70
     0
  9
$DIMSAH
 70
     0
  9
$DIMBLK1
  1

  9
$DIMBLK2
  1

  9
$DIMSTYLE
  2
ISO-25
  9
$DIMCLRD
 70
     0
  9
$DIMCLRE
 70
     0
  9
$DIMCLRT
 70
     0
  9
$DIMTFAC
 40
1.0
  9
$DIMGAP
 40
1.524
  9
$DIMJUST
 70
     0
  9
$DIMSD1
 70
     0
  9
$DIMSD2
 70
     0
  9
$DIMTOLJ
 70
     0
  9
$DIMTZIN
 70
     0
  9
$DIMALTZ
 70
     0
  9
$DIMALTTZ
 70
     0
  9
$DIMUPT
 70
     0
  9
$DIMDEC
 70
     2
  9
$DIMTDEC
 70
     2
  9
$DIMALTU
 70
     2
  9
$DIMALTTD
 70
     3
  9
$DIMTXSTY
  7
Standard
  9
$DIMAUNIT
 70
     0
  9
$DIMADEC
 70
     2
  9
$DIMALTRND
 40
0.0
  9
$DIMAZIN
 70
     0
  9
$DIMDSEP
 70
    44
  9
$DIMATFIT
 70
     3
  9
$DIMFRAC
 70
     0
  9
$DIMLDRBLK
  1

  9
$DIMLUNIT
 70
     2
  9
$DIMLWD
 70
    -2
  9
$DIMLWE
 70
    -2
  9
$DIMTMOVE
 70
     0
  9
$LUNITS
 70
     2
  9
$LUPREC
 70
     2
  9
$SKETCHINC
 40
1.0
  9
$FILLETRAD
 40
10.0
  9
$AUNITS
 70
     0
  9
$AUPREC
 70
     2
  9
$MENU
  1
.
  9
$ELEVATION
 40
0.0
  9
$PELEVATION
 40
0.0
  9
$THICKNESS
 40
0.0
  9
$LIMCHECK
 70
     0
  9
$CHAMFERA
 40
0.0
  9
$CHAMFERB
 40
0.0
  9
$CHAMFERC
 40
0.0
  9
$CHAMFERD
 40
0.0
  9
$SKPOLY
 70
     0
  9
$TDCREATE
 40
2458260.566815961
  9
$TDUCREATE
 40
2458260.191815961
  9
$TDUPDATE
 40
2458268.468415035
  9
$TDUUPDATE
 40
2458268.093415035
  9
$TDINDWG
 40
0.0008081366
  9
$TDUSRTIMER
 40
2458268.092606933
  9
$USRTIMER
 70
     1
  9
$ANGBASE
 50
0.0
  9
$ANGDIR
 70
     0
  9
$PDMODE
 70
     0
  9
$PDSIZE
 40
-1.0
  9
$PLINEWID
 40
0.0
  9
$SPLFRAME
 70
     0
  9
$SPLINETYPE
 70
     6
  9
$SPLINESEGS
 70
     8
  9
$HANDSEED
  5
15D
  9
$SURFTAB1
 70
     6
  9
$SURFTAB2
 70
     6
  9
$SURFTYPE
 70
     6
  9
$SURFU
 70
     6
  9
$SURFV
 70
     6
  9
$UCSBASE
  2

  9
$UCSNAME
  2

  9
$UCSORG
 10
0.0
 20
0.0
 30
0.0
  9
$UCSXDIR
 10
1.0
 20
0.0
 30
0.0
  9
$UCSYDIR
 10
0.0
 20
1.0
 30
0.0
  9
$UCSORTHOREF
  2

  9
$UCSORTHOVIEW
 70
     0
  9
$UCSORGTOP
 10
0.0
 20
0.0
 30
0.0
  9
$UCSORGBOTTOM
 10
0.0
 20
0.0
 30
0.0
  9
$UCSORGLEFT
 10
0.0
 20
0.0
 30
0.0
  9
$UCSORGRIGHT
 10
0.0
 20
0.0
 30
0.0
  9
$UCSORGFRONT
 10
0.0
 20
0.0
 30
0.0
  9
$UCSORGBACK
 10
0.0
 20
0.0
 30
0.0
  9
$PUCSBASE
  2

  9
$PUCSNAME
  2

  9
$PUCSORG
 10
0.0
 20
0.0
 30
0.0
  9
$PUCSXDIR
 10
1.0
 20
0.0
 30
0.0
  9
$PUCSYDIR
 10
0.0
 20
1.0
 30
0.0
  9
$PUCSORTHOREF
  2

  9
$PUCSORTHOVIEW
 70
     0
  9
$PUCSORGTOP
 10
0.0
 20
0.0
 30
0.0
  9
$PUCSORGBOTTOM
 10
0.0
 20
0.0
 30
0.0
  9
$PUCSORGLEFT
 10
0.0
 20
0.0
 30
0.0
  9
$PUCSORGRIGHT
 10
0.0
 20
0.0
 30
0.0
  9
$PUCSORGFRONT
 10
0.0
 20
0.0
 30
0.0
  9
$PUCSORGBACK
 10
0.0
 20
0.0
 30
0.0
  9
$USERI1
 70
     0
  9
$USERI2
 70
     0
  9
$USERI3
 70
     0
  9
$USERI4
 70
     0
  9
$USERI5
 70
     0
  9
$USERR1
 40
0.0
  9
$USERR2
 40
0.0
  9
$USERR3
 40
0.0
  9
$USERR4
 40
0.0
  9
$USERR5
 40
0.0
  9
$WORLDVIEW
 70
     1
  9
$SHADEDGE
 70
     3
  9
$SHADEDIF
 70
    70
  9
$TILEMODE
 70
     1
  9
$MAXACTVP
 70
    64
  9
$PINSBASE
 10
0.0
 20
0.0
 30
0.0
  9
$PLIMCHECK
 70
     0
  9
$PEXTMIN
 10
1.000000000000000E+20
 20
1.000000000000000E+20
 30
1.000000000000000E+20
  9
$PEXTMAX
 10
-1.000000000000000E+20
 20
-1.000000000000000E+20
 30
-1.000000000000000E+20
  9
$PLIMMIN
 10
0.0
 20
0.0
  9
$PLIMMAX
 10
0.0
 20
0.0
  9
$UNITMODE
 70
     0
  9
$VISRETAIN
 70
     1
  9
$PLINEGEN
 70
     0
  9
$PSLTSCALE
 70
     1
  9
$TREEDEPTH
 70
  3020
  9
$CMLSTYLE
  2
Standard
  9
$CMLJUST
 70
     0
  9
$CMLSCALE
 40
20.0
  9
$PROXYGRAPHICS
 70
     1
  9
$MEASUREMENT
 70
     1
  9
$CELWEIGHT
370
    -1
  9
$ENDCAPS
280
     0
  9
$JOINSTYLE
280
     0
  9
$LWDISPLAY
290
     1
  9
$INSUNITS
 70
     4
  9
$HYPERLINKBASE
  1

  9
$STYLESHEET
  1

  9
$XEDIT
290
     1
  9
$CEPSNTYPE
380
     0
  9
$PSTYLEMODE
290
     1
  9
$FINGERPRINTGUID
  2
{FA786BC6-EB65-443B-A7DC-359BA5249C7D}
  9
$VERSIONGUID
  2
{FAEB1C32-E019-11D5-929B-00C0DF256EC4}
  9
$EXTNAMES
290
     1
  9
$PSVPSCALE
 40
0.0
  9
$OLESTARTUP
290
     0
  0
ENDSEC
  0
SECTION
  2
CLASSES
  0
CLASS
  1
ACDBDICTIONARYWDFLT
  2
AcDbDictionaryWithDefault
  3
ObjectDBX Classes
 90
        0
280
     0
281
     0
  0
CLASS
  1
VISUALSTYLE
  2
AcDbVisualStyle
  3
ObjectDBX Classes
 90
     4095
280
     0
281
     0
  0
CLASS
  1
MATERIAL
  2
AcDbMaterial
  3
ObjectDBX Classes
 90
     1153
280
     0
281
     0
  0
CLASS
  1
SCALE
  2
AcDbScale
  3
ObjectDBX Classes
 90
     1153
280
     0
281
     0
  0
CLASS
  1
TABLESTYLE
  2
AcDbTableStyle
  3
ObjectDBX Classes
 90
     4095
280
     0
281
     0
  0
CLASS
  1
MLEADERSTYLE
  2
AcDbMLeaderStyle
  3
ACDB_MLEADERSTYLE_CLASS
 90
     4095
280
     0
281
     0
  0
CLASS
  1
SUN
  2
AcDbSun
  3
SCENEOE
 90
     1153
280
     0
281
     0
  0
CLASS
  1
ACDBPLACEHOLDER
  2
AcDbPlaceHolder
  3
ObjectDBX Classes
 90
        0
280
     0
281
     0
  0
CLASS
  1
LAYOUT
  2
AcDbLayout
  3
ObjectDBX Classes
 90
        0
280
     0
281
     0
  0
CLASS
  1
RASTERVARIABLES
  2
AcDbRasterVariables
  3
ISM
 90
        0
280
     0
281
     0
  0
ENDSEC
  0
SECTION
  2
TABLES
  0
TABLE
  2
VPORT
  5
8
330
0
100
AcDbSymbolTable
 70
     1
  0
VPORT
  5
29
330
8
100
AcDbSymbolTableRecord
100
AcDbViewportTableRecord
  2
*Active
 70
     0
 10
0.0
 20
0.0
 11
1.0
 21
1.0
 12
-9.448701344705462
 22
-12.60383739361504
 13
0.0
 23
0.0
 14
10.0
 24
10.0
 15
10.0
 25
10.0
 16
0.0
 26
0.0
 36
1.0
 17
0.0
 27
0.0
 37
0.0
 40
76.23065879020126
 41
1.737726098191214
 42
50.0
 43
0.0
 44
0.0
 50
0.0
 51
0.0
 71
    16
 72
  2000
 73
     1
 74
     3
 75
     0
 76
     0
 77
     0
 78
     0
281
     0
 65
     1
110
0.0
120
0.0
130
0.0
111
1.0
121
0.0
131
0.0
112
0.0
122
1.0
132
0.0
 79
     0
146
0.0
  0
ENDTAB
  0
TABLE
  2
LTYPE
  5
5
330
0
100
AcDbSymbolTable
 70
     6
  0
LTYPE
  5
14
330
5
100
AcDbSymbolTableRecord
100
AcDbLinetypeTableRecord
  2
ByBlock
 70
     0
  3

 72
    65
 73
     0
 40
0.0
  0
LTYPE
  5
15
330
5
100
AcDbSymbolTableRecord
100
AcDbLinetypeTableRecord
  2
ByLayer
 70
     0
  3

 72
    65
 73
     0
 40
0.0
  0
LTYPE
  5
16
330
5
100
AcDbSymbolTableRecord
100
AcDbLinetypeTableRecord
  2
Continuous
 70
     0
  3
Solid line
 72
    65
 73
     0
 40
0.0
  0
LTYPE
  5
6E
330
5
100
AcDbSymbolTableRecord
100
AcDbLinetypeTableRecord
  2
HIDDEN
 70
     0
  3
Hidden __ __ __ __ __ __ __ __ __ __ __ __ __ __
 72
    65
 73
     2
 40
1.905
 49
1.27
 74
     0
 49
-0.635
 74
     0
  0
LTYPE
  5
6F
330
5
100
AcDbSymbolTableRecord
100
AcDbLinetypeTableRecord
  2
PHANTOM
 70
     0
  3
Phantom ______  __  __  ______  __  __  ______
 72
    65
 73
     6
 40
12.7
 49
6.35
 74
     0
 49
-1.27
 74
     0
 49
1.27
 74
     0
 49
-1.27
 74
     0
 49
1.27
 74
     0
 49
-1.27
 74
     0
  0
LTYPE
  5
70
330
5
100
AcDbSymbolTableRecord
100
AcDbLinetypeTableRecord
  2
CENTER
 70
     0
  3
Center ____ _ ____ _ ____ _ ____ _ ____ _ ____
 72
    65
 73
     4
 40
10.16
 49
6.35
 74
     0
 49
-1.27
 74
     0
 49
1.27
 74
     0
 49
-1.27
 74
     0
  0
LTYPE
  5
71
330
5
100
AcDbSymbolTableRecord
100
AcDbLinetypeTableRecord
  2
CENTERX2
 70
     0
  3
Center (2x) ________  __  ________  __  _____
 72
    65
 73
     4
 40
20.32
 49
12.7
 74
     0
 49
-2.54
 74
     0
 49
2.54
 74
     0
 49
-2.54
 74
     0
  0
LTYPE
  5
72
330
5
100
AcDbSymbolTableRecord
100
AcDbLinetypeTableRecord
  2
DOT2
 70
     0
  3
Dot (.5x) ........................................
 72
    65
 73
     2
 40
0.635
 49
0.0
 74
     0
 49
-0.635
 74
     0
  0
ENDTAB
  0
TABLE
  2
LAYER
  5
2
330
0
100
AcDbSymbolTable
 70
    17
  0
LAYER
  5
10
330
2
100
AcDbSymbolTableRecord
100
AcDbLayerTableRecord
  2
0
 70
     0
 62
     7
  6
Continuous
370
    -3
390
F
  0
LAYER
  5
73
330
2
100
AcDbSymbolTableRecord
100
AcDbLayerTableRecord
  2
FORMAT
 70
     0
 62
     2
  6
Continuous
370
    -3
390
F
  0
LAYER
  5
74
330
2
100
AcDbSymbolTableRecord
100
AcDbLayerTableRecord
  2
외형선
 70
     0
 62
   100
  6
Continuous
370
    35
390
F
  0
LAYER
  5
75
330
2
100
AcDbSymbolTableRecord
100
AcDbLayerTableRecord
  2
숨은선
 70
     0
 62
     2
  6
HIDDEN
370
    25
390
F
  0
LAYER
  5
76
330
2
100
AcDbSymbolTableRecord
100
AcDbLayerTableRecord
  2
중심선
 70
     0
 62
     1
  6
CENTERX2
370
    -3
390
F
  0
LAYER
  5
77
330
2
100
AcDbSymbolTableRecord
100
AcDbLayerTableRecord
  2
파단선
 70
     0
 62
     4
  6
Continuous
370
    -3
390
F
  0
LAYER
  5
78
330
2
100
AcDbSymbolTableRecord
100
AcDbLayerTableRecord
  2
해칭선
 70
     0
 62
   100
  6
Continuous
370
    -3
390
F
  0
LAYER
  5
79
330
2
100
AcDbSymbolTableRecord
100
AcDbLayerTableRecord
  2
가는실선
 70
     0
 62
     4
  6
Continuous
370
    -3
390
F
  0
LAYER
  5
7A
330
2
100
AcDbSymbolTableRecord
100
AcDbLayerTableRecord
  2
치수_보조선
 70
     0
 62
     4
  6
Continuous
370
    -3
390
F
  0
LAYER
  5
7B
330
2
100
AcDbSymbolTableRecord
100
AcDbLayerTableRecord
  2
치수문자_일반주서
 70
     0
 62
     7
  6
Continuous
370
    25
390
F
  0
LAYER
  5
7C
330
2
100
AcDbSymbolTableRecord
100
AcDbLayerTableRecord
  2
개별주서
 70
     0
 62
   100
  6
Continuous
370
    35
390
F
  0
LAYER
  5
7D
330
2
100
AcDbSymbolTableRecord
100
AcDbLayerTableRecord
  2
중간선
 70
     0
 62
     2
  6
Continuous
370
    25
390
F
  0
LAYER
  5
7E
330
2
100
AcDbSymbolTableRecord
100
AcDbLayerTableRecord
  2
윤곽선
 70
     0
 62
     3
  6
Continuous
370
    50
390
F
  0
LAYER
  5
7F
330
2
100
AcDbSymbolTableRecord
100
AcDbLayerTableRecord
  2
중심마크
 70
     0
 62
   100
  6
Continuous
370
    35
390
F
  0
LAYER
  5
80
330
2
100
AcDbSymbolTableRecord
100
AcDbLayerTableRecord
  2
가상선
 70
     0
 62
     4
  6
PHANTOM
370
    -3
390
F
  0
LAYER
  5
81
330
2
100
AcDbSymbolTableRecord
100
AcDbLayerTableRecord
  2
특수지정선
 70
     0
 62
     5
  6
CENTERX2
370
    70
390
F
  0
LAYER
  5
14F
330
2
100
AcDbSymbolTableRecord
100
AcDbLayerTableRecord
  2
Defpoints
 70
     0
 62
     7
  6
Continuous
290
     0
370
    -3
390
F
  0
ENDTAB
  0
TABLE
  2
STYLE
  5
3
330
0
100
AcDbSymbolTable
 70
     2
  0
STYLE
  5
11
330
3
100
AcDbSymbolTableRecord
100
AcDbTextStyleTableRecord
  2
Standard
 70
     0
 40
0.0
 41
1.0
 50
0.0
 71
     0
 42
3.5
  3
txt
  4

  0
STYLE
  5
97
330
3
100
AcDbSymbolTableRecord
100
AcDbTextStyleTableRecord
  2
SLDTEXTSTYLE0
 70
     0
 40
0.0
 41
0.75
 50
0.0
 71
     0
 42
3.5
  3
TXT
  4

  0
ENDTAB
  0
TABLE
  2
VIEW
  5
6
330
0
100
AcDbSymbolTable
 70
     0
  0
ENDTAB
  0
TABLE
  2
UCS
  5
7
330
0
100
AcDbSymbolTable
 70
     0
  0
ENDTAB
  0
TABLE
  2
APPID
  5
9
330
0
100
AcDbSymbolTable
 70
     1
  0
APPID
  5
12
330
9
100
AcDbSymbolTableRecord
100
AcDbRegAppTableRecord
  2
ACAD
 70
     0
  0
ENDTAB
  0
TABLE
  2
DIMSTYLE
  5
A
330
0
100
AcDbSymbolTable
 70
     4
100
AcDbDimStyleTable
  0
DIMSTYLE
105
27
330
A
100
AcDbSymbolTableRecord
100
AcDbDimStyleTableRecord
  2
ISO-25
 70
     0
 41
2.5
 42
0.625
 43
3.75
 44
1.25
 73
     0
 74
     0
 77
     1
 78
     8
140
2.5
141
2.5
143
0.03937007874016
147
0.625
171
     3
172
     1
178
     0
271
     2
272
     2
274
     3
278
    44
283
     0
284
     8
340
11
  0
DIMSTYLE
105
F2
102
{ACAD_REACTORS
330
F1
102
}
330
A
100
AcDbSymbolTableRecord
100
AcDbDimStyleTableRecord
  2
SLDDIMSTYLE0
 70
     0
 41
3.302
 44
0.0
 45
0.000000001
 73
     0
 74
     0
 77
     1
 78
    12
 79
     3
140
3.5
147
0.875
172
     1
173
     1
178
     0
271
     1
272
     1
276
     2
284
    12
289
     0
340
97
  0
DIMSTYLE
105
100
102
{ACAD_REACTORS
330
FF
102
}
330
A
100
AcDbSymbolTableRecord
100
AcDbDimStyleTableRecord
  2
SLDDIMSTYLE1
 70
     0
 41
3.302
 44
0.0
 45
0.000000001
 73
     0
 74
     0
 77
     1
 78
    12
 79
     3
140
3.5
147
0.875
173
     1
178
     0
271
     2
272
     2
276
     2
284
    12
340
97
  0
DIMSTYLE
105
10B
102
{ACAD_REACTORS
330
10A
330
118
102
}
330
A
100
AcDbSymbolTableRecord
100
AcDbDimStyleTableRecord
  2
SLDDIMSTYLE2
 70
     0
 41
3.302
 44
0.0
 45
0.000000001
 73
     0
 74
     0
 77
     1
 78
    12
 79
     3
140
3.5
147
0.875
172
     1
173
     1
178
     0
271
     2
272
     2
276
     2
284
    12
289
     0
340
97
  0
ENDTAB
  0
TABLE
  2
BLOCK_RECORD
  5
1
330
0
100
AcDbSymbolTable
 70
     7
  0
BLOCK_RECORD
  5
1F
330
1
100
AcDbSymbolTableRecord
100
AcDbBlockTableRecord
  2
*Model_Space
340
22
  0
BLOCK_RECORD
  5
1B
330
1
100
AcDbSymbolTableRecord
100
AcDbBlockTableRecord
  2
*Paper_Space
340
1E
  0
BLOCK_RECORD
  5
23
330
1
100
AcDbSymbolTableRecord
100
AcDbBlockTableRecord
  2
*Paper_Space0
340
26
  0
BLOCK_RECORD
  5
82
330
1
100
AcDbSymbolTableRecord
100
AcDbBlockTableRecord
  2
블럭10
340
0
102
{BLKREFS
331
EA
102
}
  0
BLOCK_RECORD
  5
F3
330
1
100
AcDbSymbolTableRecord
100
AcDbBlockTableRecord
  2
_D
340
0
  0
BLOCK_RECORD
  5
101
330
1
100
AcDbSymbolTableRecord
100
AcDbBlockTableRecord
  2
_D_1
340
0
  0
BLOCK_RECORD
  5
10C
330
1
100
AcDbSymbolTableRecord
100
AcDbBlockTableRecord
  2
_D_2
340
0
  0
BLOCK_RECORD
  5
119
330
1
100
AcDbSymbolTableRecord
100
AcDbBlockTableRecord
  2
_D_3
340
0
  0
BLOCK_RECORD
  5
124
330
1
100
AcDbSymbolTableRecord
100
AcDbBlockTableRecord
  2
SW_DOWELSYMBOL_0
340
0
102
{BLKREFS
331
12A
102
}
  0
ENDTAB
  0
ENDSEC
  0
SECTION
  2
BLOCKS
  0
BLOCK
  5
20
330
1F
100
AcDbEntity
  8
0
100
AcDbBlockBegin
  2
*Model_Space
 70
     0
 10
0.0
 20
0.0
 30
0.0
  3
*Model_Space
  1

  0
ENDBLK
  5
21
330
1F
100
AcDbEntity
  8
0
100
AcDbBlockEnd
  0
BLOCK
  5
1C
330
1B
100
AcDbEntity
 67
     1
  8
0
100
AcDbBlockBegin
  2
*Paper_Space
 70
     0
 10
0.0
 20
0.0
 30
0.0
  3
*Paper_Space
  1

  0
ENDBLK
  5
1D
330
1B
100
AcDbEntity
 67
     1
  8
0
100
AcDbBlockEnd
  0
BLOCK
  5
24
330
23
100
AcDbEntity
  8
0
100
AcDbBlockBegin
  2
*Paper_Space0
 70
     0
 10
0.0
 20
0.0
 30
0.0
  3
*Paper_Space0
  1

  0
ENDBLK
  5
25
330
23
100
AcDbEntity
  8
0
100
AcDbBlockEnd
  0
BLOCK
  5
83
330
82
100
AcDbEntity
  8
0
100
AcDbBlockBegin
  2
블럭10
 70
     2
 10
0.0
 20
0.0
 30
0.0
  3
블럭10
  1

  0
ELLIPSE
  5
85
330
82
100
AcDbEntity
  8
중심선
100
AcDbEllipse
 10
20.54032771741204
 20
12.0471743016438
 30
0.0
 11
6.600054785286829
 21
-1.261213355974178E-13
 31
0.0
210
0.0
220
0.0
230
1.0
 40
0.636358354079598
 41
0.9219305317359503
 42
6.513795318482858
  0
ELLIPSE
  5
86
330
82
100
AcDbEntity
  8
중심선
100
AcDbEllipse
 10
20.54032771746488
 20
12.04717430159265
 30
0.0
 11
3.960054785062283
 21
1.540847449632565E-10
 31
0.0
210
0.0
220
0.0
230
1.0
 40
0.3939339440162632
 41
1.131841032648279
 42
5.62031148352944
  0
LINE
  5
87
330
82
100
AcDbEntity
  8
중심선
100
AcDbLine
 10
2.268634060543552
 20
16.24717430164393
 30
0.0
 11
5.714909304380834
 21
16.24717430164393
 31
0.0
  0
LINE
  5
88
330
82
100
AcDbEntity
  8
중심선
100
AcDbLine
 10
5.245725140726316
 20
7.84717430164391
 30
0.0
 11
8.692000384563599
 21
7.84717430164391
 31
0.0
  0
LINE
  5
89
330
82
100
AcDbEntity
  8
중심선
100
AcDbLine
 10
15.74043728645272
 20
16.24717430164393
 30
0.0
 11
8.692000384563599
 21
7.84717430164391
 31
0.0
  0
LINE
  5
8A
330
82
100
AcDbEntity
  8
중심선
100
AcDbLine
 10
0.1404042013395286
 20
13.71084872107135
 30
0.0
 11
3.58671253028996
 21
13.71088815037384
 31
0.0
  0
LINE
  5
8B
330
82
100
AcDbEntity
  8
중심선
100
AcDbLine
 10
2.750260043222114
 20
10.84717430164391
 30
0.0
 11
6.196535287059397
 21
10.84717430164391
 31
0.0
  0
LINE
  5
8C
330
82
100
AcDbEntity
  8
중심선
100
AcDbLine
 10
12.29416204261559
 20
16.24717430164393
 30
0.0
 11
5.245725140726316
 21
7.84717430164391
 31
0.0
  0
LINE
  5
8D
330
82
100
AcDbEntity
  8
중심선
100
AcDbLine
 10
10.72767329541681
 20
16.24717430164393
 30
0.0
 11
6.196535287059397
 21
10.84717430164391
 31
0.0
  0
LINE
  5
8E
330
82
100
AcDbEntity
  8
중심선
100
AcDbLine
 10
7.28139805157953
 20
16.24717430164393
 30
0.0
 11
2.750260043222114
 21
10.84717430164391
 31
0.0
  0
LINE
  5
8F
330
82
100
AcDbEntity
  8
중심선
100
AcDbLine
 10
5.714909304380834
 20
16.24717430164393
 30
0.0
 11
3.58671253028996
 21
13.71088815037384
 31
0.0
  0
LINE
  5
90
330
82
100
AcDbEntity
  8
중심선
100
AcDbLine
 10
2.268634060543552
 20
16.24717430164393
 30
0.0
 11
0.1404042013395286
 21
13.71084872107135
 31
0.0
  0
LINE
  5
91
330
82
100
AcDbEntity
  8
중심선
100
AcDbLine
 10
7.28139805157953
 20
16.24717430164393
 30
0.0
 11
10.72767329541681
 21
16.24717430164393
 31
0.0
  0
LINE
  5
92
330
82
100
AcDbEntity
  8
중심선
100
AcDbLine
 10
12.29416204261559
 20
16.24717430164393
 30
0.0
 11
15.74043728645272
 21
16.24717430164393
 31
0.0
  0
LINE
  5
93
330
82
100
AcDbEntity
  8
중심선
100
AcDbLine
 10
19.22036997980202
 20
11.08717430171403
 30
0.0
 11
23.66174974927406
 21
11.08717430171406
 31
0.0
  0
LINE
  5
94
330
82
100
AcDbEntity
  8
중심선
100
AcDbLine
 10
19.22039502424796
 20
13.00717430171391
 30
0.0
 11
19.22036997980202
 21
11.08717430171403
 31
0.0
  0
LINE
  5
95
330
82
100
AcDbEntity
  8
중심선
100
AcDbLine
 10
19.22039502424796
 20
13.00717430171391
 30
0.0
 11
26.96566020931264
 21
13.00717430171391
 31
0.0
  0
LINE
  5
96
330
82
100
AcDbEntity
  8
중심선
100
AcDbLine
 10
22.22332737316547
 20
13.45928029700563
 30
0.0
 11
24.52862924686651
 21
15.39360700705356
 31
0.0
  0
ATTDEF
  5
98
330
82
100
AcDbEntity
  8
FORMAT
 62
     2
100
AcDbText
 10
-16.11926103943555
 20
2.075366912832191
 30
0.0
 40
4.233333333333333
  1
SEME7201508E [ 4 FLUTE ]
 41
0.75
  7
SLDTEXTSTYLE0
 11
-16.11926103943555
 21
-0.0412997538344756
 31
0.0
100
AcDbAttributeDefinition
  3

  2
AUTOATTR0
 70
     0
 74
     1
  0
ENDBLK
  5
84
330
82
100
AcDbEntity
  8
0
100
AcDbBlockEnd
  0
BLOCK
  5
F4
330
F3
100
AcDbEntity
  8
0
100
AcDbBlockBegin
  2
_D
 70
     0
 10
0.0
 20
0.0
 30
0.0
  3
_D
  1

  0
LINE
  5
F6
330
F3
100
AcDbEntity
  8
치수문자_일반주서
 62
     0
370
    -2
100
AcDbLine
 10
19.45961431702997
 20
-0.7500000000000061
 30
0.0
 11
32.13356350104319
 21
-0.7499999999999591
 31
0.0
  0
LINE
  5
F7
330
F3
100
AcDbEntity
  8
치수문자_일반주서
 62
     0
370
    -2
100
AcDbLine
 10
19.45961431702997
 20
0.7500000000000057
 30
0.0
 11
32.13356350104318
 21
0.7500000000000533
 31
0.0
  0
LINE
  5
F8
330
F3
100
AcDbEntity
  8
치수문자_일반주서
 62
     0
370
    -2
100
AcDbLine
 10
32.13356350104319
 20
-0.7499999999999591
 30
0.0
 11
32.13356350104311
 21
16.10400000000005
 31
0.0
  0
LINE
  5
F9
330
F3
100
AcDbEntity
  8
치수문자_일반주서
 62
     0
370
    -2
100
AcDbLine
 10
32.13356350104319
 20
-0.7499999999999591
 30
0.0
 11
32.13356350104318
 21
0.7500000000000533
 31
0.0
  0
LINE
  5
FA
330
F3
100
AcDbEntity
  8
치수문자_일반주서
 62
     0
370
    -2
100
AcDbLine
 10
32.13356350104321
 20
-4.051999999999959
 30
0.0
 11
32.13356350104322
 21
-7.353999999999958
 31
0.0
  0
LINE
  5
FB
330
F3
100
AcDbEntity
  8
치수문자_일반주서
 62
     0
370
    -2
100
AcDbLine
 10
32.13356350104317
 20
4.052000000000053
 30
0.0
 11
32.13356350104316
 21
7.354000000000052
 31
0.0
  0
SOLID
  5
FC
330
F3
100
AcDbEntity
  8
치수문자_일반주서
 62
     0
100
AcDbTrace
 10
32.68389683437654
 20
-4.051999999999956
 30
0.0
 11
31.58323016770987
 21
-4.051999999999961
 31
0.0
 12
32.13356350104319
 22
-0.7499999999999591
 32
0.0
 13
32.13356350104319
 23
-0.7499999999999591
 33
0.0
  0
SOLID
  5
FD
330
F3
100
AcDbEntity
  8
치수문자_일반주서
 62
     0
100
AcDbTrace
 10
31.58323016770984
 20
4.05200000000005
 30
0.0
 11
32.6838968343765
 21
4.052000000000056
 31
0.0
 12
32.13356350104318
 22
0.7500000000000533
 32
0.0
 13
32.13356350104318
 23
0.7500000000000533
 33
0.0
  0
MTEXT
  5
FE
330
F3
100
AcDbEntity
  8
치수문자_일반주서
 62
     0
100
AcDbMText
 10
27.75856350104313
 20
11.72900000000003
 30
0.0
 40
3.5
 41
0.0
 71
     2
 72
     1
  1
\A1;%%c1.5
  7
SLDTEXTSTYLE0
 11
-4.736951571733963E-15
 21
1.0
 31
0.0
 73
     1
 44
1.0
  0
POINT
  5
157
330
F3
100
AcDbEntity
  8
Defpoints
 62
     0
100
AcDbPoint
 10
19.39711431702997
 20
-0.7500000000000063
 30
0.0
  0
POINT
  5
158
330
F3
100
AcDbEntity
  8
Defpoints
 62
     0
100
AcDbPoint
 10
19.39711431702997
 20
0.7500000000000054
 30
0.0
  0
POINT
  5
159
330
F3
100
AcDbEntity
  8
Defpoints
 62
     0
100
AcDbPoint
 10
32.13356350104319
 20
0.7500000000000531
 30
0.0
  0
ENDBLK
  5
F5
330
F3
100
AcDbEntity
  8
0
100
AcDbBlockEnd
  0
BLOCK
  5
102
330
101
100
AcDbEntity
  8
0
100
AcDbBlockBegin
  2
_D_1
 70
     0
 10
0.0
 20
0.0
 30
0.0
  3
_D_1
  1

  0
LINE
  5
104
330
101
100
AcDbEntity
  8
치수문자_일반주서
 62
     0
370
    -2
100
AcDbLine
 10
-40.60288568297004
 20
2.562499999999994
 30
0.0
 11
-40.60288568297004
 21
20.38913260158165
 31
0.0
  0
LINE
  5
105
330
101
100
AcDbEntity
  8
치수문자_일반주서
 62
     0
370
    -2
100
AcDbLine
 10
19.39711431702995
 20
0.812500000000002
 30
0.0
 11
19.39711431702995
 21
20.38913260158165
 31
0.0
  0
LINE
  5
106
330
101
100
AcDbEntity
  8
치수문자_일반주서
 62
     0
370
    -2
100
AcDbLine
 10
-37.30088568297004
 20
20.38913260158165
 30
0.0
 11
16.09511431702995
 21
20.38913260158165
 31
0.0
  0
SOLID
  5
107
330
101
100
AcDbEntity
  8
치수문자_일반주서
 62
     0
100
AcDbTrace
 10
-37.30088568297004
 20
20.93946593491498
 30
0.0
 11
-37.30088568297004
 21
19.83879926824831
 31
0.0
 12
-40.60288568297004
 22
20.38913260158165
 32
0.0
 13
-40.60288568297004
 23
20.38913260158165
 33
0.0
  0
SOLID
  5
108
330
101
100
AcDbEntity
  8
치수문자_일반주서
 62
     0
100
AcDbTrace
 10
16.09511431702995
 20
19.83879926824831
 30
0.0
 11
16.09511431702995
 21
20.93946593491498
 31
0.0
 12
19.39711431702995
 22
20.38913260158165
 32
0.0
 13
19.39711431702995
 23
20.38913260158165
 33
0.0
  0
MTEXT
  5
109
330
101
100
AcDbEntity
  8
치수문자_일반주서
 62
     0
100
AcDbMText
 10
-10.60288568297005
 20
24.76413260158165
 30
0.0
 40
3.5
 41
0.0
 71
     2
 72
     1
  1
\A1;60
  7
SLDTEXTSTYLE0
 73
     1
 44
1.0
  0
POINT
  5
150
330
101
100
AcDbEntity
  8
Defpoints
 62
     0
100
AcDbPoint
 10
-40.60288568297004
 20
2.499999999999994
 30
0.0
  0
POINT
  5
151
330
101
100
AcDbEntity
  8
Defpoints
 62
     0
100
AcDbPoint
 10
19.39711431702995
 20
0.750000000000002
 30
0.0
  0
POINT
  5
152
330
101
100
AcDbEntity
  8
Defpoints
 62
     0
100
AcDbPoint
 10
19.39711431702995
 20
20.38913260158165
 30
0.0
  0
ENDBLK
  5
103
330
101
100
AcDbEntity
  8
0
100
AcDbBlockEnd
  0
BLOCK
  5
10D
330
10C
100
AcDbEntity
  8
0
100
AcDbBlockBegin
  2
_D_2
 70
     0
 10
0.0
 20
0.0
 30
0.0
  3
_D_2
  1

  0
LINE
  5
10F
330
10C
100
AcDbEntity
  8
치수문자_일반주서
 62
     0
370
    -2
100
AcDbLine
 10
-40.16538568297003
 20
3.000000000000003
 30
0.0
 11
-47.20629952378742
 21
2.999999999999977
 31
0.0
  0
LINE
  5
110
330
10C
100
AcDbEntity
  8
치수문자_일반주서
 62
     0
370
    -2
100
AcDbLine
 10
-40.16538568297003
 20
-3.000000000000003
 30
0.0
 11
-47.2062995237874
 21
-3.000000000000028
 31
0.0
  0
LINE
  5
111
330
10C
100
AcDbEntity
  8
치수문자_일반주서
 62
     0
370
    -2
100
AcDbLine
 10
-47.20629952378742
 20
2.999999999999977
 30
0.0
 11
-47.20629952378747
 21
15.72899999999998
 31
0.0
  0
LINE
  5
112
330
10C
100
AcDbEntity
  8
치수문자_일반주서
 62
     0
370
    -2
100
AcDbLine
 10
-47.20629952378742
 20
2.999999999999977
 30
0.0
 11
-47.2062995237874
 21
-3.000000000000028
 31
0.0
  0
LINE
  5
113
330
10C
100
AcDbEntity
  8
치수문자_일반주서
 62
     0
370
    -2
100
AcDbLine
 10
-47.20629952378744
 20
6.301999999999977
 30
0.0
 11
-47.20629952378745
 21
9.603999999999976
 31
0.0
  0
LINE
  5
114
330
10C
100
AcDbEntity
  8
치수문자_일반주서
 62
     0
370
    -2
100
AcDbLine
 10
-47.20629952378739
 20
-6.302000000000028
 30
0.0
 11
-47.20629952378737
 21
-9.604000000000028
 31
0.0
  0
SOLID
  5
115
330
10C
100
AcDbEntity
  8
치수문자_일반주서
 62
     0
100
AcDbTrace
 10
-47.75663285712077
 20
6.301999999999975
 30
0.0
 11
-46.6559661904541
 21
6.301999999999978
 31
0.0
 12
-47.20629952378742
 22
2.999999999999977
 32
0.0
 13
-47.20629952378742
 23
2.999999999999977
 33
0.0
  0
SOLID
  5
116
330
10C
100
AcDbEntity
  8
치수문자_일반주서
 62
     0
100
AcDbTrace
 10
-46.65596619045405
 20
-6.302000000000026
 30
0.0
 11
-47.75663285712072
 21
-6.30200000000003
 31
0.0
 12
-47.2062995237874
 22
-3.000000000000028
 32
0.0
 13
-47.2062995237874
 23
-3.000000000000028
 33
0.0
  0
MTEXT
  5
117
330
10C
100
AcDbEntity
  8
치수문자_일반주서
 62
     0
100
AcDbMText
 10
-51.58129952378746
 20
12.66649999999996
 30
0.0
 40
3.5
 41
0.0
 71
     2
 72
     1
  1
\A1;%%c6
  7
SLDTEXTSTYLE0
 11
-3.552713678800498E-15
 21
1.0
 31
0.0
 73
     1
 44
1.0
  0
POINT
  5
154
330
10C
100
AcDbEntity
  8
Defpoints
 62
     0
100
AcDbPoint
 10
-40.10288568297003
 20
3.000000000000003
 30
0.0
  0
POINT
  5
155
330
10C
100
AcDbEntity
  8
Defpoints
 62
     0
100
AcDbPoint
 10
-40.10288568297003
 20
-3.000000000000002
 30
0.0
  0
POINT
  5
156
330
10C
100
AcDbEntity
  8
Defpoints
 62
     0
100
AcDbPoint
 10
-47.20629952378744
 20
-3.000000000000029
 30
0.0
  0
ENDBLK
  5
10E
330
10C
100
AcDbEntity
  8
0
100
AcDbBlockEnd
  0
BLOCK
  5
11A
330
119
100
AcDbEntity
  8
0
100
AcDbBlockBegin
  2
_D_3
 70
     0
 10
0.0
 20
0.0
 30
0.0
  3
_D_3
  1

  0
LINE
  5
11C
330
119
100
AcDbEntity
  8
치수문자_일반주서
 62
     0
370
    -2
100
AcDbLine
 10
11.39711431702995
 20
0.8089106690487835
 30
0.0
 11
11.39711431702995
 21
11.59232897163643
 31
0.0
  0
LINE
  5
11D
330
119
100
AcDbEntity
  8
치수문자_일반주서
 62
     0
370
    -2
100
AcDbLine
 10
19.39711431702995
 20
0.812500000000002
 30
0.0
 11
19.39711431702995
 21
11.59232897163643
 31
0.0
  0
LINE
  5
11E
330
119
100
AcDbEntity
  8
치수문자_일반주서
 62
     0
370
    -2
100
AcDbLine
 10
14.69911431702995
 20
11.59232897163643
 30
0.0
 11
16.09511431702995
 21
11.59232897163643
 31
0.0
  0
SOLID
  5
11F
330
119
100
AcDbEntity
  8
치수문자_일반주서
 62
     0
100
AcDbTrace
 10
14.69911431702995
 20
12.14266230496977
 30
0.0
 11
14.69911431702995
 21
11.0419956383031
 31
0.0
 12
11.39711431702995
 22
11.59232897163643
 32
0.0
 13
11.39711431702995
 23
11.59232897163643
 33
0.0
  0
SOLID
  5
120
330
119
100
AcDbEntity
  8
치수문자_일반주서
 62
     0
100
AcDbTrace
 10
16.09511431702995
 20
11.0419956383031
 30
0.0
 11
16.09511431702995
 21
12.14266230496977
 31
0.0
 12
19.39711431702995
 22
11.59232897163643
 32
0.0
 13
19.39711431702995
 23
11.59232897163643
 33
0.0
  0
MTEXT
  5
121
330
119
100
AcDbEntity
  8
치수문자_일반주서
 62
     0
100
AcDbMText
 10
15.39711431702995
 20
15.96732897163643
 30
0.0
 40
3.5
 41
0.0
 71
     2
 72
     1
  1
\A1;8
  7
SLDTEXTSTYLE0
 73
     1
 44
1.0
  0
POINT
  5
122
330
119
100
AcDbEntity
  8
Defpoints
 62
     0
100
AcDbPoint
 10
11.39711431702995
 20
0.7464106690487835
 30
0.0
  0
POINT
  5
123
330
119
100
AcDbEntity
  8
Defpoints
 62
     0
100
AcDbPoint
 10
19.39711431702995
 20
0.750000000000002
 30
0.0
  0
POINT
  5
153
330
119
100
AcDbEntity
  8
Defpoints
 62
     0
100
AcDbPoint
 10
19.39711431702995
 20
11.59232897163643
 30
0.0
  0
ENDBLK
  5
11B
330
119
100
AcDbEntity
  8
0
100
AcDbBlockEnd
  0
BLOCK
  5
125
330
124
100
AcDbEntity
  8
0
100
AcDbBlockBegin
  2
SW_DOWELSYMBOL_0
 70
     0
 10
0.0
 20
0.0
 30
0.0
  3
SW_DOWELSYMBOL_0
  1

  0
CIRCLE
  5
127
330
124
100
AcDbEntity
  8
해칭선
 62
     0
100
AcDbCircle
 10
0.0
 20
0.0
 30
0.0
 40
3.000000000000003
  0
HATCH
  5
128
330
124
100
AcDbEntity
  8
0
  6
Continuous
 62
     0
370
    18
100
AcDbHatch
 10
0.0
 20
0.0
 30
0.0
210
0.0
220
0.0
230
1.0
  2
SOLID
 70
     1
 71
     0
 91
        1
 92
        0
 93
        3
 72
     2
 10
0.0
 20
0.0
 40
3.000000000000003
 50
0.0
 51
90.0
 73
     1
 72
     1
 10
0.0
 20
3.000000000000003
 11
0.0
 21
0.0
 72
     1
 10
0.0
 20
0.0
 11
3.000000000000003
 21
0.0
 97
        0
 75
     0
 76
     1
 98
        1
 10
0.0
 20
0.0
  0
HATCH
  5
129
330
124
100
AcDbEntity
  8
0
  6
Continuous
 62
     0
370
    18
100
AcDbHatch
 10
0.0
 20
0.0
 30
0.0
210
0.0
220
0.0
230
1.0
  2
SOLID
 70
     1
 71
     0
 91
        1
 92
        0
 93
        3
 72
     2
 10
0.0
 20
0.0
 40
3.000000000000003
 50
180.0
 51
270.0000000000008
 73
     1
 72
     1
 10
0.0
 20
-3.000000000000003
 11
0.0
 21
0.0
 72
     1
 10
0.0
 20
0.0
 11
-3.000000000000003
 21
0.0
 97
        0
 75
     0
 76
     1
 98
        1
 10
0.0
 20
0.0
  0
ENDBLK
  5
126
330
124
100
AcDbEntity
  8
0
100
AcDbBlockEnd
  0
ENDSEC
  0
SECTION
  2
ENTITIES
  0
LINE
  5
99
330
1F
100
AcDbEntity
  8
0
  6
Continuous
 62
     4
370
    25
100
AcDbLine
 10
2.0
 20
2.999999999999997
 30
0.0
 11
-40.10288568297005
 21
2.999999999999995
 31
0.0
  0
LINE
  5
9A
330
1F
100
AcDbEntity
  8
0
  6
Continuous
 62
     4
370
    25
100
AcDbLine
 10
-40.10288568297004
 20
-3.0
 30
0.0
 11
2.000000000000004
 21
-2.999999999999997
 31
0.0
  0
LINE
  5
9B
330
1F
100
AcDbEntity
  8
0
  6
Continuous
 62
     4
370
    25
100
AcDbLine
 10
2.0
 20
-2.999999999999998
 30
0.0
 11
9.897305635698718
 21
-0.883923332532769
 31
0.0
  0
LINE
  5
9C
330
1F
100
AcDbEntity
  8
0
  6
Continuous
 62
     4
370
    25
100
AcDbLine
 10
9.897305635698718
 20
0.8839233325327699
 30
0.0
 11
2.0
 21
2.999999999999999
 31
0.0
  0
LINE
  5
9D
330
1F
100
AcDbEntity
  8
0
  6
Continuous
 62
     4
370
    25
100
AcDbLine
 10
-40.10288568297004
 20
2.999999999999994
 30
0.0
 11
-40.60288568297004
 21
2.499999999999994
 31
0.0
  0
LINE
  5
9E
330
1F
100
AcDbEntity
  8
0
  6
Continuous
 62
     4
370
    25
100
AcDbLine
 10
-40.60288568297004
 20
-2.5
 30
0.0
 11
-40.10288568297004
 21
-2.999999999999999
 31
0.0
  0
LINE
  5
9F
330
1F
100
AcDbEntity
  8
0
  6
Continuous
 62
     4
370
    25
100
AcDbLine
 10
10.94404595470731
 20
-0.7499999999999996
 30
0.0
 11
11.39711431702995
 21
-0.7499999999999994
 31
0.0
  0
LINE
  5
A0
330
1F
100
AcDbEntity
  8
0
  6
Continuous
 62
     4
370
    25
100
AcDbLine
 10
11.39711431702995
 20
0.7500000000000006
 30
0.0
 11
10.94404595470731
 21
0.7500000000000004
 31
0.0
  0
LINE
  5
A1
330
1F
100
AcDbEntity
  8
0
  6
Continuous
 62
     1
370
    25
100
AcDbLine
 10
17.06671536477147
 20
-0.7500000000000003
 30
0.0
 11
17.64692054077852
 21
-0.7500000000000003
 31
0.0
  0
LINE
  5
A2
330
1F
100
AcDbEntity
  8
0
  6
Continuous
 62
     1
370
    25
100
AcDbLine
 10
13.56532243962695
 20
0.7500000000000012
 30
0.0
 11
12.98543403332439
 21
0.7500000000000012
 31
0.0
  0
LINE
  5
A3
330
1F
100
AcDbEntity
  8
0
  6
Continuous
 62
     1
370
    25
100
AcDbLine
 10
13.34756142376876
 20
0.1239147979415564
 30
0.0
 11
13.38091915742988
 21
0.10673686338874
 31
0.0
  0
LINE
  5
A4
330
1F
100
AcDbEntity
  8
0
  6
Continuous
 62
     1
370
    25
100
AcDbLine
 10
15.25477441434989
 20
-0.1288586719086218
 30
0.0
 11
15.21382575810377
 21
-0.1075615955189223
 31
0.0
  0
LINE
  5
A5
330
1F
100
AcDbEntity
  8
0
  6
Continuous
 62
     1
370
    25
100
AcDbLine
 10
19.24600476069787
 20
-0.07989987263535
 30
0.0
 11
19.2263655748656
 21
-0.0683341822941803
 31
0.0
  0
SPLINE
  5
A6
330
1F
100
AcDbEntity
  8
0
  6
Continuous
 62
     1
370
    25
100
AcDbSpline
210
0.0
220
0.0
230
1.0
 70
     8
 71
     3
 72
     9
 73
     5
 74
     0
 42
0.000000001
 43
0.00000001
 40
0.0
 40
0.0
 40
0.0
 40
0.0
 40
0.5637209970556056
 40
1.0
 40
1.0
 40
1.0
 40
1.0
 10
19.39711431702995
 20
-0.1669836202489039
 30
0.0
 10
19.36898514429389
 20
-0.1512325133554125
 30
0.0
 10
19.31908604015731
 20
-0.1232911966832261
 30
0.0
 10
19.26820367029072
 20
-0.0930802669412169
 30
0.0
 10
19.24600476069787
 20
-0.07989987263535
 30
0.0
  0
LINE
  5
A7
330
1F
100
AcDbEntity
  8
0
  6
Continuous
 62
     1
370
    25
100
AcDbLine
 10
17.42333128725528
 20
0.1260748735365093
 30
0.0
 11
17.46196772695688
 21
0.1067368633887409
 31
0.0
  0
LINE
  5
A8
330
1F
100
AcDbEntity
  8
0
  6
Continuous
 62
     1
370
    25
100
AcDbLine
 10
15.0272226998038
 20
-0.7500000000000003
 30
0.0
 11
15.60597085438222
 21
-0.7500000000000003
 31
0.0
  0
LINE
  5
A9
330
1F
100
AcDbEntity
  8
0
  6
Continuous
 62
     1
370
    25
100
AcDbLine
 10
11.52407850958448
 20
0.7500000000000012
 30
0.0
 11
11.39711431702995
 21
0.7500000000000012
 31
0.0
  0
LINE
  5
AA
330
1F
100
AcDbEntity
  8
0
  6
Continuous
 62
     1
370
    25
100
AcDbLine
 10
19.39711431702995
 20
0.7500000000000012
 30
0.0
 11
19.10615301256723
 21
0.7500000000000012
 31
0.0
  0
LINE
  5
AB
330
1F
100
AcDbEntity
  8
0
  6
Continuous
 62
     1
370
    25
100
AcDbLine
 10
19.10615301256723
 20
-0.7500000000000003
 30
0.0
 11
19.39711431702995
 21
-0.7500000000000003
 31
0.0
  0
LINE
  5
AC
330
1F
100
AcDbEntity
  8
0
  6
Continuous
 62
     4
370
    25
100
AcDbLine
 10
11.39711431702995
 20
-0.7500000000000003
 30
0.0
 11
11.52407850958449
 21
-0.7500000000000003
 31
0.0
  0
LINE
  5
AD
330
1F
100
AcDbEntity
  8
0
  6
Continuous
 62
     1
370
    25
100
AcDbLine
 10
15.60597085438222
 20
0.7500000000000012
 30
0.0
 11
15.0272226998038
 21
0.7500000000000012
 31
0.0
  0
LINE
  5
AE
330
1F
100
AcDbEntity
  8
0
  6
Continuous
 62
     1
370
    25
100
AcDbLine
 10
12.9854340333244
 20
-0.7500000000000003
 30
0.0
 11
13.56532243962695
 21
-0.7500000000000003
 31
0.0
  0
LINE
  5
AF
330
1F
100
AcDbEntity
  8
0
  6
Continuous
 62
     1
370
    25
100
AcDbLine
 10
17.64692054077853
 20
0.7500000000000012
 30
0.0
 11
17.06671536477148
 21
0.7500000000000012
 31
0.0
  0
LINE
  5
B0
330
1F
100
AcDbEntity
  8
0
  6
Continuous
 62
     4
370
    25
100
AcDbLine
 10
2.0
 20
2.999999999999999
 30
0.0
 11
2.0
 21
-2.999999999999999
 31
0.0
  0
LINE
  5
B1
330
1F
100
AcDbEntity
  8
0
  6
Continuous
 62
     4
370
    25
100
AcDbLine
 10
-40.10288568297004
 20
2.999999999999994
 30
0.0
 11
-40.10288568297004
 21
-2.999999999999999
 31
0.0
  0
SPLINE
  5
B2
330
1F
100
AcDbEntity
  8
0
  6
Continuous
 62
     4
370
    25
100
AcDbSpline
210
0.0
220
0.0
230
1.0
 70
     8
 71
     3
 72
     9
 73
     5
 74
     0
 42
0.000000001
 43
0.00000001
 40
0.0
 40
0.0
 40
0.0
 40
0.0
 40
0.30285195268804
 40
1.0
 40
1.0
 40
1.0
 40
1.0
 10
10.21525520154223
 20
0.6726356426431686
 30
0.0
 10
10.23353658949611
 20
0.6749359768661035
 30
0.0
 10
10.29390069740962
 20
0.6825315502230445
 30
0.0
 10
10.35471661726046
 20
0.6835309647599341
 30
0.0
 10
10.39711431702995
 20
0.6842277046527822
 30
0.0
  0
LINE
  5
B3
330
1F
100
AcDbEntity
  8
0
  6
Continuous
 62
     4
370
    25
100
AcDbLine
 10
9.897305635698718
 20
0.8839233325327699
 30
0.0
 11
9.897305635698718
 21
0.8608007640818057
 31
0.0
  0
SPLINE
  5
B4
330
1F
100
AcDbEntity
  8
0
  6
Continuous
 62
     4
370
    25
100
AcDbSpline
210
0.0
220
0.0
230
1.0
 70
     8
 71
     3
 72
    14
 73
    10
 74
     0
 42
0.000000001
 43
0.00000001
 40
0.0
 40
0.0
 40
0.0
 40
0.0
 40
0.0000509215405556
 40
0.0000509215405556
 40
0.0000509215405556
 40
0.0001019847188418
 40
0.0001019847188418
 40
0.0001019847188418
 40
0.0001491948497443
 40
0.0001491948497443
 40
0.0001491948497443
 40
0.0001491948497443
 10
9.96419187235368
 20
0.8065049188470954
 30
0.0
 10
9.950549183875633
 20
0.8133384969219972
 30
0.0
 10
9.938188715632563
 20
0.8206095633676932
 30
0.0
 10
9.92811674832545
 20
0.827539124827427
 30
0.0
 10
9.918028697637087
 20
0.8344797517300342
 30
0.0
 10
9.909958867374847
 20
0.8412671628575616
 30
0.0
 10
9.904716499076187
 20
0.8470999130711719
 30
0.0
 10
9.899863120983206
 20
0.8524998660114856
 30
0.0
 10
9.897305635698647
 20
0.8572242771454741
 30
0.0
 10
9.897305635698647
 20
0.8608007640818179
 30
0.0
  0
SPLINE
  5
B5
330
1F
100
AcDbEntity
  8
0
  6
Continuous
 62
     4
370
    25
100
AcDbSpline
210
0.0
220
0.0
230
1.0
 70
     8
 71
     3
 72
     8
 73
     4
 74
     0
 42
0.000000001
 43
0.00000001
 40
0.0
 40
0.0
 40
0.0
 40
0.0
 40
1.0
 40
1.0
 40
1.0
 40
1.0
 10
10.39711431702995
 20
0.5725586852201908
 30
0.0
 10
10.24662273227667
 20
0.6552560773111182
 30
0.0
 10
10.10434591873483
 20
0.7363022150325048
 30
0.0
 10
9.964191872353684
 20
0.8065049188470915
 30
0.0
  0
LINE
  5
B6
330
1F
100
AcDbEntity
  8
0
  6
Continuous
 62
     4
370
    25
100
AcDbLine
 10
10.39711431702995
 20
0.5725586852201906
 30
0.0
 11
10.39711431702995
 21
0.3071358790268321
 31
0.0
  0
SPLINE
  5
B7
330
1F
100
AcDbEntity
  8
0
  6
Continuous
 62
     4
370
    25
100
AcDbSpline
210
0.0
220
0.0
230
1.0
 70
     8
 71
     3
 72
     8
 73
     4
 74
     0
 42
0.000000001
 43
0.00000001
 40
0.0
 40
0.0
 40
0.0
 40
0.0
 40
1.0
 40
1.0
 40
1.0
 40
1.0
 10
10.12795708863624
 20
0.4875801416827587
 30
0.0
 10
10.21688494259387
 20
0.4278086424685241
 30
0.0
 10
10.30656550610183
 20
0.3675795602584744
 30
0.0
 10
10.39711431702995
 20
0.3071358790268336
 30
0.0
  0
SPLINE
  5
B8
330
1F
100
AcDbEntity
  8
0
  6
Continuous
 62
     4
370
    25
100
AcDbSpline
210
0.0
220
0.0
230
1.0
 70
     8
 71
     3
 72
    26
 73
    22
 74
     0
 42
0.000000001
 43
0.00000001
 40
0.0
 40
0.0
 40
0.0
 40
0.0
 40
0.0000472077602369
 40
0.0000472077602369
 40
0.0000472077602369
 40
0.0000943139252212
 40
0.0000943139252212
 40
0.0000943139252212
 40
0.0001429120267015
 40
0.0001429120267015
 40
0.0001429120267015
 40
0.0001942608821017
 40
0.0001942608821017
 40
0.0001942608821017
 40
0.000247269894559
 40
0.000247269894559
 40
0.000247269894559
 40
0.0003003590240371
 40
0.0003003590240371
 40
0.0003003590240371
 40
0.0003272838292867
 40
0.0003272838292867
 40
0.0003272838292867
 40
0.0003272838292867
 10
9.897305635698718
 20
0.4137970793779798
 30
0.0
 10
9.897305635698718
 20
0.4277022192934586
 30
0.0
 10
9.89986193004881
 20
0.4412709675365772
 30
0.0
 10
9.90471299628609
 20
0.4533941493765183
 30
0.0
 10
9.90955818281629
 20
0.4655026373832619
 30
0.0
 10
9.916806428156569
 20
0.476503859692551
 30
0.0
 10
9.92582831686002
 20
0.4856852105301568
 30
0.0
 10
9.935137244158362
 20
0.4951586733778123
 30
0.0
 10
9.946568515280365
 20
0.502951743532193
 30
0.0
 10
9.959257155892516
 20
0.5086600355063915
 30
0.0
 10
9.972651995668109
 20
0.5146860282603722
 30
0.0
 10
9.987804698561398
 20
0.5185526050945413
 30
0.0
 10
10.0035687647951
 20
0.5200892653047718
 30
0.0
 10
10.0198284353758
 20
0.5216742363675939
 30
0.0
 10
10.03718940957425
 20
0.5208219917583862
 30
0.0
 10
10.05423871317407
 20
0.5176228374140103
 30
0.0
 10
10.07130909695833
 20
0.5144197275553645
 30
0.0
 10
10.08854353605176
 20
0.5087690014940217
 30
0.0
 10
10.10444812494263
 20
0.5010645358487783
 30
0.0
 10
10.11260228650026
 20
0.4971145150077796
 30
0.0
 10
10.1205016358275
 20
0.4925912104521878
 30
0.0
 10
10.12795708863624
 20
0.4875801416827594
 30
0.0
  0
LINE
  5
B9
330
1F
100
AcDbEntity
  8
0
  6
Continuous
 62
     4
370
    25
100
AcDbLine
 10
9.897305635698718
 20
0.4137970793779798
 30
0.0
 11
9.897305635698718
 21
-0.2008544307502784
 31
0.0
  0
SPLINE
  5
BA
330
1F
100
AcDbEntity
  8
0
  6
Continuous
 62
     4
370
    25
100
AcDbSpline
210
0.0
220
0.0
230
1.0
 70
     8
 71
     3
 72
    14
 73
    10
 74
     0
 42
0.000000001
 43
0.00000001
 40
0.0
 40
0.0
 40
0.0
 40
0.0
 40
0.0000509215405556
 40
0.0000509215405556
 40
0.0000509215405556
 40
0.0001019847188418
 40
0.0001019847188418
 40
0.0001019847188418
 40
0.0001491948497443
 40
0.0001491948497443
 40
0.0001491948497443
 40
0.0001491948497443
 10
9.96419187235368
 20
-0.3154487722921519
 30
0.0
 10
9.950549183875633
 20
-0.3080129980395572
 30
0.0
 10
9.938188715632563
 20
-0.2980834724741764
 30
0.0
 10
9.92811674832545
 20
-0.2863085784410825
 30
0.0
 10
9.918028697637087
 20
-0.2745148817149146
 30
0.0
 10
9.909958867374847
 20
-0.2605136116895325
 30
0.0
 10
9.904716499076187
 20
-0.2454295488904117
 30
0.0
 10
9.899863120983206
 20
-0.2314647421901483
 30
0.0
 10
9.897305635698647
 20
-0.2161821617644173
 30
0.0
 10
9.897305635698647
 20
-0.2008544307503072
 30
0.0
  0
SPLINE
  5
BB
330
1F
100
AcDbEntity
  8
0
  6
Continuous
 62
     4
370
    25
100
AcDbSpline
210
0.0
220
0.0
230
1.0
 70
     8
 71
     3
 72
     8
 73
     4
 74
     0
 42
0.000000001
 43
0.00000001
 40
0.0
 40
0.0
 40
0.0
 40
0.0
 40
1.0
 40
1.0
 40
1.0
 40
1.0
 10
10.39711431702995
 20
-0.4844342597080954
 30
0.0
 10
10.24662273227667
 20
-0.4491228922889436
 30
0.0
 10
10.10434591873483
 20
-0.3918379569572503
 30
0.0
 10
9.964191872353684
 20
-0.3154487722921533
 30
0.0
  0
LINE
  5
BC
330
1F
100
AcDbEntity
  8
0
  6
Continuous
 62
     4
370
    25
100
AcDbLine
 10
10.39711431702995
 20
-0.4844342597080943
 30
0.0
 11
10.39711431702995
 21
-0.6842277046527784
 31
0.0
  0
SPLINE
  5
BD
330
1F
100
AcDbEntity
  8
0
  6
Continuous
 62
     4
370
    25
100
AcDbSpline
210
0.0
220
0.0
230
1.0
 70
     8
 71
     3
 72
     8
 73
     4
 74
     0
 42
0.000000001
 43
0.00000001
 40
0.0
 40
0.0
 40
0.0
 40
0.0
 40
1.0
 40
1.0
 40
1.0
 40
1.0
 10
10.12795708863624
 20
-0.6619272312355822
 30
0.0
 10
10.21688494259387
 20
-0.6763605234018008
 30
0.0
 10
10.30656550610183
 20
-0.6836905112720449
 30
0.0
 10
10.39711431702995
 20
-0.6842277046527808
 30
0.0
  0
SPLINE
  5
BE
330
1F
100
AcDbEntity
  8
0
  6
Continuous
 62
     4
370
    25
100
AcDbSpline
210
0.0
220
0.0
230
1.0
 70
     8
 71
     3
 72
    26
 73
    22
 74
     0
 42
0.000000001
 43
0.00000001
 40
0.0
 40
0.0
 40
0.0
 40
0.0
 40
0.0000472077602369
 40
0.0000472077602369
 40
0.0000472077602369
 40
0.0000943139252212
 40
0.0000943139252212
 40
0.0000943139252212
 40
0.0001429120267015
 40
0.0001429120267015
 40
0.0001429120267015
 40
0.0001942608821017
 40
0.0001942608821017
 40
0.0001942608821017
 40
0.000247269894559
 40
0.000247269894559
 40
0.000247269894559
 40
0.0003003590240371
 40
0.0003003590240371
 40
0.0003003590240371
 40
0.0003272838292867
 40
0.0003272838292867
 40
0.0003272838292867
 40
0.0003272838292867
 10
9.897305635698718
 20
-0.7810841407262655
 30
0.0
 10
9.897305635698718
 20
-0.7737175767604204
 30
0.0
 10
9.89986193004881
 20
-0.7652531332612471
 30
0.0
 10
9.90471299628609
 20
-0.7564716300203911
 30
0.0
 10
9.909558182816287
 20
-0.747700770350303
 30
0.0
 10
9.916806428156569
 20
-0.7383862287640953
 30
0.0
 10
9.92582831686002
 20
-0.7293680463145347
 30
0.0
 10
9.935137244158362
 20
-0.7200629431875126
 30
0.0
 10
9.946568515280365
 20
-0.7108369582613447
 30
0.0
 10
9.959257155892516
 20
-0.7025062096677794
 30
0.0
 10
9.972651995668109
 20
-0.6937118048113066
 30
0.0
 10
9.987804698561398
 20
-0.6856891589138249
 30
0.0
 10
10.0035687647951
 20
-0.6791923312847294
 30
0.0
 10
10.0198284353758
 20
-0.6724912507701797
 30
0.0
 10
10.03718940957425
 20
-0.6672391327232928
 30
0.0
 10
10.05423871317406
 20
-0.6639406241257816
 30
0.0
 10
10.07130909695833
 20
-0.6606380371699226
 30
0.0
 10
10.08854353605176
 20
-0.6592068598544955
 30
0.0
 10
10.10444812494263
 20
-0.659707117031583
 30
0.0
 10
10.11260228650026
 20
-0.6599635950751415
 30
0.0
 10
10.1205016358275
 20
-0.6607171859704475
 30
0.0
 10
10.12795708863624
 20
-0.6619272312355821
 30
0.0
  0
LINE
  5
BF
330
1F
100
AcDbEntity
  8
0
  6
Continuous
 62
     4
370
    25
100
AcDbLine
 10
9.897305635698718
 20
-0.7810841407262654
 30
0.0
 11
9.897305635698718
 21
-0.883923332532769
 31
0.0
  0
SPLINE
  5
C0
330
1F
100
AcDbEntity
  8
0
  6
Continuous
 62
     4
370
    25
100
AcDbSpline
210
0.0
220
0.0
230
1.0
 70
     8
 71
     3
 72
    14
 73
    10
 74
     0
 42
0.000000001
 43
0.00000001
 40
0.0
 40
0.0
 40
0.0
 40
0.0
 40
0.0000509215405556
 40
0.0000509215405556
 40
0.0000509215405556
 40
0.0001019847188418
 40
0.0001019847188418
 40
0.0001019847188418
 40
0.0001491948497443
 40
0.0001491948497443
 40
0.0001491948497443
 40
0.0001491948497443
 10
9.96419187235368
 20
-0.8065049188470944
 30
0.0
 10
9.950549183875633
 20
-0.8133384969219963
 30
0.0
 10
9.938188715632563
 20
-0.8206095633676926
 30
0.0
 10
9.92811674832545
 20
-0.8275391248274264
 30
0.0
 10
9.918028697637087
 20
-0.8344797517300335
 30
0.0
 10
9.909958867374847
 20
-0.8412671628575611
 30
0.0
 10
9.904716499076187
 20
-0.8470999130711715
 30
0.0
 10
9.899863120983202
 20
-0.852499866011485
 30
0.0
 10
9.89730563569865
 20
-0.8572242771454732
 30
0.0
 10
9.897305635698647
 20
-0.860800764081817
 30
0.0
  0
SPLINE
  5
C1
330
1F
100
AcDbEntity
  8
0
  6
Continuous
 62
     4
370
    25
100
AcDbSpline
210
0.0
220
0.0
230
1.0
 70
     8
 71
     3
 72
     9
 73
     5
 74
     0
 42
0.000000001
 43
0.00000001
 40
0.0
 40
0.0
 40
0.0
 40
0.0
 40
0.2726236746963786
 40
1.0
 40
1.0
 40
1.0
 40
1.0
 10
10.21525520154223
 20
-0.6726356426431678
 30
0.0
 10
10.19172508284087
 20
-0.685657323491008
 30
0.0
 10
10.10541519530977
 20
-0.733421630322917
 30
0.0
 10
10.02365922766835
 20
-0.7757304702980907
 30
0.0
 10
9.964191872353684
 20
-0.8065049188470917
 30
0.0
  0
LINE
  5
C2
330
1F
100
AcDbEntity
  8
0
  6
Continuous
 62
     4
370
    25
100
AcDbLine
 10
-40.60288568297004
 20
2.499999999999994
 30
0.0
 11
-40.60288568297004
 21
-2.500000000000001
 31
0.0
  0
SPLINE
  5
C3
330
1F
100
AcDbEntity
  8
0
  6
Continuous
 62
     4
370
    25
100
AcDbSpline
210
0.0
220
0.0
230
1.0
 70
     8
 71
     3
 72
    12
 73
     8
 74
     0
 42
0.000000001
 43
0.00000001
 40
0.0
 40
0.0
 40
0.0
 40
0.0
 40
0.2499999999999999
 40
0.2499999999999999
 40
0.4999999999999998
 40
0.4999999999999998
 40
1.0
 40
1.0
 40
1.0
 40
1.0
 10
11.39711431702996
 20
0.7048418988947799
 30
0.0
 10
11.31319366905825
 20
0.7213425492449047
 30
0.0
 10
11.23226562891365
 20
0.7333099531504711
 30
0.0
 10
11.06632146543162
 20
0.7483196176475194
 30
0.0
 10
10.98143379761462
 20
0.7512683295997172
 30
0.0
 10
10.72805430252136
 20
0.7459560934857661
 30
0.0
 10
10.56609501479611
 20
0.7238613879606323
 30
0.0
 10
10.39711431702995
 20
0.6842277046527792
 30
0.0
  0
SPLINE
  5
C4
330
1F
100
AcDbEntity
  8
0
  6
Continuous
 62
     4
370
    25
100
AcDbSpline
210
0.0
220
0.0
230
1.0
 70
    24
 71
     3
 72
    16
 73
    12
 74
     0
 42
0.000000001
 43
0.00000001
 40
0.0
 40
0.0
 40
0.0
 40
0.0
 40
0.1249999999999999
 40
0.1249999999999999
 40
0.2499999999999998
 40
0.2499999999999998
 40
0.4999999999999999
 40
0.4999999999999999
 40
0.75
 40
0.75
 40
1.0
 40
1.0
 40
1.0
 40
1.0
 10
11.39711431702995
 20
0.7048418988948085
 30
0.0
 10
11.39711431702995
 20
0.6790111845387187
 30
0.0
 10
11.39711431702995
 20
0.6555971136308872
 30
0.0
 10
11.39711431702995
 20
0.6036678218090542
 30
0.0
 10
11.39711431702995
 20
0.5757507193113593
 30
0.0
 10
11.39711431702995
 20
0.4865955749004942
 30
0.0
 10
11.39711431702995
 20
0.4192711448574728
 30
0.0
 10
11.39711431702995
 20
0.2832496868389326
 30
0.0
 10
11.39711431702995
 20
0.2148134275975487
 30
0.0
 10
11.39711431702995
 20
0.1111701815882854
 30
0.0
 10
11.39711431702995
 20
0.0777236084502576
 30
0.0
 10
11.39711431702995
 20
0.0732878784667012
 30
0.0
  0
SPLINE
  5
C5
330
1F
100
AcDbEntity
  8
0
  6
Continuous
 62
     4
370
    25
100
AcDbSpline
210
0.0
220
0.0
230
1.0
 70
     8
 71
     3
 72
    12
 73
     8
 74
     0
 42
0.000000001
 43
0.00000001
 40
0.0
 40
0.0
 40
0.0
 40
0.0
 40
0.25
 40
0.25
 40
0.5
 40
0.5
 40
1.0
 40
1.0
 40
1.0
 40
1.0
 10
11.39711431702996
 20
0.073287878466696
 30
0.0
 10
11.31319366905826
 20
0.1213389596816523
 30
0.0
 10
11.23226562891365
 20
0.1683661677116767
 30
0.0
 10
11.06632146543162
 20
0.2605496125075631
 30
0.0
 10
10.98143379761462
 20
0.3056580205533833
 30
0.0
 10
10.72805430252136
 20
0.4341910795602307
 30
0.0
 10
10.56609501479611
 20
0.510045916951045
 30
0.0
 10
10.39711431702995
 20
0.5725586852201906
 30
0.0
  0
SPLINE
  5
C6
330
1F
100
AcDbEntity
  8
0
  6
Continuous
 62
     4
370
    25
100
AcDbSpline
210
0.0
220
0.0
230
1.0
 70
     8
 71
     3
 72
    12
 73
     8
 74
     0
 42
0.000000001
 43
0.00000001
 40
0.0
 40
0.0
 40
0.0
 40
0.0
 40
0.2499999999999999
 40
0.2499999999999999
 40
0.4999999999999998
 40
0.4999999999999998
 40
1.0
 40
1.0
 40
1.0
 40
1.0
 10
11.39711431702996
 20
-0.2563160111315697
 30
0.0
 10
11.31319366905825
 20
-0.2109409693055218
 30
0.0
 10
11.23226562891365
 20
-0.1645300271106141
 30
0.0
 10
11.06632146543162
 20
-0.0695080358982726
 30
0.0
 10
10.98143379761462
 20
-0.020905214141985
 30
0.0
 10
10.72805430252136
 20
0.124153255063853
 30
0.0
 10
10.56609501479611
 20
0.2188411990220314
 30
0.0
 10
10.39711431702995
 20
0.3071358790268321
 30
0.0
  0
SPLINE
  5
C7
330
1F
100
AcDbEntity
  8
0
  6
Continuous
 62
     4
370
    25
100
AcDbSpline
210
0.0
220
0.0
230
1.0
 70
    24
 71
     3
 72
    12
 73
     8
 74
     0
 42
0.000000001
 43
0.00000001
 40
0.0
 40
0.0
 40
0.0
 40
0.0
 40
0.1575255039837549
 40
0.3990523993192359
 40
0.6405792946547163
 40
0.8821061899900976
 40
1.0
 40
1.0
 40
1.0
 40
1.0
 10
11.39711431702995
 20
-0.2563160111315657
 30
0.0
 10
11.39711431702995
 20
-0.261077622247707
 30
0.0
 10
11.39711431702995
 20
-0.2731400013067656
 30
0.0
 10
11.39711431702995
 20
-0.3579105062985811
 30
0.0
 10
11.39711431702995
 20
-0.4915722172885741
 30
0.0
 10
11.39711431702995
 20
-0.6306509853344179
 30
0.0
 10
11.39711431702995
 20
-0.717818724493163
 30
0.0
 10
11.39711431702995
 20
-0.746410669048782
 30
0.0
  0
SPLINE
  5
C8
330
1F
100
AcDbEntity
  8
0
  6
Continuous
 62
     4
370
    25
100
AcDbSpline
210
0.0
220
0.0
230
1.0
 70
     8
 71
     3
 72
    12
 73
     8
 74
     0
 42
0.000000001
 43
0.00000001
 40
0.0
 40
0.0
 40
0.0
 40
0.0
 40
0.25
 40
0.25
 40
0.5
 40
0.5
 40
1.0
 40
1.0
 40
1.0
 40
1.0
 10
11.39711431702996
 20
-0.7464106690487824
 30
0.0
 10
11.31319366905826
 20
-0.7416926740544684
 30
0.0
 10
11.23226562891365
 20
-0.7324387010396523
 30
0.0
 10
11.06632146543162
 20
-0.704930859469727
 30
0.0
 10
10.98143379761462
 20
-0.6865961735323494
 30
0.0
 10
10.72805430252136
 20
-0.6191466955268535
 30
0.0
 10
10.56609501479611
 20
-0.5583188533188431
 30
0.0
 10
10.39711431702995
 20
-0.4844342597080942
 30
0.0
  0
LINE
  5
C9
330
1F
100
AcDbEntity
  8
0
  6
Continuous
 62
     4
370
    25
100
AcDbLine
 10
11.39711431702995
 20
0.0732878784667012
 30
0.0
 11
11.39711431702995
 21
-0.2563160111315713
 31
0.0
  0
SPLINE
  5
CA
330
1F
100
AcDbEntity
  8
0
  6
Continuous
 62
     4
370
    25
100
AcDbSpline
210
0.0
220
0.0
230
1.0
 70
     8
 71
     3
 72
     9
 73
     5
 74
     0
 42
0.000000001
 43
0.00000001
 40
0.0
 40
0.0
 40
0.0
 40
0.0
 40
0.9139417997668284
 40
1.0
 40
1.0
 40
1.0
 40
1.0
 10
10.39711431702773
 20
-0.6842277046522561
 30
0.0
 10
10.56372705552935
 20
-0.7227254128524594
 30
0.0
 10
10.74602831206902
 20
-0.764848125928965
 30
0.0
 10
10.92835522843112
 20
-0.7468440946749598
 30
0.0
 10
10.94404595470731
 20
-0.7452947001482982
 30
0.0
  0
LINE
  5
CB
330
1F
100
AcDbEntity
  8
0
  6
Continuous
 62
     4
370
    25
100
AcDbLine
 10
11.39711431702995
 20
-0.746410669048782
 30
0.0
 11
11.39711431702995
 21
-0.7499999999999993
 31
0.0
  0
SPLINE
  5
CC
330
1F
100
AcDbEntity
  8
0
  6
Continuous
 62
     1
370
    25
100
AcDbSpline
210
0.0
220
0.0
230
1.0
 70
     8
 71
     3
 72
    19
 73
    15
 74
     0
 42
0.000000001
 43
0.00000001
 40
0.0
 40
0.0
 40
0.0
 40
0.0
 40
0.00349789932157
 40
0.1021121574832645
 40
0.2006282165972714
 40
0.2992429864062316
 40
0.3981501779342733
 40
0.4972054094204466
 40
0.5959137236353617
 40
0.6944455097871312
 40
0.7929971667283708
 40
0.8917644484929873
 40
0.9908538824129997
 40
1.0
 40
1.0
 40
1.0
 40
1.0
 10
12.25589749537092
 20
0.6332997184599034
 30
0.0
 10
12.26150953857978
 20
0.6354285342623995
 30
0.0
 10
12.42533867923349
 20
0.6975738261914403
 30
0.0
 10
12.7468537775694
 20
0.7487749241891946
 30
0.0
 10
13.22091467514213
 20
0.7556621728018085
 30
0.0
 10
13.69547158914135
 20
0.6544480305567575
 30
0.0
 10
14.1712436398505
 20
0.4688235949496489
 30
0.0
 10
14.64742191841815
 20
0.2210163045150606
 30
0.0
 10
15.12246925513902
 20
-0.0565624963395894
 30
0.0
 10
15.59657886468221
 20
-0.3257296061918032
 30
0.0
 10
16.07081008828786
 20
-0.5545900085027744
 30
0.0
 10
16.54607277620632
 20
-0.6999250212081013
 30
0.0
 10
16.87845086873296
 20
-0.7633377878613463
 30
0.0
 10
17.05204621556346
 20
-0.7471853527058755
 30
0.0
 10
17.06671536477147
 20
-0.7458204400760472
 30
0.0
  0
SPLINE
  5
CD
330
1F
100
AcDbEntity
  8
0
  6
Continuous
 62
     1
370
    25
100
AcDbSpline
210
0.0
220
0.0
230
1.0
 70
     8
 71
     3
 72
    18
 73
    14
 74
     0
 42
0.000000001
 43
0.00000001
 40
0.0
 40
0.0
 40
0.0
 40
0.0
 40
0.0593837685358968
 40
0.169437308706567
 40
0.2795804881840522
 40
0.3789227987465548
 40
0.4779421350200375
 40
0.5767452961947079
 40
0.6755285358695717
 40
0.7744887541079241
 40
0.8737967749518355
 40
0.9729563780390346
 40
0.9999999999999999
 40
0.9999999999999999
 40
0.9999999999999999
 40
0.9999999999999999
 10
18.36480414695837
 20
-0.6253772671126123
 30
0.0
 10
18.26979895075392
 20
-0.6562979967523591
 30
0.0
 10
17.99872446095806
 20
-0.7445228659813149
 30
0.0
 10
17.55136344932182
 20
-0.7656600983226143
 30
0.0
 10
17.04004039915916
 20
-0.6869633516632395
 30
0.0
 10
16.54610547974768
 20
-0.5080001603162261
 30
0.0
 10
16.07080140880959
 20
-0.2691010178267801
 30
0.0
 10
15.59658100101786
 20
0.0057112887451102
 30
0.0
 10
15.1224693781212
 20
0.2791168768133714
 30
0.0
 10
14.64741927708325
 20
0.5178271832379939
 30
0.0
 10
14.17125411632658
 20
0.6801237602607696
 30
0.0
 10
13.81037000991227
 20
0.756571053912145
 30
0.0
 10
13.60856622560092
 20
0.742997914033765
 30
0.0
 10
13.56532243962695
 20
0.7400893761294911
 30
0.0
  0
SPLINE
  5
CE
330
1F
100
AcDbEntity
  8
0
  6
Continuous
 62
     1
370
    25
100
AcDbSpline
210
0.0
220
0.0
230
1.0
 70
     8
 71
     3
 72
    18
 73
    14
 74
     0
 42
0.000000001
 43
0.00000001
 40
0.0
 40
0.0
 40
0.0
 40
0.0
 40
0.0550232973806269
 40
0.1535658039250204
 40
0.2520884415249214
 40
0.3507875907975608
 40
0.4498336251306272
 40
0.5487316332508858
 40
0.64733724680305
 40
0.7458441588254241
 40
0.8444492607778284
 40
0.9354934670887579
 40
1.0
 40
1.0
 40
1.0
 40
1.0
 10
16.33523519277874
 20
-0.6241737904920879
 30
0.0
 10
16.24697871783591
 20
-0.652867490773013
 30
0.0
 10
16.00066166358108
 20
-0.732949408087828
 30
0.0
 10
15.59659125233177
 20
-0.7643691812056814
 30
0.0
 10
15.12246590700788
 20
-0.7148502335569693
 30
0.0
 10
14.64742290558151
 20
-0.5666784215480858
 30
0.0
 10
14.17124305404232
 20
-0.3450210636846462
 30
0.0
 10
13.69547294082133
 20
-0.0771484137208004
 30
0.0
 10
13.22090986993366
 20
0.2007068550607609
 30
0.0
 10
12.74687164102858
 20
0.4527879313968978
 30
0.0
 10
12.28496395165755
 20
0.636767168508226
 30
0.0
 10
11.87700973595538
 20
0.7390036020042756
 30
0.0
 10
11.62753507590735
 20
0.7406254460618789
 30
0.0
 10
11.52407850958448
 20
0.7412980210531763
 30
0.0
  0
SPLINE
  5
CF
330
1F
100
AcDbEntity
  8
0
  6
Continuous
 62
     1
370
    25
100
AcDbSpline
210
0.0
220
0.0
230
1.0
 70
     8
 71
     3
 72
    14
 73
    10
 74
     0
 42
0.000000001
 43
0.00000001
 40
0.0
 40
0.0
 40
0.0
 40
0.0
 40
0.1495224173484574
 40
0.2990985746486536
 40
0.4487629240068366
 40
0.5985491759272685
 40
0.7336470769218054
 40
0.8683057577263273
 40
1.0
 40
1.0
 40
1.0
 40
1.0
 10
19.13536903202933
 20
-0.6832760216477062
 30
0.0
 10
18.9594781005912
 20
-0.6303608474067328
 30
0.0
 10
18.60763302063796
 20
-0.5245114806467215
 30
0.0
 10
18.07969180081232
 20
-0.25029888010747
 30
0.0
 10
17.55136518387615
 20
0.0565919365118195
 30
0.0
 10
17.04003991055314
 20
0.347373099633246
 30
0.0
 10
16.54610584798187
 20
0.5730260587470389
 30
0.0
 10
16.07394124376979
 20
0.7219556562980846
 30
0.0
 10
15.76079925463583
 20
0.740075631270587
 30
0.0
 10
15.60597085438222
 20
0.7490347834602593
 30
0.0
  0
SPLINE
  5
D0
330
1F
100
AcDbEntity
  8
0
  6
Continuous
 62
     1
370
    25
100
AcDbSpline
210
0.0
220
0.0
230
1.0
 70
     8
 71
     3
 72
     9
 73
     5
 74
     0
 42
0.000000001
 43
0.00000001
 40
0.0
 40
0.0
 40
0.0
 40
0.0
 40
0.4906274192273825
 40
1.0
 40
1.0
 40
1.0
 40
1.0
 10
12.25589749537092
 20
-0.6332997184599026
 30
0.0
 10
12.11541469196816
 20
-0.671554529990846
 30
0.0
 10
11.8290817274877
 20
-0.7495257359034407
 30
0.0
 10
11.54289168007298
 20
-0.7474619201866703
 30
0.0
 10
11.3971143170299
 20
-0.7464106690487798
 30
0.0
  0
SPLINE
  5
D1
330
1F
100
AcDbEntity
  8
0
  6
Continuous
 62
     4
370
    25
100
AcDbSpline
210
0.0
220
0.0
230
1.0
 70
    24
 71
     3
 72
    12
 73
     8
 74
     0
 42
0.000000001
 43
0.00000001
 40
0.0
 40
0.0
 40
0.0
 40
0.0
 40
0.1925655277478278
 40
0.4240468867590777
 40
0.6555282457703279
 40
0.887009604781482
 40
0.9999999999999999
 40
0.9999999999999999
 40
0.9999999999999999
 40
0.9999999999999999
 10
11.39711431702995
 20
-0.2506315098968625
 30
0.0
 10
11.39711431702995
 20
-0.2563256184354458
 30
0.0
 10
11.39711431702995
 20
-0.2688645657065095
 30
0.0
 10
11.39711431702995
 20
-0.3574866587625015
 30
0.0
 10
11.39711431702995
 20
-0.4916878960335433
 30
0.0
 10
11.39711431702995
 20
-0.6306384876549986
 30
0.0
 10
11.39711431702995
 20
-0.7178156376411707
 30
0.0
 10
11.39711431702995
 20
-0.7464106690479958
 30
0.0
  0
SPLINE
  5
D2
330
1F
100
AcDbEntity
  8
0
  6
Continuous
 62
     1
370
    25
100
AcDbSpline
210
0.0
220
0.0
230
1.0
 70
     8
 71
     3
 72
    11
 73
     7
 74
     0
 42
0.000000001
 43
0.00000001
 40
0.0
 40
0.0
 40
0.0
 40
0.0
 40
0.2753335258788384
 40
0.5511296895283665
 40
0.8498297379627544
 40
0.9999999999999999
 40
0.9999999999999999
 40
0.9999999999999999
 40
0.9999999999999999
 10
11.39711431702995
 20
-0.2563160111315657
 30
0.0
 10
11.54288423979423
 20
-0.3327451025231012
 30
0.0
 10
11.83466901979594
 20
-0.4857317076780736
 30
0.0
 10
12.28496167172064
 20
-0.6530503744594894
 30
0.0
 10
12.66842948907577
 20
-0.7470296955385703
 30
0.0
 10
12.90596586762497
 20
-0.7399046537504733
 30
0.0
 10
12.9854340333244
 20
-0.7375209599142277
 30
0.0
  0
SPLINE
  5
D3
330
1F
100
AcDbEntity
  8
0
  6
Continuous
 62
     1
370
    25
100
AcDbSpline
210
0.0
220
0.0
230
1.0
 70
     8
 71
     3
 72
    14
 73
    10
 74
     0
 42
0.000000001
 43
0.00000001
 40
0.0
 40
0.0
 40
0.0
 40
0.0
 40
0.0687279501051833
 40
0.2244295693200801
 40
0.3797282930904776
 40
0.5346279978171001
 40
0.689434879637996
 40
0.8444581454495111
 40
1.0
 40
1.0
 40
1.0
 40
1.0
 10
16.33523519277875
 20
0.6241737904920898
 30
0.0
 10
16.40537053402247
 20
0.6481043171309039
 30
0.0
 10
16.63439590732918
 20
0.7262489115634787
 30
0.0
 10
17.02238103548027
 20
0.7633993088360151
 30
0.0
 10
17.49789663556284
 20
0.7260485617343284
 30
0.0
 10
17.972275150403
 20
0.5877142798056703
 30
0.0
 10
18.44631755546753
 20
0.3734257391110882
 30
0.0
 10
18.92111646576009
 20
0.107636324155385
 30
0.0
 10
19.23827183551063
 20
-0.0747579765884446
 30
0.0
 10
19.39711431702995
 20
-0.1661074100472503
 30
0.0
  0
LINE
  5
D4
330
1F
100
AcDbEntity
  8
0
  6
Continuous
 62
     1
370
    25
100
AcDbLine
 10
19.39711431702995
 20
-0.4999999999999994
 30
0.0
 11
19.39711431702995
 21
-0.1667178101613289
 31
0.0
  0
SPLINE
  5
D5
330
1F
100
AcDbEntity
  8
0
  6
Continuous
 62
     1
370
    25
100
AcDbSpline
210
0.0
220
0.0
230
1.0
 70
    24
 71
     3
 72
     8
 73
     4
 74
     0
 42
0.000000001
 43
0.00000001
 40
0.0
 40
0.0
 40
0.0
 40
0.0
 40
1.0
 40
1.0
 40
1.0
 40
1.0
 10
19.39711431702995
 20
-0.4999999999999992
 30
0.0
 10
19.30325346593157
 20
-0.5657220754818638
 30
0.0
 10
19.21398742250284
 20
-0.6282268319968204
 30
0.0
 10
19.13536903202996
 20
-0.6832760216478442
 30
0.0
  0
SPLINE
  5
D6
330
1F
100
AcDbEntity
  8
0
  6
Continuous
 62
     1
370
    25
100
AcDbSpline
210
0.0
220
0.0
230
1.0
 70
     8
 71
     3
 72
    18
 73
    14
 74
     0
 42
0.000000001
 43
0.00000001
 40
0.0
 40
0.0
 40
0.0
 40
0.0
 40
0.0729575298402429
 40
0.1716942284535828
 40
0.2702543482416612
 40
0.368834344533221
 40
0.4676300276528726
 40
0.5667479555654573
 40
0.6656094046962184
 40
0.7642168427189637
 40
0.8627651907070334
 40
0.9614512863491853
 40
1.0
 40
1.0
 40
1.0
 40
1.0
 10
14.29678137169781
 20
0.6263945467481158
 30
0.0
 10
14.41383390317034
 20
0.6612058271653345
 30
0.0
 10
14.68929887743307
 20
0.7431287752942451
 30
0.0
 10
15.12246846761662
 20
0.7630061913122583
 30
0.0
 10
15.5965806803915
 20
0.6945412971936146
 30
0.0
 10
16.07080360403128
 20
0.5313861708288283
 30
0.0
 10
16.54609698726173
 20
0.2985258096447736
 30
0.0
 10
17.02236783051725
 20
0.0264521958811168
 30
0.0
 10
17.49790081045428
 20
-0.2491572889077697
 30
0.0
 10
17.97227161341571
 20
-0.4933620070376796
 30
0.0
 10
18.4463275373727
 20
-0.6660993861909642
 30
0.0
 10
18.82417859128605
 20
-0.7518797440419757
 30
0.0
 10
19.04431700518274
 20
-0.7411152650950539
 30
0.0
 10
19.10615301256723
 20
-0.7380915656512832
 30
0.0
  0
SPLINE
  5
D7
330
1F
100
AcDbEntity
  8
0
  6
Continuous
 62
     1
370
    25
100
AcDbSpline
210
0.0
220
0.0
230
1.0
 70
     8
 71
     3
 72
    10
 73
     6
 74
     0
 42
0.000000001
 43
0.00000001
 40
0.0
 40
0.0
 40
0.0
 40
0.0
 40
0.3545448489804756
 40
0.7092171251615775
 40
1.0
 40
1.0
 40
1.0
 40
1.0
 10
19.13536903202921
 20
0.3092472768535338
 30
0.0
 10
18.95947784666582
 20
0.3961506453399126
 30
0.0
 10
18.6076322587708
 20
0.569988616310296
 30
0.0
 10
18.1114964234448
 20
0.726323429373938
 30
0.0
 10
17.7912115298339
 20
0.736366511012205
 30
0.0
 10
17.64692054077853
 20
0.740891002212561
 30
0.0
  0
SPLINE
  5
D8
330
1F
100
AcDbEntity
  8
0
  6
Continuous
 62
     1
370
    25
100
AcDbSpline
210
0.0
220
0.0
230
1.0
 70
     8
 71
     3
 72
    14
 73
    10
 74
     0
 42
0.000000001
 43
0.00000001
 40
0.0
 40
0.0
 40
0.0
 40
0.0
 40
0.0433344204238559
 40
0.2074348502606438
 40
0.3710501128507077
 40
0.5345016010253713
 40
0.6981160147233076
 40
0.8491847134134313
 40
1.0
 40
1.0
 40
1.0
 40
1.0
 10
14.29678137169781
 20
-0.6263945467481145
 30
0.0
 10
14.25486977844282
 20
-0.6416042096701658
 30
0.0
 10
14.05424577133721
 20
-0.7144104020662172
 30
0.0
 10
13.69546998835101
 20
-0.7590396040365506
 30
0.0
 10
13.22091043968262
 20
-0.7411836495658728
 30
0.0
 10
12.74687230683383
 20
-0.6190967553526032
 30
0.0
 10
12.28496081402986
 20
-0.4220212713027383
 30
0.0
 10
11.83466922664045
 20
-0.1802853616793553
 30
0.0
 10
11.54288430870377
 20
-0.0111892198195436
 30
0.0
 10
11.3971143170299
 20
0.0732878784667283
 30
0.0
  0
SPLINE
  5
D9
330
1F
100
AcDbEntity
  8
0
  6
Continuous
 62
     4
370
    25
100
AcDbSpline
210
0.0
220
0.0
230
1.0
 70
    24
 71
     3
 72
    16
 73
    12
 74
     0
 42
0.000000001
 43
0.00000001
 40
0.0
 40
0.0
 40
0.0
 40
0.0
 40
0.1249999999999999
 40
0.1249999999999999
 40
0.2499999999999998
 40
0.2499999999999998
 40
0.4999999999999999
 40
0.4999999999999999
 40
0.75
 40
0.75
 40
1.0
 40
1.0
 40
1.0
 40
1.0
 10
11.39711431702995
 20
0.7048418988948083
 30
0.0
 10
11.39711431702995
 20
0.6790111845387357
 30
0.0
 10
11.39711431702995
 20
0.6555971136309195
 30
0.0
 10
11.39711431702995
 20
0.6036678218091263
 30
0.0
 10
11.39711431702995
 20
0.5757507193114543
 30
0.0
 10
11.39711431702995
 20
0.4865955749006631
 30
0.0
 10
11.39711431702995
 20
0.4192711448577021
 30
0.0
 10
11.39711431702995
 20
0.2832496868392522
 30
0.0
 10
11.39711431702995
 20
0.2148134275978952
 30
0.0
 10
11.39711431702995
 20
0.1111701815885648
 30
0.0
 10
11.39711431702995
 20
0.0777236084504363
 30
0.0
 10
11.39711431702995
 20
0.0732878784667365
 30
0.0
  0
SPLINE
  5
DA
330
1F
100
AcDbEntity
  8
0
  6
Continuous
 62
     1
370
    25
100
AcDbSpline
210
0.0
220
0.0
230
1.0
 70
     8
 71
     3
 72
    15
 73
    11
 74
     0
 42
0.000000001
 43
0.00000001
 40
0.0
 40
0.0
 40
0.0
 40
0.0
 40
0.1204747133433454
 40
0.2411518580928471
 40
0.371850808015175
 40
0.5024196092890683
 40
0.6331192373259166
 40
0.7642064280979197
 40
0.8954898244433871
 40
1.0
 40
1.0
 40
1.0
 40
1.0
 10
11.39711431702995
 20
0.7048418988947815
 30
0.0
 10
11.54288431459797
 20
0.6683401395528823
 30
0.0
 10
11.83466924433286
 20
0.5952752876459886
 30
0.0
 10
12.28496074066753
 20
0.3928988779990382
 30
0.0
 10
12.74687260743443
 20
0.1405501299069495
 30
0.0
 10
13.22090932118489
 20
-0.1384783409316634
 30
0.0
 10
13.69547417197819
 20
-0.3997018878026627
 30
0.0
 10
14.17123866271743
 20
-0.6050964413556932
 30
0.0
 10
14.61557083230824
 20
-0.7322930505713879
 30
0.0
 10
14.90080090967823
 20
-0.73901222217758
 30
0.0
 10
15.0272226998038
 20
-0.741990343245485
 30
0.0
  0
SPLINE
  5
DB
330
1F
100
AcDbEntity
  8
0
  6
Continuous
 62
     1
370
    25
100
AcDbSpline
210
0.0
220
0.0
230
1.0
 70
     8
 71
     3
 72
    10
 73
     6
 74
     0
 42
0.000000001
 43
0.00000001
 40
0.0
 40
0.0
 40
0.0
 40
0.0
 40
0.0788091727320181
 40
0.5386354736129247
 40
1.0
 40
1.0
 40
1.0
 40
1.0
 10
18.36480414695838
 20
0.6253772671126151
 30
0.0
 10
18.39190707897011
 20
0.6356033980320551
 30
0.0
 10
18.57714694527454
 20
0.7054957301055081
 30
0.0
 10
18.92111871967993
 20
0.7595363633821692
 30
0.0
 10
19.23827258765315
 20
0.7407720813140978
 30
0.0
 10
19.39711431702995
 20
0.7313742737664435
 30
0.0
  0
LINE
  5
DC
330
1F
100
AcDbEntity
  8
0
  6
Continuous
 62
     1
370
    25
100
AcDbLine
 10
19.39711431702995
 20
0.1997949506173568
 30
0.0
 11
19.39711431702995
 21
0.7313742737664471
 31
0.0
  0
SPLINE
  5
DD
330
1F
100
AcDbEntity
  8
0
  6
Continuous
 62
     1
370
    25
100
AcDbSpline
210
0.0
220
0.0
230
1.0
 70
     8
 71
     3
 72
     8
 73
     4
 74
     0
 42
0.000000001
 43
0.00000001
 40
0.0
 40
0.0
 40
0.0
 40
0.0
 40
1.0
 40
1.0
 40
1.0
 40
1.0
 10
19.39711431702995
 20
0.1997949506173559
 30
0.0
 10
19.30325346593157
 20
0.2054337308953758
 30
0.0
 10
19.21398742250284
 20
0.2469303809541901
 30
0.0
 10
19.13536903202996
 20
0.3092472768531397
 30
0.0
  0
LINE
  5
DE
330
1F
100
AcDbEntity
  8
0
  6
Continuous
 62
     4
370
    25
100
AcDbLine
 10
11.39711431702995
 20
0.7048418988948074
 30
0.0
 11
11.39711431702995
 21
0.7500000000000004
 31
0.0
  0
LINE
  5
DF
330
1F
100
AcDbEntity
  8
0
  6
Continuous
 62
     1
370
    25
100
AcDbLine
 10
19.39711431702995
 20
0.7313742737664471
 30
0.0
 11
19.39711431702995
 21
0.7500000000000021
 31
0.0
  0
LINE
  5
E0
330
1F
100
AcDbEntity
  8
0
  6
Continuous
 62
     1
370
    25
100
AcDbLine
 10
19.13536903202995
 20
-0.6832760216478536
 30
0.0
 11
19.11737298322208
 21
-0.6958769906811093
 31
0.0
  0
ELLIPSE
  5
E1
330
1F
100
AcDbEntity
  8
0
  6
Continuous
 62
     1
370
    25
100
AcDbEllipse
 10
19.15288662405185
 20
0.000000000000001
 30
0.0
 11
1.041992479244978
 21
-0.4127557545313214
 31
0.0
210
0.0
220
0.0
230
1.0
 40
0.6009688174887248
 41
4.912933762914537
 42
5.1761326093282
  0
LINE
  5
E2
330
1F
100
AcDbEntity
  8
0
  6
Continuous
 62
     1
370
    25
100
AcDbLine
 10
19.39711431702995
 20
-0.7500000000000012
 30
0.0
 11
19.39711431702995
 21
-0.7446933086021947
 31
0.0
  0
ELLIPSE
  5
E3
330
1F
100
AcDbEntity
  8
0
  6
Continuous
 62
     1
370
    25
100
AcDbEllipse
 10
20.11118832040101
 20
0.0000000000000004
 30
0.0
 11
1.071111005056586
 21
0.0
 31
0.0
210
0.0
220
0.0
230
1.0
 40
0.7002075382097103
 41
2.716582861747936
 42
2.759364833374628
  0
ELLIPSE
  5
E4
330
1F
100
AcDbEntity
  8
0
  6
Continuous
 62
     1
370
    25
100
AcDbEllipse
 10
19.15288662405185
 20
0.0000000000000004
 30
0.0
 11
1.064326924485592
 21
-0.7291305528055561
 31
0.0
210
0.0
220
0.0
230
1.0
 40
0.1650759015746637
 41
1.453368357947247
 42
1.716567204360903
  0
LINE
  5
E5
330
1F
100
AcDbEntity
  8
0
  6
Continuous
 62
     1
370
    25
100
AcDbLine
 10
19.39711431702995
 20
-0.1661074100472505
 30
0.0
 11
19.39711431702995
 21
0.0890610808553128
 31
0.0
  0
LINE
  5
E6
330
1F
100
AcDbEntity
  8
0
  6
Continuous
 62
     1
370
    25
100
AcDbLine
 10
19.39711431702995
 20
0.0890610808553122
 30
0.0
 11
19.39711431702995
 21
0.1997949506173568
 31
0.0
  0
LINE
  5
E7
330
1F
100
AcDbEntity
  8
0
  6
Continuous
 62
     1
370
    25
100
AcDbLine
 10
19.39711431702995
 20
-0.4999999999999991
 30
0.0
 11
19.39711431702995
 21
-0.7446933086021947
 31
0.0
  0
LINE
  5
E8
330
1F
100
AcDbEntity
  8
중심선
100
AcDbLine
 10
-43.60288568297003
 20
-0.0000000000000043
 30
0.0
 11
20.89711431702995
 21
0.0000000000000036
 31
0.0
  0
CIRCLE
  5
E9
330
1F
100
AcDbEntity
  8
해칭선
100
AcDbCircle
 10
0.0003650018521924
 20
-0.0000000000000041
 30
0.0
 40
3.000000000000003
  0
INSERT
  5
EA
330
1F
100
AcDbEntity
  8
0
  6
Continuous
 62
     7
100
AcDbBlockReference
 66
     1
  2
블럭10
 10
-24.44009924894177
 20
-52.04717430164393
 30
0.0
  0
ATTRIB
  5
EB
330
EA
100
AcDbEntity
  8
FORMAT
 62
     2
100
AcDbText
 10
-40.55936028837733
 20
-49.97180738881174
 30
0.0
 40
4.233333333333333
  1
SEME7201508E [ 4 FLUTE ]
 41
0.75
  7
SLDTEXTSTYLE0
 11
-40.55936028837733
 21
-52.08847405547841
 31
0.0
100
AcDbAttribute
  2
AUTOATTR0
 70
     0
 74
     1
  0
SEQEND
  5
EC
330
EA
100
AcDbEntity
  8
0
  6
Continuous
 62
     7
  0
HATCH
  5
ED
330
1F
100
AcDbEntity
  8
중심선
100
AcDbHatch
 10
0.0
 20
0.0
 30
0.0
210
0.0
220
0.0
230
1.0
  2
SOLID
 70
     1
 71
     0
 91
        1
 92
        0
 93
        4
 72
     1
 10
-18.72518994456093
 20
-35.8
 11
-22.17146518839822
 21
-35.8
 72
     1
 10
-22.17146518839822
 20
-35.8
 11
-24.29969504760224
 21
-38.33632558057259
 72
     1
 10
-24.29969504760224
 20
-38.33632558057259
 11
-20.85338671865181
 21
-38.3362861512701
 72
     1
 10
-20.85338671865181
 20
-38.3362861512701
 11
-18.72518994456093
 21
-35.8
 97
        0
 75
     0
 76
     1
 98
        1
 10
0.0
 20
0.0
  0
HATCH
  5
EE
330
1F
100
AcDbEntity
  8
중심선
100
AcDbHatch
 10
0.0
 20
0.0
 30
0.0
210
0.0
220
0.0
230
1.0
  2
SOLID
 70
     1
 71
     0
 91
        1
 92
        0
 93
        4
 72
     1
 10
-13.71242595352498
 20
-35.80000000000003
 11
-17.15870119736226
 21
-35.8
 72
     1
 10
-17.15870119736226
 20
-35.8
 11
-21.68983920571965
 21
-41.20000000000002
 72
     1
 10
-21.68983920571965
 20
-41.20000000000002
 11
-18.24356396188237
 21
-41.20000000000002
 72
     1
 10
-18.24356396188237
 20
-41.20000000000002
 11
-13.71242595352498
 21
-35.80000000000003
 97
        0
 75
     0
 76
     1
 98
        1
 10
0.0
 20
0.0
  0
HATCH
  5
EF
330
1F
100
AcDbEntity
  8
중심선
100
AcDbHatch
 10
0.0
 20
0.0
 30
0.0
210
0.0
220
0.0
230
1.0
  2
SOLID
 70
     1
 71
     0
 91
        1
 92
        0
 93
        4
 72
     1
 10
-8.699661962489087
 20
-35.8
 11
-12.1459372063262
 21
-35.8
 72
     1
 10
-12.1459372063262
 20
-35.8
 11
-19.19437410821545
 21
-44.20000000000002
 72
     1
 10
-19.19437410821545
 20
-44.20000000000002
 11
-15.74809886437817
 21
-44.20000000000002
 72
     1
 10
-15.74809886437817
 20
-44.20000000000002
 11
-8.699661962489087
 21
-35.8
 97
        0
 75
     0
 76
     1
 98
        1
 10
0.0
 20
0.0
  0
HATCH
  5
F0
330
1F
100
AcDbEntity
  8
중심선
100
AcDbHatch
 10
0.0
 20
0.0
 30
0.0
210
0.0
220
0.0
230
1.0
  2
SOLID
 70
     1
 71
     0
 91
        1
 92
        0
 93
        6
 72
     3
 10
-3.899771531476887
 20
-40.00000000005127
 11
3.960054785062284
 21
1.540850780301639E-10
 40
0.3939339440162633
 50
17.09539180608433
 51
320.0019657685079
 73
     0
 72
     1
 10
-2.216771875776291
 20
-38.5878940046383
 11
0.0885299979247742
 21
-36.65356729459038
 72
     3
 10
-3.899771531529733
 20
-40.00000000000015
 11
6.600054785286829
 21
-1.249000902703301E-13
 40
0.6363583540795982
 50
39.99873849337387
 51
368.4976242363725
 73
     1
 72
     1
 10
2.525560960370876
 20
-39.03999999993002
 11
-5.21970422469381
 21
-39.03999999993002
 72
     1
 10
-5.21970422469381
 20
-39.03999999993002
 11
-5.219729269139744
 21
-40.95999999992991
 72
     1
 10
-5.219729269139744
 20
-40.95999999992991
 11
-0.7783494996677076
 21
-40.95999999992988
 97
        0
 75
     0
 76
     1
 98
        1
 10
0.0
 20
0.0
  0
DIMENSION
  5
F1
330
1F
100
AcDbEntity
  8
치수문자_일반주서
100
AcDbDimension
  2
_D
 10
32.13356350104318
 20
0.7500000000000533
 30
0.0
 11
32.13356350104313
 21
11.72900000000005
 31
0.0
 70
   160
  1
%%c<>
 71
     2
 42
1.500000000000012
 52
-270.0
  3
SLDDIMSTYLE0
100
AcDbAlignedDimension
 13
19.39711431702997
 23
-0.7500000000000063
 33
0.0
 14
19.39711431702997
 24
0.7500000000000054
 34
0.0
 50
90.0000000000002
100
AcDbRotatedDimension
  0
DIMENSION
  5
FF
330
1F
100
AcDbEntity
  8
치수문자_일반주서
100
AcDbDimension
  2
_D_1
 10
19.39711431702995
 20
20.38913260158165
 30
0.0
 11
-10.60288568297005
 21
20.38913260158165
 31
0.0
 70
   160
  1
<>
 71
     2
 42
59.99999999999999
  3
SLDDIMSTYLE1
100
AcDbAlignedDimension
 13
-40.60288568297004
 23
2.499999999999994
 33
0.0
 14
19.39711431702995
 24
0.750000000000002
 34
0.0
 50
-0.0000000000000068
100
AcDbRotatedDimension
  0
DIMENSION
  5
10A
330
1F
100
AcDbEntity
  8
치수문자_일반주서
100
AcDbDimension
  2
_D_2
 10
-47.2062995237874
 20
-3.000000000000028
 30
0.0
 11
-47.20629952378746
 21
12.66649999999998
 31
0.0
 70
   160
  1
%%c<>
 71
     2
 42
6.000000000000005
 52
-270.0
  3
SLDDIMSTYLE2
100
AcDbAlignedDimension
 13
-40.10288568297003
 23
3.000000000000003
 33
0.0
 14
-40.10288568297003
 24
-3.000000000000002
 34
0.0
 50
90.0000000000002
100
AcDbRotatedDimension
  0
DIMENSION
  5
118
330
1F
100
AcDbEntity
  8
치수문자_일반주서
100
AcDbDimension
  2
_D_3
 10
19.39711431702995
 20
11.59232897163643
 30
0.0
 11
15.39711431702995
 21
11.59232897163643
 31
0.0
 70
   160
  1
<>
 71
     2
 42
8.0
  3
SLDDIMSTYLE2
100
AcDbAlignedDimension
 13
11.39711431702995
 23
0.7464106690487835
 33
0.0
 14
19.39711431702995
 24
0.750000000000002
 34
0.0
100
AcDbRotatedDimension
  0
INSERT
  5
12A
330
1F
100
AcDbEntity
  8
해칭선
100
AcDbBlockReference
  2
SW_DOWELSYMBOL_0
 10
0.0003650018521924
 20
-0.000000000000004
 30
0.0
  0
ENDSEC
  0
SECTION
  2
OBJECTS
  0
DICTIONARY
  5
C
330
0
100
AcDbDictionary
281
     1
  3
ACAD_GROUP
350
D
  3
ACAD_IMAGE_VARS
350
14E
  3
ACAD_LAYOUT
350
1A
  3
ACAD_MLINESTYLE
350
17
  3
ACAD_PLOTSETTINGS
350
19
  3
ACAD_PLOTSTYLENAME
350
E
  3
ACAD_SCALELIST
350
47
  3
APPDATA
350
14C
  3
DWGPROPS
350
15C
  0
DICTIONARY
  5
D
102
{ACAD_REACTORS
330
C
102
}
330
C
100
AcDbDictionary
281
     1
  0
RASTERVARIABLES
  5
14E
102
{ACAD_REACTORS
330
C
102
}
330
C
100
AcDbRasterVariables
 90
        0
 70
     1
 71
     1
 72
     1
  0
DICTIONARY
  5
1A
102
{ACAD_REACTORS
330
C
102
}
330
C
100
AcDbDictionary
281
     1
  3
Layout1
350
1E
  3
Layout2
350
26
  3
Model
350
22
  0
DICTIONARY
  5
17
102
{ACAD_REACTORS
330
C
102
}
330
C
100
AcDbDictionary
281
     1
  3
Standard
350
18
  0
DICTIONARY
  5
19
102
{ACAD_REACTORS
330
C
102
}
330
C
100
AcDbDictionary
281
     1
  0
ACDBDICTIONARYWDFLT
  5
E
102
{ACAD_REACTORS
330
C
102
}
330
C
100
AcDbDictionary
281
     1
  3
Normal
350
F
100
AcDbDictionaryWithDefault
340
F
  0
DICTIONARY
  5
47
102
{ACAD_REACTORS
330
C
102
}
330
C
100
AcDbDictionary
281
     1
  3
A0
350
48
  3
A1
350
49
  3
A2
350
4A
  3
A3
350
4B
  3
A4
350
4C
  3
A5
350
4D
  3
A6
350
4E
  3
A7
350
4F
  3
A8
350
50
  3
A9
350
51
  3
B0
350
52
  3
B1
350
53
  3
B2
350
54
  3
B3
350
55
  3
B4
350
56
  3
B5
350
57
  3
B6
350
58
  3
B7
350
59
  3
B8
350
5A
  3
B9
350
5B
  3
C0
350
5C
  3
C1
350
5D
  3
C2
350
5E
  3
C3
350
5F
  3
C4
350
60
  3
C5
350
61
  3
C6
350
62
  3
C7
350
63
  3
C8
350
64
  3
C9
350
65
  3
D0
350
66
  3
D1
350
67
  3
D2
350
68
  0
DICTIONARY
  5
14C
102
{ACAD_REACTORS
330
C
102
}
330
C
100
AcDbDictionary
281
     1
  0
XRECORD
  5
15C
102
{ACAD_REACTORS
330
C
102
}
330
C
100
AcDbXrecord
280
     1
  1
DWGPROPS COOKIE
  2

  3

  4

  6

  7

  8
12014102
  9

300
=
301
=
302
=
303
=
304
=
305
=
306
=
307
=
308
=
309
=
 40
0.0
 41
2458260.191815961
 42
2458268.093415035
  1

 90
        0
  0
LAYOUT
  5
1E
102
{ACAD_REACTORS
330
1A
102
}
330
1A
100
AcDbPlotSettings
  1

  2
none_device
  4

  6

 40
0.0
 41
0.0
 42
0.0
 43
0.0
 44
0.0
 45
0.0
 46
0.0
 47
0.0
 48
0.0
 49
0.0
140
0.0
141
0.0
142
1.0
143
1.0
 70
   688
 72
     1
 73
     0
 74
     5
  7

 75
    16
147
1.0
148
0.0
149
0.0
100
AcDbLayout
  1
Layout1
 70
     1
 71
     1
 10
0.0
 20
0.0
 11
420.0
 21
297.0
 12
0.0
 22
0.0
 32
0.0
 14
1.000000000000000E+20
 24
1.000000000000000E+20
 34
1.000000000000000E+20
 15
-1.000000000000000E+20
 25
-1.000000000000000E+20
 35
-1.000000000000000E+20
146
0.0
 13
0.0
 23
0.0
 33
0.0
 16
1.0
 26
0.0
 36
0.0
 17
0.0
 27
1.0
 37
0.0
 76
     0
330
1B
  0
LAYOUT
  5
26
102
{ACAD_REACTORS
330
1A
102
}
330
1A
100
AcDbPlotSettings
  1

  2
none_device
  4

  6

 40
0.0
 41
0.0
 42
0.0
 43
0.0
 44
0.0
 45
0.0
 46
0.0
 47
0.0
 48
0.0
 49
0.0
140
0.0
141
0.0
142
1.0
143
1.0
 70
   688
 72
     1
 73
     0
 74
     5
  7

 75
    16
147
1.0
148
0.0
149
0.0
100
AcDbLayout
  1
Layout2
 70
     1
 71
     2
 10
0.0
 20
0.0
 11
0.0
 21
0.0
 12
0.0
 22
0.0
 32
0.0
 14
0.0
 24
0.0
 34
0.0
 15
0.0
 25
0.0
 35
0.0
146
0.0
 13
0.0
 23
0.0
 33
0.0
 16
1.0
 26
0.0
 36
0.0
 17
0.0
 27
1.0
 37
0.0
 76
     0
330
23
  0
LAYOUT
  5
22
102
{ACAD_REACTORS
330
1A
102
}
330
1A
100
AcDbPlotSettings
  1

  2
none_device
  4
ANSI_A_(11.00_x_8.50_Inches)
  6

 40
6.35
 41
19.05
 42
6.35000508
 43
19.05000254
 44
279.4
 45
215.9
 46
164.8000950970896
 47
125.3847137330092
 48
0.0
 49
0.0
140
0.0
141
0.0
142
0.1112850254374008
143
1.0
 70
  1696
 72
     0
 73
     0
 74
     0
  7

 75
     0
147
0.0235690232323232
148
0.0
149
0.0
100
AcDbLayout
  1
Model
 70
     1
 71
     0
 10
0.0
 20
0.0
 11
420.0
 21
297.0
 12
0.0
 22
0.0
 32
0.0
 14
-51.58129952378746
 24
-49.97180738881174
 34
0.0
 15
32.68389683437654
 25
24.76413260158165
 35
0.0
146
0.0
 13
0.0
 23
0.0
 33
0.0
 16
1.0
 26
0.0
 36
0.0
 17
0.0
 27
1.0
 37
0.0
 76
     0
330
1F
331
29
  0
MLINESTYLE
  5
18
102
{ACAD_REACTORS
330
17
102
}
330
17
100
AcDbMlineStyle
  2
Standard
 70
     0
  3

 62
   256
 51
90.0
 52
90.0
 71
     2
 49
0.5
 62
   256
  6
BYLAYER
 49
-0.5
 62
   256
  6
BYLAYER
  0
ACDBPLACEHOLDER
  5
F
102
{ACAD_REACTORS
330
E
102
}
330
E
  0
SCALE
  5
48
102
{ACAD_REACTORS
330
47
102
}
330
47
100
AcDbScale
 70
     0
300
1:1
140
1.0
141
1.0
290
     1
  0
SCALE
  5
49
102
{ACAD_REACTORS
330
47
102
}
330
47
100
AcDbScale
 70
     0
300
1:2
140
1.0
141
2.0
290
     0
  0
SCALE
  5
4A
102
{ACAD_REACTORS
330
47
102
}
330
47
100
AcDbScale
 70
     0
300
1:4
140
1.0
141
4.0
290
     0
  0
SCALE
  5
4B
102
{ACAD_REACTORS
330
47
102
}
330
47
100
AcDbScale
 70
     0
300
1:5
140
1.0
141
5.0
290
     0
  0
SCALE
  5
4C
102
{ACAD_REACTORS
330
47
102
}
330
47
100
AcDbScale
 70
     0
300
1:8
140
1.0
141
8.0
290
     0
  0
SCALE
  5
4D
102
{ACAD_REACTORS
330
47
102
}
330
47
100
AcDbScale
 70
     0
300
1:10
140
1.0
141
10.0
290
     0
  0
SCALE
  5
4E
102
{ACAD_REACTORS
330
47
102
}
330
47
100
AcDbScale
 70
     0
300
1:16
140
1.0
141
16.0
290
     0
  0
SCALE
  5
4F
102
{ACAD_REACTORS
330
47
102
}
330
47
100
AcDbScale
 70
     0
300
1:20
140
1.0
141
20.0
290
     0
  0
SCALE
  5
50
102
{ACAD_REACTORS
330
47
102
}
330
47
100
AcDbScale
 70
     0
300
1:30
140
1.0
141
30.0
290
     0
  0
SCALE
  5
51
102
{ACAD_REACTORS
330
47
102
}
330
47
100
AcDbScale
 70
     0
300
1:40
140
1.0
141
40.0
290
     0
  0
SCALE
  5
52
102
{ACAD_REACTORS
330
47
102
}
330
47
100
AcDbScale
 70
     0
300
1:50
140
1.0
141
50.0
290
     0
  0
SCALE
  5
53
102
{ACAD_REACTORS
330
47
102
}
330
47
100
AcDbScale
 70
     0
300
1:100
140
1.0
141
100.0
290
     0
  0
SCALE
  5
54
102
{ACAD_REACTORS
330
47
102
}
330
47
100
AcDbScale
 70
     0
300
2:1
140
2.0
141
1.0
290
     0
  0
SCALE
  5
55
102
{ACAD_REACTORS
330
47
102
}
330
47
100
AcDbScale
 70
     0
300
4:1
140
4.0
141
1.0
290
     0
  0
SCALE
  5
56
102
{ACAD_REACTORS
330
47
102
}
330
47
100
AcDbScale
 70
     0
300
8:1
140
8.0
141
1.0
290
     0
  0
SCALE
  5
57
102
{ACAD_REACTORS
330
47
102
}
330
47
100
AcDbScale
 70
     0
300
10:1
140
10.0
141
1.0
290
     0
  0
SCALE
  5
58
102
{ACAD_REACTORS
330
47
102
}
330
47
100
AcDbScale
 70
     0
300
100:1
140
100.0
141
1.0
290
     0
  0
SCALE
  5
59
102
{ACAD_REACTORS
330
47
102
}
330
47
100
AcDbScale
 70
     0
300
1/128" = 1'-0"
140
0.0078125
141
12.0
290
     0
  0
SCALE
  5
5A
102
{ACAD_REACTORS
330
47
102
}
330
47
100
AcDbScale
 70
     0
300
1/64" = 1'-0"
140
0.015625
141
12.0
290
     0
  0
SCALE
  5
5B
102
{ACAD_REACTORS
330
47
102
}
330
47
100
AcDbScale
 70
     0
300
1/32" = 1'-0"
140
0.03125
141
12.0
290
     0
  0
SCALE
  5
5C
102
{ACAD_REACTORS
330
47
102
}
330
47
100
AcDbScale
 70
     0
300
1/16" = 1'-0"
140
0.0625
141
12.0
290
     0
  0
SCALE
  5
5D
102
{ACAD_REACTORS
330
47
102
}
330
47
100
AcDbScale
 70
     0
300
3/32" = 1'-0"
140
0.09375
141
12.0
290
     0
  0
SCALE
  5
5E
102
{ACAD_REACTORS
330
47
102
}
330
47
100
AcDbScale
 70
     0
300
1/8" = 1'-0"
140
0.125
141
12.0
290
     0
  0
SCALE
  5
5F
102
{ACAD_REACTORS
330
47
102
}
330
47
100
AcDbScale
 70
     0
300
3/16" = 1'-0"
140
0.1875
141
12.0
290
     0
  0
SCALE
  5
60
102
{ACAD_REACTORS
330
47
102
}
330
47
100
AcDbScale
 70
     0
300
1/4" = 1'-0"
140
0.25
141
12.0
290
     0
  0
SCALE
  5
61
102
{ACAD_REACTORS
330
47
102
}
330
47
100
AcDbScale
 70
     0
300
3/8" = 1'-0"
140
0.375
141
12.0
290
     0
  0
SCALE
  5
62
102
{ACAD_REACTORS
330
47
102
}
330
47
100
AcDbScale
 70
     0
300
1/2" = 1'-0"
140
0.5
141
12.0
290
     0
  0
SCALE
  5
63
102
{ACAD_REACTORS
330
47
102
}
330
47
100
AcDbScale
 70
     0
300
3/4" = 1'-0"
140
0.75
141
12.0
290
     0
  0
SCALE
  5
64
102
{ACAD_REACTORS
330
47
102
}
330
47
100
AcDbScale
 70
     0
300
1" = 1'-0"
140
1.0
141
12.0
290
     0
  0
SCALE
  5
65
102
{ACAD_REACTORS
330
47
102
}
330
47
100
AcDbScale
 70
     0
300
1-1/2" = 1'-0"
140
1.5
141
12.0
290
     0
  0
SCALE
  5
66
102
{ACAD_REACTORS
330
47
102
}
330
47
100
AcDbScale
 70
     0
300
3" = 1'-0"
140
3.0
141
12.0
290
     0
  0
SCALE
  5
67
102
{ACAD_REACTORS
330
47
102
}
330
47
100
AcDbScale
 70
     0
300
6" = 1'-0"
140
6.0
141
12.0
290
     0
  0
SCALE
  5
68
102
{ACAD_REACTORS
330
47
102
}
330
47
100
AcDbScale
 70
     0
300
1'-0" = 1'-0"
140
12.0
141
12.0
290
     0
  0
ENDSEC
  0
EOF
