  0
SECTION
  2
HEADER
  9
$ACADVER
  1
AC1015
  9
$ACADMAINTVER
 70
     6
  9
$DWGCODEPAGE
  3
ANSI_949
  9
$INSBASE
 10
0.0
 20
0.0
 30
0.0
  9
$EXTMIN
 10
-50.51966650173355
 20
-49.97180738881174
 30
0.0
  9
$EXTMAX
 10
36.83998742964961
 20
24.76413260158165
 30
0.0
  9
$LIMMIN
 10
0.0
 20
0.0
  9
$LIMMAX
 10
420.0
 20
297.0
  9
$ORTHOMODE
 70
     0
  9
$REGENMODE
 70
     1
  9
$FILLMODE
 70
     1
  9
$QTEXTMODE
 70
     0
  9
$MIRRTEXT
 70
     1
  9
$LTSCALE
 40
1.0
  9
$ATTMODE
 70
     1
  9
$TEXTSIZE
 40
3.5
  9
$TRACEWID
 40
1.0
  9
$TEXTSTYLE
  7
Standard
  9
$CLAYER
  8
0
  9
$CELTYPE
  6
ByLayer
  9
$CECOLOR
 62
   256
  9
$CELTSCALE
 40
1.0
  9
$DISPSILH
 70
     0
  9
$DIMSCALE
 40
1.0
  9
$DIMASZ
 40
3.302
  9
$DIMEXO
 40
1.0
  9
$DIMDLI
 40
3.75
  9
$DIMRND
 40
0.0
  9
$DIMDLE
 40
0.0
  9
$DIMEXE
 40
1.0
  9
$DIMTP
 40
0.0
  9
$DIMTM
 40
0.0
  9
$DIMTXT
 40
3.5
  9
$DIMCEN
 40
2.5
  9
$DIMTSZ
 40
0.0
  9
$DIMTOL
 70
     0
  9
$DIMLIM
 70
     0
  9
$DIMTIH
 70
     1
  9
$DIMTOH
 70
     1
  9
$DIMSE1
 70
     0
  9
$DIMSE2
 70
     0
  9
$DIMTAD
 70
     1
  9
$DIMZIN
 70
     0
  9
$DIMBLK
  1

  9
$DIMASO
 70
     1
  9
$DIMSHO
 70
     1
  9
$DIMPOST
  1

  9
$DIMAPOST
  1

  9
$DIMALT
 70
     0
  9
$DIMALTD
 70
     3
  9
$DIMALTF
 40
0.0393700787401575
  9
$DIMLFAC
 40
1.0
  9
$DIMTOFL
 70
     1
  9
$DIMTVP
 40
0.0
  9
$DIMTIX
 70
     0
  9
$DIMSOXD
 70
     0
  9
$DIMSAH
 70
     0
  9
$DIMBLK1
  1

  9
$DIMBLK2
  1

  9
$DIMSTYLE
  2
ISO-25
  9
$DIMCLRD
 70
     0
  9
$DIMCLRE
 70
     0
  9
$DIMCLRT
 70
     0
  9
$DIMTFAC
 40
1.0
  9
$DIMGAP
 40
1.524
  9
$DIMJUST
 70
     0
  9
$DIMSD1
 70
     0
  9
$DIMSD2
 70
     0
  9
$DIMTOLJ
 70
     0
  9
$DIMTZIN
 70
     0
  9
$DIMALTZ
 70
     0
  9
$DIMALTTZ
 70
     0
  9
$DIMUPT
 70
     0
  9
$DIMDEC
 70
     2
  9
$DIMTDEC
 70
     2
  9
$DIMALTU
 70
     2
  9
$DIMALTTD
 70
     3
  9
$DIMTXSTY
  7
Standard
  9
$DIMAUNIT
 70
     0
  9
$DIMADEC
 70
     2
  9
$DIMALTRND
 40
0.0
  9
$DIMAZIN
 70
     0
  9
$DIMDSEP
 70
    44
  9
$DIMATFIT
 70
     3
  9
$DIMFRAC
 70
     0
  9
$DIMLDRBLK
  1

  9
$DIMLUNIT
 70
     2
  9
$DIMLWD
 70
    -2
  9
$DIMLWE
 70
    -2
  9
$DIMTMOVE
 70
     0
  9
$LUNITS
 70
     2
  9
$LUPREC
 70
     2
  9
$SKETCHINC
 40
1.0
  9
$FILLETRAD
 40
10.0
  9
$AUNITS
 70
     0
  9
$AUPREC
 70
     2
  9
$MENU
  1
.
  9
$ELEVATION
 40
0.0
  9
$PELEVATION
 40
0.0
  9
$THICKNESS
 40
0.0
  9
$LIMCHECK
 70
     0
  9
$CHAMFERA
 40
0.0
  9
$CHAMFERB
 40
0.0
  9
$CHAMFERC
 40
0.0
  9
$CHAMFERD
 40
0.0
  9
$SKPOLY
 70
     0
  9
$TDCREATE
 40
2458260.567194051
  9
$TDUCREATE
 40
2458260.192194051
  9
$TDUPDATE
 40
2458268.470987026
  9
$TDUUPDATE
 40
2458268.095987026
  9
$TDINDWG
 40
0.001181713
  9
$TDUSRTIMER
 40
2458268.094805347
  9
$USRTIMER
 70
     1
  9
$ANGBASE
 50
0.0
  9
$ANGDIR
 70
     0
  9
$PDMODE
 70
     0
  9
$PDSIZE
 40
-1.0
  9
$PLINEWID
 40
0.0
  9
$SPLFRAME
 70
     0
  9
$SPLINETYPE
 70
     6
  9
$SPLINESEGS
 70
     8
  9
$HANDSEED
  5
167
  9
$SURFTAB1
 70
     6
  9
$SURFTAB2
 70
     6
  9
$SURFTYPE
 70
     6
  9
$SURFU
 70
     6
  9
$SURFV
 70
     6
  9
$UCSBASE
  2

  9
$UCSNAME
  2

  9
$UCSORG
 10
0.0
 20
0.0
 30
0.0
  9
$UCSXDIR
 10
1.0
 20
0.0
 30
0.0
  9
$UCSYDIR
 10
0.0
 20
1.0
 30
0.0
  9
$UCSORTHOREF
  2

  9
$UCSORTHOVIEW
 70
     0
  9
$UCSORGTOP
 10
0.0
 20
0.0
 30
0.0
  9
$UCSORGBOTTOM
 10
0.0
 20
0.0
 30
0.0
  9
$UCSORGLEFT
 10
0.0
 20
0.0
 30
0.0
  9
$UCSORGRIGHT
 10
0.0
 20
0.0
 30
0.0
  9
$UCSORGFRONT
 10
0.0
 20
0.0
 30
0.0
  9
$UCSORGBACK
 10
0.0
 20
0.0
 30
0.0
  9
$PUCSBASE
  2

  9
$PUCSNAME
  2

  9
$PUCSORG
 10
0.0
 20
0.0
 30
0.0
  9
$PUCSXDIR
 10
1.0
 20
0.0
 30
0.0
  9
$PUCSYDIR
 10
0.0
 20
1.0
 30
0.0
  9
$PUCSORTHOREF
  2

  9
$PUCSORTHOVIEW
 70
     0
  9
$PUCSORGTOP
 10
0.0
 20
0.0
 30
0.0
  9
$PUCSORGBOTTOM
 10
0.0
 20
0.0
 30
0.0
  9
$PUCSORGLEFT
 10
0.0
 20
0.0
 30
0.0
  9
$PUCSORGRIGHT
 10
0.0
 20
0.0
 30
0.0
  9
$PUCSORGFRONT
 10
0.0
 20
0.0
 30
0.0
  9
$PUCSORGBACK
 10
0.0
 20
0.0
 30
0.0
  9
$USERI1
 70
     0
  9
$USERI2
 70
     0
  9
$USERI3
 70
     0
  9
$USERI4
 70
     0
  9
$USERI5
 70
     0
  9
$USERR1
 40
0.0
  9
$USERR2
 40
0.0
  9
$USERR3
 40
0.0
  9
$USERR4
 40
0.0
  9
$USERR5
 40
0.0
  9
$WORLDVIEW
 70
     1
  9
$SHADEDGE
 70
     3
  9
$SHADEDIF
 70
    70
  9
$TILEMODE
 70
     1
  9
$MAXACTVP
 70
    64
  9
$PINSBASE
 10
0.0
 20
0.0
 30
0.0
  9
$PLIMCHECK
 70
     0
  9
$PEXTMIN
 10
1.000000000000000E+20
 20
1.000000000000000E+20
 30
1.000000000000000E+20
  9
$PEXTMAX
 10
-1.000000000000000E+20
 20
-1.000000000000000E+20
 30
-1.000000000000000E+20
  9
$PLIMMIN
 10
0.0
 20
0.0
  9
$PLIMMAX
 10
0.0
 20
0.0
  9
$UNITMODE
 70
     0
  9
$VISRETAIN
 70
     1
  9
$PLINEGEN
 70
     0
  9
$PSLTSCALE
 70
     1
  9
$TREEDEPTH
 70
  3020
  9
$CMLSTYLE
  2
Standard
  9
$CMLJUST
 70
     0
  9
$CMLSCALE
 40
20.0
  9
$PROXYGRAPHICS
 70
     1
  9
$MEASUREMENT
 70
     1
  9
$CELWEIGHT
370
    -1
  9
$ENDCAPS
280
     0
  9
$JOINSTYLE
280
     0
  9
$LWDISPLAY
290
     1
  9
$INSUNITS
 70
     4
  9
$HYPERLINKBASE
  1

  9
$STYLESHEET
  1

  9
$XEDIT
290
     1
  9
$CEPSNTYPE
380
     0
  9
$PSTYLEMODE
290
     1
  9
$FINGERPRINTGUID
  2
{A4D32AC9-FBFF-4C02-A06D-591B4BF7DAC3}
  9
$VERSIONGUID
  2
{FAEB1C32-E019-11D5-929B-00C0DF256EC4}
  9
$EXTNAMES
290
     1
  9
$PSVPSCALE
 40
0.0
  9
$OLESTARTUP
290
     0
  0
ENDSEC
  0
SECTION
  2
CLASSES
  0
CLASS
  1
ACDBDICTIONARYWDFLT
  2
AcDbDictionaryWithDefault
  3
ObjectDBX Classes
 90
        0
280
     0
281
     0
  0
CLASS
  1
VISUALSTYLE
  2
AcDbVisualStyle
  3
ObjectDBX Classes
 90
     4095
280
     0
281
     0
  0
CLASS
  1
MATERIAL
  2
AcDbMaterial
  3
ObjectDBX Classes
 90
     1153
280
     0
281
     0
  0
CLASS
  1
SCALE
  2
AcDbScale
  3
ObjectDBX Classes
 90
     1153
280
     0
281
     0
  0
CLASS
  1
TABLESTYLE
  2
AcDbTableStyle
  3
ObjectDBX Classes
 90
     4095
280
     0
281
     0
  0
CLASS
  1
MLEADERSTYLE
  2
AcDbMLeaderStyle
  3
ACDB_MLEADERSTYLE_CLASS
 90
     4095
280
     0
281
     0
  0
CLASS
  1
SUN
  2
AcDbSun
  3
SCENEOE
 90
     1153
280
     0
281
     0
  0
CLASS
  1
ACDBPLACEHOLDER
  2
AcDbPlaceHolder
  3
ObjectDBX Classes
 90
        0
280
     0
281
     0
  0
CLASS
  1
LAYOUT
  2
AcDbLayout
  3
ObjectDBX Classes
 90
        0
280
     0
281
     0
  0
CLASS
  1
RASTERVARIABLES
  2
AcDbRasterVariables
  3
ISM
 90
        0
280
     0
281
     0
  0
ENDSEC
  0
SECTION
  2
TABLES
  0
TABLE
  2
VPORT
  5
8
330
0
100
AcDbSymbolTable
 70
     1
  0
VPORT
  5
29
330
8
100
AcDbSymbolTableRecord
100
AcDbViewportTableRecord
  2
*Active
 70
     0
 10
0.0
 20
0.0
 11
1.0
 21
1.0
 12
-6.839839536041971
 22
-12.60383739361504
 13
0.0
 23
0.0
 14
10.0
 24
10.0
 15
10.0
 25
10.0
 16
0.0
 26
0.0
 36
1.0
 17
0.0
 27
0.0
 37
0.0
 40
76.23065879020126
 41
1.737726098191214
 42
50.0
 43
0.0
 44
0.0
 50
0.0
 51
0.0
 71
    16
 72
  2000
 73
     1
 74
     3
 75
     0
 76
     0
 77
     0
 78
     0
281
     0
 65
     1
110
0.0
120
0.0
130
0.0
111
1.0
121
0.0
131
0.0
112
0.0
122
1.0
132
0.0
 79
     0
146
0.0
  0
ENDTAB
  0
TABLE
  2
LTYPE
  5
5
330
0
100
AcDbSymbolTable
 70
     6
  0
LTYPE
  5
14
330
5
100
AcDbSymbolTableRecord
100
AcDbLinetypeTableRecord
  2
ByBlock
 70
     0
  3

 72
    65
 73
     0
 40
0.0
  0
LTYPE
  5
15
330
5
100
AcDbSymbolTableRecord
100
AcDbLinetypeTableRecord
  2
ByLayer
 70
     0
  3

 72
    65
 73
     0
 40
0.0
  0
LTYPE
  5
16
330
5
100
AcDbSymbolTableRecord
100
AcDbLinetypeTableRecord
  2
Continuous
 70
     0
  3
Solid line
 72
    65
 73
     0
 40
0.0
  0
LTYPE
  5
6E
330
5
100
AcDbSymbolTableRecord
100
AcDbLinetypeTableRecord
  2
HIDDEN
 70
     0
  3
Hidden __ __ __ __ __ __ __ __ __ __ __ __ __ __
 72
    65
 73
     2
 40
1.905
 49
1.27
 74
     0
 49
-0.635
 74
     0
  0
LTYPE
  5
6F
330
5
100
AcDbSymbolTableRecord
100
AcDbLinetypeTableRecord
  2
PHANTOM
 70
     0
  3
Phantom ______  __  __  ______  __  __  ______
 72
    65
 73
     6
 40
12.7
 49
6.35
 74
     0
 49
-1.27
 74
     0
 49
1.27
 74
     0
 49
-1.27
 74
     0
 49
1.27
 74
     0
 49
-1.27
 74
     0
  0
LTYPE
  5
70
330
5
100
AcDbSymbolTableRecord
100
AcDbLinetypeTableRecord
  2
CENTER
 70
     0
  3
Center ____ _ ____ _ ____ _ ____ _ ____ _ ____
 72
    65
 73
     4
 40
10.16
 49
6.35
 74
     0
 49
-1.27
 74
     0
 49
1.27
 74
     0
 49
-1.27
 74
     0
  0
LTYPE
  5
71
330
5
100
AcDbSymbolTableRecord
100
AcDbLinetypeTableRecord
  2
CENTERX2
 70
     0
  3
Center (2x) ________  __  ________  __  _____
 72
    65
 73
     4
 40
20.32
 49
12.7
 74
     0
 49
-2.54
 74
     0
 49
2.54
 74
     0
 49
-2.54
 74
     0
  0
LTYPE
  5
72
330
5
100
AcDbSymbolTableRecord
100
AcDbLinetypeTableRecord
  2
DOT2
 70
     0
  3
Dot (.5x) ........................................
 72
    65
 73
     2
 40
0.635
 49
0.0
 74
     0
 49
-0.635
 74
     0
  0
ENDTAB
  0
TABLE
  2
LAYER
  5
2
330
0
100
AcDbSymbolTable
 70
    17
  0
LAYER
  5
10
330
2
100
AcDbSymbolTableRecord
100
AcDbLayerTableRecord
  2
0
 70
     0
 62
     7
  6
Continuous
370
    -3
390
F
  0
LAYER
  5
73
330
2
100
AcDbSymbolTableRecord
100
AcDbLayerTableRecord
  2
FORMAT
 70
     0
 62
     2
  6
Continuous
370
    -3
390
F
  0
LAYER
  5
74
330
2
100
AcDbSymbolTableRecord
100
AcDbLayerTableRecord
  2
외형선
 70
     0
 62
   100
  6
Continuous
370
    35
390
F
  0
LAYER
  5
75
330
2
100
AcDbSymbolTableRecord
100
AcDbLayerTableRecord
  2
숨은선
 70
     0
 62
     2
  6
HIDDEN
370
    25
390
F
  0
LAYER
  5
76
330
2
100
AcDbSymbolTableRecord
100
AcDbLayerTableRecord
  2
중심선
 70
     0
 62
     1
  6
CENTERX2
370
    -3
390
F
  0
LAYER
  5
77
330
2
100
AcDbSymbolTableRecord
100
AcDbLayerTableRecord
  2
파단선
 70
     0
 62
     4
  6
Continuous
370
    -3
390
F
  0
LAYER
  5
78
330
2
100
AcDbSymbolTableRecord
100
AcDbLayerTableRecord
  2
해칭선
 70
     0
 62
   100
  6
Continuous
370
    -3
390
F
  0
LAYER
  5
79
330
2
100
AcDbSymbolTableRecord
100
AcDbLayerTableRecord
  2
가는실선
 70
     0
 62
     4
  6
Continuous
370
    -3
390
F
  0
LAYER
  5
7A
330
2
100
AcDbSymbolTableRecord
100
AcDbLayerTableRecord
  2
치수_보조선
 70
     0
 62
     4
  6
Continuous
370
    -3
390
F
  0
LAYER
  5
7B
330
2
100
AcDbSymbolTableRecord
100
AcDbLayerTableRecord
  2
치수문자_일반주서
 70
     0
 62
     7
  6
Continuous
370
    25
390
F
  0
LAYER
  5
7C
330
2
100
AcDbSymbolTableRecord
100
AcDbLayerTableRecord
  2
개별주서
 70
     0
 62
   100
  6
Continuous
370
    35
390
F
  0
LAYER
  5
7D
330
2
100
AcDbSymbolTableRecord
100
AcDbLayerTableRecord
  2
중간선
 70
     0
 62
     2
  6
Continuous
370
    25
390
F
  0
LAYER
  5
7E
330
2
100
AcDbSymbolTableRecord
100
AcDbLayerTableRecord
  2
윤곽선
 70
     0
 62
     3
  6
Continuous
370
    50
390
F
  0
LAYER
  5
7F
330
2
100
AcDbSymbolTableRecord
100
AcDbLayerTableRecord
  2
중심마크
 70
     0
 62
   100
  6
Continuous
370
    35
390
F
  0
LAYER
  5
80
330
2
100
AcDbSymbolTableRecord
100
AcDbLayerTableRecord
  2
가상선
 70
     0
 62
     4
  6
PHANTOM
370
    -3
390
F
  0
LAYER
  5
81
330
2
100
AcDbSymbolTableRecord
100
AcDbLayerTableRecord
  2
특수지정선
 70
     0
 62
     5
  6
CENTERX2
370
    70
390
F
  0
LAYER
  5
159
330
2
100
AcDbSymbolTableRecord
100
AcDbLayerTableRecord
  2
Defpoints
 70
     0
 62
     7
  6
Continuous
290
     0
370
    -3
390
F
  0
ENDTAB
  0
TABLE
  2
STYLE
  5
3
330
0
100
AcDbSymbolTable
 70
     2
  0
STYLE
  5
11
330
3
100
AcDbSymbolTableRecord
100
AcDbTextStyleTableRecord
  2
Standard
 70
     0
 40
0.0
 41
1.0
 50
0.0
 71
     0
 42
3.5
  3
txt
  4

  0
STYLE
  5
97
330
3
100
AcDbSymbolTableRecord
100
AcDbTextStyleTableRecord
  2
SLDTEXTSTYLE0
 70
     0
 40
0.0
 41
0.75
 50
0.0
 71
     0
 42
3.5
  3
TXT
  4

  0
ENDTAB
  0
TABLE
  2
VIEW
  5
6
330
0
100
AcDbSymbolTable
 70
     0
  0
ENDTAB
  0
TABLE
  2
UCS
  5
7
330
0
100
AcDbSymbolTable
 70
     0
  0
ENDTAB
  0
TABLE
  2
APPID
  5
9
330
0
100
AcDbSymbolTable
 70
     1
  0
APPID
  5
12
330
9
100
AcDbSymbolTableRecord
100
AcDbRegAppTableRecord
  2
ACAD
 70
     0
  0
ENDTAB
  0
TABLE
  2
DIMSTYLE
  5
A
330
0
100
AcDbSymbolTable
 70
     4
100
AcDbDimStyleTable
  0
DIMSTYLE
105
27
330
A
100
AcDbSymbolTableRecord
100
AcDbDimStyleTableRecord
  2
ISO-25
 70
     0
 41
2.5
 42
0.625
 43
3.75
 44
1.25
 73
     0
 74
     0
 77
     1
 78
     8
140
2.5
141
2.5
143
0.03937007874016
147
0.625
171
     3
172
     1
178
     0
271
     2
272
     2
274
     3
278
    44
283
     0
284
     8
340
11
  0
DIMSTYLE
105
FC
102
{ACAD_REACTORS
330
FB
102
}
330
A
100
AcDbSymbolTableRecord
100
AcDbDimStyleTableRecord
  2
SLDDIMSTYLE0
 70
     0
 41
3.302
 44
0.0
 45
0.000000001
 73
     0
 74
     0
 77
     1
 78
    12
 79
     3
140
3.5
147
0.875
172
     1
173
     1
178
     0
271
     1
272
     1
276
     2
284
    12
289
     0
340
97
  0
DIMSTYLE
105
10A
102
{ACAD_REACTORS
330
109
102
}
330
A
100
AcDbSymbolTableRecord
100
AcDbDimStyleTableRecord
  2
SLDDIMSTYLE1
 70
     0
 41
3.302
 44
0.0
 45
0.000000001
 73
     0
 74
     0
 77
     1
 78
    12
 79
     3
140
3.5
147
0.875
173
     1
178
     0
271
     2
272
     2
276
     2
284
    12
340
97
  0
DIMSTYLE
105
115
102
{ACAD_REACTORS
330
114
330
122
102
}
330
A
100
AcDbSymbolTableRecord
100
AcDbDimStyleTableRecord
  2
SLDDIMSTYLE2
 70
     0
 41
3.302
 44
0.0
 45
0.000000001
 73
     0
 74
     0
 77
     1
 78
    12
 79
     3
140
3.5
147
0.875
172
     1
173
     1
178
     0
271
     2
272
     2
276
     2
284
    12
289
     0
340
97
  0
ENDTAB
  0
TABLE
  2
BLOCK_RECORD
  5
1
330
0
100
AcDbSymbolTable
 70
     7
  0
BLOCK_RECORD
  5
1F
330
1
100
AcDbSymbolTableRecord
100
AcDbBlockTableRecord
  2
*Model_Space
340
22
  0
BLOCK_RECORD
  5
1B
330
1
100
AcDbSymbolTableRecord
100
AcDbBlockTableRecord
  2
*Paper_Space
340
1E
  0
BLOCK_RECORD
  5
23
330
1
100
AcDbSymbolTableRecord
100
AcDbBlockTableRecord
  2
*Paper_Space0
340
26
  0
BLOCK_RECORD
  5
82
330
1
100
AcDbSymbolTableRecord
100
AcDbBlockTableRecord
  2
블럭10
340
0
102
{BLKREFS
331
F4
102
}
  0
BLOCK_RECORD
  5
FD
330
1
100
AcDbSymbolTableRecord
100
AcDbBlockTableRecord
  2
_D
340
0
  0
BLOCK_RECORD
  5
10B
330
1
100
AcDbSymbolTableRecord
100
AcDbBlockTableRecord
  2
_D_1
340
0
  0
BLOCK_RECORD
  5
116
330
1
100
AcDbSymbolTableRecord
100
AcDbBlockTableRecord
  2
_D_2
340
0
  0
BLOCK_RECORD
  5
123
330
1
100
AcDbSymbolTableRecord
100
AcDbBlockTableRecord
  2
_D_3
340
0
  0
BLOCK_RECORD
  5
12E
330
1
100
AcDbSymbolTableRecord
100
AcDbBlockTableRecord
  2
SW_DOWELSYMBOL_0
340
0
102
{BLKREFS
331
134
102
}
  0
ENDTAB
  0
ENDSEC
  0
SECTION
  2
BLOCKS
  0
BLOCK
  5
20
330
1F
100
AcDbEntity
  8
0
100
AcDbBlockBegin
  2
*Model_Space
 70
     0
 10
0.0
 20
0.0
 30
0.0
  3
*Model_Space
  1

  0
ENDBLK
  5
21
330
1F
100
AcDbEntity
  8
0
100
AcDbBlockEnd
  0
BLOCK
  5
1C
330
1B
100
AcDbEntity
 67
     1
  8
0
100
AcDbBlockBegin
  2
*Paper_Space
 70
     0
 10
0.0
 20
0.0
 30
0.0
  3
*Paper_Space
  1

  0
ENDBLK
  5
1D
330
1B
100
AcDbEntity
 67
     1
  8
0
100
AcDbBlockEnd
  0
BLOCK
  5
24
330
23
100
AcDbEntity
  8
0
100
AcDbBlockBegin
  2
*Paper_Space0
 70
     0
 10
0.0
 20
0.0
 30
0.0
  3
*Paper_Space0
  1

  0
ENDBLK
  5
25
330
23
100
AcDbEntity
  8
0
100
AcDbBlockEnd
  0
BLOCK
  5
83
330
82
100
AcDbEntity
  8
0
100
AcDbBlockBegin
  2
블럭10
 70
     2
 10
0.0
 20
0.0
 30
0.0
  3
블럭10
  1

  0
ELLIPSE
  5
85
330
82
100
AcDbEntity
  8
중심선
100
AcDbEllipse
 10
20.54032771741204
 20
12.0471743016438
 30
0.0
 11
6.600054785286829
 21
-1.261213355974178E-13
 31
0.0
210
0.0
220
0.0
230
1.0
 40
0.636358354079598
 41
0.9219305317359503
 42
6.513795318482858
  0
ELLIPSE
  5
86
330
82
100
AcDbEntity
  8
중심선
100
AcDbEllipse
 10
20.54032771746488
 20
12.04717430159265
 30
0.0
 11
3.960054785062283
 21
1.540847449632565E-10
 31
0.0
210
0.0
220
0.0
230
1.0
 40
0.3939339440162632
 41
1.131841032648279
 42
5.62031148352944
  0
LINE
  5
87
330
82
100
AcDbEntity
  8
중심선
100
AcDbLine
 10
2.268634060543552
 20
16.24717430164393
 30
0.0
 11
5.714909304380834
 21
16.24717430164393
 31
0.0
  0
LINE
  5
88
330
82
100
AcDbEntity
  8
중심선
100
AcDbLine
 10
5.245725140726316
 20
7.84717430164391
 30
0.0
 11
8.692000384563599
 21
7.84717430164391
 31
0.0
  0
LINE
  5
89
330
82
100
AcDbEntity
  8
중심선
100
AcDbLine
 10
15.74043728645272
 20
16.24717430164393
 30
0.0
 11
8.692000384563599
 21
7.84717430164391
 31
0.0
  0
LINE
  5
8A
330
82
100
AcDbEntity
  8
중심선
100
AcDbLine
 10
0.1404042013395286
 20
13.71084872107135
 30
0.0
 11
3.58671253028996
 21
13.71088815037384
 31
0.0
  0
LINE
  5
8B
330
82
100
AcDbEntity
  8
중심선
100
AcDbLine
 10
2.750260043222114
 20
10.84717430164391
 30
0.0
 11
6.196535287059397
 21
10.84717430164391
 31
0.0
  0
LINE
  5
8C
330
82
100
AcDbEntity
  8
중심선
100
AcDbLine
 10
12.29416204261559
 20
16.24717430164393
 30
0.0
 11
5.245725140726316
 21
7.84717430164391
 31
0.0
  0
LINE
  5
8D
330
82
100
AcDbEntity
  8
중심선
100
AcDbLine
 10
10.72767329541681
 20
16.24717430164393
 30
0.0
 11
6.196535287059397
 21
10.84717430164391
 31
0.0
  0
LINE
  5
8E
330
82
100
AcDbEntity
  8
중심선
100
AcDbLine
 10
7.28139805157953
 20
16.24717430164393
 30
0.0
 11
2.750260043222114
 21
10.84717430164391
 31
0.0
  0
LINE
  5
8F
330
82
100
AcDbEntity
  8
중심선
100
AcDbLine
 10
5.714909304380834
 20
16.24717430164393
 30
0.0
 11
3.58671253028996
 21
13.71088815037384
 31
0.0
  0
LINE
  5
90
330
82
100
AcDbEntity
  8
중심선
100
AcDbLine
 10
2.268634060543552
 20
16.24717430164393
 30
0.0
 11
0.1404042013395286
 21
13.71084872107135
 31
0.0
  0
LINE
  5
91
330
82
100
AcDbEntity
  8
중심선
100
AcDbLine
 10
7.28139805157953
 20
16.24717430164393
 30
0.0
 11
10.72767329541681
 21
16.24717430164393
 31
0.0
  0
LINE
  5
92
330
82
100
AcDbEntity
  8
중심선
100
AcDbLine
 10
12.29416204261559
 20
16.24717430164393
 30
0.0
 11
15.74043728645272
 21
16.24717430164393
 31
0.0
  0
LINE
  5
93
330
82
100
AcDbEntity
  8
중심선
100
AcDbLine
 10
19.22036997980202
 20
11.08717430171403
 30
0.0
 11
23.66174974927406
 21
11.08717430171406
 31
0.0
  0
LINE
  5
94
330
82
100
AcDbEntity
  8
중심선
100
AcDbLine
 10
19.22039502424796
 20
13.00717430171391
 30
0.0
 11
19.22036997980202
 21
11.08717430171403
 31
0.0
  0
LINE
  5
95
330
82
100
AcDbEntity
  8
중심선
100
AcDbLine
 10
19.22039502424796
 20
13.00717430171391
 30
0.0
 11
26.96566020931264
 21
13.00717430171391
 31
0.0
  0
LINE
  5
96
330
82
100
AcDbEntity
  8
중심선
100
AcDbLine
 10
22.22332737316547
 20
13.45928029700563
 30
0.0
 11
24.52862924686651
 21
15.39360700705356
 31
0.0
  0
ATTDEF
  5
98
330
82
100
AcDbEntity
  8
FORMAT
 62
     2
100
AcDbText
 10
-16.11926103943555
 20
2.075366912832191
 30
0.0
 40
4.233333333333333
  1
SEME7201512E [ 4 FLUTE ]
 41
0.75
  7
SLDTEXTSTYLE0
 11
-16.11926103943555
 21
-0.0412997538344756
 31
0.0
100
AcDbAttributeDefinition
  3

  2
AUTOATTR0
 70
     0
 74
     1
  0
ENDBLK
  5
84
330
82
100
AcDbEntity
  8
0
100
AcDbBlockEnd
  0
BLOCK
  5
FE
330
FD
100
AcDbEntity
  8
0
100
AcDbBlockBegin
  2
_D
 70
     0
 10
0.0
 20
0.0
 30
0.0
  3
_D
  1

  0
LINE
  5
100
330
FD
100
AcDbEntity
  8
치수문자_일반주서
 62
     0
370
    -2
100
AcDbLine
 10
23.45961431702997
 20
-0.7500000000000061
 30
0.0
 11
36.28965409631626
 21
-0.7499999999999591
 31
0.0
  0
LINE
  5
101
330
FD
100
AcDbEntity
  8
치수문자_일반주서
 62
     0
370
    -2
100
AcDbLine
 10
23.45961431702997
 20
0.7500000000000057
 30
0.0
 11
36.28965409631626
 21
0.7500000000000533
 31
0.0
  0
LINE
  5
102
330
FD
100
AcDbEntity
  8
치수문자_일반주서
 62
     0
370
    -2
100
AcDbLine
 10
36.28965409631626
 20
-0.7499999999999591
 30
0.0
 11
36.28965409631618
 21
16.10400000000005
 31
0.0
  0
LINE
  5
103
330
FD
100
AcDbEntity
  8
치수문자_일반주서
 62
     0
370
    -2
100
AcDbLine
 10
36.28965409631626
 20
-0.7499999999999591
 30
0.0
 11
36.28965409631626
 21
0.7500000000000533
 31
0.0
  0
LINE
  5
104
330
FD
100
AcDbEntity
  8
치수문자_일반주서
 62
     0
370
    -2
100
AcDbLine
 10
36.28965409631628
 20
-4.051999999999959
 30
0.0
 11
36.28965409631629
 21
-7.353999999999958
 31
0.0
  0
LINE
  5
105
330
FD
100
AcDbEntity
  8
치수문자_일반주서
 62
     0
370
    -2
100
AcDbLine
 10
36.28965409631624
 20
4.052000000000053
 30
0.0
 11
36.28965409631623
 21
7.354000000000052
 31
0.0
  0
SOLID
  5
106
330
FD
100
AcDbEntity
  8
치수문자_일반주서
 62
     0
100
AcDbTrace
 10
36.83998742964961
 20
-4.051999999999956
 30
0.0
 11
35.73932076298294
 21
-4.051999999999961
 31
0.0
 12
36.28965409631626
 22
-0.7499999999999591
 32
0.0
 13
36.28965409631626
 23
-0.7499999999999591
 33
0.0
  0
SOLID
  5
107
330
FD
100
AcDbEntity
  8
치수문자_일반주서
 62
     0
100
AcDbTrace
 10
35.73932076298291
 20
4.05200000000005
 30
0.0
 11
36.83998742964958
 21
4.052000000000056
 31
0.0
 12
36.28965409631626
 22
0.7500000000000533
 32
0.0
 13
36.28965409631626
 23
0.7500000000000533
 33
0.0
  0
MTEXT
  5
108
330
FD
100
AcDbEntity
  8
치수문자_일반주서
 62
     0
100
AcDbMText
 10
31.91465409631621
 20
11.72900000000003
 30
0.0
 40
3.5
 41
0.0
 71
     2
 72
     1
  1
\A1;%%c1.5
  7
SLDTEXTSTYLE0
 11
-4.736951571733964E-15
 21
1.0
 31
0.0
 73
     1
 44
1.0
  0
POINT
  5
161
330
FD
100
AcDbEntity
  8
Defpoints
 62
     0
100
AcDbPoint
 10
23.39711431702997
 20
-0.7500000000000063
 30
0.0
  0
POINT
  5
162
330
FD
100
AcDbEntity
  8
Defpoints
 62
     0
100
AcDbPoint
 10
23.39711431702997
 20
0.7500000000000054
 30
0.0
  0
POINT
  5
163
330
FD
100
AcDbEntity
  8
Defpoints
 62
     0
100
AcDbPoint
 10
36.28965409631626
 20
0.7500000000000536
 30
0.0
  0
ENDBLK
  5
FF
330
FD
100
AcDbEntity
  8
0
100
AcDbBlockEnd
  0
BLOCK
  5
10C
330
10B
100
AcDbEntity
  8
0
100
AcDbBlockBegin
  2
_D_1
 70
     0
 10
0.0
 20
0.0
 30
0.0
  3
_D_1
  1

  0
LINE
  5
10E
330
10B
100
AcDbEntity
  8
치수문자_일반주서
 62
     0
370
    -2
100
AcDbLine
 10
-36.60288568297005
 20
2.562499999999994
 30
0.0
 11
-36.60288568297004
 21
20.38913260158165
 31
0.0
  0
LINE
  5
10F
330
10B
100
AcDbEntity
  8
치수문자_일반주서
 62
     0
370
    -2
100
AcDbLine
 10
23.39711431702996
 20
0.8125000000000016
 30
0.0
 11
23.39711431702997
 21
20.38913260158165
 31
0.0
  0
LINE
  5
110
330
10B
100
AcDbEntity
  8
치수문자_일반주서
 62
     0
370
    -2
100
AcDbLine
 10
-33.30088568297004
 20
20.38913260158165
 30
0.0
 11
20.09511431702997
 21
20.38913260158165
 31
0.0
  0
SOLID
  5
111
330
10B
100
AcDbEntity
  8
치수문자_일반주서
 62
     0
100
AcDbTrace
 10
-33.30088568297004
 20
20.93946593491498
 30
0.0
 11
-33.30088568297004
 21
19.83879926824831
 31
0.0
 12
-36.60288568297004
 22
20.38913260158165
 32
0.0
 13
-36.60288568297004
 23
20.38913260158165
 33
0.0
  0
SOLID
  5
112
330
10B
100
AcDbEntity
  8
치수문자_일반주서
 62
     0
100
AcDbTrace
 10
20.09511431702997
 20
19.83879926824831
 30
0.0
 11
20.09511431702997
 21
20.93946593491498
 31
0.0
 12
23.39711431702997
 22
20.38913260158165
 32
0.0
 13
23.39711431702997
 23
20.38913260158165
 33
0.0
  0
MTEXT
  5
113
330
10B
100
AcDbEntity
  8
치수문자_일반주서
 62
     0
100
AcDbMText
 10
-6.602885682970049
 20
24.76413260158165
 30
0.0
 40
3.5
 41
0.0
 71
     2
 72
     1
  1
\A1;60
  7
SLDTEXTSTYLE0
 73
     1
 44
1.0
  0
POINT
  5
15A
330
10B
100
AcDbEntity
  8
Defpoints
 62
     0
100
AcDbPoint
 10
-36.60288568297005
 20
2.499999999999994
 30
0.0
  0
POINT
  5
15B
330
10B
100
AcDbEntity
  8
Defpoints
 62
     0
100
AcDbPoint
 10
23.39711431702996
 20
0.7500000000000016
 30
0.0
  0
POINT
  5
15C
330
10B
100
AcDbEntity
  8
Defpoints
 62
     0
100
AcDbPoint
 10
23.39711431702996
 20
20.38913260158165
 30
0.0
  0
ENDBLK
  5
10D
330
10B
100
AcDbEntity
  8
0
100
AcDbBlockEnd
  0
BLOCK
  5
117
330
116
100
AcDbEntity
  8
0
100
AcDbBlockBegin
  2
_D_2
 70
     0
 10
0.0
 20
0.0
 30
0.0
  3
_D_2
  1

  0
LINE
  5
119
330
116
100
AcDbEntity
  8
치수문자_일반주서
 62
     0
370
    -2
100
AcDbLine
 10
-36.16538568297003
 20
3.000000000000003
 30
0.0
 11
-46.14466650173351
 21
2.999999999999966
 31
0.0
  0
LINE
  5
11A
330
116
100
AcDbEntity
  8
치수문자_일반주서
 62
     0
370
    -2
100
AcDbLine
 10
-36.16538568297003
 20
-3.000000000000003
 30
0.0
 11
-46.14466650173349
 21
-3.000000000000039
 31
0.0
  0
LINE
  5
11B
330
116
100
AcDbEntity
  8
치수문자_일반주서
 62
     0
370
    -2
100
AcDbLine
 10
-46.14466650173351
 20
2.999999999999966
 30
0.0
 11
-46.14466650173356
 21
15.72899999999997
 31
0.0
  0
LINE
  5
11C
330
116
100
AcDbEntity
  8
치수문자_일반주서
 62
     0
370
    -2
100
AcDbLine
 10
-46.14466650173351
 20
2.999999999999966
 30
0.0
 11
-46.14466650173349
 21
-3.000000000000039
 31
0.0
  0
LINE
  5
11D
330
116
100
AcDbEntity
  8
치수문자_일반주서
 62
     0
370
    -2
100
AcDbLine
 10
-46.14466650173352
 20
6.301999999999966
 30
0.0
 11
-46.14466650173354
 21
9.603999999999965
 31
0.0
  0
LINE
  5
11E
330
116
100
AcDbEntity
  8
치수문자_일반주서
 62
     0
370
    -2
100
AcDbLine
 10
-46.14466650173348
 20
-6.302000000000039
 30
0.0
 11
-46.14466650173346
 21
-9.604000000000038
 31
0.0
  0
SOLID
  5
11F
330
116
100
AcDbEntity
  8
치수문자_일반주서
 62
     0
100
AcDbTrace
 10
-46.69499983506686
 20
6.301999999999964
 30
0.0
 11
-45.59433316840019
 21
6.301999999999968
 31
0.0
 12
-46.14466650173351
 22
2.999999999999966
 32
0.0
 13
-46.14466650173351
 23
2.999999999999966
 33
0.0
  0
SOLID
  5
120
330
116
100
AcDbEntity
  8
치수문자_일반주서
 62
     0
100
AcDbTrace
 10
-45.59433316840014
 20
-6.302000000000037
 30
0.0
 11
-46.69499983506681
 21
-6.30200000000004
 31
0.0
 12
-46.14466650173349
 22
-3.000000000000039
 32
0.0
 13
-46.14466650173349
 23
-3.000000000000039
 33
0.0
  0
MTEXT
  5
121
330
116
100
AcDbEntity
  8
치수문자_일반주서
 62
     0
100
AcDbMText
 10
-50.51966650173355
 20
12.66649999999995
 30
0.0
 40
3.5
 41
0.0
 71
     2
 72
     1
  1
\A1;%%c6
  7
SLDTEXTSTYLE0
 11
-3.552713678800498E-15
 21
1.0
 31
0.0
 73
     1
 44
1.0
  0
POINT
  5
15E
330
116
100
AcDbEntity
  8
Defpoints
 62
     0
100
AcDbPoint
 10
-36.10288568297003
 20
3.000000000000003
 30
0.0
  0
POINT
  5
15F
330
116
100
AcDbEntity
  8
Defpoints
 62
     0
100
AcDbPoint
 10
-36.10288568297003
 20
-3.000000000000002
 30
0.0
  0
POINT
  5
160
330
116
100
AcDbEntity
  8
Defpoints
 62
     0
100
AcDbPoint
 10
-46.14466650173349
 20
-3.00000000000004
 30
0.0
  0
ENDBLK
  5
118
330
116
100
AcDbEntity
  8
0
100
AcDbBlockEnd
  0
BLOCK
  5
124
330
123
100
AcDbEntity
  8
0
100
AcDbBlockBegin
  2
_D_3
 70
     0
 10
0.0
 20
0.0
 30
0.0
  3
_D_3
  1

  0
LINE
  5
126
330
123
100
AcDbEntity
  8
치수문자_일반주서
 62
     0
370
    -2
100
AcDbLine
 10
11.39711431702995
 20
0.8125996565403935
 30
0.0
 11
11.39711431702995
 21
11.53351795912803
 31
0.0
  0
LINE
  5
127
330
123
100
AcDbEntity
  8
치수문자_일반주서
 62
     0
370
    -2
100
AcDbLine
 10
23.39711431702996
 20
0.8125000000000016
 30
0.0
 11
23.39711431702996
 21
11.53351795912803
 31
0.0
  0
LINE
  5
128
330
123
100
AcDbEntity
  8
치수문자_일반주서
 62
     0
370
    -2
100
AcDbLine
 10
14.69911431702995
 20
11.53351795912803
 30
0.0
 11
20.09511431702996
 21
11.53351795912803
 31
0.0
  0
SOLID
  5
129
330
123
100
AcDbEntity
  8
치수문자_일반주서
 62
     0
100
AcDbTrace
 10
14.69911431702995
 20
12.08385129246136
 30
0.0
 11
14.69911431702995
 21
10.9831846257947
 31
0.0
 12
11.39711431702995
 22
11.53351795912803
 32
0.0
 13
11.39711431702995
 23
11.53351795912803
 33
0.0
  0
SOLID
  5
12A
330
123
100
AcDbEntity
  8
치수문자_일반주서
 62
     0
100
AcDbTrace
 10
20.09511431702996
 20
10.9831846257947
 30
0.0
 11
20.09511431702996
 21
12.08385129246136
 31
0.0
 12
23.39711431702996
 22
11.53351795912803
 32
0.0
 13
23.39711431702996
 23
11.53351795912803
 33
0.0
  0
MTEXT
  5
12B
330
123
100
AcDbEntity
  8
치수문자_일반주서
 62
     0
100
AcDbMText
 10
17.39711431702998
 20
15.90851795912803
 30
0.0
 40
3.5
 41
0.0
 71
     2
 72
     1
  1
\A1;12
  7
SLDTEXTSTYLE0
 73
     1
 44
1.0
  0
POINT
  5
12C
330
123
100
AcDbEntity
  8
Defpoints
 62
     0
100
AcDbPoint
 10
11.39711431702995
 20
0.7500996565403935
 30
0.0
  0
POINT
  5
12D
330
123
100
AcDbEntity
  8
Defpoints
 62
     0
100
AcDbPoint
 10
23.39711431702996
 20
0.7500000000000016
 30
0.0
  0
POINT
  5
15D
330
123
100
AcDbEntity
  8
Defpoints
 62
     0
100
AcDbPoint
 10
23.39711431702996
 20
11.53351795912803
 30
0.0
  0
ENDBLK
  5
125
330
123
100
AcDbEntity
  8
0
100
AcDbBlockEnd
  0
BLOCK
  5
12F
330
12E
100
AcDbEntity
  8
0
100
AcDbBlockBegin
  2
SW_DOWELSYMBOL_0
 70
     0
 10
0.0
 20
0.0
 30
0.0
  3
SW_DOWELSYMBOL_0
  1

  0
CIRCLE
  5
131
330
12E
100
AcDbEntity
  8
해칭선
 62
     0
100
AcDbCircle
 10
0.0
 20
0.0
 30
0.0
 40
3.000000000000003
  0
HATCH
  5
132
330
12E
100
AcDbEntity
  8
0
  6
Continuous
 62
     0
370
    18
100
AcDbHatch
 10
0.0
 20
0.0
 30
0.0
210
0.0
220
0.0
230
1.0
  2
SOLID
 70
     1
 71
     0
 91
        1
 92
        0
 93
        3
 72
     2
 10
0.0
 20
0.0
 40
3.000000000000003
 50
0.0
 51
90.0
 73
     1
 72
     1
 10
0.0
 20
3.000000000000003
 11
0.0
 21
0.0
 72
     1
 10
0.0
 20
0.0
 11
3.000000000000003
 21
0.0
 97
        0
 75
     0
 76
     1
 98
        1
 10
0.0
 20
0.0
  0
HATCH
  5
133
330
12E
100
AcDbEntity
  8
0
  6
Continuous
 62
     0
370
    18
100
AcDbHatch
 10
0.0
 20
0.0
 30
0.0
210
0.0
220
0.0
230
1.0
  2
SOLID
 70
     1
 71
     0
 91
        1
 92
        0
 93
        3
 72
     2
 10
0.0
 20
0.0
 40
3.000000000000003
 50
180.0
 51
270.0000000000008
 73
     1
 72
     1
 10
0.0
 20
-3.000000000000003
 11
0.0
 21
0.0
 72
     1
 10
0.0
 20
0.0
 11
-3.000000000000003
 21
0.0
 97
        0
 75
     0
 76
     1
 98
        1
 10
0.0
 20
0.0
  0
ENDBLK
  5
130
330
12E
100
AcDbEntity
  8
0
100
AcDbBlockEnd
  0
ENDSEC
  0
SECTION
  2
ENTITIES
  0
LINE
  5
99
330
1F
100
AcDbEntity
  8
0
  6
Continuous
 62
     4
370
    25
100
AcDbLine
 10
2.0
 20
2.999999999999997
 30
0.0
 11
-36.10288568297005
 21
2.999999999999995
 31
0.0
  0
LINE
  5
9A
330
1F
100
AcDbEntity
  8
0
  6
Continuous
 62
     4
370
    25
100
AcDbLine
 10
-36.10288568297005
 20
-3.0
 30
0.0
 11
1.999999999999997
 21
-2.999999999999997
 31
0.0
  0
LINE
  5
9B
330
1F
100
AcDbEntity
  8
0
  6
Continuous
 62
     4
370
    25
100
AcDbLine
 10
2.0
 20
-2.999999999999998
 30
0.0
 11
9.897319641779305
 21
-0.8839195796147864
 31
0.0
  0
LINE
  5
9C
330
1F
100
AcDbEntity
  8
0
  6
Continuous
 62
     4
370
    25
100
AcDbLine
 10
9.897319641779305
 20
0.8839195796147872
 30
0.0
 11
2.0
 21
2.999999999999999
 31
0.0
  0
LINE
  5
9D
330
1F
100
AcDbEntity
  8
0
  6
Continuous
 62
     4
370
    25
100
AcDbLine
 10
-36.10288568297005
 20
2.999999999999994
 30
0.0
 11
-36.60288568297005
 21
2.499999999999994
 31
0.0
  0
LINE
  5
9E
330
1F
100
AcDbEntity
  8
0
  6
Continuous
 62
     4
370
    25
100
AcDbLine
 10
-36.60288568297005
 20
-2.5
 30
0.0
 11
-36.10288568297005
 21
-2.999999999999999
 31
0.0
  0
LINE
  5
9F
330
1F
100
AcDbEntity
  8
0
  6
Continuous
 62
     4
370
    25
100
AcDbLine
 10
10.86451161673441
 20
-0.7499999999999996
 30
0.0
 11
11.39711431702995
 21
-0.7499999999999994
 31
0.0
  0
LINE
  5
A0
330
1F
100
AcDbEntity
  8
0
  6
Continuous
 62
     4
370
    25
100
AcDbLine
 10
11.39711431702995
 20
0.7500000000000006
 30
0.0
 11
10.86451161673441
 21
0.7500000000000004
 31
0.0
  0
LINE
  5
A1
330
1F
100
AcDbEntity
  8
0
  6
Continuous
 62
     1
370
    25
100
AcDbLine
 10
21.06655371573207
 20
-0.7500000000000007
 30
0.0
 11
21.64663803589955
 21
-0.7500000000000007
 31
0.0
  0
LINE
  5
A2
330
1F
100
AcDbEntity
  8
0
  6
Continuous
 62
     1
370
    25
100
AcDbLine
 10
12.90445657667808
 20
-0.7500000000000007
 30
0.0
 11
13.48454089684556
 21
-0.7500000000000007
 31
0.0
  0
LINE
  5
A3
330
1F
100
AcDbEntity
  8
0
  6
Continuous
 62
     1
370
    25
100
AcDbLine
 10
17.56558373542491
 20
0.7500000000000016
 30
0.0
 11
16.98539170063913
 21
0.7500000000000016
 31
0.0
  0
LINE
  5
A4
330
1F
100
AcDbEntity
  8
0
  6
Continuous
 62
     1
370
    25
100
AcDbLine
 10
15.19349805150852
 20
0.1858105132674205
 30
0.0
 11
15.23501717797597
 21
0.1666553510930549
 31
0.0
  0
LINE
  5
A5
330
1F
100
AcDbEntity
  8
0
  6
Continuous
 62
     1
370
    25
100
AcDbLine
 10
15.38096704485319
 20
0.0829103246853421
 30
0.0
 11
15.40576592014382
 21
0.0683341822921825
 31
0.0
  0
SPLINE
  5
A6
330
1F
100
AcDbEntity
  8
0
  6
Continuous
 62
     1
370
    25
100
AcDbSpline
210
0.0
220
0.0
230
1.0
 70
     8
 71
     3
 72
     9
 73
     5
 74
     0
 42
0.000000001
 43
0.00000001
 40
0.0
 40
0.0
 40
0.0
 40
0.0
 40
0.5824501234536591
 40
1.0
 40
1.0
 40
1.0
 40
1.0
 10
15.23501717797855
 20
0.1666553510917214
 30
0.0
 10
15.26317877448113
 20
0.1509809612519438
 30
0.0
 10
15.31152900288456
 20
0.1240698332280785
 30
0.0
 10
15.36051355229443
 20
0.0950341645551598
 30
0.0
 10
15.38096704485319
 20
0.0829103246853421
 30
0.0
  0
LINE
  5
A7
330
1F
100
AcDbEntity
  8
0
  6
Continuous
 62
     1
370
    25
100
AcDbLine
 10
17.19397400709585
 20
-0.11896755677583
 30
0.0
 11
17.17016376804906
 21
-0.1067368633887517
 31
0.0
  0
LINE
  5
A8
330
1F
100
AcDbEntity
  8
0
  6
Continuous
 62
     1
370
    25
100
AcDbLine
 10
13.12289742827784
 20
-0.1242234599946678
 30
0.0
 11
13.08911519852207
 21
-0.1067368633887508
 31
0.0
  0
LINE
  5
A9
330
1F
100
AcDbEntity
  8
0
  6
Continuous
 62
     1
370
    25
100
AcDbLine
 10
21.28499456733182
 20
-0.1242234599946671
 30
0.0
 11
21.25121233757606
 21
-0.1067368633887498
 31
0.0
  0
LINE
  5
AA
330
1F
100
AcDbEntity
  8
0
  6
Continuous
 62
     1
370
    25
100
AcDbLine
 10
19.38596431764735
 20
0.1238796334494767
 30
0.0
 11
19.41830573690211
 21
0.1075615955189393
 31
0.0
  0
LINE
  5
AB
330
1F
100
AcDbEntity
  8
0
  6
Continuous
 62
     1
370
    25
100
AcDbLine
 10
19.02678520419191
 20
-0.7500000000000007
 30
0.0
 11
19.604431727426
 21
-0.7500000000000007
 31
0.0
  0
LINE
  5
AC
330
1F
100
AcDbEntity
  8
0
  6
Continuous
 62
     4
370
    25
100
AcDbLine
 10
11.39711431702995
 20
-0.7500000000000007
 30
0.0
 11
11.4432785203765
 21
-0.7500000000000007
 31
0.0
  0
LINE
  5
AD
330
1F
100
AcDbEntity
  8
0
  6
Continuous
 62
     1
370
    25
100
AcDbLine
 10
15.52523951273528
 20
0.7500000000000016
 30
0.0
 11
14.94524364347679
 21
0.7500000000000016
 31
0.0
  0
LINE
  5
AE
330
1F
100
AcDbEntity
  8
0
  6
Continuous
 62
     1
370
    25
100
AcDbLine
 10
23.39711431702996
 20
0.7500000000000016
 30
0.0
 11
23.10734078253077
 21
0.7500000000000016
 31
0.0
  0
LINE
  5
AF
330
1F
100
AcDbEntity
  8
0
  6
Continuous
 62
     1
370
    25
100
AcDbLine
 10
23.10734078253077
 20
-0.7500000000000007
 30
0.0
 11
23.39711431702996
 21
-0.7500000000000007
 31
0.0
  0
LINE
  5
B0
330
1F
100
AcDbEntity
  8
0
  6
Continuous
 62
     1
370
    25
100
AcDbLine
 10
14.94524364347679
 20
-0.7500000000000007
 30
0.0
 11
15.52523951273529
 21
-0.7500000000000007
 31
0.0
  0
LINE
  5
B1
330
1F
100
AcDbEntity
  8
0
  6
Continuous
 62
     4
370
    25
100
AcDbLine
 10
11.44327852037651
 20
0.7500000000000016
 30
0.0
 11
11.39711431702995
 21
0.7500000000000016
 31
0.0
  0
LINE
  5
B2
330
1F
100
AcDbEntity
  8
0
  6
Continuous
 62
     1
370
    25
100
AcDbLine
 10
19.604431727426
 20
0.7500000000000016
 30
0.0
 11
19.02678520419191
 21
0.7500000000000016
 31
0.0
  0
LINE
  5
B3
330
1F
100
AcDbEntity
  8
0
  6
Continuous
 62
     1
370
    25
100
AcDbLine
 10
16.98539170063913
 20
-0.7500000000000007
 30
0.0
 11
17.56558373542491
 21
-0.7500000000000007
 31
0.0
  0
LINE
  5
B4
330
1F
100
AcDbEntity
  8
0
  6
Continuous
 62
     1
370
    25
100
AcDbLine
 10
13.48454089684555
 20
0.7500000000000016
 30
0.0
 11
12.90445657667808
 21
0.7500000000000016
 31
0.0
  0
LINE
  5
B5
330
1F
100
AcDbEntity
  8
0
  6
Continuous
 62
     1
370
    25
100
AcDbLine
 10
21.64663803589953
 20
0.7500000000000016
 30
0.0
 11
21.06655371573207
 21
0.7500000000000016
 31
0.0
  0
LINE
  5
B6
330
1F
100
AcDbEntity
  8
0
  6
Continuous
 62
     4
370
    25
100
AcDbLine
 10
2.0
 20
2.999999999999999
 30
0.0
 11
2.0
 21
-2.999999999999999
 31
0.0
  0
LINE
  5
B7
330
1F
100
AcDbEntity
  8
0
  6
Continuous
 62
     4
370
    25
100
AcDbLine
 10
-36.10288568297005
 20
2.999999999999994
 30
0.0
 11
-36.10288568297005
 21
-2.999999999999999
 31
0.0
  0
SPLINE
  5
B8
330
1F
100
AcDbEntity
  8
0
  6
Continuous
 62
     4
370
    25
100
AcDbSpline
210
0.0
220
0.0
230
1.0
 70
     8
 71
     3
 72
     8
 73
     4
 74
     0
 42
0.000000001
 43
0.00000001
 40
0.0
 40
0.0
 40
0.0
 40
0.0
 40
1.0
 40
1.0
 40
1.0
 40
1.0
 10
10.12745151691945
 20
-0.6910542903711254
 30
0.0
 10
10.2167038041211
 20
-0.7015035396139561
 30
0.0
 10
10.30655163668708
 20
-0.7050813440889476
 30
0.0
 10
10.39711431702995
 20
-0.7019396914724738
 30
0.0
  0
SPLINE
  5
B9
330
1F
100
AcDbEntity
  8
0
  6
Continuous
 62
     4
370
    25
100
AcDbSpline
210
0.0
220
0.0
230
1.0
 70
     8
 71
     3
 72
    26
 73
    22
 74
     0
 42
0.000000001
 43
0.00000001
 40
0.0
 40
0.0
 40
0.0
 40
0.0
 40
0.0000472035906174
 40
0.0000472035906174
 40
0.0000472035906174
 40
0.0000943058123788
 40
0.0000943058123788
 40
0.0000943058123788
 40
0.0001428968087948
 40
0.0001428968087948
 40
0.0001428968087948
 40
0.0001942377077858
 40
0.0001942377077858
 40
0.0001942377077858
 40
0.0002472413326838
 40
0.0002472413326838
 40
0.0002472413326838
 40
0.0003003295793819
 40
0.0003003295793819
 40
0.0003003295793819
 40
0.0003266497015426
 40
0.0003266497015426
 40
0.0003266497015426
 40
0.0003266497015426
 10
9.897319641779305
 20
-0.8054152518416644
 30
0.0
 10
9.897319641779305
 20
-0.7989327045409531
 30
0.0
 10
9.89987548130857
 20
-0.7913335811374083
 30
0.0
 10
9.904726009776589
 20
-0.7833276903300534
 30
0.0
 10
9.909570673480196
 20
-0.7753314794295066
 30
0.0
 10
9.916818327623073
 20
-0.766723482435831
 30
0.0
 10
9.92583961991108
 20
-0.7582975722264744
 30
0.0
 10
9.935147364355863
 20
-0.7496041149656313
 30
0.0
 10
9.946577177977467
 20
-0.7408846596305307
 30
0.0
 10
9.959264129639003
 20
-0.7329282993135667
 30
0.0
 10
9.972657085655982
 20
-0.7245291829124718
 30
0.0
 10
9.987807537140771
 20
-0.7167652851132847
 30
0.0
 10
10.0035691834286
 20
-0.7103782255137445
 30
0.0
 10
10.01982722850702
 20
-0.7037900112503552
 30
0.0
 10
10.03718636241473
 20
-0.6984953828665783
 30
0.0
 10
10.05423396910748
 20
-0.6950033898711073
 30
0.0
 10
10.07130408756126
 20
-0.6915067856176917
 30
0.0
 10
10.08853829817899
 20
-0.6897247823705842
 30
0.0
 10
10.10444296328688
 20
-0.6897418499653731
 30
0.0
 10
10.11241551278744
 20
-0.6897504054579526
 30
0.0
 10
10.12014397208781
 20
-0.6901987564717381
 30
0.0
 10
10.12745151691947
 20
-0.6910542903711289
 30
0.0
  0
LINE
  5
BA
330
1F
100
AcDbEntity
  8
0
  6
Continuous
 62
     4
370
    25
100
AcDbLine
 10
9.897319641779305
 20
-0.8054152518416646
 30
0.0
 11
9.897319641779305
 21
-0.8839195796147864
 31
0.0
  0
SPLINE
  5
BB
330
1F
100
AcDbEntity
  8
0
  6
Continuous
 62
     4
370
    25
100
AcDbSpline
210
0.0
220
0.0
230
1.0
 70
     8
 71
     3
 72
    14
 73
    10
 74
     0
 42
0.000000001
 43
0.00000001
 40
0.0
 40
0.0
 40
0.0
 40
0.0
 40
0.0000508900092343
 40
0.0000508900092343
 40
0.0000508900092343
 40
0.0001019222726582
 40
0.0001019222726582
 40
0.0001019222726582
 40
0.0001483933247024
 40
0.0001483933247024
 40
0.0001483933247024
 40
0.0001483933247024
 10
9.963563871470477
 20
-0.7854434245760932
 30
0.0
 10
9.94997573574192
 20
-0.7927411916508573
 30
0.0
 10
9.937679918633663
 20
-0.8006224676240024
 30
0.0
 10
9.92767830406219
 20
-0.8082691288922484
 30
0.0
 10
9.917660630058474
 20
-0.8159280682819592
 30
0.0
 10
9.909669183939577
 20
-0.8235626822586336
 30
0.0
 10
9.904506907005427
 20
-0.8303049487754905
 30
0.0
 10
9.899797568997503
 20
-0.8364556478511954
 30
0.0
 10
9.897319641779244
 20
-0.8420247580257665
 30
0.0
 10
9.89731964177924
 20
-0.8464875796875181
 30
0.0
  0
SPLINE
  5
BC
330
1F
100
AcDbEntity
  8
0
  6
Continuous
 62
     4
370
    25
100
AcDbSpline
210
0.0
220
0.0
230
1.0
 70
     8
 71
     3
 72
     9
 73
     5
 74
     0
 42
0.000000001
 43
0.00000001
 40
0.0
 40
0.0
 40
0.0
 40
0.0
 40
0.6613612017855216
 40
1.0
 40
1.0
 40
1.0
 40
1.0
 10
10.13270010001749
 20
-0.6916431206407496
 30
0.0
 10
10.09499025800068
 20
-0.7129185257808768
 30
0.0
 10
10.03797173028086
 20
-0.7450876416629217
 30
0.0
 10
9.982387013246186
 20
-0.7752345214388513
 30
0.0
 10
9.963563871470477
 20
-0.7854434245760883
 30
0.0
  0
SPLINE
  5
BD
330
1F
100
AcDbEntity
  8
0
  6
Continuous
 62
     4
370
    25
100
AcDbSpline
210
0.0
220
0.0
230
1.0
 70
     8
 71
     3
 72
     8
 73
     4
 74
     0
 42
0.000000001
 43
0.00000001
 40
0.0
 40
0.0
 40
0.0
 40
0.0
 40
1.0
 40
1.0
 40
1.0
 40
1.0
 10
10.12745151691945
 20
0.6910542903711259
 30
0.0
 10
10.2167038041211
 20
0.7015035396139565
 30
0.0
 10
10.30655163668708
 20
0.7050813440889485
 30
0.0
 10
10.39711431702995
 20
0.7019396914724747
 30
0.0
  0
LINE
  5
BE
330
1F
100
AcDbEntity
  8
0
  6
Continuous
 62
     4
370
    25
100
AcDbLine
 10
9.897319641779305
 20
0.8839195796147872
 30
0.0
 11
9.897319641779305
 21
0.8464875796875092
 31
0.0
  0
SPLINE
  5
BF
330
1F
100
AcDbEntity
  8
0
  6
Continuous
 62
     4
370
    25
100
AcDbSpline
210
0.0
220
0.0
230
1.0
 70
     8
 71
     3
 72
    14
 73
    10
 74
     0
 42
0.000000001
 43
0.00000001
 40
0.0
 40
0.0
 40
0.0
 40
0.0
 40
0.0000508900092343
 40
0.0000508900092343
 40
0.0000508900092343
 40
0.0001019222726582
 40
0.0001019222726582
 40
0.0001019222726582
 40
0.0001483933247024
 40
0.0001483933247024
 40
0.0001483933247024
 40
0.0001483933247024
 10
9.963563871470477
 20
0.7854434245760943
 30
0.0
 10
9.94997573574192
 20
0.7927411916508584
 30
0.0
 10
9.937679918633663
 20
0.8006224676240032
 30
0.0
 10
9.92767830406219
 20
0.8082691288922493
 30
0.0
 10
9.91766063005847
 20
0.81592806828196
 30
0.0
 10
9.909669183939577
 20
0.8235626822586345
 30
0.0
 10
9.904506907005427
 20
0.8303049487754913
 30
0.0
 10
9.899797568997503
 20
0.8364556478511962
 30
0.0
 10
9.897319641779244
 20
0.8420247580257674
 30
0.0
 10
9.89731964177924
 20
0.8464875796875191
 30
0.0
  0
SPLINE
  5
C0
330
1F
100
AcDbEntity
  8
0
  6
Continuous
 62
     4
370
    25
100
AcDbSpline
210
0.0
220
0.0
230
1.0
 70
     8
 71
     3
 72
     8
 73
     4
 74
     0
 42
0.000000001
 43
0.00000001
 40
0.0
 40
0.0
 40
0.0
 40
0.0
 40
1.0
 40
1.0
 40
1.0
 40
1.0
 10
10.39711431702995
 20
0.5414499195841455
 30
0.0
 10
10.24665765973972
 20
0.6263748275117135
 30
0.0
 10
10.10342593066031
 20
0.7103278420595586
 30
0.0
 10
9.963563871470477
 20
0.785443424576089
 30
0.0
  0
LINE
  5
C1
330
1F
100
AcDbEntity
  8
0
  6
Continuous
 62
     4
370
    25
100
AcDbLine
 10
10.39711431702995
 20
0.5414499195841457
 30
0.0
 11
10.39711431702995
 21
0.2641603102957079
 31
0.0
  0
SPLINE
  5
C2
330
1F
100
AcDbEntity
  8
0
  6
Continuous
 62
     4
370
    25
100
AcDbSpline
210
0.0
220
0.0
230
1.0
 70
     8
 71
     3
 72
     8
 73
     4
 74
     0
 42
0.000000001
 43
0.00000001
 40
0.0
 40
0.0
 40
0.0
 40
0.0
 40
1.0
 40
1.0
 40
1.0
 40
1.0
 10
10.12745151691945
 20
0.4455881297652568
 30
0.0
 10
10.2167038041211
 20
0.3852514384494084
 30
0.0
 10
10.30655163668708
 20
0.3247083809368891
 30
0.0
 10
10.39711431702995
 20
0.2641603102957094
 30
0.0
  0
SPLINE
  5
C3
330
1F
100
AcDbEntity
  8
0
  6
Continuous
 62
     4
370
    25
100
AcDbSpline
210
0.0
220
0.0
230
1.0
 70
     8
 71
     3
 72
    26
 73
    22
 74
     0
 42
0.000000001
 43
0.00000001
 40
0.0
 40
0.0
 40
0.0
 40
0.0
 40
0.0000472035906174
 40
0.0000472035906174
 40
0.0000472035906174
 40
0.0000943058123788
 40
0.0000943058123788
 40
0.0000943058123788
 40
0.0001428968087948
 40
0.0001428968087948
 40
0.0001428968087948
 40
0.0001942377077858
 40
0.0001942377077858
 40
0.0001942377077858
 40
0.0002472413326838
 40
0.0002472413326838
 40
0.0002472413326838
 40
0.0003003295793819
 40
0.0003003295793819
 40
0.0003003295793819
 40
0.0003266497015426
 40
0.0003266497015426
 40
0.0003266497015426
 40
0.0003266497015426
 10
9.897319641779305
 20
0.3641704207197546
 30
0.0
 10
9.897319641779305
 20
0.3785075062426768
 30
0.0
 10
9.899875481308566
 20
0.3925775538951248
 30
0.0
 10
9.904726009776589
 20
0.4052248273862436
 30
0.0
 10
9.909570673480196
 20
0.4178568090838924
 30
0.0
 10
9.91681832762307
 20
0.4294177669876708
 30
0.0
 10
9.92583961991108
 20
0.4391438884846998
 30
0.0
 10
9.935147364355863
 20
0.4491788425071503
 30
0.0
 10
9.946577177977463
 20
0.4575319502218703
 30
0.0
 10
9.959264129639003
 20
0.4637487175548671
 30
0.0
 10
9.972657085655982
 20
0.4703114359824166
 30
0.0
 10
9.987807537140771
 20
0.4746710827738393
 30
0.0
 10
10.0035691834286
 20
0.4766105869168277
 30
0.0
 10
10.01982722850702
 20
0.4786111739881708
 30
0.0
 10
10.03718636241473
 20
0.4780891016551289
 30
0.0
 10
10.05423396910748
 20
0.4751031283546297
 30
0.0
 10
10.07130408756126
 20
0.4721132120069588
 30
0.0
 10
10.08853829817899
 20
0.4665636398674357
 30
0.0
 10
10.10444296328688
 20
0.4588437874336056
 30
0.0
 10
10.11241551278744
 20
0.454974048256561
 30
0.0
 10
10.12014397208781
 20
0.4505282057073649
 30
0.0
 10
10.12745151691947
 20
0.4455881297652374
 30
0.0
  0
LINE
  5
C4
330
1F
100
AcDbEntity
  8
0
  6
Continuous
 62
     4
370
    25
100
AcDbLine
 10
9.897319641779305
 20
0.3641704207197547
 30
0.0
 11
9.897319641779305
 21
-0.2545046181529308
 31
0.0
  0
SPLINE
  5
C5
330
1F
100
AcDbEntity
  8
0
  6
Continuous
 62
     4
370
    25
100
AcDbSpline
210
0.0
220
0.0
230
1.0
 70
     8
 71
     3
 72
    14
 73
    10
 74
     0
 42
0.000000001
 43
0.00000001
 40
0.0
 40
0.0
 40
0.0
 40
0.0
 40
0.0000508900092343
 40
0.0000508900092343
 40
0.0000508900092343
 40
0.0001019222726582
 40
0.0001019222726582
 40
0.0001019222726582
 40
0.0001483933247024
 40
0.0001483933247024
 40
0.0001483933247024
 40
0.0001483933247024
 10
9.963563871470477
 20
-0.3651413633868857
 30
0.0
 10
9.94997573574192
 20
-0.3580802058789404
 30
0.0
 10
9.937679918633663
 20
-0.3485637367964531
 30
0.0
 10
9.92767830406219
 20
-0.3371948731936269
 30
0.0
 10
9.91766063005847
 20
-0.3258077547886939
 30
0.0
 10
9.909669183939577
 20
-0.3122171211092185
 30
0.0
 10
9.904506907005427
 20
-0.297500723803532
 30
0.0
 10
9.899797568997503
 20
-0.2840755453298708
 30
0.0
 10
9.897319641779244
 20
-0.269348054529276
 30
0.0
 10
9.89731964177924
 20
-0.2545046181529568
 30
0.0
  0
SPLINE
  5
C6
330
1F
100
AcDbEntity
  8
0
  6
Continuous
 62
     4
370
    25
100
AcDbSpline
210
0.0
220
0.0
230
1.0
 70
     8
 71
     3
 72
     8
 73
     4
 74
     0
 42
0.000000001
 43
0.00000001
 40
0.0
 40
0.0
 40
0.0
 40
0.0
 40
1.0
 40
1.0
 40
1.0
 40
1.0
 10
10.39711431702995
 20
-0.5189720460509686
 30
0.0
 10
10.24665765973972
 20
-0.4886302775004473
 30
0.0
 10
10.10342593066031
 20
-0.4378215344606385
 30
0.0
 10
9.963563871470477
 20
-0.3651413633868822
 30
0.0
  0
LINE
  5
C7
330
1F
100
AcDbEntity
  8
0
  6
Continuous
 62
     4
370
    25
100
AcDbLine
 10
10.39711431702995
 20
-0.5189720460509686
 30
0.0
 11
10.39711431702995
 21
-0.701939691472471
 31
0.0
  0
LINE
  5
C8
330
1F
100
AcDbEntity
  8
0
  6
Continuous
 62
     4
370
    25
100
AcDbLine
 10
-36.60288568297005
 20
2.499999999999994
 30
0.0
 11
-36.60288568297005
 21
-2.500000000000001
 31
0.0
  0
SPLINE
  5
C9
330
1F
100
AcDbEntity
  8
0
  6
Continuous
 62
     4
370
    25
100
AcDbSpline
210
0.0
220
0.0
230
1.0
 70
     8
 71
     3
 72
    12
 73
     8
 74
     0
 42
0.000000001
 43
0.00000001
 40
0.0
 40
0.0
 40
0.0
 40
0.0
 40
0.5
 40
0.5
 40
0.75
 40
0.75
 40
1.0
 40
1.0
 40
1.0
 40
1.0
 10
11.39711431702995
 20
0.6875996565403892
 30
0.0
 10
11.22819580429169
 20
0.7262464053653401
 30
0.0
 10
11.06622115155944
 20
0.7472927224283001
 30
0.0
 10
10.81271803188734
 20
0.750988992987616
 30
0.0
 10
10.72790105889123
 20
0.7474967277200419
 30
0.0
 10
10.56230921104187
 20
0.7314438886541719
 30
0.0
 10
10.48114815449185
 20
0.7189537382478808
 30
0.0
 10
10.39711431702995
 20
0.7019396914724709
 30
0.0
  0
SPLINE
  5
CA
330
1F
100
AcDbEntity
  8
0
  6
Continuous
 62
     4
370
    25
100
AcDbSpline
210
0.0
220
0.0
230
1.0
 70
    24
 71
     3
 72
    16
 73
    12
 74
     0
 42
0.000000001
 43
0.00000001
 40
0.0
 40
0.0
 40
0.0
 40
0.0
 40
0.125
 40
0.125
 40
0.25
 40
0.25
 40
0.5
 40
0.5
 40
0.75
 40
0.75
 40
1.0
 40
1.0
 40
1.0
 40
1.0
 10
11.39711431702995
 20
0.687599656540395
 30
0.0
 10
11.39711431702995
 20
0.662152226057842
 30
0.0
 10
11.39711431702995
 20
0.6389758080562667
 30
0.0
 10
11.39711431702995
 20
0.5873422203211665
 30
0.0
 10
11.39711431702995
 20
0.5594650245958314
 30
0.0
 10
11.39711431702995
 20
0.4699343256441122
 30
0.0
 10
11.39711431702995
 20
0.4016944171887744
 30
0.0
 10
11.39711431702995
 20
0.2614514201711907
 30
0.0
 10
11.39711431702995
 20
0.1896434562028116
 30
0.0
 10
11.39711431702995
 20
0.0767097322267818
 30
0.0
 10
11.39711431702995
 20
0.0373518465405654
 30
0.0
 10
11.39711431702995
 20
0.0268828371654173
 30
0.0
  0
SPLINE
  5
CB
330
1F
100
AcDbEntity
  8
0
  6
Continuous
 62
     4
370
    25
100
AcDbSpline
210
0.0
220
0.0
230
1.0
 70
     8
 71
     3
 72
    12
 73
     8
 74
     0
 42
0.000000001
 43
0.00000001
 40
0.0
 40
0.0
 40
0.0
 40
0.0
 40
0.5
 40
0.5
 40
0.75
 40
0.75
 40
1.0
 40
1.0
 40
1.0
 40
1.0
 10
11.39711431702995
 20
0.0268828371654173
 30
0.0
 10
11.22819580429169
 20
0.1235953333295357
 30
0.0
 10
11.06622115155944
 20
0.2183073153514517
 30
0.0
 10
10.81271803188733
 20
0.3508041590435294
 30
0.0
 10
10.72790105889123
 20
0.3930876442591822
 30
0.0
 10
10.56230921104187
 20
0.4716416318422408
 30
0.0
 10
10.48114815449185
 20
0.5080239493588835
 30
0.0
 10
10.39711431702995
 20
0.5414499195841478
 30
0.0
  0
SPLINE
  5
CC
330
1F
100
AcDbEntity
  8
0
  6
Continuous
 62
     4
370
    25
100
AcDbSpline
210
0.0
220
0.0
230
1.0
 70
     8
 71
     3
 72
    12
 73
     8
 74
     0
 42
0.000000001
 43
0.00000001
 40
0.0
 40
0.0
 40
0.0
 40
0.0
 40
0.5
 40
0.5
 40
0.75
 40
0.75
 40
1.0
 40
1.0
 40
1.0
 40
1.0
 10
11.39711431702995
 20
-0.2995107883291359
 30
0.0
 10
11.22819580429169
 20
-0.2107878032016766
 30
0.0
 10
11.06622115155945
 20
-0.1158534173222622
 30
0.0
 10
10.81271803188734
 20
0.0292854782499936
 30
0.0
 10
10.72790105889123
 20
0.0778409269650847
 30
0.0
 10
10.56230921104187
 20
0.1726279398400397
 30
0.0
 10
10.48114815449185
 20
0.2189497533772251
 30
0.0
 10
10.39711431702995
 20
0.2641603102957109
 30
0.0
  0
SPLINE
  5
CD
330
1F
100
AcDbEntity
  8
0
  6
Continuous
 62
     4
370
    25
100
AcDbSpline
210
0.0
220
0.0
230
1.0
 70
    24
 71
     3
 72
    10
 73
     6
 74
     0
 42
0.000000001
 43
0.00000001
 40
0.0
 40
0.0
 40
0.0
 40
0.0
 40
0.5000000000000001
 40
0.5000000000000001
 40
1.0
 40
1.0
 40
1.0
 40
1.0
 10
11.39711431702995
 20
-0.2971023066744267
 30
0.0
 10
11.39711431702995
 20
-0.3179086748867308
 30
0.0
 10
11.39711431702995
 20
-0.3631374624730653
 30
0.0
 10
11.39711431702995
 20
-0.519672240803335
 30
0.0
 10
11.39711431702995
 20
-0.6319808808503992
 30
0.0
 10
11.39711431702995
 20
-0.7495180538625722
 30
0.0
  0
SPLINE
  5
CE
330
1F
100
AcDbEntity
  8
0
  6
Continuous
 62
     4
370
    25
100
AcDbSpline
210
0.0
220
0.0
230
1.0
 70
     8
 71
     3
 72
    12
 73
     8
 74
     0
 42
0.000000001
 43
0.00000001
 40
0.0
 40
0.0
 40
0.0
 40
0.0
 40
0.4999999999999998
 40
0.4999999999999998
 40
0.7499999999999999
 40
0.7499999999999999
 40
1.0
 40
1.0
 40
1.0
 40
1.0
 10
11.39711431702995
 20
-0.7495180538625723
 30
0.0
 10
11.22819580429169
 20
-0.7460492831333793
 30
0.0
 10
11.06622115155944
 20
-0.724023717404059
 30
0.0
 10
10.81271803188733
 20
-0.6646642376588754
 30
0.0
 10
10.72790105889123
 20
-0.6405409212483854
 30
0.0
 10
10.56230921104187
 20
-0.5851194228327685
 30
0.0
 10
10.48114815449185
 20
-0.5538457719639684
 30
0.0
 10
10.39711431702995
 20
-0.5189720460509663
 30
0.0
  0
LINE
  5
CF
330
1F
100
AcDbEntity
  8
0
  6
Continuous
 62
     4
370
    25
100
AcDbLine
 10
11.39711431702995
 20
0.0268828371654173
 30
0.0
 11
11.39711431702995
 21
-0.2995107883291371
 31
0.0
  0
LINE
  5
D0
330
1F
100
AcDbEntity
  8
0
  6
Continuous
 62
     4
370
    25
100
AcDbLine
 10
10.39711431702995
 20
-0.701939691472471
 30
0.0
 11
10.86451161673441
 21
-0.7466295994207444
 31
0.0
  0
LINE
  5
D1
330
1F
100
AcDbEntity
  8
0
  6
Continuous
 62
     4
370
    25
100
AcDbLine
 10
11.39711431702995
 20
-0.7495180538625723
 30
0.0
 11
11.39711431702995
 21
-0.7499999999999993
 31
0.0
  0
LINE
  5
D2
330
1F
100
AcDbEntity
  8
0
  6
Continuous
 62
     4
370
    25
100
AcDbLine
 10
11.39711431702995
 20
0.7500000000000004
 30
0.0
 11
11.39711431702995
 21
0.6875996565403935
 31
0.0
  0
SPLINE
  5
D3
330
1F
100
AcDbEntity
  8
0
  6
Continuous
 62
     1
370
    25
100
AcDbSpline
210
0.0
220
0.0
230
1.0
 70
     8
 71
     3
 72
    11
 73
     7
 74
     0
 42
0.000000001
 43
0.00000001
 40
0.0
 40
0.0
 40
0.0
 40
0.0
 40
0.1246293514163691
 40
0.4977605155902914
 40
0.8708671227919069
 40
0.9999999999999999
 40
0.9999999999999999
 40
0.9999999999999999
 40
0.9999999999999999
 10
11.39711431703959
 20
-0.2995107883342008
 30
0.0
 10
11.4597360782654
 20
-0.3318537967982014
 30
0.0
 10
11.70984281316122
 20
-0.4610294074053478
 30
0.0
 10
12.14740575982616
 20
-0.6395927907679941
 30
0.0
 10
12.58723168175347
 20
-0.7551206390951442
 30
0.0
 10
12.83957542904804
 20
-0.7384525072375991
 30
0.0
 10
12.90445657667808
 20
-0.7341668947135692
 30
0.0
  0
SPLINE
  5
D4
330
1F
100
AcDbEntity
  8
0
  6
Continuous
 62
     1
370
    25
100
AcDbSpline
210
0.0
220
0.0
230
1.0
 70
     8
 71
     3
 72
    18
 73
    14
 74
     0
 42
0.000000001
 43
0.00000001
 40
0.0
 40
0.0
 40
0.0
 40
0.0
 40
0.0808588765766447
 40
0.1977544139831371
 40
0.3146543152443455
 40
0.4315599155185892
 40
0.5167784559901264
 40
0.6021014309474226
 40
0.6866606516122618
 40
0.7257119313750532
 40
0.842628607220468
 40
0.9595375884001817
 40
1.0
 40
1.0
 40
1.0
 40
1.0
 10
16.25701524296652
 20
0.6221657542690511
 30
0.0
 10
16.38666917850342
 20
0.6616404676240053
 30
0.0
 10
16.70376037650447
 20
0.7581827291190907
 30
0.0
 10
17.20831174737415
 20
0.7595799303678991
 30
0.0
 10
17.77061092175364
 20
0.6372707203085333
 30
0.0
 10
18.28231899851087
 20
0.4147525907666685
 30
0.0
 10
18.74282121009358
 20
0.1646196348953556
 30
0.0
 10
19.15213709719367
 20
-0.0728775518674329
 30
0.0
 10
19.48613494905864
 20
-0.2635244302939167
 30
0.0
 10
19.87200274577677
 20
-0.4599697619976315
 30
0.0
 10
20.3094787587706
 20
-0.640000156675663
 30
0.0
 10
20.7493305712728
 20
-0.7550910998791267
 30
0.0
 10
21.00167292611996
 20
-0.7384464656618397
 30
0.0
 10
21.06655371573206
 20
-0.7341668947135686
 30
0.0
  0
SPLINE
  5
D5
330
1F
100
AcDbEntity
  8
0
  6
Continuous
 62
     1
370
    25
100
AcDbSpline
210
0.0
220
0.0
230
1.0
 70
     8
 71
     3
 72
    17
 73
    13
 74
     0
 42
0.000000001
 43
0.00000001
 40
0.0
 40
0.0
 40
0.0
 40
0.0
 40
0.0406273314070043
 40
0.1397029106961081
 40
0.256553133949299
 40
0.373389857564387
 40
0.4902143516129333
 40
0.6070279005344649
 40
0.7238318016788101
 40
0.8406273638160546
 40
0.9574159056177035
 40
1.0
 40
1.0
 40
1.0
 40
1.0
 10
22.38111869761528
 20
-0.6234275339540976
 30
0.0
 10
22.31593584858599
 20
-0.6459982711741512
 30
0.0
 10
22.09179526584303
 20
-0.7236109909122448
 30
0.0
 10
21.67980159956079
 20
-0.7661657546676999
 30
0.0
 10
21.14568104564681
 20
-0.7182769881186929
 30
0.0
 10
20.58300995638097
 20
-0.5287064482347428
 30
0.0
 10
20.02042942605247
 20
-0.2431088576162982
 30
0.0
 10
19.4579067681712
 20
0.0871861048988005
 30
0.0
 10
18.89544116977975
 20
0.4036484442828571
 30
0.0
 10
18.33302367409119
 20
0.6366686884030068
 30
0.0
 10
17.88974289822887
 20
0.754037647794094
 30
0.0
 10
17.63393513101854
 20
0.7380581171054955
 30
0.0
 10
17.56558373542491
 20
0.7337884139787766
 30
0.0
  0
SPLINE
  5
D6
330
1F
100
AcDbEntity
  8
0
  6
Continuous
 62
     1
370
    25
100
AcDbSpline
210
0.0
220
0.0
230
1.0
 70
     8
 71
     3
 72
    13
 73
     9
 74
     0
 42
0.000000001
 43
0.00000001
 40
0.0
 40
0.0
 40
0.0
 40
0.0
 40
0.0693208886874951
 40
0.2383698260825083
 40
0.4377469704510643
 40
0.6371010808944808
 40
0.8364343244881294
 40
1.0
 40
1.0
 40
1.0
 40
1.0
 10
14.21902155856129
 20
-0.6234275339540988
 30
0.0
 10
14.15383866253573
 20
-0.645998247641975
 30
0.0
 10
13.92969791818931
 20
-0.7236108864612996
 30
0.0
 10
13.51770701661182
 20
-0.7661670345714728
 30
0.0
 10
12.98357274030073
 20
-0.7182713968854177
 30
0.0
 10
12.42095418643652
 20
-0.5287271627512239
 30
0.0
 10
11.89182107693896
 20
-0.2601106436632866
 30
0.0
 10
11.55081324796583
 20
-0.0622822900647541
 30
0.0
 10
11.39711431703953
 20
0.0268828371599334
 30
0.0
  0
SPLINE
  5
D7
330
1F
100
AcDbEntity
  8
0
  6
Continuous
 62
     1
370
    25
100
AcDbSpline
210
0.0
220
0.0
230
1.0
 70
     8
 71
     3
 72
    17
 73
    13
 74
     0
 42
0.000000001
 43
0.00000001
 40
0.0
 40
0.0
 40
0.0
 40
0.0
 40
0.0609984973114907
 40
0.1784975121292922
 40
0.2959868225564211
 40
0.4134677450428705
 40
0.5309416059981554
 40
0.6484097402383532
 40
0.7658734894117878
 40
0.8824100082547052
 40
0.998944465146945
 40
1.0
 40
1.0
 40
1.0
 40
1.0
 10
20.31244491893859
 20
-0.6265680169012506
 30
0.0
 10
20.2151005773832
 20
-0.6583504471250385
 30
0.0
 10
19.93024564564987
 20
-0.7513541271238948
 30
0.0
 10
19.45790735549962
 20
-0.765057816214274
 30
0.0
 10
18.89544102514996
 20
-0.662120362953616
 30
0.0
 10
18.33302366534902
 20
-0.4311522515080943
 30
0.0
 10
17.77064579762244
 20
-0.1218707381302999
 30
0.0
 10
17.20830423856611
 20
0.2091507864471851
 30
0.0
 10
16.64745001276537
 20
0.5050437542312843
 30
0.0
 10
16.08813523561696
 20
0.6915169552314467
 30
0.0
 10
15.71455224909835
 20
0.7722550754758756
 30
0.0
 10
15.52692374135382
 20
0.7495923832767641
 30
0.0
 10
15.52523951273528
 20
0.7493889538766496
 30
0.0
  0
SPLINE
  5
D8
330
1F
100
AcDbEntity
  8
0
  6
Continuous
 62
     1
370
    25
100
AcDbSpline
210
0.0
220
0.0
230
1.0
 70
     8
 71
     3
 72
     9
 73
     5
 74
     0
 42
0.000000001
 43
0.00000001
 40
0.0
 40
0.0
 40
0.0
 40
0.0
 40
0.3874815114467777
 40
0.9999999999999999
 40
0.9999999999999999
 40
0.9999999999999999
 40
0.9999999999999999
 10
12.15034777988462
 20
-0.6265680169012513
 30
0.0
 10
12.0529859846045
 20
-0.6590382794699619
 30
0.0
 10
11.80171775011096
 20
-0.7428365036677386
 30
0.0
 10
11.5508037693141
 20
-0.7469800531789297
 30
0.0
 10
11.39711431703953
 20
-0.7495180538627698
 30
0.0
  0
SPLINE
  5
D9
330
1F
100
AcDbEntity
  8
0
  6
Continuous
 62
     4
370
    25
100
AcDbSpline
210
0.0
220
0.0
230
1.0
 70
    24
 71
     3
 72
    14
 73
    10
 74
     0
 42
0.000000001
 43
0.00000001
 40
0.0
 40
0.0
 40
0.0
 40
0.0
 40
0.0770783164994646
 40
0.2278379587448321
 40
0.3743487773262113
 40
0.5251084195713653
 40
0.6716192381523072
 40
0.8223788803974318
 40
1.0
 40
1.0
 40
1.0
 40
1.0
 10
11.39711431702995
 20
-0.3105950758249826
 30
0.0
 10
11.39711431702995
 20
-0.3152380894823567
 30
0.0
 10
11.39711431702995
 20
-0.3289625038463863
 30
0.0
 10
11.39711431702995
 20
-0.3665796485266206
 30
0.0
 10
11.39711431702995
 20
-0.4214747990848911
 30
0.0
 10
11.39711431702995
 20
-0.4874166401848194
 30
0.0
 10
11.39711431702995
 20
-0.562889011833729
 30
0.0
 10
11.39711431702995
 20
-0.650167064354529
 30
0.0
 10
11.39711431702995
 20
-0.714643017548854
 30
0.0
 10
11.39711431702995
 20
-0.7495180538615185
 30
0.0
  0
SPLINE
  5
DA
330
1F
100
AcDbEntity
  8
0
  6
Continuous
 62
     1
370
    25
100
AcDbSpline
210
0.0
220
0.0
230
1.0
 70
     8
 71
     3
 72
    14
 73
    10
 74
     0
 42
0.000000001
 43
0.00000001
 40
0.0
 40
0.0
 40
0.0
 40
0.0
 40
0.1343985430151386
 40
0.2691349616078764
 40
0.4042374024565866
 40
0.5635778826081772
 40
0.7228999542470815
 40
0.882205349281093
 40
0.9999999999999999
 40
0.9999999999999999
 40
0.9999999999999999
 40
0.9999999999999999
 10
23.13536903202933
 20
-0.6832760216477061
 30
0.0
 10
22.97731973665725
 20
-0.636699882433097
 30
0.0
 10
22.66082381275929
 20
-0.543430512407598
 30
0.0
 10
22.18518069642715
 20
-0.3072377137330301
 30
0.0
 10
21.67981592804315
 20
-0.02132242875575
 30
0.0
 10
21.14567689472049
 20
0.2916070450772341
 30
0.0
 10
20.58301124621945
 20
0.5617667081466351
 30
0.0
 10
20.06927537090056
 20
0.7297014983433457
 30
0.0
 10
19.74309171732003
 20
0.7345010912692826
 30
0.0
 10
19.60443172742601
 20
0.7365413881980237
 30
0.0
  0
SPLINE
  5
DB
330
1F
100
AcDbEntity
  8
0
  6
Continuous
 62
     1
370
    25
100
AcDbSpline
210
0.0
220
0.0
230
1.0
 70
     8
 71
     3
 72
    17
 73
    13
 74
     0
 42
0.000000001
 43
0.00000001
 40
0.0
 40
0.0
 40
0.0
 40
0.0
 40
0.0350807220896054
 40
0.1509543885185406
 40
0.2666592685877134
 40
0.3652348585310398
 40
0.4640582657768612
 40
0.5631501347113693
 40
0.6800195700520983
 40
0.7968755035351633
 40
0.9137192054409459
 40
1.0
 40
1.0
 40
1.0
 40
1.0
 10
16.25701524296653
 20
-0.6221657542690496
 30
0.0
 10
16.20071950915747
 20
-0.6428851007340659
 30
0.0
 10
15.95847569069662
 20
-0.7320416542434663
 30
0.0
 10
15.53060356327878
 20
-0.7682195472392291
 30
0.0
 10
15.00061896832104
 20
-0.7090993101947681
 30
0.0
 10
14.49875606634682
 20
-0.5389907057926507
 30
0.0
 10
14.0230750926061
 20
-0.3084401132582532
 30
0.0
 10
13.51772391161532
 20
-0.0208772838915242
 30
0.0
 10
12.98356736383304
 20
0.2912167795261962
 30
0.0
 10
12.42095760933326
 20
0.5628378723252422
 30
0.0
 10
11.90722156848276
 20
0.72617923320267
 30
0.0
 10
11.58159449476362
 20
0.7399255840684498
 30
0.0
 10
11.44327852037651
 20
0.7457645946044951
 30
0.0
  0
SPLINE
  5
DC
330
1F
100
AcDbEntity
  8
0
  6
Continuous
 62
     1
370
    25
100
AcDbSpline
210
0.0
220
0.0
230
1.0
 70
     8
 71
     3
 72
    16
 73
    12
 74
     0
 42
0.000000001
 43
0.00000001
 40
0.0
 40
0.0
 40
0.0
 40
0.0
 40
0.1157078758089043
 40
0.2320153179816533
 40
0.3483177473957648
 40
0.4646164951800879
 40
0.5809128968663076
 40
0.6972082907946678
 40
0.8135040165125067
 40
0.9298014131696983
 40
0.9999999999999999
 40
0.9999999999999999
 40
0.9999999999999999
 40
0.9999999999999999
 10
12.15034777988463
 20
0.626568016901252
 30
0.0
 10
12.33683658681864
 20
0.6744394949239206
 30
0.0
 10
12.71078053435314
 20
0.770430507791745
 30
0.0
 10
13.27216344645017
 20
0.7416462484076806
 30
0.0
 10
13.83449435468233
 20
0.5843733388279547
 30
0.0
 10
14.396803759632
 20
0.3168747661826909
 30
0.0
 10
14.95909960482065
 20
-0.0080765497325802
 30
0.0
 10
15.52138955094385
 20
-0.333284549063615
 30
0.0
 10
16.08368158357439
 20
-0.5910156423793181
 30
0.0
 10
16.57168181160894
 20
-0.739212547475597
 30
0.0
 10
16.87225393721981
 20
-0.734882077599242
 30
0.0
 10
16.98539170063913
 20
-0.7332520539389645
 30
0.0
  0
SPLINE
  5
DD
330
1F
100
AcDbEntity
  8
0
  6
Continuous
 62
     1
370
    25
100
AcDbSpline
210
0.0
220
0.0
230
1.0
 70
     8
 71
     3
 72
    13
 73
     9
 74
     0
 42
0.000000001
 43
0.00000001
 40
0.0
 40
0.0
 40
0.0
 40
0.0
 40
0.1813415712563334
 40
0.3636228046206424
 40
0.5458961818081676
 40
0.7281637890122244
 40
0.9104277193264113
 40
1.0
 40
1.0
 40
1.0
 40
1.0
 10
20.31244491893861
 20
0.6265680169012524
 30
0.0
 10
20.49893422264294
 20
0.6744373683011909
 30
0.0
 10
20.87287916629221
 20
0.7704241169039814
 30
0.0
 10
21.43425457795395
 20
0.7416719661132851
 30
0.0
 10
21.99661401678346
 20
0.584276919975573
 30
0.0
 10
22.55881681723805
 20
0.3172347102284728
 30
0.0
 10
23.0261252002752
 20
0.0459531566032233
 30
0.0
 10
23.30516755302326
 20
-0.113549849740631
 30
0.0
 10
23.39711431702996
 20
-0.1661074100472503
 30
0.0
  0
LINE
  5
DE
330
1F
100
AcDbEntity
  8
0
  6
Continuous
 62
     1
370
    25
100
AcDbLine
 10
23.39711431702996
 20
-0.4999999999999991
 30
0.0
 11
23.39711431702996
 21
-0.1667178101613309
 31
0.0
  0
SPLINE
  5
DF
330
1F
100
AcDbEntity
  8
0
  6
Continuous
 62
     1
370
    25
100
AcDbSpline
210
0.0
220
0.0
230
1.0
 70
    24
 71
     3
 72
     8
 73
     4
 74
     0
 42
0.000000001
 43
0.00000001
 40
0.0
 40
0.0
 40
0.0
 40
0.0
 40
1.0
 40
1.0
 40
1.0
 40
1.0
 10
23.39711431702996
 20
-0.4999999999999989
 30
0.0
 10
23.30325346593158
 20
-0.5657220754818634
 30
0.0
 10
23.21398742250283
 20
-0.6282268319968252
 30
0.0
 10
23.13536903202995
 20
-0.6832760216478505
 30
0.0
  0
SPLINE
  5
E0
330
1F
100
AcDbEntity
  8
0
  6
Continuous
 62
     1
370
    25
100
AcDbSpline
210
0.0
220
0.0
230
1.0
 70
     8
 71
     3
 72
    11
 73
     7
 74
     0
 42
0.000000001
 43
0.00000001
 40
0.0
 40
0.0
 40
0.0
 40
0.0
 40
0.3186913106367824
 40
0.6381838056334624
 40
0.958544227542605
 40
1.0
 40
1.0
 40
1.0
 40
1.0
 10
23.1353690320292
 20
0.3092472768535389
 30
0.0
 10
22.97731923606175
 20
0.3890970961338155
 30
0.0
 10
22.66082230971455
 20
0.5489974757381714
 30
0.0
 10
22.18518673307043
 20
0.6943487327714495
 30
0.0
 10
21.84684108295021
 20
0.7648551509696045
 30
0.0
 10
21.66721861835155
 20
0.7454298918086716
 30
0.0
 10
21.64663803589953
 20
0.7432042061256096
 30
0.0
  0
SPLINE
  5
E1
330
1F
100
AcDbEntity
  8
0
  6
Continuous
 62
     1
370
    25
100
AcDbSpline
210
0.0
220
0.0
230
1.0
 70
     8
 71
     3
 72
    17
 73
    13
 74
     0
 42
0.000000001
 43
0.00000001
 40
0.0
 40
0.0
 40
0.0
 40
0.0
 40
0.1088151296723396
 40
0.2257243780217706
 40
0.3426292621675597
 40
0.458611327527747
 40
0.5745913407475358
 40
0.6904024126984427
 40
0.7890684735655613
 40
0.887982579177488
 40
0.9871653928674673
 40
1.0
 40
1.0
 40
1.0
 40
1.0
 10
18.2940522305915
 20
-0.6308275360311668
 30
0.0
 10
18.11958040744911
 20
-0.6760625754098222
 30
0.0
 10
17.75765882650971
 20
-0.7698974231858916
 30
0.0
 10
17.20830351357527
 20
-0.7430835293817518
 30
0.0
 10
16.64745301425632
 20
-0.5888500282557981
 30
0.0
 10
16.08812405188264
 20
-0.324833558485994
 30
0.0
 10
15.53060139413379
 20
-0.0030487792067319
 30
0.0
 10
15.0006199510441
 20
0.3023145454740095
 30
0.0
 10
14.49875429373076
 20
0.5472537057283046
 30
0.0
 10
14.02308137429136
 20
0.6948408962008886
 30
0.0
 10
13.68474414174275
 20
0.7648433047309781
 30
0.0
 10
13.50512149963591
 20
0.7454286740325465
 30
0.0
 10
13.48454089684555
 20
0.743204206125609
 30
0.0
  0
SPLINE
  5
E2
330
1F
100
AcDbEntity
  8
0
  6
Continuous
 62
     1
370
    25
100
AcDbSpline
210
0.0
220
0.0
230
1.0
 70
     8
 71
     3
 72
    17
 73
    13
 74
     0
 42
0.000000001
 43
0.00000001
 40
0.0
 40
0.0
 40
0.0
 40
0.0
 40
0.0369769869748891
 40
0.1539269326827066
 40
0.2708758649694273
 40
0.3878251309101644
 40
0.5047760771803335
 40
0.621730048443103
 40
0.7386883857419965
 40
0.8556524249027535
 40
0.9409135645021663
 40
0.9999999999999999
 40
0.9999999999999999
 40
0.9999999999999999
 40
0.9999999999999999
 10
14.2190215585613
 20
0.6234275339541006
 30
0.0
 10
14.27828345700949
 20
0.6450323580647241
 30
0.0
 10
14.52497749563626
 20
0.7349684123126282
 30
0.0
 10
14.95909951074609
 20
0.7686234917948186
 30
0.0
 10
15.52138946434308
 20
0.700210285127154
 30
0.0
 10
16.08368202405629
 20
0.4945826794362246
 30
0.0
 10
16.64598104003205
 20
0.1997331361646361
 30
0.0
 10
17.20830977271247
 20
-0.1322562955657165
 30
0.0
 10
17.77061785601092
 20
-0.4408152553813867
 30
0.0
 10
18.28229618918267
 20
-0.6436850731271015
 30
0.0
 10
18.70079424687734
 20
-0.7410081958847589
 30
0.0
 10
18.9321026896217
 20
-0.7417760717176688
 30
0.0
 10
19.02678520419191
 20
-0.7420903897506599
 30
0.0
  0
SPLINE
  5
E3
330
1F
100
AcDbEntity
  8
0
  6
Continuous
 62
     1
370
    25
100
AcDbSpline
210
0.0
220
0.0
230
1.0
 70
     8
 71
     3
 72
    10
 73
     6
 74
     0
 42
0.000000001
 43
0.00000001
 40
0.0
 40
0.0
 40
0.0
 40
0.0
 40
0.1749138555629191
 40
0.7281272887049957
 40
0.9999999999999999
 40
0.9999999999999999
 40
0.9999999999999999
 40
0.9999999999999999
 10
22.38111869761528
 20
0.6234275339541001
 30
0.0
 10
22.44037645377477
 20
0.6449980662475389
 30
0.0
 10
22.68705324897942
 20
0.7347913713244791
 30
0.0
 10
23.0261295306623
 20
0.7633092730084118
 30
0.0
 10
23.30516862627598
 20
0.7392891146775248
 30
0.0
 10
23.39711431702996
 20
0.7313742737664478
 30
0.0
  0
LINE
  5
E4
330
1F
100
AcDbEntity
  8
0
  6
Continuous
 62
     1
370
    25
100
AcDbLine
 10
23.39711431702996
 20
0.1997949506173309
 30
0.0
 11
23.39711431702996
 21
0.7313742737664478
 31
0.0
  0
SPLINE
  5
E5
330
1F
100
AcDbEntity
  8
0
  6
Continuous
 62
     1
370
    25
100
AcDbSpline
210
0.0
220
0.0
230
1.0
 70
     8
 71
     3
 72
     8
 73
     4
 74
     0
 42
0.000000001
 43
0.00000001
 40
0.0
 40
0.0
 40
0.0
 40
0.0
 40
1.0
 40
1.0
 40
1.0
 40
1.0
 10
23.39711431702996
 20
0.1997949506173559
 30
0.0
 10
23.30325346593158
 20
0.2054337308954001
 30
0.0
 10
23.21398742250283
 20
0.2469303809541976
 30
0.0
 10
23.13536903202995
 20
0.3092472768531465
 30
0.0
  0
SPLINE
  5
E6
330
1F
100
AcDbEntity
  8
0
  6
Continuous
 62
     4
370
    25
100
AcDbSpline
210
0.0
220
0.0
230
1.0
 70
    24
 71
     3
 72
    16
 73
    12
 74
     0
 42
0.000000001
 43
0.00000001
 40
0.0
 40
0.0
 40
0.0
 40
0.0
 40
0.125
 40
0.125
 40
0.25
 40
0.25
 40
0.5
 40
0.5
 40
0.75
 40
0.75
 40
1.0
 40
1.0
 40
1.0
 40
1.0
 10
11.39711431702995
 20
0.6875996565403947
 30
0.0
 10
11.39711431702995
 20
0.6621522260578646
 30
0.0
 10
11.39711431702995
 20
0.6389758080563093
 30
0.0
 10
11.39711431702995
 20
0.5873422203212632
 30
0.0
 10
11.39711431702995
 20
0.559465024595959
 30
0.0
 10
11.39711431702995
 20
0.4699343256443421
 30
0.0
 10
11.39711431702995
 20
0.4016944171890879
 30
0.0
 10
11.39711431702995
 20
0.2614514201716386
 30
0.0
 10
11.39711431702995
 20
0.1896434562033063
 30
0.0
 10
11.39711431702995
 20
0.0767097322272071
 30
0.0
 10
11.39711431702995
 20
0.0373518465408657
 30
0.0
 10
11.39711431702995
 20
0.0268828371655301
 30
0.0
  0
SPLINE
  5
E7
330
1F
100
AcDbEntity
  8
0
  6
Continuous
 62
     1
370
    25
100
AcDbSpline
210
0.0
220
0.0
230
1.0
 70
     8
 71
     3
 72
    14
 73
    10
 74
     0
 42
0.000000001
 43
0.00000001
 40
0.0
 40
0.0
 40
0.0
 40
0.0
 40
0.0529450167822084
 40
0.2114585252345884
 40
0.3699616013987785
 40
0.5284560407797434
 40
0.6869436491759049
 40
0.8454262405427309
 40
1.0
 40
1.0
 40
1.0
 40
1.0
 10
11.39711431703959
 20
0.6875996565381838
 30
0.0
 10
11.45973607440736
 20
0.6718260655503138
 30
0.0
 10
11.70984279389442
 20
0.6088274966449695
 30
0.0
 10
12.14740603661392
 20
0.4253238034780119
 30
0.0
 10
12.70980393244401
 20
0.1162709155087222
 30
0.0
 10
13.27216346793569
 20
-0.2163640734760156
 30
0.0
 10
13.8344943361351
 20
-0.5058700511021741
 30
0.0
 10
14.39218465710518
 20
-0.7109273743282356
 30
0.0
 10
14.76243161994467
 20
-0.7359696317142358
 30
0.0
 10
14.94524364347679
 20
-0.7483344211818853
 30
0.0
  0
SPLINE
  5
E8
330
1F
100
AcDbEntity
  8
0
  6
Continuous
 62
     1
370
    25
100
AcDbSpline
210
0.0
220
0.0
230
1.0
 70
     8
 71
     3
 72
    18
 73
    14
 74
     0
 42
0.000000001
 43
0.00000001
 40
0.0
 40
0.0
 40
0.0
 40
0.0
 40
0.00809284447698
 40
0.0932448227160248
 40
0.1785011538694655
 40
0.2629943272812759
 40
0.3020151049919515
 40
0.4188404599239032
 40
0.5356581262002793
 40
0.6524694271184245
 40
0.7692756935620192
 40
0.8860782624265338
 40
0.9999999999999999
 40
0.9999999999999999
 40
0.9999999999999999
 40
0.9999999999999999
 10
18.2940522305915
 20
0.6308275360311685
 30
0.0
 10
18.30703971608829
 20
0.6359880104309374
 30
0.0
 10
18.45668002934532
 20
0.6954464025828895
 30
0.0
 10
18.74280004588207
 20
0.7391422130410782
 30
0.0
 10
19.15214283225431
 20
0.76051353107391
 30
0.0
 10
19.48613436100806
 20
0.7091810373390854
 30
0.0
 10
19.87200305040014
 20
0.6068392796110772
 30
0.0
 10
20.30947963965085
 20
0.4260651944678612
 30
0.0
 10
20.87190737727772
 20
0.1160722817185244
 30
0.0
 10
21.43425891795919
 20
-0.2163108685528015
 30
0.0
 10
21.99659192594831
 20
-0.5058842501415207
 30
0.0
 10
22.55428168670765
 20
-0.7109239265753997
 30
0.0
 10
22.92452872281977
 20
-0.7359684920696615
 30
0.0
 10
23.10734078253077
 20
-0.7483344211818841
 30
0.0
  0
LINE
  5
E9
330
1F
100
AcDbEntity
  8
0
  6
Continuous
 62
     1
370
    25
100
AcDbLine
 10
23.39711431702996
 20
0.7313742737664478
 30
0.0
 11
23.39711431702996
 21
0.7500000000000027
 31
0.0
  0
LINE
  5
EA
330
1F
100
AcDbEntity
  8
0
  6
Continuous
 62
     1
370
    25
100
AcDbLine
 10
23.13536903202995
 20
-0.6832760216478514
 30
0.0
 11
23.11737298322209
 21
-0.6958769906811089
 31
0.0
  0
ELLIPSE
  5
EB
330
1F
100
AcDbEntity
  8
0
  6
Continuous
 62
     1
370
    25
100
AcDbEllipse
 10
23.15288662405185
 20
0.0000000000000012
 30
0.0
 11
1.041992479244978
 21
-0.4127557545313215
 31
0.0
210
0.0
220
0.0
230
1.0
 40
0.600968817488725
 41
4.912933762914537
 42
5.1761326093282
  0
LINE
  5
EC
330
1F
100
AcDbEntity
  8
0
  6
Continuous
 62
     1
370
    25
100
AcDbLine
 10
23.39711431702996
 20
-0.7500000000000019
 30
0.0
 11
23.39711431702996
 21
-0.7446933086021948
 31
0.0
  0
ELLIPSE
  5
ED
330
1F
100
AcDbEntity
  8
0
  6
Continuous
 62
     1
370
    25
100
AcDbEllipse
 10
24.11118832040101
 20
0.0000000000000004
 30
0.0
 11
1.071111005056586
 21
0.0
 31
0.0
210
0.0
220
0.0
230
1.0
 40
0.7002075382097104
 41
2.716582861747929
 42
2.759364833374625
  0
ELLIPSE
  5
EE
330
1F
100
AcDbEntity
  8
0
  6
Continuous
 62
     1
370
    25
100
AcDbEllipse
 10
23.15288662405185
 20
0.0000000000000004
 30
0.0
 11
1.064326924485592
 21
-0.7291305528055555
 31
0.0
210
0.0
220
0.0
230
1.0
 40
0.1650759015746638
 41
1.453368357947247
 42
1.716567204360902
  0
LINE
  5
EF
330
1F
100
AcDbEntity
  8
0
  6
Continuous
 62
     1
370
    25
100
AcDbLine
 10
23.39711431702996
 20
-0.1661074100472503
 30
0.0
 11
23.39711431702996
 21
0.0890610808553129
 31
0.0
  0
LINE
  5
F0
330
1F
100
AcDbEntity
  8
0
  6
Continuous
 62
     1
370
    25
100
AcDbLine
 10
23.39711431702996
 20
0.0890610808553123
 30
0.0
 11
23.39711431702996
 21
0.1997949506173309
 31
0.0
  0
LINE
  5
F1
330
1F
100
AcDbEntity
  8
0
  6
Continuous
 62
     1
370
    25
100
AcDbLine
 10
23.39711431702996
 20
-0.4999999999999988
 30
0.0
 11
23.39711431702996
 21
-0.7446933086021948
 31
0.0
  0
LINE
  5
F2
330
1F
100
AcDbEntity
  8
중심선
100
AcDbLine
 10
-39.60288568297004
 20
-0.0000000000000043
 30
0.0
 11
24.89711431702997
 21
0.0000000000000036
 31
0.0
  0
CIRCLE
  5
F3
330
1F
100
AcDbEntity
  8
해칭선
100
AcDbCircle
 10
0.0003790079327794
 20
-0.0000000000000042
 30
0.0
 40
3.000000000000003
  0
INSERT
  5
F4
330
1F
100
AcDbEntity
  8
0
  6
Continuous
 62
     7
100
AcDbBlockReference
 66
     1
  2
블럭10
 10
-20.44009924894178
 20
-52.04717430164393
 30
0.0
  0
ATTRIB
  5
F5
330
F4
100
AcDbEntity
  8
FORMAT
 62
     2
100
AcDbText
 10
-36.55936028837733
 20
-49.97180738881174
 30
0.0
 40
4.233333333333333
  1
SEME7201512E [ 4 FLUTE ]
 41
0.75
  7
SLDTEXTSTYLE0
 11
-36.55936028837733
 21
-52.08847405547841
 31
0.0
100
AcDbAttribute
  2
AUTOATTR0
 70
     0
 74
     1
  0
SEQEND
  5
F6
330
F4
100
AcDbEntity
  8
0
  6
Continuous
 62
     7
  0
HATCH
  5
F7
330
1F
100
AcDbEntity
  8
중심선
100
AcDbHatch
 10
0.0
 20
0.0
 30
0.0
210
0.0
220
0.0
230
1.0
  2
SOLID
 70
     1
 71
     0
 91
        1
 92
        0
 93
        4
 72
     1
 10
-14.72518994456093
 20
-35.8
 11
-18.17146518839821
 21
-35.8
 72
     1
 10
-18.17146518839821
 20
-35.8
 11
-20.29969504760223
 21
-38.33632558057259
 72
     1
 10
-20.29969504760223
 20
-38.33632558057259
 11
-16.8533867186518
 21
-38.3362861512701
 72
     1
 10
-16.8533867186518
 20
-38.3362861512701
 11
-14.72518994456093
 21
-35.8
 97
        0
 75
     0
 76
     1
 98
        1
 10
0.0
 20
0.0
  0
HATCH
  5
F8
330
1F
100
AcDbEntity
  8
중심선
100
AcDbHatch
 10
0.0
 20
0.0
 30
0.0
210
0.0
220
0.0
230
1.0
  2
SOLID
 70
     1
 71
     0
 91
        1
 92
        0
 93
        4
 72
     1
 10
-9.71242595352495
 20
-35.8
 11
-13.15870119736223
 21
-35.8
 72
     1
 10
-13.15870119736223
 20
-35.8
 11
-17.68983920571965
 21
-41.20000000000002
 72
     1
 10
-17.68983920571965
 20
-41.20000000000002
 11
-14.24356396188237
 21
-41.20000000000002
 72
     1
 10
-14.24356396188237
 20
-41.20000000000002
 11
-9.71242595352495
 21
-35.8
 97
        0
 75
     0
 76
     1
 98
        1
 10
0.0
 20
0.0
  0
HATCH
  5
F9
330
1F
100
AcDbEntity
  8
중심선
100
AcDbHatch
 10
0.0
 20
0.0
 30
0.0
210
0.0
220
0.0
230
1.0
  2
SOLID
 70
     1
 71
     0
 91
        1
 92
        0
 93
        4
 72
     1
 10
-4.699661962489027
 20
-35.79999999999997
 11
-8.145937206326199
 21
-35.8
 72
     1
 10
-8.145937206326199
 20
-35.8
 11
-15.19437410821545
 21
-44.20000000000002
 72
     1
 10
-15.19437410821545
 20
-44.20000000000002
 11
-11.74809886437816
 21
-44.20000000000002
 72
     1
 10
-11.74809886437816
 20
-44.20000000000002
 11
-4.699661962489027
 21
-35.79999999999997
 97
        0
 75
     0
 76
     1
 98
        1
 10
0.0
 20
0.0
  0
HATCH
  5
FA
330
1F
100
AcDbEntity
  8
중심선
100
AcDbHatch
 10
0.0
 20
0.0
 30
0.0
210
0.0
220
0.0
230
1.0
  2
SOLID
 70
     1
 71
     0
 91
        1
 92
        0
 93
        6
 72
     3
 10
0.100228468523117
 20
-40.00000000005127
 11
3.960054785062284
 21
1.540850780301639E-10
 40
0.3939339440162633
 50
17.09539180608433
 51
320.0019657685081
 73
     0
 72
     1
 10
1.783228124223685
 20
-38.58789400463833
 11
4.08852999792475
 21
-36.65356729459038
 72
     3
 10
0.1002284684702703
 20
-40.00000000000015
 11
6.600054785286829
 21
-1.249000902703301E-13
 40
0.6363583540795982
 50
39.99873849337408
 51
368.4976242363725
 73
     1
 72
     1
 10
6.52556096037088
 20
-39.03999999993002
 11
-1.219704224693807
 21
-39.03999999993002
 72
     1
 10
-1.219704224693807
 20
-39.03999999993002
 11
-1.219729269139741
 21
-40.95999999992991
 72
     1
 10
-1.219729269139741
 20
-40.95999999992991
 11
3.221650500332296
 21
-40.95999999992988
 97
        0
 75
     0
 76
     1
 98
        1
 10
0.0
 20
0.0
  0
DIMENSION
  5
FB
330
1F
100
AcDbEntity
  8
치수문자_일반주서
100
AcDbDimension
  2
_D
 10
36.28965409631626
 20
0.7500000000000533
 30
0.0
 11
36.28965409631621
 21
11.72900000000005
 31
0.0
 70
   160
  1
%%c<>
 71
     2
 42
1.500000000000012
 52
-270.0
  3
SLDDIMSTYLE0
100
AcDbAlignedDimension
 13
23.39711431702997
 23
-0.7500000000000063
 33
0.0
 14
23.39711431702997
 24
0.7500000000000054
 34
0.0
 50
90.0000000000002
100
AcDbRotatedDimension
  0
DIMENSION
  5
109
330
1F
100
AcDbEntity
  8
치수문자_일반주서
100
AcDbDimension
  2
_D_1
 10
23.39711431702997
 20
20.38913260158165
 30
0.0
 11
-6.602885682970049
 21
20.38913260158165
 31
0.0
 70
   160
  1
<>
 71
     2
 42
60.0
  3
SLDDIMSTYLE1
100
AcDbAlignedDimension
 13
-36.60288568297005
 23
2.499999999999994
 33
0.0
 14
23.39711431702996
 24
0.7500000000000016
 34
0.0
 50
-0.0000000000000068
100
AcDbRotatedDimension
  0
DIMENSION
  5
114
330
1F
100
AcDbEntity
  8
치수문자_일반주서
100
AcDbDimension
  2
_D_2
 10
-46.14466650173349
 20
-3.000000000000039
 30
0.0
 11
-46.14466650173355
 21
12.66649999999997
 31
0.0
 70
   160
  1
%%c<>
 71
     2
 42
6.000000000000005
 52
-270.0
  3
SLDDIMSTYLE2
100
AcDbAlignedDimension
 13
-36.10288568297003
 23
3.000000000000003
 33
0.0
 14
-36.10288568297003
 24
-3.000000000000002
 34
0.0
 50
90.0000000000002
100
AcDbRotatedDimension
  0
DIMENSION
  5
122
330
1F
100
AcDbEntity
  8
치수문자_일반주서
100
AcDbDimension
  2
_D_3
 10
23.39711431702996
 20
11.53351795912803
 30
0.0
 11
17.39711431702998
 21
11.53351795912803
 31
0.0
 70
   160
  1
<>
 71
     2
 42
12.0
  3
SLDDIMSTYLE2
100
AcDbAlignedDimension
 13
11.39711431702995
 23
0.7500996565403935
 33
0.0
 14
23.39711431702996
 24
0.7500000000000016
 34
0.0
 50
-0.0000000000001357
100
AcDbRotatedDimension
  0
INSERT
  5
134
330
1F
100
AcDbEntity
  8
해칭선
100
AcDbBlockReference
  2
SW_DOWELSYMBOL_0
 10
0.0003790079327794
 20
-0.0000000000000042
 30
0.0
  0
ENDSEC
  0
SECTION
  2
OBJECTS
  0
DICTIONARY
  5
C
330
0
100
AcDbDictionary
281
     1
  3
ACAD_GROUP
350
D
  3
ACAD_IMAGE_VARS
350
158
  3
ACAD_LAYOUT
350
1A
  3
ACAD_MLINESTYLE
350
17
  3
ACAD_PLOTSETTINGS
350
19
  3
ACAD_PLOTSTYLENAME
350
E
  3
ACAD_SCALELIST
350
47
  3
APPDATA
350
156
  3
DWGPROPS
350
166
  0
DICTIONARY
  5
D
102
{ACAD_REACTORS
330
C
102
}
330
C
100
AcDbDictionary
281
     1
  0
RASTERVARIABLES
  5
158
102
{ACAD_REACTORS
330
C
102
}
330
C
100
AcDbRasterVariables
 90
        0
 70
     1
 71
     1
 72
     1
  0
DICTIONARY
  5
1A
102
{ACAD_REACTORS
330
C
102
}
330
C
100
AcDbDictionary
281
     1
  3
Layout1
350
1E
  3
Layout2
350
26
  3
Model
350
22
  0
DICTIONARY
  5
17
102
{ACAD_REACTORS
330
C
102
}
330
C
100
AcDbDictionary
281
     1
  3
Standard
350
18
  0
DICTIONARY
  5
19
102
{ACAD_REACTORS
330
C
102
}
330
C
100
AcDbDictionary
281
     1
  0
ACDBDICTIONARYWDFLT
  5
E
102
{ACAD_REACTORS
330
C
102
}
330
C
100
AcDbDictionary
281
     1
  3
Normal
350
F
100
AcDbDictionaryWithDefault
340
F
  0
DICTIONARY
  5
47
102
{ACAD_REACTORS
330
C
102
}
330
C
100
AcDbDictionary
281
     1
  3
A0
350
48
  3
A1
350
49
  3
A2
350
4A
  3
A3
350
4B
  3
A4
350
4C
  3
A5
350
4D
  3
A6
350
4E
  3
A7
350
4F
  3
A8
350
50
  3
A9
350
51
  3
B0
350
52
  3
B1
350
53
  3
B2
350
54
  3
B3
350
55
  3
B4
350
56
  3
B5
350
57
  3
B6
350
58
  3
B7
350
59
  3
B8
350
5A
  3
B9
350
5B
  3
C0
350
5C
  3
C1
350
5D
  3
C2
350
5E
  3
C3
350
5F
  3
C4
350
60
  3
C5
350
61
  3
C6
350
62
  3
C7
350
63
  3
C8
350
64
  3
C9
350
65
  3
D0
350
66
  3
D1
350
67
  3
D2
350
68
  0
DICTIONARY
  5
156
102
{ACAD_REACTORS
330
C
102
}
330
C
100
AcDbDictionary
281
     1
  0
XRECORD
  5
166
102
{ACAD_REACTORS
330
C
102
}
330
C
100
AcDbXrecord
280
     1
  1
DWGPROPS COOKIE
  2

  3

  4

  6

  7

  8
12014102
  9

300
=
301
=
302
=
303
=
304
=
305
=
306
=
307
=
308
=
309
=
 40
0.0
 41
2458260.192194051
 42
2458268.095987026
  1

 90
        0
  0
LAYOUT
  5
1E
102
{ACAD_REACTORS
330
1A
102
}
330
1A
100
AcDbPlotSettings
  1

  2
none_device
  4

  6

 40
0.0
 41
0.0
 42
0.0
 43
0.0
 44
0.0
 45
0.0
 46
0.0
 47
0.0
 48
0.0
 49
0.0
140
0.0
141
0.0
142
1.0
143
1.0
 70
   688
 72
     1
 73
     0
 74
     5
  7

 75
    16
147
1.0
148
0.0
149
0.0
100
AcDbLayout
  1
Layout1
 70
     1
 71
     1
 10
0.0
 20
0.0
 11
420.0
 21
297.0
 12
0.0
 22
0.0
 32
0.0
 14
1.000000000000000E+20
 24
1.000000000000000E+20
 34
1.000000000000000E+20
 15
-1.000000000000000E+20
 25
-1.000000000000000E+20
 35
-1.000000000000000E+20
146
0.0
 13
0.0
 23
0.0
 33
0.0
 16
1.0
 26
0.0
 36
0.0
 17
0.0
 27
1.0
 37
0.0
 76
     0
330
1B
  0
LAYOUT
  5
26
102
{ACAD_REACTORS
330
1A
102
}
330
1A
100
AcDbPlotSettings
  1

  2
none_device
  4

  6

 40
0.0
 41
0.0
 42
0.0
 43
0.0
 44
0.0
 45
0.0
 46
0.0
 47
0.0
 48
0.0
 49
0.0
140
0.0
141
0.0
142
1.0
143
1.0
 70
   688
 72
     1
 73
     0
 74
     5
  7

 75
    16
147
1.0
148
0.0
149
0.0
100
AcDbLayout
  1
Layout2
 70
     1
 71
     2
 10
0.0
 20
0.0
 11
0.0
 21
0.0
 12
0.0
 22
0.0
 32
0.0
 14
0.0
 24
0.0
 34
0.0
 15
0.0
 25
0.0
 35
0.0
146
0.0
 13
0.0
 23
0.0
 33
0.0
 16
1.0
 26
0.0
 36
0.0
 17
0.0
 27
1.0
 37
0.0
 76
     0
330
23
  0
LAYOUT
  5
22
102
{ACAD_REACTORS
330
1A
102
}
330
1A
100
AcDbPlotSettings
  1

  2
none_device
  4
ANSI_A_(11.00_x_8.50_Inches)
  6

 40
6.35
 41
19.05
 42
6.35000508
 43
19.05000254
 44
279.4
 45
215.9
 46
153.4935365126497
 47
125.3847137330092
 48
0.0
 49
0.0
140
0.0
141
0.0
142
0.1112850254374008
143
1.0
 70
  1696
 72
     0
 73
     0
 74
     0
  7

 75
     0
147
0.0235690232323232
148
0.0
149
0.0
100
AcDbLayout
  1
Model
 70
     1
 71
     0
 10
0.0
 20
0.0
 11
420.0
 21
297.0
 12
0.0
 22
0.0
 32
0.0
 14
-50.51966650173355
 24
-49.97180738881174
 34
0.0
 15
36.83998742964961
 25
24.76413260158165
 35
0.0
146
0.0
 13
0.0
 23
0.0
 33
0.0
 16
1.0
 26
0.0
 36
0.0
 17
0.0
 27
1.0
 37
0.0
 76
     0
330
1F
331
29
  0
MLINESTYLE
  5
18
102
{ACAD_REACTORS
330
17
102
}
330
17
100
AcDbMlineStyle
  2
Standard
 70
     0
  3

 62
   256
 51
90.0
 52
90.0
 71
     2
 49
0.5
 62
   256
  6
BYLAYER
 49
-0.5
 62
   256
  6
BYLAYER
  0
ACDBPLACEHOLDER
  5
F
102
{ACAD_REACTORS
330
E
102
}
330
E
  0
SCALE
  5
48
102
{ACAD_REACTORS
330
47
102
}
330
47
100
AcDbScale
 70
     0
300
1:1
140
1.0
141
1.0
290
     1
  0
SCALE
  5
49
102
{ACAD_REACTORS
330
47
102
}
330
47
100
AcDbScale
 70
     0
300
1:2
140
1.0
141
2.0
290
     0
  0
SCALE
  5
4A
102
{ACAD_REACTORS
330
47
102
}
330
47
100
AcDbScale
 70
     0
300
1:4
140
1.0
141
4.0
290
     0
  0
SCALE
  5
4B
102
{ACAD_REACTORS
330
47
102
}
330
47
100
AcDbScale
 70
     0
300
1:5
140
1.0
141
5.0
290
     0
  0
SCALE
  5
4C
102
{ACAD_REACTORS
330
47
102
}
330
47
100
AcDbScale
 70
     0
300
1:8
140
1.0
141
8.0
290
     0
  0
SCALE
  5
4D
102
{ACAD_REACTORS
330
47
102
}
330
47
100
AcDbScale
 70
     0
300
1:10
140
1.0
141
10.0
290
     0
  0
SCALE
  5
4E
102
{ACAD_REACTORS
330
47
102
}
330
47
100
AcDbScale
 70
     0
300
1:16
140
1.0
141
16.0
290
     0
  0
SCALE
  5
4F
102
{ACAD_REACTORS
330
47
102
}
330
47
100
AcDbScale
 70
     0
300
1:20
140
1.0
141
20.0
290
     0
  0
SCALE
  5
50
102
{ACAD_REACTORS
330
47
102
}
330
47
100
AcDbScale
 70
     0
300
1:30
140
1.0
141
30.0
290
     0
  0
SCALE
  5
51
102
{ACAD_REACTORS
330
47
102
}
330
47
100
AcDbScale
 70
     0
300
1:40
140
1.0
141
40.0
290
     0
  0
SCALE
  5
52
102
{ACAD_REACTORS
330
47
102
}
330
47
100
AcDbScale
 70
     0
300
1:50
140
1.0
141
50.0
290
     0
  0
SCALE
  5
53
102
{ACAD_REACTORS
330
47
102
}
330
47
100
AcDbScale
 70
     0
300
1:100
140
1.0
141
100.0
290
     0
  0
SCALE
  5
54
102
{ACAD_REACTORS
330
47
102
}
330
47
100
AcDbScale
 70
     0
300
2:1
140
2.0
141
1.0
290
     0
  0
SCALE
  5
55
102
{ACAD_REACTORS
330
47
102
}
330
47
100
AcDbScale
 70
     0
300
4:1
140
4.0
141
1.0
290
     0
  0
SCALE
  5
56
102
{ACAD_REACTORS
330
47
102
}
330
47
100
AcDbScale
 70
     0
300
8:1
140
8.0
141
1.0
290
     0
  0
SCALE
  5
57
102
{ACAD_REACTORS
330
47
102
}
330
47
100
AcDbScale
 70
     0
300
10:1
140
10.0
141
1.0
290
     0
  0
SCALE
  5
58
102
{ACAD_REACTORS
330
47
102
}
330
47
100
AcDbScale
 70
     0
300
100:1
140
100.0
141
1.0
290
     0
  0
SCALE
  5
59
102
{ACAD_REACTORS
330
47
102
}
330
47
100
AcDbScale
 70
     0
300
1/128" = 1'-0"
140
0.0078125
141
12.0
290
     0
  0
SCALE
  5
5A
102
{ACAD_REACTORS
330
47
102
}
330
47
100
AcDbScale
 70
     0
300
1/64" = 1'-0"
140
0.015625
141
12.0
290
     0
  0
SCALE
  5
5B
102
{ACAD_REACTORS
330
47
102
}
330
47
100
AcDbScale
 70
     0
300
1/32" = 1'-0"
140
0.03125
141
12.0
290
     0
  0
SCALE
  5
5C
102
{ACAD_REACTORS
330
47
102
}
330
47
100
AcDbScale
 70
     0
300
1/16" = 1'-0"
140
0.0625
141
12.0
290
     0
  0
SCALE
  5
5D
102
{ACAD_REACTORS
330
47
102
}
330
47
100
AcDbScale
 70
     0
300
3/32" = 1'-0"
140
0.09375
141
12.0
290
     0
  0
SCALE
  5
5E
102
{ACAD_REACTORS
330
47
102
}
330
47
100
AcDbScale
 70
     0
300
1/8" = 1'-0"
140
0.125
141
12.0
290
     0
  0
SCALE
  5
5F
102
{ACAD_REACTORS
330
47
102
}
330
47
100
AcDbScale
 70
     0
300
3/16" = 1'-0"
140
0.1875
141
12.0
290
     0
  0
SCALE
  5
60
102
{ACAD_REACTORS
330
47
102
}
330
47
100
AcDbScale
 70
     0
300
1/4" = 1'-0"
140
0.25
141
12.0
290
     0
  0
SCALE
  5
61
102
{ACAD_REACTORS
330
47
102
}
330
47
100
AcDbScale
 70
     0
300
3/8" = 1'-0"
140
0.375
141
12.0
290
     0
  0
SCALE
  5
62
102
{ACAD_REACTORS
330
47
102
}
330
47
100
AcDbScale
 70
     0
300
1/2" = 1'-0"
140
0.5
141
12.0
290
     0
  0
SCALE
  5
63
102
{ACAD_REACTORS
330
47
102
}
330
47
100
AcDbScale
 70
     0
300
3/4" = 1'-0"
140
0.75
141
12.0
290
     0
  0
SCALE
  5
64
102
{ACAD_REACTORS
330
47
102
}
330
47
100
AcDbScale
 70
     0
300
1" = 1'-0"
140
1.0
141
12.0
290
     0
  0
SCALE
  5
65
102
{ACAD_REACTORS
330
47
102
}
330
47
100
AcDbScale
 70
     0
300
1-1/2" = 1'-0"
140
1.5
141
12.0
290
     0
  0
SCALE
  5
66
102
{ACAD_REACTORS
330
47
102
}
330
47
100
AcDbScale
 70
     0
300
3" = 1'-0"
140
3.0
141
12.0
290
     0
  0
SCALE
  5
67
102
{ACAD_REACTORS
330
47
102
}
330
47
100
AcDbScale
 70
     0
300
6" = 1'-0"
140
6.0
141
12.0
290
     0
  0
SCALE
  5
68
102
{ACAD_REACTORS
330
47
102
}
330
47
100
AcDbScale
 70
     0
300
1'-0" = 1'-0"
140
12.0
141
12.0
290
     0
  0
ENDSEC
  0
EOF
