  0
SECTION
  2
HEADER
  9
$ACADVER
  1
AC1015
  9
$ACADMAINTVER
 70
     6
  9
$DWGCODEPAGE
  3
ANSI_949
  9
$INSBASE
 10
0.0
 20
0.0
 30
0.0
  9
$EXTMIN
 10
-52.63959432440914
 20
-49.97180738881174
 30
0.0
  9
$EXTMAX
 10
32.7860236237121
 20
24.76413260158165
 30
0.0
  9
$LIMMIN
 10
0.0
 20
0.0
  9
$LIMMAX
 10
420.0
 20
297.0
  9
$ORTHOMODE
 70
     0
  9
$REGENMODE
 70
     1
  9
$FILLMODE
 70
     1
  9
$QTEXTMODE
 70
     0
  9
$MIRRTEXT
 70
     1
  9
$LTSCALE
 40
1.0
  9
$ATTMODE
 70
     1
  9
$TEXTSIZE
 40
3.5
  9
$TRACEWID
 40
1.0
  9
$TEXTSTYLE
  7
Standard
  9
$CLAYER
  8
0
  9
$CELTYPE
  6
ByLayer
  9
$CECOLOR
 62
   256
  9
$CELTSCALE
 40
1.0
  9
$DISPSILH
 70
     0
  9
$DIMSCALE
 40
1.0
  9
$DIMASZ
 40
3.302
  9
$DIMEXO
 40
1.0
  9
$DIMDLI
 40
3.75
  9
$DIMRND
 40
0.0
  9
$DIMDLE
 40
0.0
  9
$DIMEXE
 40
1.0
  9
$DIMTP
 40
0.0
  9
$DIMTM
 40
0.0
  9
$DIMTXT
 40
3.5
  9
$DIMCEN
 40
2.5
  9
$DIMTSZ
 40
0.0
  9
$DIMTOL
 70
     0
  9
$DIMLIM
 70
     0
  9
$DIMTIH
 70
     1
  9
$DIMTOH
 70
     1
  9
$DIMSE1
 70
     0
  9
$DIMSE2
 70
     0
  9
$DIMTAD
 70
     1
  9
$DIMZIN
 70
     0
  9
$DIMBLK
  1

  9
$DIMASO
 70
     1
  9
$DIMSHO
 70
     1
  9
$DIMPOST
  1

  9
$DIMAPOST
  1

  9
$DIMALT
 70
     0
  9
$DIMALTD
 70
     3
  9
$DIMALTF
 40
0.0393700787401575
  9
$DIMLFAC
 40
1.0
  9
$DIMTOFL
 70
     1
  9
$DIMTVP
 40
0.0
  9
$DIMTIX
 70
     0
  9
$DIMSOXD
 70
     0
  9
$DIMSAH
 70
     0
  9
$DIMBLK1
  1

  9
$DIMBLK2
  1

  9
$DIMSTYLE
  2
ISO-25
  9
$DIMCLRD
 70
     0
  9
$DIMCLRE
 70
     0
  9
$DIMCLRT
 70
     0
  9
$DIMTFAC
 40
1.0
  9
$DIMGAP
 40
1.524
  9
$DIMJUST
 70
     0
  9
$DIMSD1
 70
     0
  9
$DIMSD2
 70
     0
  9
$DIMTOLJ
 70
     0
  9
$DIMTZIN
 70
     0
  9
$DIMALTZ
 70
     0
  9
$DIMALTTZ
 70
     0
  9
$DIMUPT
 70
     0
  9
$DIMDEC
 70
     2
  9
$DIMTDEC
 70
     2
  9
$DIMALTU
 70
     2
  9
$DIMALTTD
 70
     3
  9
$DIMTXSTY
  7
Standard
  9
$DIMAUNIT
 70
     0
  9
$DIMADEC
 70
     2
  9
$DIMALTRND
 40
0.0
  9
$DIMAZIN
 70
     0
  9
$DIMDSEP
 70
    44
  9
$DIMATFIT
 70
     3
  9
$DIMFRAC
 70
     0
  9
$DIMLDRBLK
  1

  9
$DIMLUNIT
 70
     2
  9
$DIMLWD
 70
    -2
  9
$DIMLWE
 70
    -2
  9
$DIMTMOVE
 70
     0
  9
$LUNITS
 70
     2
  9
$LUPREC
 70
     2
  9
$SKETCHINC
 40
1.0
  9
$FILLETRAD
 40
10.0
  9
$AUNITS
 70
     0
  9
$AUPREC
 70
     2
  9
$MENU
  1
.
  9
$ELEVATION
 40
0.0
  9
$PELEVATION
 40
0.0
  9
$THICKNESS
 40
0.0
  9
$LIMCHECK
 70
     0
  9
$CHAMFERA
 40
0.0
  9
$CHAMFERB
 40
0.0
  9
$CHAMFERC
 40
0.0
  9
$CHAMFERD
 40
0.0
  9
$SKPOLY
 70
     0
  9
$TDCREATE
 40
2458260.567950394
  9
$TDUCREATE
 40
2458260.192950394
  9
$TDUPDATE
 40
2458268.475259664
  9
$TDUUPDATE
 40
2458268.100259664
  9
$TDINDWG
 40
0.0008550926
  9
$TDUSRTIMER
 40
2458268.099404618
  9
$USRTIMER
 70
     1
  9
$ANGBASE
 50
0.0
  9
$ANGDIR
 70
     0
  9
$PDMODE
 70
     0
  9
$PDSIZE
 40
-1.0
  9
$PLINEWID
 40
0.0
  9
$SPLFRAME
 70
     0
  9
$SPLINETYPE
 70
     6
  9
$SPLINESEGS
 70
     8
  9
$HANDSEED
  5
158
  9
$SURFTAB1
 70
     6
  9
$SURFTAB2
 70
     6
  9
$SURFTYPE
 70
     6
  9
$SURFU
 70
     6
  9
$SURFV
 70
     6
  9
$UCSBASE
  2

  9
$UCSNAME
  2

  9
$UCSORG
 10
0.0
 20
0.0
 30
0.0
  9
$UCSXDIR
 10
1.0
 20
0.0
 30
0.0
  9
$UCSYDIR
 10
0.0
 20
1.0
 30
0.0
  9
$UCSORTHOREF
  2

  9
$UCSORTHOVIEW
 70
     0
  9
$UCSORGTOP
 10
0.0
 20
0.0
 30
0.0
  9
$UCSORGBOTTOM
 10
0.0
 20
0.0
 30
0.0
  9
$UCSORGLEFT
 10
0.0
 20
0.0
 30
0.0
  9
$UCSORGRIGHT
 10
0.0
 20
0.0
 30
0.0
  9
$UCSORGFRONT
 10
0.0
 20
0.0
 30
0.0
  9
$UCSORGBACK
 10
0.0
 20
0.0
 30
0.0
  9
$PUCSBASE
  2

  9
$PUCSNAME
  2

  9
$PUCSORG
 10
0.0
 20
0.0
 30
0.0
  9
$PUCSXDIR
 10
1.0
 20
0.0
 30
0.0
  9
$PUCSYDIR
 10
0.0
 20
1.0
 30
0.0
  9
$PUCSORTHOREF
  2

  9
$PUCSORTHOVIEW
 70
     0
  9
$PUCSORGTOP
 10
0.0
 20
0.0
 30
0.0
  9
$PUCSORGBOTTOM
 10
0.0
 20
0.0
 30
0.0
  9
$PUCSORGLEFT
 10
0.0
 20
0.0
 30
0.0
  9
$PUCSORGRIGHT
 10
0.0
 20
0.0
 30
0.0
  9
$PUCSORGFRONT
 10
0.0
 20
0.0
 30
0.0
  9
$PUCSORGBACK
 10
0.0
 20
0.0
 30
0.0
  9
$USERI1
 70
     0
  9
$USERI2
 70
     0
  9
$USERI3
 70
     0
  9
$USERI4
 70
     0
  9
$USERI5
 70
     0
  9
$USERR1
 40
0.0
  9
$USERR2
 40
0.0
  9
$USERR3
 40
0.0
  9
$USERR4
 40
0.0
  9
$USERR5
 40
0.0
  9
$WORLDVIEW
 70
     1
  9
$SHADEDGE
 70
     3
  9
$SHADEDIF
 70
    70
  9
$TILEMODE
 70
     1
  9
$MAXACTVP
 70
    64
  9
$PINSBASE
 10
0.0
 20
0.0
 30
0.0
  9
$PLIMCHECK
 70
     0
  9
$PEXTMIN
 10
1.000000000000000E+20
 20
1.000000000000000E+20
 30
1.000000000000000E+20
  9
$PEXTMAX
 10
-1.000000000000000E+20
 20
-1.000000000000000E+20
 30
-1.000000000000000E+20
  9
$PLIMMIN
 10
0.0
 20
0.0
  9
$PLIMMAX
 10
0.0
 20
0.0
  9
$UNITMODE
 70
     0
  9
$VISRETAIN
 70
     1
  9
$PLINEGEN
 70
     0
  9
$PSLTSCALE
 70
     1
  9
$TREEDEPTH
 70
  3020
  9
$CMLSTYLE
  2
Standard
  9
$CMLJUST
 70
     0
  9
$CMLSCALE
 40
20.0
  9
$PROXYGRAPHICS
 70
     1
  9
$MEASUREMENT
 70
     1
  9
$CELWEIGHT
370
    -1
  9
$ENDCAPS
280
     0
  9
$JOINSTYLE
280
     0
  9
$LWDISPLAY
290
     1
  9
$INSUNITS
 70
     4
  9
$HYPERLINKBASE
  1

  9
$STYLESHEET
  1

  9
$XEDIT
290
     1
  9
$CEPSNTYPE
380
     0
  9
$PSTYLEMODE
290
     1
  9
$FINGERPRINTGUID
  2
{6FD207E1-CD97-42C2-B6D5-3045B8BCF9D1}
  9
$VERSIONGUID
  2
{FAEB1C32-E019-11D5-929B-00C0DF256EC4}
  9
$EXTNAMES
290
     1
  9
$PSVPSCALE
 40
0.0
  9
$OLESTARTUP
290
     0
  0
ENDSEC
  0
SECTION
  2
CLASSES
  0
CLASS
  1
ACDBDICTIONARYWDFLT
  2
AcDbDictionaryWithDefault
  3
ObjectDBX Classes
 90
        0
280
     0
281
     0
  0
CLASS
  1
VISUALSTYLE
  2
AcDbVisualStyle
  3
ObjectDBX Classes
 90
     4095
280
     0
281
     0
  0
CLASS
  1
MATERIAL
  2
AcDbMaterial
  3
ObjectDBX Classes
 90
     1153
280
     0
281
     0
  0
CLASS
  1
SCALE
  2
AcDbScale
  3
ObjectDBX Classes
 90
     1153
280
     0
281
     0
  0
CLASS
  1
TABLESTYLE
  2
AcDbTableStyle
  3
ObjectDBX Classes
 90
     4095
280
     0
281
     0
  0
CLASS
  1
MLEADERSTYLE
  2
AcDbMLeaderStyle
  3
ACDB_MLEADERSTYLE_CLASS
 90
     4095
280
     0
281
     0
  0
CLASS
  1
SUN
  2
AcDbSun
  3
SCENEOE
 90
     1153
280
     0
281
     0
  0
CLASS
  1
ACDBPLACEHOLDER
  2
AcDbPlaceHolder
  3
ObjectDBX Classes
 90
        0
280
     0
281
     0
  0
CLASS
  1
LAYOUT
  2
AcDbLayout
  3
ObjectDBX Classes
 90
        0
280
     0
281
     0
  0
CLASS
  1
RASTERVARIABLES
  2
AcDbRasterVariables
  3
ISM
 90
        0
280
     0
281
     0
  0
ENDSEC
  0
SECTION
  2
TABLES
  0
TABLE
  2
VPORT
  5
8
330
0
100
AcDbSymbolTable
 70
     1
  0
VPORT
  5
29
330
8
100
AcDbSymbolTableRecord
100
AcDbViewportTableRecord
  2
*Active
 70
     0
 10
0.0
 20
0.0
 11
1.0
 21
1.0
 12
-9.926785350348524
 22
-12.60383739361504
 13
0.0
 23
0.0
 14
10.0
 24
10.0
 15
10.0
 25
10.0
 16
0.0
 26
0.0
 36
1.0
 17
0.0
 27
0.0
 37
0.0
 40
76.23065879020126
 41
1.737726098191214
 42
50.0
 43
0.0
 44
0.0
 50
0.0
 51
0.0
 71
    16
 72
  2000
 73
     1
 74
     3
 75
     0
 76
     0
 77
     0
 78
     0
281
     0
 65
     1
110
0.0
120
0.0
130
0.0
111
1.0
121
0.0
131
0.0
112
0.0
122
1.0
132
0.0
 79
     0
146
0.0
  0
ENDTAB
  0
TABLE
  2
LTYPE
  5
5
330
0
100
AcDbSymbolTable
 70
     6
  0
LTYPE
  5
14
330
5
100
AcDbSymbolTableRecord
100
AcDbLinetypeTableRecord
  2
ByBlock
 70
     0
  3

 72
    65
 73
     0
 40
0.0
  0
LTYPE
  5
15
330
5
100
AcDbSymbolTableRecord
100
AcDbLinetypeTableRecord
  2
ByLayer
 70
     0
  3

 72
    65
 73
     0
 40
0.0
  0
LTYPE
  5
16
330
5
100
AcDbSymbolTableRecord
100
AcDbLinetypeTableRecord
  2
Continuous
 70
     0
  3
Solid line
 72
    65
 73
     0
 40
0.0
  0
LTYPE
  5
6E
330
5
100
AcDbSymbolTableRecord
100
AcDbLinetypeTableRecord
  2
HIDDEN
 70
     0
  3
Hidden __ __ __ __ __ __ __ __ __ __ __ __ __ __
 72
    65
 73
     2
 40
1.905
 49
1.27
 74
     0
 49
-0.635
 74
     0
  0
LTYPE
  5
6F
330
5
100
AcDbSymbolTableRecord
100
AcDbLinetypeTableRecord
  2
PHANTOM
 70
     0
  3
Phantom ______  __  __  ______  __  __  ______
 72
    65
 73
     6
 40
12.7
 49
6.35
 74
     0
 49
-1.27
 74
     0
 49
1.27
 74
     0
 49
-1.27
 74
     0
 49
1.27
 74
     0
 49
-1.27
 74
     0
  0
LTYPE
  5
70
330
5
100
AcDbSymbolTableRecord
100
AcDbLinetypeTableRecord
  2
CENTER
 70
     0
  3
Center ____ _ ____ _ ____ _ ____ _ ____ _ ____
 72
    65
 73
     4
 40
10.16
 49
6.35
 74
     0
 49
-1.27
 74
     0
 49
1.27
 74
     0
 49
-1.27
 74
     0
  0
LTYPE
  5
71
330
5
100
AcDbSymbolTableRecord
100
AcDbLinetypeTableRecord
  2
CENTERX2
 70
     0
  3
Center (2x) ________  __  ________  __  _____
 72
    65
 73
     4
 40
20.32
 49
12.7
 74
     0
 49
-2.54
 74
     0
 49
2.54
 74
     0
 49
-2.54
 74
     0
  0
LTYPE
  5
72
330
5
100
AcDbSymbolTableRecord
100
AcDbLinetypeTableRecord
  2
DOT2
 70
     0
  3
Dot (.5x) ........................................
 72
    65
 73
     2
 40
0.635
 49
0.0
 74
     0
 49
-0.635
 74
     0
  0
ENDTAB
  0
TABLE
  2
LAYER
  5
2
330
0
100
AcDbSymbolTable
 70
    17
  0
LAYER
  5
10
330
2
100
AcDbSymbolTableRecord
100
AcDbLayerTableRecord
  2
0
 70
     0
 62
     7
  6
Continuous
370
    -3
390
F
  0
LAYER
  5
73
330
2
100
AcDbSymbolTableRecord
100
AcDbLayerTableRecord
  2
FORMAT
 70
     0
 62
     2
  6
Continuous
370
    -3
390
F
  0
LAYER
  5
74
330
2
100
AcDbSymbolTableRecord
100
AcDbLayerTableRecord
  2
외형선
 70
     0
 62
   100
  6
Continuous
370
    35
390
F
  0
LAYER
  5
75
330
2
100
AcDbSymbolTableRecord
100
AcDbLayerTableRecord
  2
숨은선
 70
     0
 62
     2
  6
HIDDEN
370
    25
390
F
  0
LAYER
  5
76
330
2
100
AcDbSymbolTableRecord
100
AcDbLayerTableRecord
  2
중심선
 70
     0
 62
     1
  6
CENTERX2
370
    -3
390
F
  0
LAYER
  5
77
330
2
100
AcDbSymbolTableRecord
100
AcDbLayerTableRecord
  2
파단선
 70
     0
 62
     4
  6
Continuous
370
    -3
390
F
  0
LAYER
  5
78
330
2
100
AcDbSymbolTableRecord
100
AcDbLayerTableRecord
  2
해칭선
 70
     0
 62
   100
  6
Continuous
370
    -3
390
F
  0
LAYER
  5
79
330
2
100
AcDbSymbolTableRecord
100
AcDbLayerTableRecord
  2
가는실선
 70
     0
 62
     4
  6
Continuous
370
    -3
390
F
  0
LAYER
  5
7A
330
2
100
AcDbSymbolTableRecord
100
AcDbLayerTableRecord
  2
치수_보조선
 70
     0
 62
     4
  6
Continuous
370
    -3
390
F
  0
LAYER
  5
7B
330
2
100
AcDbSymbolTableRecord
100
AcDbLayerTableRecord
  2
치수문자_일반주서
 70
     0
 62
     7
  6
Continuous
370
    25
390
F
  0
LAYER
  5
7C
330
2
100
AcDbSymbolTableRecord
100
AcDbLayerTableRecord
  2
개별주서
 70
     0
 62
   100
  6
Continuous
370
    35
390
F
  0
LAYER
  5
7D
330
2
100
AcDbSymbolTableRecord
100
AcDbLayerTableRecord
  2
중간선
 70
     0
 62
     2
  6
Continuous
370
    25
390
F
  0
LAYER
  5
7E
330
2
100
AcDbSymbolTableRecord
100
AcDbLayerTableRecord
  2
윤곽선
 70
     0
 62
     3
  6
Continuous
370
    50
390
F
  0
LAYER
  5
7F
330
2
100
AcDbSymbolTableRecord
100
AcDbLayerTableRecord
  2
중심마크
 70
     0
 62
   100
  6
Continuous
370
    35
390
F
  0
LAYER
  5
80
330
2
100
AcDbSymbolTableRecord
100
AcDbLayerTableRecord
  2
가상선
 70
     0
 62
     4
  6
PHANTOM
370
    -3
390
F
  0
LAYER
  5
81
330
2
100
AcDbSymbolTableRecord
100
AcDbLayerTableRecord
  2
특수지정선
 70
     0
 62
     5
  6
CENTERX2
370
    70
390
F
  0
LAYER
  5
14A
330
2
100
AcDbSymbolTableRecord
100
AcDbLayerTableRecord
  2
Defpoints
 70
     0
 62
     7
  6
Continuous
290
     0
370
    -3
390
F
  0
ENDTAB
  0
TABLE
  2
STYLE
  5
3
330
0
100
AcDbSymbolTable
 70
     2
  0
STYLE
  5
11
330
3
100
AcDbSymbolTableRecord
100
AcDbTextStyleTableRecord
  2
Standard
 70
     0
 40
0.0
 41
1.0
 50
0.0
 71
     0
 42
3.5
  3
txt
  4

  0
STYLE
  5
97
330
3
100
AcDbSymbolTableRecord
100
AcDbTextStyleTableRecord
  2
SLDTEXTSTYLE0
 70
     0
 40
0.0
 41
0.75
 50
0.0
 71
     0
 42
3.5
  3
TXT
  4

  0
ENDTAB
  0
TABLE
  2
VIEW
  5
6
330
0
100
AcDbSymbolTable
 70
     0
  0
ENDTAB
  0
TABLE
  2
UCS
  5
7
330
0
100
AcDbSymbolTable
 70
     0
  0
ENDTAB
  0
TABLE
  2
APPID
  5
9
330
0
100
AcDbSymbolTable
 70
     1
  0
APPID
  5
12
330
9
100
AcDbSymbolTableRecord
100
AcDbRegAppTableRecord
  2
ACAD
 70
     0
  0
ENDTAB
  0
TABLE
  2
DIMSTYLE
  5
A
330
0
100
AcDbSymbolTable
 70
     4
100
AcDbDimStyleTable
  0
DIMSTYLE
105
27
330
A
100
AcDbSymbolTableRecord
100
AcDbDimStyleTableRecord
  2
ISO-25
 70
     0
 41
2.5
 42
0.625
 43
3.75
 44
1.25
 73
     0
 74
     0
 77
     1
 78
     8
140
2.5
141
2.5
143
0.03937007874016
147
0.625
171
     3
172
     1
178
     0
271
     2
272
     2
274
     3
278
    44
283
     0
284
     8
340
11
  0
DIMSTYLE
105
ED
102
{ACAD_REACTORS
330
EC
102
}
330
A
100
AcDbSymbolTableRecord
100
AcDbDimStyleTableRecord
  2
SLDDIMSTYLE0
 70
     0
 41
3.302
 44
0.0
 45
0.000000001
 73
     0
 74
     0
 77
     1
 78
    12
 79
     3
140
3.5
147
0.875
172
     1
173
     1
178
     0
271
     1
272
     1
276
     2
284
    12
289
     0
340
97
  0
DIMSTYLE
105
FB
102
{ACAD_REACTORS
330
FA
102
}
330
A
100
AcDbSymbolTableRecord
100
AcDbDimStyleTableRecord
  2
SLDDIMSTYLE1
 70
     0
 41
3.302
 44
0.0
 45
0.000000001
 73
     0
 74
     0
 77
     1
 78
    12
 79
     3
140
3.5
147
0.875
173
     1
178
     0
271
     2
272
     2
276
     2
284
    12
340
97
  0
DIMSTYLE
105
106
102
{ACAD_REACTORS
330
105
330
113
102
}
330
A
100
AcDbSymbolTableRecord
100
AcDbDimStyleTableRecord
  2
SLDDIMSTYLE2
 70
     0
 41
3.302
 44
0.0
 45
0.000000001
 73
     0
 74
     0
 77
     1
 78
    12
 79
     3
140
3.5
147
0.875
172
     1
173
     1
178
     0
271
     2
272
     2
276
     2
284
    12
289
     0
340
97
  0
ENDTAB
  0
TABLE
  2
BLOCK_RECORD
  5
1
330
0
100
AcDbSymbolTable
 70
     7
  0
BLOCK_RECORD
  5
1F
330
1
100
AcDbSymbolTableRecord
100
AcDbBlockTableRecord
  2
*Model_Space
340
22
  0
BLOCK_RECORD
  5
1B
330
1
100
AcDbSymbolTableRecord
100
AcDbBlockTableRecord
  2
*Paper_Space
340
1E
  0
BLOCK_RECORD
  5
23
330
1
100
AcDbSymbolTableRecord
100
AcDbBlockTableRecord
  2
*Paper_Space0
340
26
  0
BLOCK_RECORD
  5
82
330
1
100
AcDbSymbolTableRecord
100
AcDbBlockTableRecord
  2
블럭10
340
0
102
{BLKREFS
331
E5
102
}
  0
BLOCK_RECORD
  5
EE
330
1
100
AcDbSymbolTableRecord
100
AcDbBlockTableRecord
  2
_D
340
0
  0
BLOCK_RECORD
  5
FC
330
1
100
AcDbSymbolTableRecord
100
AcDbBlockTableRecord
  2
_D_1
340
0
  0
BLOCK_RECORD
  5
107
330
1
100
AcDbSymbolTableRecord
100
AcDbBlockTableRecord
  2
_D_2
340
0
  0
BLOCK_RECORD
  5
114
330
1
100
AcDbSymbolTableRecord
100
AcDbBlockTableRecord
  2
_D_3
340
0
  0
BLOCK_RECORD
  5
11F
330
1
100
AcDbSymbolTableRecord
100
AcDbBlockTableRecord
  2
SW_DOWELSYMBOL_0
340
0
102
{BLKREFS
331
125
102
}
  0
ENDTAB
  0
ENDSEC
  0
SECTION
  2
BLOCKS
  0
BLOCK
  5
20
330
1F
100
AcDbEntity
  8
0
100
AcDbBlockBegin
  2
*Model_Space
 70
     0
 10
0.0
 20
0.0
 30
0.0
  3
*Model_Space
  1

  0
ENDBLK
  5
21
330
1F
100
AcDbEntity
  8
0
100
AcDbBlockEnd
  0
BLOCK
  5
1C
330
1B
100
AcDbEntity
 67
     1
  8
0
100
AcDbBlockBegin
  2
*Paper_Space
 70
     0
 10
0.0
 20
0.0
 30
0.0
  3
*Paper_Space
  1

  0
ENDBLK
  5
1D
330
1B
100
AcDbEntity
 67
     1
  8
0
100
AcDbBlockEnd
  0
BLOCK
  5
24
330
23
100
AcDbEntity
  8
0
100
AcDbBlockBegin
  2
*Paper_Space0
 70
     0
 10
0.0
 20
0.0
 30
0.0
  3
*Paper_Space0
  1

  0
ENDBLK
  5
25
330
23
100
AcDbEntity
  8
0
100
AcDbBlockEnd
  0
BLOCK
  5
83
330
82
100
AcDbEntity
  8
0
100
AcDbBlockBegin
  2
블럭10
 70
     2
 10
0.0
 20
0.0
 30
0.0
  3
블럭10
  1

  0
ELLIPSE
  5
85
330
82
100
AcDbEntity
  8
중심선
100
AcDbEllipse
 10
20.54032771741204
 20
12.0471743016438
 30
0.0
 11
6.600054785286829
 21
-1.261213355974178E-13
 31
0.0
210
0.0
220
0.0
230
1.0
 40
0.636358354079598
 41
0.9219305317359503
 42
6.513795318482858
  0
ELLIPSE
  5
86
330
82
100
AcDbEntity
  8
중심선
100
AcDbEllipse
 10
20.54032771746488
 20
12.04717430159265
 30
0.0
 11
3.960054785062283
 21
1.540847449632565E-10
 31
0.0
210
0.0
220
0.0
230
1.0
 40
0.3939339440162632
 41
1.131841032648279
 42
5.62031148352944
  0
LINE
  5
87
330
82
100
AcDbEntity
  8
중심선
100
AcDbLine
 10
2.268634060543552
 20
16.24717430164393
 30
0.0
 11
5.714909304380834
 21
16.24717430164393
 31
0.0
  0
LINE
  5
88
330
82
100
AcDbEntity
  8
중심선
100
AcDbLine
 10
5.245725140726316
 20
7.84717430164391
 30
0.0
 11
8.692000384563599
 21
7.84717430164391
 31
0.0
  0
LINE
  5
89
330
82
100
AcDbEntity
  8
중심선
100
AcDbLine
 10
15.74043728645272
 20
16.24717430164393
 30
0.0
 11
8.692000384563599
 21
7.84717430164391
 31
0.0
  0
LINE
  5
8A
330
82
100
AcDbEntity
  8
중심선
100
AcDbLine
 10
0.1404042013395286
 20
13.71084872107135
 30
0.0
 11
3.58671253028996
 21
13.71088815037384
 31
0.0
  0
LINE
  5
8B
330
82
100
AcDbEntity
  8
중심선
100
AcDbLine
 10
2.750260043222114
 20
10.84717430164391
 30
0.0
 11
6.196535287059397
 21
10.84717430164391
 31
0.0
  0
LINE
  5
8C
330
82
100
AcDbEntity
  8
중심선
100
AcDbLine
 10
12.29416204261559
 20
16.24717430164393
 30
0.0
 11
5.245725140726316
 21
7.84717430164391
 31
0.0
  0
LINE
  5
8D
330
82
100
AcDbEntity
  8
중심선
100
AcDbLine
 10
10.72767329541681
 20
16.24717430164393
 30
0.0
 11
6.196535287059397
 21
10.84717430164391
 31
0.0
  0
LINE
  5
8E
330
82
100
AcDbEntity
  8
중심선
100
AcDbLine
 10
7.28139805157953
 20
16.24717430164393
 30
0.0
 11
2.750260043222114
 21
10.84717430164391
 31
0.0
  0
LINE
  5
8F
330
82
100
AcDbEntity
  8
중심선
100
AcDbLine
 10
5.714909304380834
 20
16.24717430164393
 30
0.0
 11
3.58671253028996
 21
13.71088815037384
 31
0.0
  0
LINE
  5
90
330
82
100
AcDbEntity
  8
중심선
100
AcDbLine
 10
2.268634060543552
 20
16.24717430164393
 30
0.0
 11
0.1404042013395286
 21
13.71084872107135
 31
0.0
  0
LINE
  5
91
330
82
100
AcDbEntity
  8
중심선
100
AcDbLine
 10
7.28139805157953
 20
16.24717430164393
 30
0.0
 11
10.72767329541681
 21
16.24717430164393
 31
0.0
  0
LINE
  5
92
330
82
100
AcDbEntity
  8
중심선
100
AcDbLine
 10
12.29416204261559
 20
16.24717430164393
 30
0.0
 11
15.74043728645272
 21
16.24717430164393
 31
0.0
  0
LINE
  5
93
330
82
100
AcDbEntity
  8
중심선
100
AcDbLine
 10
19.22036997980202
 20
11.08717430171403
 30
0.0
 11
23.66174974927406
 21
11.08717430171406
 31
0.0
  0
LINE
  5
94
330
82
100
AcDbEntity
  8
중심선
100
AcDbLine
 10
19.22039502424796
 20
13.00717430171391
 30
0.0
 11
19.22036997980202
 21
11.08717430171403
 31
0.0
  0
LINE
  5
95
330
82
100
AcDbEntity
  8
중심선
100
AcDbLine
 10
19.22039502424796
 20
13.00717430171391
 30
0.0
 11
26.96566020931264
 21
13.00717430171391
 31
0.0
  0
LINE
  5
96
330
82
100
AcDbEntity
  8
중심선
100
AcDbLine
 10
22.22332737316547
 20
13.45928029700563
 30
0.0
 11
24.52862924686651
 21
15.39360700705356
 31
0.0
  0
ATTDEF
  5
98
330
82
100
AcDbEntity
  8
FORMAT
 62
     2
100
AcDbText
 10
-16.11926103943555
 20
2.075366912832191
 30
0.0
 40
4.233333333333333
  1
SEME7202010E [ 4 FLUTE ]
 41
0.75
  7
SLDTEXTSTYLE0
 11
-16.11926103943555
 21
-0.0412997538344756
 31
0.0
100
AcDbAttributeDefinition
  3

  2
AUTOATTR0
 70
     0
 74
     1
  0
ENDBLK
  5
84
330
82
100
AcDbEntity
  8
0
100
AcDbBlockEnd
  0
BLOCK
  5
EF
330
EE
100
AcDbEntity
  8
0
100
AcDbBlockBegin
  2
_D
 70
     0
 10
0.0
 20
0.0
 30
0.0
  3
_D
  1

  0
LINE
  5
F1
330
EE
100
AcDbEntity
  8
치수문자_일반주서
 62
     0
370
    -2
100
AcDbLine
 10
20.52660161513775
 20
-1.000000000000006
 30
0.0
 11
32.23569029037875
 21
-0.9999999999999609
 31
0.0
  0
LINE
  5
F2
330
EE
100
AcDbEntity
  8
치수문자_일반주서
 62
     0
370
    -2
100
AcDbLine
 10
20.52660161513775
 20
1.000000000000005
 30
0.0
 11
32.23569029037874
 21
1.00000000000005
 31
0.0
  0
LINE
  5
F3
330
EE
100
AcDbEntity
  8
치수문자_일반주서
 62
     0
370
    -2
100
AcDbLine
 10
32.23569029037875
 20
-0.9999999999999609
 30
0.0
 11
32.23569029037869
 21
13.72900000000005
 31
0.0
  0
LINE
  5
F4
330
EE
100
AcDbEntity
  8
치수문자_일반주서
 62
     0
370
    -2
100
AcDbLine
 10
32.23569029037875
 20
-0.9999999999999609
 30
0.0
 11
32.23569029037874
 21
1.00000000000005
 31
0.0
  0
LINE
  5
F5
330
EE
100
AcDbEntity
  8
치수문자_일반주서
 62
     0
370
    -2
100
AcDbLine
 10
32.23569029037876
 20
-4.301999999999961
 30
0.0
 11
32.23569029037878
 21
-7.60399999999996
 31
0.0
  0
LINE
  5
F6
330
EE
100
AcDbEntity
  8
치수문자_일반주서
 62
     0
370
    -2
100
AcDbLine
 10
32.23569029037873
 20
4.302000000000049
 30
0.0
 11
32.23569029037871
 21
7.604000000000049
 31
0.0
  0
SOLID
  5
F7
330
EE
100
AcDbEntity
  8
치수문자_일반주서
 62
     0
100
AcDbTrace
 10
32.7860236237121
 20
-4.301999999999959
 30
0.0
 11
31.68535695704543
 21
-4.301999999999962
 31
0.0
 12
32.23569029037875
 22
-0.9999999999999609
 32
0.0
 13
32.23569029037875
 23
-0.9999999999999609
 33
0.0
  0
SOLID
  5
F8
330
EE
100
AcDbEntity
  8
치수문자_일반주서
 62
     0
100
AcDbTrace
 10
31.68535695704539
 20
4.302000000000048
 30
0.0
 11
32.78602362371206
 21
4.302000000000051
 31
0.0
 12
32.23569029037874
 22
1.00000000000005
 32
0.0
 13
32.23569029037874
 23
1.00000000000005
 33
0.0
  0
MTEXT
  5
F9
330
EE
100
AcDbEntity
  8
치수문자_일반주서
 62
     0
100
AcDbMText
 10
27.86069029037871
 20
10.66650000000003
 30
0.0
 40
3.5
 41
0.0
 71
     2
 72
     1
  1
\A1;%%c2
  7
SLDTEXTSTYLE0
 11
-3.552713678800481E-15
 21
1.0
 31
0.0
 73
     1
 44
1.0
  0
POINT
  5
152
330
EE
100
AcDbEntity
  8
Defpoints
 62
     0
100
AcDbPoint
 10
20.46410161513775
 20
-1.000000000000006
 30
0.0
  0
POINT
  5
153
330
EE
100
AcDbEntity
  8
Defpoints
 62
     0
100
AcDbPoint
 10
20.46410161513775
 20
1.000000000000005
 30
0.0
  0
POINT
  5
154
330
EE
100
AcDbEntity
  8
Defpoints
 62
     0
100
AcDbPoint
 10
32.23569029037874
 20
1.000000000000049
 30
0.0
  0
ENDBLK
  5
F0
330
EE
100
AcDbEntity
  8
0
100
AcDbBlockEnd
  0
BLOCK
  5
FD
330
FC
100
AcDbEntity
  8
0
100
AcDbBlockBegin
  2
_D_1
 70
     0
 10
0.0
 20
0.0
 30
0.0
  3
_D_1
  1

  0
LINE
  5
FF
330
FC
100
AcDbEntity
  8
치수문자_일반주서
 62
     0
370
    -2
100
AcDbLine
 10
-39.53589838486226
 20
2.562499999999995
 30
0.0
 11
-39.53589838486226
 21
20.38913260158165
 31
0.0
  0
LINE
  5
100
330
FC
100
AcDbEntity
  8
치수문자_일반주서
 62
     0
370
    -2
100
AcDbLine
 10
20.46410161513774
 20
1.062500000000002
 30
0.0
 11
20.46410161513774
 21
20.38913260158165
 31
0.0
  0
LINE
  5
101
330
FC
100
AcDbEntity
  8
치수문자_일반주서
 62
     0
370
    -2
100
AcDbLine
 10
-36.23389838486226
 20
20.38913260158165
 30
0.0
 11
17.16210161513774
 21
20.38913260158165
 31
0.0
  0
SOLID
  5
102
330
FC
100
AcDbEntity
  8
치수문자_일반주서
 62
     0
100
AcDbTrace
 10
-36.23389838486226
 20
20.93946593491498
 30
0.0
 11
-36.23389838486226
 21
19.83879926824831
 31
0.0
 12
-39.53589838486226
 22
20.38913260158165
 32
0.0
 13
-39.53589838486226
 23
20.38913260158165
 33
0.0
  0
SOLID
  5
103
330
FC
100
AcDbEntity
  8
치수문자_일반주서
 62
     0
100
AcDbTrace
 10
17.16210161513774
 20
19.83879926824831
 30
0.0
 11
17.16210161513774
 21
20.93946593491498
 31
0.0
 12
20.46410161513774
 22
20.38913260158165
 32
0.0
 13
20.46410161513774
 23
20.38913260158165
 33
0.0
  0
MTEXT
  5
104
330
FC
100
AcDbEntity
  8
치수문자_일반주서
 62
     0
100
AcDbMText
 10
-9.535898384862268
 20
24.76413260158165
 30
0.0
 40
3.5
 41
0.0
 71
     2
 72
     1
  1
\A1;60
  7
SLDTEXTSTYLE0
 73
     1
 44
1.0
  0
POINT
  5
14B
330
FC
100
AcDbEntity
  8
Defpoints
 62
     0
100
AcDbPoint
 10
-39.53589838486226
 20
2.499999999999995
 30
0.0
  0
POINT
  5
14C
330
FC
100
AcDbEntity
  8
Defpoints
 62
     0
100
AcDbPoint
 10
20.46410161513774
 20
1.000000000000002
 30
0.0
  0
POINT
  5
14D
330
FC
100
AcDbEntity
  8
Defpoints
 62
     0
100
AcDbPoint
 10
20.46410161513774
 20
20.38913260158165
 30
0.0
  0
ENDBLK
  5
FE
330
FC
100
AcDbEntity
  8
0
100
AcDbBlockEnd
  0
BLOCK
  5
108
330
107
100
AcDbEntity
  8
0
100
AcDbBlockBegin
  2
_D_2
 70
     0
 10
0.0
 20
0.0
 30
0.0
  3
_D_2
  1

  0
LINE
  5
10A
330
107
100
AcDbEntity
  8
치수문자_일반주서
 62
     0
370
    -2
100
AcDbLine
 10
-39.09839838486225
 20
3.000000000000003
 30
0.0
 11
-48.2645943244091
 21
2.999999999999968
 31
0.0
  0
LINE
  5
10B
330
107
100
AcDbEntity
  8
치수문자_일반주서
 62
     0
370
    -2
100
AcDbLine
 10
-39.09839838486225
 20
-3.000000000000003
 30
0.0
 11
-48.26459432440907
 21
-3.000000000000037
 31
0.0
  0
LINE
  5
10C
330
107
100
AcDbEntity
  8
치수문자_일반주서
 62
     0
370
    -2
100
AcDbLine
 10
-48.2645943244091
 20
2.999999999999968
 30
0.0
 11
-48.26459432440915
 21
15.72899999999997
 31
0.0
  0
LINE
  5
10D
330
107
100
AcDbEntity
  8
치수문자_일반주서
 62
     0
370
    -2
100
AcDbLine
 10
-48.2645943244091
 20
2.999999999999968
 30
0.0
 11
-48.26459432440907
 21
-3.000000000000037
 31
0.0
  0
LINE
  5
10E
330
107
100
AcDbEntity
  8
치수문자_일반주서
 62
     0
370
    -2
100
AcDbLine
 10
-48.26459432440911
 20
6.301999999999968
 30
0.0
 11
-48.26459432440912
 21
9.603999999999967
 31
0.0
  0
LINE
  5
10F
330
107
100
AcDbEntity
  8
치수문자_일반주서
 62
     0
370
    -2
100
AcDbLine
 10
-48.26459432440906
 20
-6.302000000000037
 30
0.0
 11
-48.26459432440905
 21
-9.604000000000037
 31
0.0
  0
SOLID
  5
110
330
107
100
AcDbEntity
  8
치수문자_일반주서
 62
     0
100
AcDbTrace
 10
-48.81492765774244
 20
6.301999999999966
 30
0.0
 11
-47.71426099107578
 21
6.301999999999969
 31
0.0
 12
-48.2645943244091
 22
2.999999999999968
 32
0.0
 13
-48.2645943244091
 23
2.999999999999968
 33
0.0
  0
SOLID
  5
111
330
107
100
AcDbEntity
  8
치수문자_일반주서
 62
     0
100
AcDbTrace
 10
-47.71426099107573
 20
-6.302000000000035
 30
0.0
 11
-48.81492765774239
 21
-6.302000000000039
 31
0.0
 12
-48.26459432440907
 22
-3.000000000000037
 32
0.0
 13
-48.26459432440907
 23
-3.000000000000037
 33
0.0
  0
MTEXT
  5
112
330
107
100
AcDbEntity
  8
치수문자_일반주서
 62
     0
100
AcDbMText
 10
-52.63959432440913
 20
12.66649999999995
 30
0.0
 40
3.5
 41
0.0
 71
     2
 72
     1
  1
\A1;%%c6
  7
SLDTEXTSTYLE0
 11
-3.552713678800498E-15
 21
1.0
 31
0.0
 73
     1
 44
1.0
  0
POINT
  5
14F
330
107
100
AcDbEntity
  8
Defpoints
 62
     0
100
AcDbPoint
 10
-39.03589838486225
 20
3.000000000000003
 30
0.0
  0
POINT
  5
150
330
107
100
AcDbEntity
  8
Defpoints
 62
     0
100
AcDbPoint
 10
-39.03589838486225
 20
-3.000000000000002
 30
0.0
  0
POINT
  5
151
330
107
100
AcDbEntity
  8
Defpoints
 62
     0
100
AcDbPoint
 10
-48.26459432440907
 20
-3.000000000000037
 30
0.0
  0
ENDBLK
  5
109
330
107
100
AcDbEntity
  8
0
100
AcDbBlockEnd
  0
BLOCK
  5
115
330
114
100
AcDbEntity
  8
0
100
AcDbBlockBegin
  2
_D_3
 70
     0
 10
0.0
 20
0.0
 30
0.0
  3
_D_3
  1

  0
LINE
  5
117
330
114
100
AcDbEntity
  8
치수문자_일반주서
 62
     0
370
    -2
100
AcDbLine
 10
10.46410161513774
 20
1.021659309289451
 30
0.0
 11
10.46410161513774
 21
11.8050776118771
 31
0.0
  0
LINE
  5
118
330
114
100
AcDbEntity
  8
치수문자_일반주서
 62
     0
370
    -2
100
AcDbLine
 10
20.46410161513774
 20
1.062500000000002
 30
0.0
 11
20.46410161513774
 21
11.8050776118771
 31
0.0
  0
LINE
  5
119
330
114
100
AcDbEntity
  8
치수문자_일반주서
 62
     0
370
    -2
100
AcDbLine
 10
13.76610161513774
 20
11.8050776118771
 30
0.0
 11
17.16210161513774
 21
11.8050776118771
 31
0.0
  0
SOLID
  5
11A
330
114
100
AcDbEntity
  8
치수문자_일반주서
 62
     0
100
AcDbTrace
 10
13.76610161513774
 20
12.35541094521044
 30
0.0
 11
13.76610161513774
 21
11.25474427854377
 31
0.0
 12
10.46410161513774
 22
11.8050776118771
 32
0.0
 13
10.46410161513774
 23
11.8050776118771
 33
0.0
  0
SOLID
  5
11B
330
114
100
AcDbEntity
  8
치수문자_일반주서
 62
     0
100
AcDbTrace
 10
17.16210161513774
 20
11.25474427854377
 30
0.0
 11
17.16210161513774
 21
12.35541094521044
 31
0.0
 12
20.46410161513774
 22
11.8050776118771
 32
0.0
 13
20.46410161513774
 23
11.8050776118771
 33
0.0
  0
MTEXT
  5
11C
330
114
100
AcDbEntity
  8
치수문자_일반주서
 62
     0
100
AcDbMText
 10
15.46410161513774
 20
16.1800776118771
 30
0.0
 40
3.5
 41
0.0
 71
     2
 72
     1
  1
\A1;10
  7
SLDTEXTSTYLE0
 73
     1
 44
1.0
  0
POINT
  5
11D
330
114
100
AcDbEntity
  8
Defpoints
 62
     0
100
AcDbPoint
 10
10.46410161513774
 20
0.9591593092894515
 30
0.0
  0
POINT
  5
11E
330
114
100
AcDbEntity
  8
Defpoints
 62
     0
100
AcDbPoint
 10
20.46410161513774
 20
1.000000000000002
 30
0.0
  0
POINT
  5
14E
330
114
100
AcDbEntity
  8
Defpoints
 62
     0
100
AcDbPoint
 10
20.46410161513774
 20
11.8050776118771
 30
0.0
  0
ENDBLK
  5
116
330
114
100
AcDbEntity
  8
0
100
AcDbBlockEnd
  0
BLOCK
  5
120
330
11F
100
AcDbEntity
  8
0
100
AcDbBlockBegin
  2
SW_DOWELSYMBOL_0
 70
     0
 10
0.0
 20
0.0
 30
0.0
  3
SW_DOWELSYMBOL_0
  1

  0
CIRCLE
  5
122
330
11F
100
AcDbEntity
  8
해칭선
 62
     0
100
AcDbCircle
 10
0.0
 20
0.0
 30
0.0
 40
3.000000000000003
  0
HATCH
  5
123
330
11F
100
AcDbEntity
  8
0
  6
Continuous
 62
     0
370
    18
100
AcDbHatch
 10
0.0
 20
0.0
 30
0.0
210
0.0
220
0.0
230
1.0
  2
SOLID
 70
     1
 71
     0
 91
        1
 92
        0
 93
        3
 72
     2
 10
0.0
 20
0.0
 40
3.000000000000003
 50
0.0
 51
90.0
 73
     1
 72
     1
 10
0.0
 20
3.000000000000003
 11
0.0
 21
0.0
 72
     1
 10
0.0
 20
0.0
 11
3.000000000000003
 21
0.0
 97
        0
 75
     0
 76
     1
 98
        1
 10
0.0
 20
0.0
  0
HATCH
  5
124
330
11F
100
AcDbEntity
  8
0
  6
Continuous
 62
     0
370
    18
100
AcDbHatch
 10
0.0
 20
0.0
 30
0.0
210
0.0
220
0.0
230
1.0
  2
SOLID
 70
     1
 71
     0
 91
        1
 92
        0
 93
        3
 72
     2
 10
0.0
 20
0.0
 40
3.000000000000003
 50
180.0
 51
270.0000000000008
 73
     1
 72
     1
 10
0.0
 20
-3.000000000000003
 11
0.0
 21
0.0
 72
     1
 10
0.0
 20
0.0
 11
-3.000000000000003
 21
0.0
 97
        0
 75
     0
 76
     1
 98
        1
 10
0.0
 20
0.0
  0
ENDBLK
  5
121
330
11F
100
AcDbEntity
  8
0
100
AcDbBlockEnd
  0
ENDSEC
  0
SECTION
  2
ENTITIES
  0
LINE
  5
99
330
1F
100
AcDbEntity
  8
0
  6
Continuous
 62
     4
370
    25
100
AcDbLine
 10
2.0
 20
2.999999999999998
 30
0.0
 11
-39.03589838486226
 21
2.999999999999996
 31
0.0
  0
LINE
  5
9A
330
1F
100
AcDbEntity
  8
0
  6
Continuous
 62
     4
370
    25
100
AcDbLine
 10
-39.03589838486226
 20
-3.000000000000001
 30
0.0
 11
2.000000000000004
 21
-2.999999999999998
 31
0.0
  0
LINE
  5
9B
330
1F
100
AcDbEntity
  8
0
  6
Continuous
 62
     4
370
    25
100
AcDbLine
 10
9.167111016156706
 20
-1.079578391156602
 30
0.0
 11
9.464101615137736
 21
-0.9999999999999996
 31
0.0
  0
LINE
  5
9C
330
1F
100
AcDbEntity
  8
0
  6
Continuous
 62
     4
370
    25
100
AcDbLine
 10
2.0
 20
-3.0
 30
0.0
 11
9.167111016156706
 21
-1.079578391156602
 31
0.0
  0
LINE
  5
9D
330
1F
100
AcDbEntity
  8
0
  6
Continuous
 62
     4
370
    25
100
AcDbLine
 10
9.167111016156628
 20
1.079578391156624
 30
0.0
 11
2.0
 21
3.0
 31
0.0
  0
LINE
  5
9E
330
1F
100
AcDbEntity
  8
0
  6
Continuous
 62
     4
370
    25
100
AcDbLine
 10
9.464101615137736
 20
1.0
 30
0.0
 11
9.167111016156628
 21
1.079578391156624
 31
0.0
  0
LINE
  5
9F
330
1F
100
AcDbEntity
  8
0
  6
Continuous
 62
     4
370
    25
100
AcDbLine
 10
-39.03589838486226
 20
2.999999999999994
 30
0.0
 11
-39.53589838486226
 21
2.499999999999994
 31
0.0
  0
LINE
  5
A0
330
1F
100
AcDbEntity
  8
0
  6
Continuous
 62
     4
370
    25
100
AcDbLine
 10
-39.53589838486226
 20
-2.5
 30
0.0
 11
-39.03589838486226
 21
-2.999999999999999
 31
0.0
  0
LINE
  5
A1
330
1F
100
AcDbEntity
  8
0
  6
Continuous
 62
     4
370
    25
100
AcDbLine
 10
9.504406934727982
 20
-0.1748059687264942
 30
0.0
 11
9.424884029599692
 21
-0.1296629050313021
 31
0.0
  0
LINE
  5
A2
330
1F
100
AcDbEntity
  8
0
  6
Continuous
 62
     4
370
    25
100
AcDbLine
 10
9.968358473177233
 20
1.0
 30
0.0
 11
9.464101615137736
 21
1.0
 31
0.0
  0
LINE
  5
A3
330
1F
100
AcDbEntity
  8
0
  6
Continuous
 62
     4
370
    25
100
AcDbLine
 10
9.464101615137736
 20
-0.9999999999999996
 30
0.0
 11
9.968358473177243
 21
-0.9999999999999996
 31
0.0
  0
LINE
  5
A4
330
1F
100
AcDbEntity
  8
0
  6
Continuous
 62
     1
370
    25
100
AcDbLine
 10
14.63661875881501
 20
-1.0
 30
0.0
 11
15.40847843145828
 21
-1.0
 31
0.0
  0
LINE
  5
A5
330
1F
100
AcDbEntity
  8
0
  6
Continuous
 62
     1
370
    25
100
AcDbLine
 10
20.46410161513774
 20
1.000000000000001
 30
0.0
 11
20.07635023787164
 21
1.000000000000001
 31
0.0
  0
LINE
  5
A6
330
1F
100
AcDbEntity
  8
0
  6
Continuous
 62
     1
370
    25
100
AcDbLine
 10
17.35753103122187
 20
-1.0
 30
0.0
 11
18.13155325522611
 21
-1.0
 31
0.0
  0
LINE
  5
A7
330
1F
100
AcDbEntity
  8
0
  6
Continuous
 62
     1
370
    25
100
AcDbLine
 10
12.68829310855156
 20
1.000000000000001
 30
0.0
 11
11.91403811085661
 21
1.000000000000001
 31
0.0
  0
LINE
  5
A8
330
1F
100
AcDbEntity
  8
0
  6
Continuous
 62
     1
370
    25
100
AcDbLine
 10
20.07635023787163
 20
-1.0
 30
0.0
 11
20.46410161513774
 21
-1.0
 31
0.0
  0
LINE
  5
A9
330
1F
100
AcDbEntity
  8
0
  6
Continuous
 62
     1
370
    25
100
AcDbLine
 10
15.4084784314583
 20
1.000000000000001
 30
0.0
 11
14.63661875881502
 21
1.000000000000001
 31
0.0
  0
LINE
  5
AA
330
1F
100
AcDbEntity
  8
0
  6
Continuous
 62
     1
370
    25
100
AcDbLine
 10
14.92411262944855
 20
-0.1631783021088389
 30
0.0
 11
14.88575066269018
 21
-0.1432770072424929
 31
0.0
  0
LINE
  5
AB
330
1F
100
AcDbEntity
  8
0
  6
Continuous
 62
     1
370
    25
100
AcDbLine
 10
20.25856503840206
 20
-0.1044150268293736
 30
0.0
 11
20.23575073272901
 21
-0.0909941283887351
 31
0.0
  0
SPLINE
  5
AC
330
1F
100
AcDbEntity
  8
0
  6
Continuous
 62
     1
370
    25
100
AcDbSpline
210
0.0
220
0.0
230
1.0
 70
     8
 71
     3
 72
     9
 73
     5
 74
     0
 42
0.000000001
 43
0.00000001
 40
0.0
 40
0.0
 40
0.0
 40
0.0
 40
0.5548480520324818
 40
1.0
 40
1.0
 40
1.0
 40
1.0
 10
20.46410161513774
 20
-0.2226450624658045
 30
0.0
 10
20.42641623084629
 20
-0.2016172985959899
 30
0.0
 10
20.35849604233087
 20
-0.1637190599831173
 30
0.0
 10
20.28934690955674
 20
-0.1226825217580886
 30
0.0
 10
20.25856503840206
 20
-0.1044150268293736
 30
0.0
  0
LINE
  5
AD
330
1F
100
AcDbEntity
  8
0
  6
Continuous
 62
     1
370
    25
100
AcDbLine
 10
17.84598763148452
 20
0.1611990118831856
 30
0.0
 11
17.88035542853107
 21
0.1432770072426252
 31
0.0
  0
LINE
  5
AE
330
1F
100
AcDbEntity
  8
0
  6
Continuous
 62
     1
370
    25
100
AcDbLine
 10
11.91403811085662
 20
-1.0
 30
0.0
 11
12.68829310855156
 21
-1.0
 31
0.0
  0
LINE
  5
AF
330
1F
100
AcDbEntity
  8
0
  6
Continuous
 62
     1
370
    25
100
AcDbLine
 10
18.13155325522608
 20
1.000000000000001
 30
0.0
 11
17.35753103122189
 21
1.000000000000001
 31
0.0
  0
LINE
  5
B0
330
1F
100
AcDbEntity
  8
0
  6
Continuous
 62
     4
370
    25
100
AcDbLine
 10
2.0
 20
3.0
 30
0.0
 11
2.0
 21
-3.0
 31
0.0
  0
LINE
  5
B1
330
1F
100
AcDbEntity
  8
0
  6
Continuous
 62
     4
370
    25
100
AcDbLine
 10
-39.03589838486226
 20
2.999999999999994
 30
0.0
 11
-39.03589838486226
 21
-2.999999999999999
 31
0.0
  0
SPLINE
  5
B2
330
1F
100
AcDbEntity
  8
0
  6
Continuous
 62
     4
370
    25
100
AcDbSpline
210
0.0
220
0.0
230
1.0
 70
     8
 71
     3
 72
     8
 73
     4
 74
     0
 42
0.000000001
 43
0.00000001
 40
0.0
 40
0.0
 40
0.0
 40
0.0
 40
1.0
 40
1.0
 40
1.0
 40
1.0
 10
9.267215090512448
 20
1.052050946237323
 30
0.0
 10
9.33268056550585
 20
1.033034838635556
 30
0.0
 10
9.398300769755284
 20
1.011678025600365
 30
0.0
 10
9.464101615137732
 20
0.9879827386505355
 30
0.0
  0
SPLINE
  5
B3
330
1F
100
AcDbEntity
  8
0
  6
Continuous
 62
     4
370
    25
100
AcDbSpline
210
0.0
220
0.0
230
1.0
 70
     8
 71
     3
 72
    10
 73
     6
 74
     0
 42
0.000000001
 43
0.00000001
 40
0.0
 40
0.0
 40
0.0
 40
0.0
 40
0.5
 40
0.5
 40
1.0
 40
1.0
 40
1.0
 40
1.0
 10
8.963962549440922
 20
1.114108556984786
 30
0.0
 10
8.963962549440922
 20
1.127667812062187
 30
0.0
 10
9.006659458547258
 20
1.120923628406758
 30
0.0
 10
9.128733327877782
 20
1.090387412156289
 30
0.0
 10
9.207063851273304
 20
1.069523399280188
 30
0.0
 10
9.267215090512476
 20
1.052050946237314
 30
0.0
  0
LINE
  5
B4
330
1F
100
AcDbEntity
  8
0
  6
Continuous
 62
     4
370
    25
100
AcDbLine
 10
8.963962549440922
 20
1.114108556984786
 30
0.0
 11
8.963962549440922
 21
0.7034662122086462
 31
0.0
  0
SPLINE
  5
B5
330
1F
100
AcDbEntity
  8
0
  6
Continuous
 62
     4
370
    25
100
AcDbSpline
210
0.0
220
0.0
230
1.0
 70
     8
 71
     3
 72
     8
 73
     4
 74
     0
 42
0.000000001
 43
0.00000001
 40
0.0
 40
0.0
 40
0.0
 40
0.0
 40
1.0
 40
1.0
 40
1.0
 40
1.0
 10
9.056170690951724
 20
0.5508193472643229
 30
0.0
 10
9.000358822474254
 20
0.589503862076759
 30
0.0
 10
8.96396254944058
 20
0.6500072998866397
 30
0.0
 10
8.963962549440524
 20
0.703466212208587
 30
0.0
  0
SPLINE
  5
B6
330
1F
100
AcDbEntity
  8
0
  6
Continuous
 62
     4
370
    25
100
AcDbSpline
210
0.0
220
0.0
230
1.0
 70
     8
 71
     3
 72
     8
 73
     4
 74
     0
 42
0.000000001
 43
0.00000001
 40
0.0
 40
0.0
 40
0.0
 40
0.0
 40
1.0
 40
1.0
 40
1.0
 40
1.0
 10
9.464101615137736
 20
0.2873608506299289
 30
0.0
 10
9.324695710567806
 20
0.3701614911612635
 30
0.0
 10
9.189147866925698
 20
0.4586497483239427
 30
0.0
 10
9.05617069095172
 20
0.5508193472643172
 30
0.0
  0
LINE
  5
B7
330
1F
100
AcDbEntity
  8
0
  6
Continuous
 62
     4
370
    25
100
AcDbLine
 10
9.464101615137736
 20
0.2873608506299288
 30
0.0
 11
9.464101615137736
 21
-0.1545642524278834
 31
0.0
  0
SPLINE
  5
B8
330
1F
100
AcDbEntity
  8
0
  6
Continuous
 62
     4
370
    25
100
AcDbSpline
210
0.0
220
0.0
230
1.0
 70
     8
 71
     3
 72
     8
 73
     4
 74
     0
 42
0.000000001
 43
0.00000001
 40
0.0
 40
0.0
 40
0.0
 40
0.0
 40
1.0
 40
1.0
 40
1.0
 40
1.0
 10
9.267215090512448
 20
-0.0385114119006666
 30
0.0
 10
9.33268056550585
 20
-0.0784757971043027
 30
0.0
 10
9.398300769755284
 20
-0.1171736461168502
 30
0.0
 10
9.464101615137732
 20
-0.154564252427882
 30
0.0
  0
SPLINE
  5
B9
330
1F
100
AcDbEntity
  8
0
  6
Continuous
 62
     4
370
    25
100
AcDbSpline
210
0.0
220
0.0
230
1.0
 70
     8
 71
     3
 72
    10
 73
     6
 74
     0
 42
0.000000001
 43
0.00000001
 40
0.0
 40
0.0
 40
0.0
 40
0.0
 40
0.5
 40
0.5
 40
1.0
 40
1.0
 40
1.0
 40
1.0
 10
8.963962549440922
 20
-0.2115301847352918
 30
0.0
 10
8.963962549440922
 20
-0.1401149296170845
 30
0.0
 10
9.006659458547258
 20
-0.0695948243896563
 30
0.0
 10
9.128733327877782
 20
-0.0008530239607227
 30
0.0
 10
9.207063851273304
 20
-0.001791181952424
 30
0.0
 10
9.267215090512476
 20
-0.0385114119006847
 30
0.0
  0
LINE
  5
BA
330
1F
100
AcDbEntity
  8
0
  6
Continuous
 62
     4
370
    25
100
AcDbLine
 10
8.963962549440922
 20
-0.2115301847352917
 30
0.0
 11
8.963962549440922
 21
-0.8894482469945576
 31
0.0
  0
SPLINE
  5
BB
330
1F
100
AcDbEntity
  8
0
  6
Continuous
 62
     4
370
    25
100
AcDbSpline
210
0.0
220
0.0
230
1.0
 70
     8
 71
     3
 72
     8
 73
     4
 74
     0
 42
0.000000001
 43
0.00000001
 40
0.0
 40
0.0
 40
0.0
 40
0.0
 40
1.0
 40
1.0
 40
1.0
 40
1.0
 10
9.056170690951724
 20
-0.9628889349333123
 30
0.0
 10
9.000358822474254
 20
-0.9579882562647866
 30
0.0
 10
8.96396254944058
 20
-0.931728996534647
 30
0.0
 10
8.963962549440524
 20
-0.8894482469947393
 30
0.0
  0
SPLINE
  5
BC
330
1F
100
AcDbEntity
  8
0
  6
Continuous
 62
     4
370
    25
100
AcDbSpline
210
0.0
220
0.0
230
1.0
 70
     8
 71
     3
 72
     8
 73
     4
 74
     0
 42
0.000000001
 43
0.00000001
 40
0.0
 40
0.0
 40
0.0
 40
0.0
 40
1.0
 40
1.0
 40
1.0
 40
1.0
 10
9.464101615137736
 20
-0.9578223956064326
 30
0.0
 10
9.324695710567806
 20
-0.9719795474083296
 30
0.0
 10
9.189147866925698
 20
-0.9745652759602901
 30
0.0
 10
9.05617069095172
 20
-0.9628889349333002
 30
0.0
  0
LINE
  5
BD
330
1F
100
AcDbEntity
  8
0
  6
Continuous
 62
     4
370
    25
100
AcDbLine
 10
9.464101615137736
 20
-0.9578223956064327
 30
0.0
 11
9.464101615137736
 21
-0.9999999999999996
 31
0.0
  0
LINE
  5
BE
330
1F
100
AcDbEntity
  8
0
  6
Continuous
 62
     4
370
    25
100
AcDbLine
 10
9.464101615137736
 20
1.0
 30
0.0
 11
9.464101615137736
 21
0.9879827386505319
 31
0.0
  0
LINE
  5
BF
330
1F
100
AcDbEntity
  8
0
  6
Continuous
 62
     4
370
    25
100
AcDbLine
 10
-39.53589838486226
 20
2.499999999999995
 30
0.0
 11
-39.53589838486226
 21
-2.500000000000002
 31
0.0
  0
SPLINE
  5
C0
330
1F
100
AcDbEntity
  8
0
  6
Continuous
 62
     4
370
    25
100
AcDbSpline
210
0.0
220
0.0
230
1.0
 70
     8
 71
     3
 72
    12
 73
     8
 74
     0
 42
0.000000001
 43
0.00000001
 40
0.0
 40
0.0
 40
0.0
 40
0.0
 40
0.5
 40
0.5
 40
0.75
 40
0.75
 40
1.0
 40
1.0
 40
1.0
 40
1.0
 10
10.46410161513773
 20
0.7428773022348141
 30
0.0
 10
10.29621147712079
 20
0.8075511261942422
 30
0.0
 10
10.13304712093513
 20
0.8612870522263787
 30
0.0
 10
9.880147038274938
 20
0.9236735792319214
 30
0.0
 10
9.795623014115957
 20
0.9413012719428819
 30
0.0
 10
9.628769854920609
 20
0.9697360287775992
 30
0.0
 10
9.547404776045536
 20
0.9805355071114106
 30
0.0
 10
9.464101615137729
 20
0.9879827386505323
 30
0.0
  0
SPLINE
  5
C1
330
1F
100
AcDbEntity
  8
0
  6
Continuous
 62
     4
370
    25
100
AcDbSpline
210
0.0
220
0.0
230
1.0
 70
    24
 71
     3
 72
    16
 73
    12
 74
     0
 42
0.000000001
 43
0.00000001
 40
0.0
 40
0.0
 40
0.0
 40
0.0
 40
0.1250000000000001
 40
0.1250000000000001
 40
0.2500000000000002
 40
0.2500000000000002
 40
0.5000000000000001
 40
0.5000000000000001
 40
0.75
 40
0.75
 40
1.0
 40
1.0
 40
1.0
 40
1.0
 10
10.46410161513774
 20
0.7428773022349013
 30
0.0
 10
10.46410161513774
 20
0.713645975654862
 30
0.0
 10
10.46410161513774
 20
0.6862633651464141
 30
0.0
 10
10.46410161513774
 20
0.6236646983702978
 30
0.0
 10
10.46410161513774
 20
0.5890506807642287
 30
0.0
 10
10.46410161513774
 20
0.4744482844243337
 30
0.0
 10
10.46410161513774
 20
0.3828071216130051
 30
0.0
 10
10.46410161513774
 20
0.1785103561790718
 30
0.0
 10
10.46410161513774
 20
0.0656512075794437
 30
0.0
 10
10.46410161513774
 20
-0.1390430580901325
 30
0.0
 10
10.46410161513774
 20
-0.2286149279474622
 30
0.0
 10
10.46410161513774
 20
-0.2828664338577094
 30
0.0
  0
SPLINE
  5
C2
330
1F
100
AcDbEntity
  8
0
  6
Continuous
 62
     4
370
    25
100
AcDbSpline
210
0.0
220
0.0
230
1.0
 70
     8
 71
     3
 72
    12
 73
     8
 74
     0
 42
0.000000001
 43
0.00000001
 40
0.0
 40
0.0
 40
0.0
 40
0.0
 40
0.5
 40
0.5
 40
0.75
 40
0.75
 40
1.0
 40
1.0
 40
1.0
 40
1.0
 10
10.46410161513774
 20
-0.2828664338577101
 30
0.0
 10
10.29621147712079
 20
-0.1902014463863634
 30
0.0
 10
10.13304712093513
 20
-0.0944679494504615
 30
0.0
 10
9.880147038274941
 20
0.0506514760115674
 30
0.0
 10
9.79562301411596
 20
0.0990579457147789
 30
0.0
 10
9.628769854920613
 20
0.1944259308905709
 30
0.0
 10
9.54740477604554
 20
0.2412109482987592
 30
0.0
 10
9.464101615137729
 20
0.2873608506299328
 30
0.0
  0
SPLINE
  5
C3
330
1F
100
AcDbEntity
  8
0
  6
Continuous
 62
     4
370
    25
100
AcDbSpline
210
0.0
220
0.0
230
1.0
 70
     8
 71
     3
 72
    12
 73
     8
 74
     0
 42
0.000000001
 43
0.00000001
 40
0.0
 40
0.0
 40
0.0
 40
0.0
 40
0.5
 40
0.5
 40
0.75
 40
0.75
 40
1.0
 40
1.0
 40
1.0
 40
1.0
 10
10.46410161513773
 20
-0.66942760163017
 30
0.0
 10
10.29621147712079
 20
-0.5976577556435508
 30
0.0
 10
10.13304712093513
 20
-0.5172470450867697
 30
0.0
 10
9.880147038274938
 20
-0.3862215582082891
 30
0.0
 10
9.795623014115957
 20
-0.3409922542721096
 30
0.0
 10
9.628769854920609
 20
-0.2488691152503928
 30
0.0
 10
9.547404776045536
 20
-0.2021673436718872
 30
0.0
 10
9.464101615137729
 20
-0.1545642524278792
 30
0.0
  0
SPLINE
  5
C4
330
1F
100
AcDbEntity
  8
0
  6
Continuous
 62
     4
370
    25
100
AcDbSpline
210
0.0
220
0.0
230
1.0
 70
    24
 71
     3
 72
    12
 73
     8
 74
     0
 42
0.000000001
 43
0.00000001
 40
0.0
 40
0.0
 40
0.0
 40
0.0
 40
0.0568582486841588
 40
0.3569348963676936
 40
0.6657137871626713
 40
0.8321402375432864
 40
0.9999999999999999
 40
0.9999999999999999
 40
0.9999999999999999
 40
0.9999999999999999
 10
10.46410161513774
 20
-0.669427601630172
 30
0.0
 10
10.46410161513774
 20
-0.6730829391968677
 30
0.0
 10
10.46410161513774
 20
-0.6960297862375665
 30
0.0
 10
10.46410161513774
 20
-0.7550285986417068
 30
0.0
 10
10.46410161513774
 20
-0.8309184386086261
 30
0.0
 10
10.46410161513774
 20
-0.9009498040055229
 30
0.0
 10
10.46410161513774
 20
-0.9397007569751348
 30
0.0
 10
10.46410161513774
 20
-0.9591593092894526
 30
0.0
  0
SPLINE
  5
C5
330
1F
100
AcDbEntity
  8
0
  6
Continuous
 62
     4
370
    25
100
AcDbSpline
210
0.0
220
0.0
230
1.0
 70
     8
 71
     3
 72
    12
 73
     8
 74
     0
 42
0.000000001
 43
0.00000001
 40
0.0
 40
0.0
 40
0.0
 40
0.0
 40
0.5
 40
0.5
 40
0.75
 40
0.75
 40
1.0
 40
1.0
 40
1.0
 40
1.0
 10
10.46410161513774
 20
-0.9591593092894524
 30
0.0
 10
10.29621147712079
 20
-0.9864872143575971
 30
0.0
 10
10.13304712093513
 20
-1.000217825531232
 30
0.0
 10
9.880147038274941
 20
-0.9998871941243176
 30
0.0
 10
9.79562301411596
 20
-0.9962486263105383
 30
0.0
 10
9.628769854920613
 20
-0.9821009924810191
 30
0.0
 10
9.54740477604554
 20
-0.9716680472128322
 30
0.0
 10
9.464101615137729
 20
-0.9578223956064317
 30
0.0
  0
LINE
  5
C6
330
1F
100
AcDbEntity
  8
0
  6
Continuous
 62
     4
370
    25
100
AcDbLine
 10
10.46410161513774
 20
-0.2828664338577094
 30
0.0
 11
10.46410161513774
 21
-0.6694276016302301
 31
0.0
  0
LINE
  5
C7
330
1F
100
AcDbEntity
  8
0
  6
Continuous
 62
     4
370
    25
100
AcDbLine
 10
10.46410161513774
 20
0.9591593092894514
 30
0.0
 11
9.968358473177233
 21
0.9996777148670445
 31
0.0
  0
LINE
  5
C8
330
1F
100
AcDbEntity
  8
0
  6
Continuous
 62
     4
370
    25
100
AcDbLine
 10
10.46410161513774
 20
0.9591593092894515
 30
0.0
 11
10.46410161513774
 21
0.7428773022348983
 31
0.0
  0
SPLINE
  5
C9
330
1F
100
AcDbEntity
  8
0
  6
Continuous
 62
     1
370
    25
100
AcDbSpline
210
0.0
220
0.0
230
1.0
 70
     8
 71
     3
 72
    14
 73
    10
 74
     0
 42
0.000000001
 43
0.00000001
 40
0.0
 40
0.0
 40
0.0
 40
0.0
 40
0.1646680237149472
 40
0.3293366980334684
 40
0.4671280222871315
 40
0.6051710045116049
 40
0.7432566767874634
 40
0.8810766045816572
 40
1.0
 40
1.0
 40
1.0
 40
1.0
 10
10.46410161513773
 20
0.7428773022348144
 30
0.0
 10
10.69318010933071
 20
0.6429626406924427
 30
0.0
 10
11.1513380028061
 20
0.4431329228447428
 30
0.0
 10
11.80137998523689
 20
0.0651074036052521
 30
0.0
 10
12.41369774958967
 20
-0.2892863015644672
 30
0.0
 10
12.98951820994952
 20
-0.5926468472462414
 30
0.0
 10
13.56539381610526
 20
-0.8279560813813572
 30
0.0
 10
14.11438095480307
 20
-0.9767132477324156
 30
0.0
 10
14.47129590803051
 20
-0.9882296454267401
 30
0.0
 10
14.63661875881501
 20
-0.9935640358196824
 30
0.0
  0
SPLINE
  5
CA
330
1F
100
AcDbEntity
  8
0
  6
Continuous
 62
     1
370
    25
100
AcDbSpline
210
0.0
220
0.0
230
1.0
 70
     8
 71
     3
 72
    10
 73
     6
 74
     0
 42
0.000000001
 43
0.00000001
 40
0.0
 40
0.0
 40
0.0
 40
0.0
 40
0.1565522534618301
 40
0.5778792237508417
 40
0.9999999999999999
 40
0.9999999999999999
 40
0.9999999999999999
 40
0.9999999999999999
 10
19.09955334774976
 20
0.834374794472653
 30
0.0
 10
19.17073591000549
 20
0.8590458931901688
 30
0.0
 10
19.43349114291541
 20
0.9501139874570741
 30
0.0
 10
19.88826762139642
 20
1.014057712411111
 30
0.0
 10
20.27203655658729
 20
0.9881378344881893
 30
0.0
 10
20.46410161513774
 20
0.975165698355258
 30
0.0
  0
SPLINE
  5
CB
330
1F
100
AcDbEntity
  8
0
  6
Continuous
 62
     1
370
    25
100
AcDbSpline
210
0.0
220
0.0
230
1.0
 70
     8
 71
     3
 72
    17
 73
    13
 74
     0
 42
0.000000001
 43
0.00000001
 40
0.0
 40
0.0
 40
0.0
 40
0.0
 40
0.0876297396768383
 40
0.184721712242036
 40
0.2817557702965536
 40
0.3788150212384997
 40
0.4759821330135275
 40
0.5733366024817917
 40
0.6706609742054045
 40
0.7678079196411781
 40
0.8839041891679382
 40
1.0
 40
1.0
 40
1.0
 40
1.0
 10
16.3817165736119
 20
-0.8420304161908646
 30
0.0
 10
16.20885204306478
 20
-0.8895732788227804
 30
0.0
 10
15.84445712204438
 20
-0.989792668069427
 30
0.0
 10
15.28887422752195
 20
-1.014651474191878
 30
0.0
 10
14.71474628245067
 20
-0.9379991262829471
 30
0.0
 10
14.14043991741786
 20
-0.7567336654374937
 30
0.0
 10
13.56539458560308
 20
-0.4932499307940616
 30
0.0
 10
12.98951800374662
 20
-0.1761016455831907
 30
0.0
 10
12.41369780437636
 20
0.1608766208984018
 30
0.0
 10
11.80137996742666
 20
0.4990177783707781
 30
0.0
 10
11.15133800758355
 20
0.8028166683742352
 30
0.0
 10
10.6931801109232
 20
0.9070451642853982
 30
0.0
 10
10.46410161513774
 20
0.9591593092894528
 30
0.0
  0
LINE
  5
CC
330
1F
100
AcDbEntity
  8
0
  6
Continuous
 62
     1
370
    25
100
AcDbLine
 10
20.46410161513774
 20
0.9751656983552625
 30
0.0
 11
20.46410161513774
 21
1.000000000000002
 31
0.0
  0
SPLINE
  5
CD
330
1F
100
AcDbEntity
  8
0
  6
Continuous
 62
     1
370
    25
100
AcDbSpline
210
0.0
220
0.0
230
1.0
 70
     8
 71
     3
 72
    19
 73
    15
 74
     0
 42
0.000000001
 43
0.00000001
 40
0.0
 40
0.0
 40
0.0
 40
0.0
 40
0.0330086029254595
 40
0.1400521949132068
 40
0.2296240479320146
 40
0.3193594923154786
 40
0.409122687553568
 40
0.4987131344290073
 40
0.5882041309857166
 40
0.677671899085784
 40
0.767193065777182
 40
0.856843327819137
 40
0.9466441429969373
 40
0.9999999999999999
 40
0.9999999999999999
 40
0.9999999999999999
 40
0.9999999999999999
 10
10.93944000907302
 20
0.8320153342072597
 30
0.0
 10
11.01008210218624
 20
0.8576370364257215
 30
0.0
 10
11.30980942527565
 20
0.9663473517702238
 30
0.0
 10
11.80138445861596
 20
1.015461426841505
 30
0.0
 10
12.41369669659317
 20
0.9776649936051145
 30
0.0
 10
12.98951827719292
 20
0.8284486994094293
 30
0.0
 10
13.56539460101198
 20
0.5907398285913378
 30
0.0
 10
14.14043958380323
 20
0.287843521939609
 30
0.0
 10
14.71474759989303
 20
-0.0462757191599251
 30
0.0
 10
15.28886929090597
 20
-0.3750089026418785
 30
0.0
 10
15.86340985791411
 20
-0.6641536951459682
 30
0.0
 10
16.43880033750898
 20
-0.8760555361526204
 30
0.0
 10
16.93714130029506
 20
-0.9919642456340982
 30
0.0
 10
17.24338943189467
 20
-0.9881655374789419
 30
0.0
 10
17.35753103122187
 20
-0.9867497227213392
 30
0.0
  0
SPLINE
  5
CE
330
1F
100
AcDbEntity
  8
0
  6
Continuous
 62
     1
370
    25
100
AcDbSpline
210
0.0
220
0.0
230
1.0
 70
     8
 71
     3
 72
    19
 73
    15
 74
     0
 42
0.000000001
 43
0.00000001
 40
0.0
 40
0.0
 40
0.0
 40
0.0
 40
0.0398382282854712
 40
0.1375840211404556
 40
0.2353544388166498
 40
0.3251084748425196
 40
0.4150012946164819
 40
0.5047434070067733
 40
0.594356291783058
 40
0.6839157232589789
 40
0.7734984069900416
 40
0.8631806429307407
 40
0.9530358042218303
 40
1.0
 40
1.0
 40
1.0
 40
1.0
 10
19.09955334774981
 20
-0.834374794472667
 30
0.0
 10
19.01441507106171
 20
-0.8636886019877056
 30
0.0
 10
18.72038426286966
 20
-0.9649258227786501
 30
0.0
 10
18.21740200046171
 20
-1.016616974283673
 30
0.0
 10
17.60766277344818
 20
-0.9750201204693465
 30
0.0
 10
17.01484733498745
 20
-0.8140315249474882
 30
0.0
 10
16.4388031109056
 20
-0.5707150099569788
 30
0.0
 10
15.86340915298259
 20
-0.2643982561715636
 30
0.0
 10
15.28886934359837
 20
0.0706580541531244
 30
0.0
 10
14.71474809289541
 20
0.3975651310953953
 30
0.0
 10
14.14043755745142
 20
0.682556980300802
 30
0.0
 10
13.5654022286321
 20
0.8876978730742942
 30
0.0
 10
13.08113291813007
 20
0.9956662259130435
 30
0.0
 10
12.78867970702928
 20
0.9886704961299462
 30
0.0
 10
12.68829310855156
 20
0.9862691632324511
 30
0.0
  0
SPLINE
  5
CF
330
1F
100
AcDbEntity
  8
0
  6
Continuous
 62
     1
370
    25
100
AcDbSpline
210
0.0
220
0.0
230
1.0
 70
     8
 71
     3
 72
    19
 73
    15
 74
     0
 42
0.000000001
 43
0.00000001
 40
0.0
 40
0.0
 40
0.0
 40
0.0
 40
0.0743124550275805
 40
0.1638694471005438
 40
0.2534031935869409
 40
0.3429903780436872
 40
0.4327067530529059
 40
0.5225737922240209
 40
0.6123020874492068
 40
0.701895919138583
 40
0.7914309243588197
 40
0.8809837646900057
 40
0.9706307905677946
 40
1.0
 40
1.0
 40
1.0
 40
1.0
 10
13.66410651238155
 20
0.839575855433373
 30
0.0
 10
13.82295716090823
 20
0.8849782857229773
 30
0.0
 10
14.17324525105367
 20
0.9850970497419711
 30
0.0
 10
14.71474295889934
 20
1.015805341160316
 30
0.0
 10
15.28887095044639
 20
0.9473337738551733
 30
0.0
 10
15.86340786028606
 20
0.772805226904138
 30
0.0
 10
16.43880668027548
 20
0.5144380617715294
 30
0.0
 10
17.0148343381755
 20
0.2000847217617608
 30
0.0
 10
17.59029337470972
 20
-0.1365522095451498
 30
0.0
 10
18.16488189009208
 20
-0.4576185665433357
 30
0.0
 10
18.73901171241694
 20
-0.7306827288933693
 30
0.0
 10
19.31329698079461
 20
-0.9164366910188932
 30
0.0
 10
19.75905035424062
 20
-1.004886483240658
 30
0.0
 10
20.01354861503482
 20
-0.9912588336796686
 30
0.0
 10
20.07635023787163
 20
-0.9878959874849206
 30
0.0
  0
SPLINE
  5
D0
330
1F
100
AcDbEntity
  8
0
  6
Continuous
 62
     1
370
    25
100
AcDbSpline
210
0.0
220
0.0
230
1.0
 70
     8
 71
     3
 72
    15
 73
    11
 74
     0
 42
0.000000001
 43
0.00000001
 40
0.0
 40
0.0
 40
0.0
 40
0.0
 40
0.1336335432471829
 40
0.2672738650523484
 40
0.4009344580892479
 40
0.5346287238614154
 40
0.6573611436645997
 40
0.7802833406186173
 40
0.9029994556770552
 40
1.0
 40
1.0
 40
1.0
 40
1.0
 10
20.09726667790109
 20
-0.9068606969289696
 30
0.0
 10
19.88841874560121
 20
-0.844464818238342
 30
0.0
 10
19.47071228719556
 20
-0.7196698958277736
 30
0.0
 10
18.84410744025875
 20
-0.4077390033955053
 30
0.0
 10
18.21740221707012
 20
-0.0513280324299247
 30
0.0
 10
17.60766285644316
 20
0.3038006157374516
 30
0.0
 10
17.01484685680359
 20
0.6123684102505306
 30
0.0
 10
16.43880495877073
 20
0.8415745103537815
 30
0.0
 10
15.90331539982969
 20
0.981066311981954
 30
0.0
 10
15.56003147222065
 20
0.9879285587461196
 30
0.0
 10
15.4084784314583
 20
0.99095810449507
 30
0.0
  0
LINE
  5
D1
330
1F
100
AcDbEntity
  8
0
  6
Continuous
 62
     1
370
    25
100
AcDbLine
 10
10.93944000907304
 20
-0.832015334207259
 30
0.0
 11
10.46410161513774
 21
-0.9591593092894539
 31
0.0
  0
ELLIPSE
  5
D2
330
1F
100
AcDbEntity
  8
0
  6
Continuous
 62
     1
370
    25
100
AcDbEllipse
 10
20.21987392215964
 20
0.0000000000000011
 30
0.0
 11
1.389323305659961
 21
-0.5503410060417638
 31
0.0
210
0.0
220
0.0
230
1.0
 40
0.6009688174887277
 41
4.860139407233073
 42
5.117950484049581
  0
LINE
  5
D3
330
1F
100
AcDbEntity
  8
0
  6
Continuous
 62
     1
370
    25
100
AcDbLine
 10
20.46410161513774
 20
-1.000000000000001
 30
0.0
 11
20.46410161513774
 21
-0.9843391617328159
 31
0.0
  0
SPLINE
  5
D4
330
1F
100
AcDbEntity
  8
0
  6
Continuous
 62
     4
370
    25
100
AcDbSpline
210
0.0
220
0.0
230
1.0
 70
    24
 71
     3
 72
    16
 73
    12
 74
     0
 42
0.000000001
 43
0.00000001
 40
0.0
 40
0.0
 40
0.0
 40
0.0
 40
0.1250000000000001
 40
0.1250000000000001
 40
0.2500000000000002
 40
0.2500000000000002
 40
0.5000000000000002
 40
0.5000000000000002
 40
0.7500000000000001
 40
0.7500000000000001
 40
1.0
 40
1.0
 40
1.0
 40
1.0
 10
10.46410161513774
 20
0.7428773022349009
 30
0.0
 10
10.46410161513774
 20
0.7136459756548617
 30
0.0
 10
10.46410161513774
 20
0.6862633651464143
 30
0.0
 10
10.46410161513774
 20
0.6236646983702978
 30
0.0
 10
10.46410161513774
 20
0.5890506807642282
 30
0.0
 10
10.46410161513774
 20
0.474448284424333
 30
0.0
 10
10.46410161513774
 20
0.3828071216130044
 30
0.0
 10
10.46410161513774
 20
0.1785103561790711
 30
0.0
 10
10.46410161513774
 20
0.0656512075794437
 30
0.0
 10
10.46410161513774
 20
-0.1390430580901324
 30
0.0
 10
10.46410161513774
 20
-0.2286149279474622
 30
0.0
 10
10.46410161513774
 20
-0.2828664338577094
 30
0.0
  0
LINE
  5
D5
330
1F
100
AcDbEntity
  8
0
  6
Continuous
 62
     1
370
    25
100
AcDbLine
 10
20.46410161513774
 20
0.3586687346939974
 30
0.0
 11
20.46410161513774
 21
0.9751656983552625
 31
0.0
  0
SPLINE
  5
D6
330
1F
100
AcDbEntity
  8
0
  6
Continuous
 62
     1
370
    25
100
AcDbSpline
210
0.0
220
0.0
230
1.0
 70
     8
 71
     3
 72
     9
 73
     5
 74
     0
 42
0.000000001
 43
0.00000001
 40
0.0
 40
0.0
 40
0.0
 40
0.0
 40
0.5146787924962726
 40
1.0
 40
1.0
 40
1.0
 40
1.0
 10
20.46410161513774
 20
0.3586687346939974
 30
0.0
 10
20.41223076632998
 20
0.3453440883184005
 30
0.0
 10
20.31144781283742
 20
0.3194548413358888
 30
0.0
 10
20.21286907795233
 20
0.3553397599737396
 30
0.0
 10
20.1650267273037
 20
0.3727554720182343
 30
0.0
  0
SPLINE
  5
D7
330
1F
100
AcDbEntity
  8
0
  6
Continuous
 62
     1
370
    25
100
AcDbSpline
210
0.0
220
0.0
230
1.0
 70
     8
 71
     3
 72
    11
 73
     7
 74
     0
 42
0.000000001
 43
0.00000001
 40
0.0
 40
0.0
 40
0.0
 40
0.0
 40
0.3187431932640605
 40
0.6375025547682529
 40
0.9563102672850534
 40
1.0
 40
1.0
 40
1.0
 40
1.0
 10
20.09726667788844
 20
0.4214305119127632
 30
0.0
 10
19.88841873213256
 20
0.5261140810009108
 30
0.0
 10
19.47071224681423
 20
0.735486529248507
 30
0.0
 10
18.84410760175963
 20
0.9280531744484639
 30
0.0
 10
18.39772206773987
 20
1.015297666867652
 30
0.0
 10
18.16018252987372
 20
0.9947800115469824
 30
0.0
 10
18.13155325522608
 20
0.9923071365276167
 30
0.0
  0
SPLINE
  5
D8
330
1F
100
AcDbEntity
  8
0
  6
Continuous
 62
     1
370
    25
100
AcDbSpline
210
0.0
220
0.0
230
1.0
 70
     8
 71
     3
 72
    13
 73
     9
 74
     0
 42
0.000000001
 43
0.00000001
 40
0.0
 40
0.0
 40
0.0
 40
0.0
 40
0.0307583969162113
 40
0.210828596807369
 40
0.3908431268671849
 40
0.5705294831175018
 40
0.7852651657675543
 40
1.0
 40
1.0
 40
1.0
 40
1.0
 10
13.66410651238155
 20
-0.8395758554333718
 30
0.0
 10
13.63130959175537
 20
-0.8516516013970836
 30
0.0
 10
13.40650825460974
 20
-0.9344229039414564
 30
0.0
 10
12.98950469352258
 20
-0.9980925311305674
 30
0.0
 10
12.41370134081118
 20
-1.007276484594485
 30
0.0
 10
11.80137881779143
 20
-0.890658472176874
 30
0.0
 10
11.15133831596355
 20
-0.6505037547242732
 30
0.0
 10
10.69318021371639
 20
-0.4054120460872737
 30
0.0
 10
10.46410161513774
 20
-0.28286643385771
 30
0.0
  0
SPLINE
  5
D9
330
1F
100
AcDbEntity
  8
0
  6
Continuous
 62
     4
370
    25
100
AcDbSpline
210
0.0
220
0.0
230
1.0
 70
    24
 71
     3
 72
    11
 73
     7
 74
     0
 42
0.000000001
 43
0.00000001
 40
0.0
 40
0.0
 40
0.0
 40
0.0
 40
0.0568785970729266
 40
0.3570626359692979
 40
0.6659520323295585
 40
1.0
 40
1.0
 40
1.0
 40
1.0
 10
10.46410161513774
 20
-0.6694276016301718
 30
0.0
 10
10.46410161513774
 20
-0.6730823964783113
 30
0.0
 10
10.46410161513774
 20
-0.6960258365341639
 30
0.0
 10
10.46410161513774
 20
-0.7551379646889571
 30
0.0
 10
10.46410161513774
 20
-0.8468967744213558
 30
0.0
 10
10.46410161513774
 20
-0.9207748316505484
 30
0.0
 10
10.46410161513774
 20
-0.9591593092894526
 30
0.0
  0
SPLINE
  5
DA
330
1F
100
AcDbEntity
  8
0
  6
Continuous
 62
     1
370
    25
100
AcDbSpline
210
0.0
220
0.0
230
1.0
 70
     8
 71
     3
 72
    10
 73
     6
 74
     0
 42
0.000000001
 43
0.00000001
 40
0.0
 40
0.0
 40
0.0
 40
0.0
 40
0.4739865940868438
 40
0.9479750608953319
 40
1.0
 40
1.0
 40
1.0
 40
1.0
 10
10.46410161513773
 20
-0.6694276016301705
 30
0.0
 10
10.69317549469417
 20
-0.7549497596355158
 30
0.0
 10
11.15132415887822
 20
-0.925994413544363
 30
0.0
 10
11.63481964931153
 20
-1.015755079201456
 30
0.0
 10
11.88890773052115
 20
-0.9957395604918032
 30
0.0
 10
11.91403811085662
 20
-0.9937599414738993
 30
0.0
  0
SPLINE
  5
DB
330
1F
100
AcDbEntity
  8
0
  6
Continuous
 62
     1
370
    25
100
AcDbSpline
210
0.0
220
0.0
230
1.0
 70
     8
 71
     3
 72
    15
 73
    11
 74
     0
 42
0.000000001
 43
0.00000001
 40
0.0
 40
0.0
 40
0.0
 40
0.0
 40
0.0139177410214567
 40
0.1550849409580881
 40
0.2960341956443183
 40
0.436772228941495
 40
0.5774178549666936
 40
0.7180914971888928
 40
0.8589130903173534
 40
1.0
 40
1.0
 40
1.0
 40
1.0
 10
16.38171657361191
 20
0.8420304161908672
 30
0.0
 10
16.40065701913019
 20
0.849125001131096
 30
0.0
 10
16.61170979489278
 20
0.9281797331369078
 30
0.0
 10
17.01485139687114
 20
0.993001930492603
 30
0.0
 10
17.59028894872363
 20
1.010879752316779
 30
0.0
 10
18.16488257389848
 20
0.909372688293751
 30
0.0
 10
18.73901339600942
 20
0.7109211245463564
 30
0.0
 10
19.31328955732453
 20
0.4346891896130688
 30
0.0
 10
19.88826501013118
 20
0.1092668734418916
 30
0.0
 10
20.2720356856196
 20
-0.1111595889764589
 30
0.0
 10
20.46410161513774
 20
-0.2214765467296671
 30
0.0
  0
LINE
  5
DC
330
1F
100
AcDbEntity
  8
0
  6
Continuous
 62
     1
370
    25
100
AcDbLine
 10
20.46410161513774
 20
-0.5000000000000002
 30
0.0
 11
20.46410161513774
 21
-0.2222080185536775
 31
0.0
  0
SPLINE
  5
DD
330
1F
100
AcDbEntity
  8
0
  6
Continuous
 62
     1
370
    25
100
AcDbSpline
210
0.0
220
0.0
230
1.0
 70
    24
 71
     3
 72
    10
 73
     6
 74
     0
 42
0.000000001
 43
0.00000001
 40
0.0
 40
0.0
 40
0.0
 40
0.0
 40
0.5
 40
0.5
 40
1.0
 40
1.0
 40
1.0
 40
1.0
 10
20.46410161513774
 20
-0.5000000000000001
 30
0.0
 10
20.39250978886368
 20
-0.5501291364312905
 30
0.0
 10
20.31669661919354
 20
-0.6032140893299061
 30
0.0
 10
20.17073995562959
 20
-0.7054140454093223
 30
0.0
 10
20.09957401537623
 20
-0.7552449732384905
 30
0.0
 10
20.03417165354496
 20
-0.8010402000094627
 30
0.0
  0
SPLINE
  5
DE
330
1F
100
AcDbEntity
  8
0
  6
Continuous
 62
     1
370
    25
100
AcDbSpline
210
0.0
220
0.0
230
1.0
 70
     8
 71
     3
 72
     8
 73
     4
 74
     0
 42
0.000000001
 43
0.00000001
 40
0.0
 40
0.0
 40
0.0
 40
0.0
 40
1.0
 40
1.0
 40
1.0
 40
1.0
 10
20.09726667787579
 20
-0.9068606969228539
 30
0.0
 10
20.08093458426371
 20
-0.867839184505752
 30
0.0
 10
20.05766982250779
 20
-0.8343466187133476
 30
0.0
 10
20.03417165354952
 20
-0.8010402000055649
 30
0.0
  0
ELLIPSE
  5
DF
330
1F
100
AcDbEntity
  8
0
  6
Continuous
 62
     1
370
    25
100
AcDbEllipse
 10
20.21987392215964
 20
0.0000000000000004
 30
0.0
 11
1.419102565980783
 21
-0.9721740704074062
 31
0.0
210
0.0
220
0.0
230
1.0
 40
0.1650759015746641
 41
1.511550483225867
 42
1.76936156004237
  0
LINE
  5
E0
330
1F
100
AcDbEntity
  8
0
  6
Continuous
 62
     1
370
    25
100
AcDbLine
 10
20.46410161513774
 20
-0.2214765467296675
 30
0.0
 11
20.46410161513774
 21
0.1762850381601878
 31
0.0
  0
LINE
  5
E1
330
1F
100
AcDbEntity
  8
0
  6
Continuous
 62
     1
370
    25
100
AcDbLine
 10
20.46410161513774
 20
0.1762850381601879
 30
0.0
 11
20.46410161513774
 21
0.3586687346939974
 31
0.0
  0
LINE
  5
E2
330
1F
100
AcDbEntity
  8
0
  6
Continuous
 62
     1
370
    25
100
AcDbLine
 10
20.46410161513774
 20
-0.4999999999999989
 30
0.0
 11
20.46410161513774
 21
-0.9843391617328159
 31
0.0
  0
LINE
  5
E3
330
1F
100
AcDbEntity
  8
중심선
100
AcDbLine
 10
-42.53589838486226
 20
-0.0000000000000043
 30
0.0
 11
21.96410161513773
 21
0.0000000000000036
 31
0.0
  0
CIRCLE
  5
E4
330
1F
100
AcDbEntity
  8
해칭선
100
AcDbCircle
 10
0.0000346174866116
 20
-0.0000000000000042
 30
0.0
 40
3.000000000000003
  0
INSERT
  5
E5
330
1F
100
AcDbEntity
  8
0
  6
Continuous
 62
     7
100
AcDbBlockReference
 66
     1
  2
블럭10
 10
-22.44009924894178
 20
-52.04717430164393
 30
0.0
  0
ATTRIB
  5
E6
330
E5
100
AcDbEntity
  8
FORMAT
 62
     2
100
AcDbText
 10
-38.55936028837733
 20
-49.97180738881174
 30
0.0
 40
4.233333333333333
  1
SEME7202010E [ 4 FLUTE ]
 41
0.75
  7
SLDTEXTSTYLE0
 11
-38.55936028837733
 21
-52.08847405547841
 31
0.0
100
AcDbAttribute
  2
AUTOATTR0
 70
     0
 74
     1
  0
SEQEND
  5
E7
330
E5
100
AcDbEntity
  8
0
  6
Continuous
 62
     7
  0
HATCH
  5
E8
330
1F
100
AcDbEntity
  8
중심선
100
AcDbHatch
 10
0.0
 20
0.0
 30
0.0
210
0.0
220
0.0
230
1.0
  2
SOLID
 70
     1
 71
     0
 91
        1
 92
        0
 93
        4
 72
     1
 10
-16.72518994456093
 20
-35.8
 11
-20.17146518839821
 21
-35.8
 72
     1
 10
-20.17146518839821
 20
-35.8
 11
-22.29969504760223
 21
-38.33632558057259
 72
     1
 10
-22.29969504760223
 20
-38.33632558057259
 11
-18.85338671865181
 21
-38.3362861512701
 72
     1
 10
-18.85338671865181
 20
-38.3362861512701
 11
-16.72518994456093
 21
-35.8
 97
        0
 75
     0
 76
     1
 98
        1
 10
0.0
 20
0.0
  0
HATCH
  5
E9
330
1F
100
AcDbEntity
  8
중심선
100
AcDbHatch
 10
0.0
 20
0.0
 30
0.0
210
0.0
220
0.0
230
1.0
  2
SOLID
 70
     1
 71
     0
 91
        1
 92
        0
 93
        4
 72
     1
 10
-11.71242595352495
 20
-35.8
 11
-15.15870119736223
 21
-35.8
 72
     1
 10
-15.15870119736223
 20
-35.8
 11
-19.68983920571965
 21
-41.20000000000002
 72
     1
 10
-19.68983920571965
 20
-41.20000000000002
 11
-16.24356396188237
 21
-41.20000000000002
 72
     1
 10
-16.24356396188237
 20
-41.20000000000002
 11
-11.71242595352495
 21
-35.8
 97
        0
 75
     0
 76
     1
 98
        1
 10
0.0
 20
0.0
  0
HATCH
  5
EA
330
1F
100
AcDbEntity
  8
중심선
100
AcDbHatch
 10
0.0
 20
0.0
 30
0.0
210
0.0
220
0.0
230
1.0
  2
SOLID
 70
     1
 71
     0
 91
        1
 92
        0
 93
        4
 72
     1
 10
-6.699661962489084
 20
-35.8
 11
-10.14593720632617
 21
-35.8
 72
     1
 10
-10.14593720632617
 20
-35.8
 11
-17.19437410821545
 21
-44.20000000000002
 72
     1
 10
-17.19437410821545
 20
-44.20000000000002
 11
-13.74809886437817
 21
-44.20000000000002
 72
     1
 10
-13.74809886437817
 20
-44.20000000000002
 11
-6.699661962489084
 21
-35.8
 97
        0
 75
     0
 76
     1
 98
        1
 10
0.0
 20
0.0
  0
HATCH
  5
EB
330
1F
100
AcDbEntity
  8
중심선
100
AcDbHatch
 10
0.0
 20
0.0
 30
0.0
210
0.0
220
0.0
230
1.0
  2
SOLID
 70
     1
 71
     0
 91
        1
 92
        0
 93
        6
 72
     3
 10
-1.899771531476885
 20
-40.00000000005127
 11
3.960054785062284
 21
1.540850780301639E-10
 40
0.3939339440162633
 50
17.09539180608433
 51
320.0019657685086
 73
     0
 72
     1
 10
-0.2167718757762893
 20
-38.58789400463833
 11
2.088529997924748
 21
-36.65356729459038
 72
     3
 10
-1.899771531529731
 20
-40.00000000000015
 11
6.600054785286829
 21
-1.249000902703301E-13
 40
0.6363583540795982
 50
39.99873849337408
 51
368.4976242363725
 73
     1
 72
     1
 10
4.525560960370878
 20
-39.03999999993002
 11
-3.219704224693809
 21
-39.03999999993002
 72
     1
 10
-3.219704224693809
 20
-39.03999999993002
 11
-3.219729269139743
 21
-40.95999999992991
 72
     1
 10
-3.219729269139743
 20
-40.95999999992991
 11
1.221650500332294
 21
-40.95999999992988
 97
        0
 75
     0
 76
     1
 98
        1
 10
0.0
 20
0.0
  0
DIMENSION
  5
EC
330
1F
100
AcDbEntity
  8
치수문자_일반주서
100
AcDbDimension
  2
_D
 10
32.23569029037874
 20
1.00000000000005
 30
0.0
 11
32.23569029037871
 21
10.66650000000005
 31
0.0
 70
   160
  1
%%c<>
 71
     2
 42
2.000000000000011
 52
-270.0
  3
SLDDIMSTYLE0
100
AcDbAlignedDimension
 13
20.46410161513775
 23
-1.000000000000006
 33
0.0
 14
20.46410161513775
 24
1.000000000000005
 34
0.0
 50
90.0000000000002
100
AcDbRotatedDimension
  0
DIMENSION
  5
FA
330
1F
100
AcDbEntity
  8
치수문자_일반주서
100
AcDbDimension
  2
_D_1
 10
20.46410161513774
 20
20.38913260158165
 30
0.0
 11
-9.535898384862268
 21
20.38913260158165
 31
0.0
 70
   160
  1
<>
 71
     2
 42
60.0
  3
SLDDIMSTYLE1
100
AcDbAlignedDimension
 13
-39.53589838486226
 23
2.499999999999995
 33
0.0
 14
20.46410161513774
 24
1.000000000000002
 34
0.0
 50
-0.0000000000000068
100
AcDbRotatedDimension
  0
DIMENSION
  5
105
330
1F
100
AcDbEntity
  8
치수문자_일반주서
100
AcDbDimension
  2
_D_2
 10
-48.26459432440907
 20
-3.000000000000037
 30
0.0
 11
-48.26459432440913
 21
12.66649999999997
 31
0.0
 70
   160
  1
%%c<>
 71
     2
 42
6.000000000000005
 52
-270.0
  3
SLDDIMSTYLE2
100
AcDbAlignedDimension
 13
-39.03589838486225
 23
3.000000000000003
 33
0.0
 14
-39.03589838486225
 24
-3.000000000000002
 34
0.0
 50
90.0000000000002
100
AcDbRotatedDimension
  0
DIMENSION
  5
113
330
1F
100
AcDbEntity
  8
치수문자_일반주서
100
AcDbDimension
  2
_D_3
 10
20.46410161513774
 20
11.8050776118771
 30
0.0
 11
15.46410161513774
 21
11.8050776118771
 31
0.0
 70
   160
  1
<>
 71
     2
 42
10.0
  3
SLDDIMSTYLE2
100
AcDbAlignedDimension
 13
10.46410161513774
 23
0.9591593092894515
 33
0.0
 14
20.46410161513774
 24
1.000000000000002
 34
0.0
100
AcDbRotatedDimension
  0
INSERT
  5
125
330
1F
100
AcDbEntity
  8
해칭선
100
AcDbBlockReference
  2
SW_DOWELSYMBOL_0
 10
0.0000346174866116
 20
-0.0000000000000042
 30
0.0
  0
ENDSEC
  0
SECTION
  2
OBJECTS
  0
DICTIONARY
  5
C
330
0
100
AcDbDictionary
281
     1
  3
ACAD_GROUP
350
D
  3
ACAD_IMAGE_VARS
350
149
  3
ACAD_LAYOUT
350
1A
  3
ACAD_MLINESTYLE
350
17
  3
ACAD_PLOTSETTINGS
350
19
  3
ACAD_PLOTSTYLENAME
350
E
  3
ACAD_SCALELIST
350
47
  3
APPDATA
350
147
  3
DWGPROPS
350
157
  0
DICTIONARY
  5
D
102
{ACAD_REACTORS
330
C
102
}
330
C
100
AcDbDictionary
281
     1
  0
RASTERVARIABLES
  5
149
102
{ACAD_REACTORS
330
C
102
}
330
C
100
AcDbRasterVariables
 90
        0
 70
     1
 71
     1
 72
     1
  0
DICTIONARY
  5
1A
102
{ACAD_REACTORS
330
C
102
}
330
C
100
AcDbDictionary
281
     1
  3
Layout1
350
1E
  3
Layout2
350
26
  3
Model
350
22
  0
DICTIONARY
  5
17
102
{ACAD_REACTORS
330
C
102
}
330
C
100
AcDbDictionary
281
     1
  3
Standard
350
18
  0
DICTIONARY
  5
19
102
{ACAD_REACTORS
330
C
102
}
330
C
100
AcDbDictionary
281
     1
  0
ACDBDICTIONARYWDFLT
  5
E
102
{ACAD_REACTORS
330
C
102
}
330
C
100
AcDbDictionary
281
     1
  3
Normal
350
F
100
AcDbDictionaryWithDefault
340
F
  0
DICTIONARY
  5
47
102
{ACAD_REACTORS
330
C
102
}
330
C
100
AcDbDictionary
281
     1
  3
A0
350
48
  3
A1
350
49
  3
A2
350
4A
  3
A3
350
4B
  3
A4
350
4C
  3
A5
350
4D
  3
A6
350
4E
  3
A7
350
4F
  3
A8
350
50
  3
A9
350
51
  3
B0
350
52
  3
B1
350
53
  3
B2
350
54
  3
B3
350
55
  3
B4
350
56
  3
B5
350
57
  3
B6
350
58
  3
B7
350
59
  3
B8
350
5A
  3
B9
350
5B
  3
C0
350
5C
  3
C1
350
5D
  3
C2
350
5E
  3
C3
350
5F
  3
C4
350
60
  3
C5
350
61
  3
C6
350
62
  3
C7
350
63
  3
C8
350
64
  3
C9
350
65
  3
D0
350
66
  3
D1
350
67
  3
D2
350
68
  0
DICTIONARY
  5
147
102
{ACAD_REACTORS
330
C
102
}
330
C
100
AcDbDictionary
281
     1
  0
XRECORD
  5
157
102
{ACAD_REACTORS
330
C
102
}
330
C
100
AcDbXrecord
280
     1
  1
DWGPROPS COOKIE
  2

  3

  4

  6

  7

  8
12014102
  9

300
=
301
=
302
=
303
=
304
=
305
=
306
=
307
=
308
=
309
=
 40
0.0
 41
2458260.192950394
 42
2458268.100259664
  1

 90
        0
  0
LAYOUT
  5
1E
102
{ACAD_REACTORS
330
1A
102
}
330
1A
100
AcDbPlotSettings
  1

  2
none_device
  4

  6

 40
0.0
 41
0.0
 42
0.0
 43
0.0
 44
0.0
 45
0.0
 46
0.0
 47
0.0
 48
0.0
 49
0.0
140
0.0
141
0.0
142
1.0
143
1.0
 70
   688
 72
     1
 73
     0
 74
     5
  7

 75
    16
147
1.0
148
0.0
149
0.0
100
AcDbLayout
  1
Layout1
 70
     1
 71
     1
 10
0.0
 20
0.0
 11
420.0
 21
297.0
 12
0.0
 22
0.0
 32
0.0
 14
1.000000000000000E+20
 24
1.000000000000000E+20
 34
1.000000000000000E+20
 15
-1.000000000000000E+20
 25
-1.000000000000000E+20
 35
-1.000000000000000E+20
146
0.0
 13
0.0
 23
0.0
 33
0.0
 16
1.0
 26
0.0
 36
0.0
 17
0.0
 27
1.0
 37
0.0
 76
     0
330
1B
  0
LAYOUT
  5
26
102
{ACAD_REACTORS
330
1A
102
}
330
1A
100
AcDbPlotSettings
  1

  2
none_device
  4

  6

 40
0.0
 41
0.0
 42
0.0
 43
0.0
 44
0.0
 45
0.0
 46
0.0
 47
0.0
 48
0.0
 49
0.0
140
0.0
141
0.0
142
1.0
143
1.0
 70
   688
 72
     1
 73
     0
 74
     5
  7

 75
    16
147
1.0
148
0.0
149
0.0
100
AcDbLayout
  1
Layout2
 70
     1
 71
     2
 10
0.0
 20
0.0
 11
0.0
 21
0.0
 12
0.0
 22
0.0
 32
0.0
 14
0.0
 24
0.0
 34
0.0
 15
0.0
 25
0.0
 35
0.0
146
0.0
 13
0.0
 23
0.0
 33
0.0
 16
1.0
 26
0.0
 36
0.0
 17
0.0
 27
1.0
 37
0.0
 76
     0
330
23
  0
LAYOUT
  5
22
102
{ACAD_REACTORS
330
1A
102
}
330
1A
100
AcDbPlotSettings
  1

  2
none_device
  4
ANSI_A_(11.00_x_8.50_Inches)
  6

 40
6.35
 41
19.05
 42
6.35000508
 43
19.05000254
 44
279.4
 45
215.9
 46
159.1468158048696
 47
125.3847137330092
 48
0.0
 49
0.0
140
0.0
141
0.0
142
0.1112850254374008
143
1.0
 70
  1696
 72
     0
 73
     0
 74
     0
  7

 75
     0
147
0.0235690232323232
148
0.0
149
0.0
100
AcDbLayout
  1
Model
 70
     1
 71
     0
 10
0.0
 20
0.0
 11
420.0
 21
297.0
 12
0.0
 22
0.0
 32
0.0
 14
-52.63959432440914
 24
-49.97180738881174
 34
0.0
 15
32.7860236237121
 25
24.76413260158165
 35
0.0
146
0.0
 13
0.0
 23
0.0
 33
0.0
 16
1.0
 26
0.0
 36
0.0
 17
0.0
 27
1.0
 37
0.0
 76
     0
330
1F
331
29
  0
MLINESTYLE
  5
18
102
{ACAD_REACTORS
330
17
102
}
330
17
100
AcDbMlineStyle
  2
Standard
 70
     0
  3

 62
   256
 51
90.0
 52
90.0
 71
     2
 49
0.5
 62
   256
  6
BYLAYER
 49
-0.5
 62
   256
  6
BYLAYER
  0
ACDBPLACEHOLDER
  5
F
102
{ACAD_REACTORS
330
E
102
}
330
E
  0
SCALE
  5
48
102
{ACAD_REACTORS
330
47
102
}
330
47
100
AcDbScale
 70
     0
300
1:1
140
1.0
141
1.0
290
     1
  0
SCALE
  5
49
102
{ACAD_REACTORS
330
47
102
}
330
47
100
AcDbScale
 70
     0
300
1:2
140
1.0
141
2.0
290
     0
  0
SCALE
  5
4A
102
{ACAD_REACTORS
330
47
102
}
330
47
100
AcDbScale
 70
     0
300
1:4
140
1.0
141
4.0
290
     0
  0
SCALE
  5
4B
102
{ACAD_REACTORS
330
47
102
}
330
47
100
AcDbScale
 70
     0
300
1:5
140
1.0
141
5.0
290
     0
  0
SCALE
  5
4C
102
{ACAD_REACTORS
330
47
102
}
330
47
100
AcDbScale
 70
     0
300
1:8
140
1.0
141
8.0
290
     0
  0
SCALE
  5
4D
102
{ACAD_REACTORS
330
47
102
}
330
47
100
AcDbScale
 70
     0
300
1:10
140
1.0
141
10.0
290
     0
  0
SCALE
  5
4E
102
{ACAD_REACTORS
330
47
102
}
330
47
100
AcDbScale
 70
     0
300
1:16
140
1.0
141
16.0
290
     0
  0
SCALE
  5
4F
102
{ACAD_REACTORS
330
47
102
}
330
47
100
AcDbScale
 70
     0
300
1:20
140
1.0
141
20.0
290
     0
  0
SCALE
  5
50
102
{ACAD_REACTORS
330
47
102
}
330
47
100
AcDbScale
 70
     0
300
1:30
140
1.0
141
30.0
290
     0
  0
SCALE
  5
51
102
{ACAD_REACTORS
330
47
102
}
330
47
100
AcDbScale
 70
     0
300
1:40
140
1.0
141
40.0
290
     0
  0
SCALE
  5
52
102
{ACAD_REACTORS
330
47
102
}
330
47
100
AcDbScale
 70
     0
300
1:50
140
1.0
141
50.0
290
     0
  0
SCALE
  5
53
102
{ACAD_REACTORS
330
47
102
}
330
47
100
AcDbScale
 70
     0
300
1:100
140
1.0
141
100.0
290
     0
  0
SCALE
  5
54
102
{ACAD_REACTORS
330
47
102
}
330
47
100
AcDbScale
 70
     0
300
2:1
140
2.0
141
1.0
290
     0
  0
SCALE
  5
55
102
{ACAD_REACTORS
330
47
102
}
330
47
100
AcDbScale
 70
     0
300
4:1
140
4.0
141
1.0
290
     0
  0
SCALE
  5
56
102
{ACAD_REACTORS
330
47
102
}
330
47
100
AcDbScale
 70
     0
300
8:1
140
8.0
141
1.0
290
     0
  0
SCALE
  5
57
102
{ACAD_REACTORS
330
47
102
}
330
47
100
AcDbScale
 70
     0
300
10:1
140
10.0
141
1.0
290
     0
  0
SCALE
  5
58
102
{ACAD_REACTORS
330
47
102
}
330
47
100
AcDbScale
 70
     0
300
100:1
140
100.0
141
1.0
290
     0
  0
SCALE
  5
59
102
{ACAD_REACTORS
330
47
102
}
330
47
100
AcDbScale
 70
     0
300
1/128" = 1'-0"
140
0.0078125
141
12.0
290
     0
  0
SCALE
  5
5A
102
{ACAD_REACTORS
330
47
102
}
330
47
100
AcDbScale
 70
     0
300
1/64" = 1'-0"
140
0.015625
141
12.0
290
     0
  0
SCALE
  5
5B
102
{ACAD_REACTORS
330
47
102
}
330
47
100
AcDbScale
 70
     0
300
1/32" = 1'-0"
140
0.03125
141
12.0
290
     0
  0
SCALE
  5
5C
102
{ACAD_REACTORS
330
47
102
}
330
47
100
AcDbScale
 70
     0
300
1/16" = 1'-0"
140
0.0625
141
12.0
290
     0
  0
SCALE
  5
5D
102
{ACAD_REACTORS
330
47
102
}
330
47
100
AcDbScale
 70
     0
300
3/32" = 1'-0"
140
0.09375
141
12.0
290
     0
  0
SCALE
  5
5E
102
{ACAD_REACTORS
330
47
102
}
330
47
100
AcDbScale
 70
     0
300
1/8" = 1'-0"
140
0.125
141
12.0
290
     0
  0
SCALE
  5
5F
102
{ACAD_REACTORS
330
47
102
}
330
47
100
AcDbScale
 70
     0
300
3/16" = 1'-0"
140
0.1875
141
12.0
290
     0
  0
SCALE
  5
60
102
{ACAD_REACTORS
330
47
102
}
330
47
100
AcDbScale
 70
     0
300
1/4" = 1'-0"
140
0.25
141
12.0
290
     0
  0
SCALE
  5
61
102
{ACAD_REACTORS
330
47
102
}
330
47
100
AcDbScale
 70
     0
300
3/8" = 1'-0"
140
0.375
141
12.0
290
     0
  0
SCALE
  5
62
102
{ACAD_REACTORS
330
47
102
}
330
47
100
AcDbScale
 70
     0
300
1/2" = 1'-0"
140
0.5
141
12.0
290
     0
  0
SCALE
  5
63
102
{ACAD_REACTORS
330
47
102
}
330
47
100
AcDbScale
 70
     0
300
3/4" = 1'-0"
140
0.75
141
12.0
290
     0
  0
SCALE
  5
64
102
{ACAD_REACTORS
330
47
102
}
330
47
100
AcDbScale
 70
     0
300
1" = 1'-0"
140
1.0
141
12.0
290
     0
  0
SCALE
  5
65
102
{ACAD_REACTORS
330
47
102
}
330
47
100
AcDbScale
 70
     0
300
1-1/2" = 1'-0"
140
1.5
141
12.0
290
     0
  0
SCALE
  5
66
102
{ACAD_REACTORS
330
47
102
}
330
47
100
AcDbScale
 70
     0
300
3" = 1'-0"
140
3.0
141
12.0
290
     0
  0
SCALE
  5
67
102
{ACAD_REACTORS
330
47
102
}
330
47
100
AcDbScale
 70
     0
300
6" = 1'-0"
140
6.0
141
12.0
290
     0
  0
SCALE
  5
68
102
{ACAD_REACTORS
330
47
102
}
330
47
100
AcDbScale
 70
     0
300
1'-0" = 1'-0"
140
12.0
141
12.0
290
     0
  0
ENDSEC
  0
EOF
