  0
SECTION
  2
HEADER
  9
$ACADVER
  1
AC1015
  9
$ACADMAINTVER
 70
     6
  9
$DWGCODEPAGE
  3
ANSI_949
  9
$INSBASE
 10
0.0
 20
0.0
 30
0.0
  9
$EXTMIN
 10
-47.35690333941868
 20
-49.97180738881174
 30
0.0
  9
$EXTMAX
 10
39.36864043351797
 20
24.76413260158165
 30
0.0
  9
$LIMMIN
 10
0.0
 20
0.0
  9
$LIMMAX
 10
420.0
 20
297.0
  9
$ORTHOMODE
 70
     0
  9
$REGENMODE
 70
     1
  9
$FILLMODE
 70
     1
  9
$QTEXTMODE
 70
     0
  9
$MIRRTEXT
 70
     1
  9
$LTSCALE
 40
1.0
  9
$ATTMODE
 70
     1
  9
$TEXTSIZE
 40
3.5
  9
$TRACEWID
 40
1.0
  9
$TEXTSTYLE
  7
Standard
  9
$CLAYER
  8
0
  9
$CELTYPE
  6
ByLayer
  9
$CECOLOR
 62
   256
  9
$CELTSCALE
 40
1.0
  9
$DISPSILH
 70
     0
  9
$DIMSCALE
 40
1.0
  9
$DIMASZ
 40
3.302
  9
$DIMEXO
 40
1.0
  9
$DIMDLI
 40
3.75
  9
$DIMRND
 40
0.0
  9
$DIMDLE
 40
0.0
  9
$DIMEXE
 40
1.0
  9
$DIMTP
 40
0.0
  9
$DIMTM
 40
0.0
  9
$DIMTXT
 40
3.5
  9
$DIMCEN
 40
2.5
  9
$DIMTSZ
 40
0.0
  9
$DIMTOL
 70
     0
  9
$DIMLIM
 70
     0
  9
$DIMTIH
 70
     1
  9
$DIMTOH
 70
     1
  9
$DIMSE1
 70
     0
  9
$DIMSE2
 70
     0
  9
$DIMTAD
 70
     1
  9
$DIMZIN
 70
     0
  9
$DIMBLK
  1

  9
$DIMASO
 70
     1
  9
$DIMSHO
 70
     1
  9
$DIMPOST
  1

  9
$DIMAPOST
  1

  9
$DIMALT
 70
     0
  9
$DIMALTD
 70
     3
  9
$DIMALTF
 40
0.0393700787401575
  9
$DIMLFAC
 40
1.0
  9
$DIMTOFL
 70
     1
  9
$DIMTVP
 40
0.0
  9
$DIMTIX
 70
     0
  9
$DIMSOXD
 70
     0
  9
$DIMSAH
 70
     0
  9
$DIMBLK1
  1

  9
$DIMBLK2
  1

  9
$DIMSTYLE
  2
ISO-25
  9
$DIMCLRD
 70
     0
  9
$DIMCLRE
 70
     0
  9
$DIMCLRT
 70
     0
  9
$DIMTFAC
 40
1.0
  9
$DIMGAP
 40
1.524
  9
$DIMJUST
 70
     0
  9
$DIMSD1
 70
     0
  9
$DIMSD2
 70
     0
  9
$DIMTOLJ
 70
     0
  9
$DIMTZIN
 70
     0
  9
$DIMALTZ
 70
     0
  9
$DIMALTTZ
 70
     0
  9
$DIMUPT
 70
     0
  9
$DIMDEC
 70
     2
  9
$DIMTDEC
 70
     2
  9
$DIMALTU
 70
     2
  9
$DIMALTTD
 70
     3
  9
$DIMTXSTY
  7
Standard
  9
$DIMAUNIT
 70
     0
  9
$DIMADEC
 70
     2
  9
$DIMALTRND
 40
0.0
  9
$DIMAZIN
 70
     0
  9
$DIMDSEP
 70
    44
  9
$DIMATFIT
 70
     3
  9
$DIMFRAC
 70
     0
  9
$DIMLDRBLK
  1

  9
$DIMLUNIT
 70
     2
  9
$DIMLWD
 70
    -2
  9
$DIMLWE
 70
    -2
  9
$DIMTMOVE
 70
     0
  9
$LUNITS
 70
     2
  9
$LUPREC
 70
     2
  9
$SKETCHINC
 40
1.0
  9
$FILLETRAD
 40
10.0
  9
$AUNITS
 70
     0
  9
$AUPREC
 70
     2
  9
$MENU
  1
.
  9
$ELEVATION
 40
0.0
  9
$PELEVATION
 40
0.0
  9
$THICKNESS
 40
0.0
  9
$LIMCHECK
 70
     0
  9
$CHAMFERA
 40
0.0
  9
$CHAMFERB
 40
0.0
  9
$CHAMFERC
 40
0.0
  9
$CHAMFERD
 40
0.0
  9
$SKPOLY
 70
     0
  9
$TDCREATE
 40
2458260.568517164
  9
$TDUCREATE
 40
2458260.193517164
  9
$TDUPDATE
 40
2458268.478329584
  9
$TDUUPDATE
 40
2458268.103329584
  9
$TDINDWG
 40
0.0010351852
  9
$TDUSRTIMER
 40
2458268.102294433
  9
$USRTIMER
 70
     1
  9
$ANGBASE
 50
0.0
  9
$ANGDIR
 70
     0
  9
$PDMODE
 70
     0
  9
$PDSIZE
 40
-1.0
  9
$PLINEWID
 40
0.0
  9
$SPLFRAME
 70
     0
  9
$SPLINETYPE
 70
     6
  9
$SPLINESEGS
 70
     8
  9
$HANDSEED
  5
164
  9
$SURFTAB1
 70
     6
  9
$SURFTAB2
 70
     6
  9
$SURFTYPE
 70
     6
  9
$SURFU
 70
     6
  9
$SURFV
 70
     6
  9
$UCSBASE
  2

  9
$UCSNAME
  2

  9
$UCSORG
 10
0.0
 20
0.0
 30
0.0
  9
$UCSXDIR
 10
1.0
 20
0.0
 30
0.0
  9
$UCSYDIR
 10
0.0
 20
1.0
 30
0.0
  9
$UCSORTHOREF
  2

  9
$UCSORTHOVIEW
 70
     0
  9
$UCSORGTOP
 10
0.0
 20
0.0
 30
0.0
  9
$UCSORGBOTTOM
 10
0.0
 20
0.0
 30
0.0
  9
$UCSORGLEFT
 10
0.0
 20
0.0
 30
0.0
  9
$UCSORGRIGHT
 10
0.0
 20
0.0
 30
0.0
  9
$UCSORGFRONT
 10
0.0
 20
0.0
 30
0.0
  9
$UCSORGBACK
 10
0.0
 20
0.0
 30
0.0
  9
$PUCSBASE
  2

  9
$PUCSNAME
  2

  9
$PUCSORG
 10
0.0
 20
0.0
 30
0.0
  9
$PUCSXDIR
 10
1.0
 20
0.0
 30
0.0
  9
$PUCSYDIR
 10
0.0
 20
1.0
 30
0.0
  9
$PUCSORTHOREF
  2

  9
$PUCSORTHOVIEW
 70
     0
  9
$PUCSORGTOP
 10
0.0
 20
0.0
 30
0.0
  9
$PUCSORGBOTTOM
 10
0.0
 20
0.0
 30
0.0
  9
$PUCSORGLEFT
 10
0.0
 20
0.0
 30
0.0
  9
$PUCSORGRIGHT
 10
0.0
 20
0.0
 30
0.0
  9
$PUCSORGFRONT
 10
0.0
 20
0.0
 30
0.0
  9
$PUCSORGBACK
 10
0.0
 20
0.0
 30
0.0
  9
$USERI1
 70
     0
  9
$USERI2
 70
     0
  9
$USERI3
 70
     0
  9
$USERI4
 70
     0
  9
$USERI5
 70
     0
  9
$USERR1
 40
0.0
  9
$USERR2
 40
0.0
  9
$USERR3
 40
0.0
  9
$USERR4
 40
0.0
  9
$USERR5
 40
0.0
  9
$WORLDVIEW
 70
     1
  9
$SHADEDGE
 70
     3
  9
$SHADEDIF
 70
    70
  9
$TILEMODE
 70
     1
  9
$MAXACTVP
 70
    64
  9
$PINSBASE
 10
0.0
 20
0.0
 30
0.0
  9
$PLIMCHECK
 70
     0
  9
$PEXTMIN
 10
1.000000000000000E+20
 20
1.000000000000000E+20
 30
1.000000000000000E+20
  9
$PEXTMAX
 10
-1.000000000000000E+20
 20
-1.000000000000000E+20
 30
-1.000000000000000E+20
  9
$PLIMMIN
 10
0.0
 20
0.0
  9
$PLIMMAX
 10
0.0
 20
0.0
  9
$UNITMODE
 70
     0
  9
$VISRETAIN
 70
     1
  9
$PLINEGEN
 70
     0
  9
$PSLTSCALE
 70
     1
  9
$TREEDEPTH
 70
  3020
  9
$CMLSTYLE
  2
Standard
  9
$CMLJUST
 70
     0
  9
$CMLSCALE
 40
20.0
  9
$PROXYGRAPHICS
 70
     1
  9
$MEASUREMENT
 70
     1
  9
$CELWEIGHT
370
    -1
  9
$ENDCAPS
280
     0
  9
$JOINSTYLE
280
     0
  9
$LWDISPLAY
290
     1
  9
$INSUNITS
 70
     4
  9
$HYPERLINKBASE
  1

  9
$STYLESHEET
  1

  9
$XEDIT
290
     1
  9
$CEPSNTYPE
380
     0
  9
$PSTYLEMODE
290
     1
  9
$FINGERPRINTGUID
  2
{0E07D70E-CAE5-4BD6-973A-2E82134AE9A3}
  9
$VERSIONGUID
  2
{FAEB1C32-E019-11D5-929B-00C0DF256EC4}
  9
$EXTNAMES
290
     1
  9
$PSVPSCALE
 40
0.0
  9
$OLESTARTUP
290
     0
  0
ENDSEC
  0
SECTION
  2
CLASSES
  0
CLASS
  1
ACDBDICTIONARYWDFLT
  2
AcDbDictionaryWithDefault
  3
ObjectDBX Classes
 90
        0
280
     0
281
     0
  0
CLASS
  1
VISUALSTYLE
  2
AcDbVisualStyle
  3
ObjectDBX Classes
 90
     4095
280
     0
281
     0
  0
CLASS
  1
MATERIAL
  2
AcDbMaterial
  3
ObjectDBX Classes
 90
     1153
280
     0
281
     0
  0
CLASS
  1
SCALE
  2
AcDbScale
  3
ObjectDBX Classes
 90
     1153
280
     0
281
     0
  0
CLASS
  1
TABLESTYLE
  2
AcDbTableStyle
  3
ObjectDBX Classes
 90
     4095
280
     0
281
     0
  0
CLASS
  1
MLEADERSTYLE
  2
AcDbMLeaderStyle
  3
ACDB_MLEADERSTYLE_CLASS
 90
     4095
280
     0
281
     0
  0
CLASS
  1
SUN
  2
AcDbSun
  3
SCENEOE
 90
     1153
280
     0
281
     0
  0
CLASS
  1
ACDBPLACEHOLDER
  2
AcDbPlaceHolder
  3
ObjectDBX Classes
 90
        0
280
     0
281
     0
  0
CLASS
  1
LAYOUT
  2
AcDbLayout
  3
ObjectDBX Classes
 90
        0
280
     0
281
     0
  0
CLASS
  1
RASTERVARIABLES
  2
AcDbRasterVariables
  3
ISM
 90
        0
280
     0
281
     0
  0
ENDSEC
  0
SECTION
  2
TABLES
  0
TABLE
  2
VPORT
  5
8
330
0
100
AcDbSymbolTable
 70
     1
  0
VPORT
  5
29
330
8
100
AcDbSymbolTableRecord
100
AcDbViewportTableRecord
  2
*Active
 70
     0
 10
0.0
 20
0.0
 11
1.0
 21
1.0
 12
-3.994131452950356
 22
-12.60383739361504
 13
0.0
 23
0.0
 14
10.0
 24
10.0
 15
10.0
 25
10.0
 16
0.0
 26
0.0
 36
1.0
 17
0.0
 27
0.0
 37
0.0
 40
76.23065879020126
 41
1.737726098191214
 42
50.0
 43
0.0
 44
0.0
 50
0.0
 51
0.0
 71
    16
 72
  2000
 73
     1
 74
     3
 75
     0
 76
     0
 77
     0
 78
     0
281
     0
 65
     1
110
0.0
120
0.0
130
0.0
111
1.0
121
0.0
131
0.0
112
0.0
122
1.0
132
0.0
 79
     0
146
0.0
  0
ENDTAB
  0
TABLE
  2
LTYPE
  5
5
330
0
100
AcDbSymbolTable
 70
     6
  0
LTYPE
  5
14
330
5
100
AcDbSymbolTableRecord
100
AcDbLinetypeTableRecord
  2
ByBlock
 70
     0
  3

 72
    65
 73
     0
 40
0.0
  0
LTYPE
  5
15
330
5
100
AcDbSymbolTableRecord
100
AcDbLinetypeTableRecord
  2
ByLayer
 70
     0
  3

 72
    65
 73
     0
 40
0.0
  0
LTYPE
  5
16
330
5
100
AcDbSymbolTableRecord
100
AcDbLinetypeTableRecord
  2
Continuous
 70
     0
  3
Solid line
 72
    65
 73
     0
 40
0.0
  0
LTYPE
  5
6E
330
5
100
AcDbSymbolTableRecord
100
AcDbLinetypeTableRecord
  2
HIDDEN
 70
     0
  3
Hidden __ __ __ __ __ __ __ __ __ __ __ __ __ __
 72
    65
 73
     2
 40
1.905
 49
1.27
 74
     0
 49
-0.635
 74
     0
  0
LTYPE
  5
6F
330
5
100
AcDbSymbolTableRecord
100
AcDbLinetypeTableRecord
  2
PHANTOM
 70
     0
  3
Phantom ______  __  __  ______  __  __  ______
 72
    65
 73
     6
 40
12.7
 49
6.35
 74
     0
 49
-1.27
 74
     0
 49
1.27
 74
     0
 49
-1.27
 74
     0
 49
1.27
 74
     0
 49
-1.27
 74
     0
  0
LTYPE
  5
70
330
5
100
AcDbSymbolTableRecord
100
AcDbLinetypeTableRecord
  2
CENTER
 70
     0
  3
Center ____ _ ____ _ ____ _ ____ _ ____ _ ____
 72
    65
 73
     4
 40
10.16
 49
6.35
 74
     0
 49
-1.27
 74
     0
 49
1.27
 74
     0
 49
-1.27
 74
     0
  0
LTYPE
  5
71
330
5
100
AcDbSymbolTableRecord
100
AcDbLinetypeTableRecord
  2
CENTERX2
 70
     0
  3
Center (2x) ________  __  ________  __  _____
 72
    65
 73
     4
 40
20.32
 49
12.7
 74
     0
 49
-2.54
 74
     0
 49
2.54
 74
     0
 49
-2.54
 74
     0
  0
LTYPE
  5
72
330
5
100
AcDbSymbolTableRecord
100
AcDbLinetypeTableRecord
  2
DOT2
 70
     0
  3
Dot (.5x) ........................................
 72
    65
 73
     2
 40
0.635
 49
0.0
 74
     0
 49
-0.635
 74
     0
  0
ENDTAB
  0
TABLE
  2
LAYER
  5
2
330
0
100
AcDbSymbolTable
 70
    17
  0
LAYER
  5
10
330
2
100
AcDbSymbolTableRecord
100
AcDbLayerTableRecord
  2
0
 70
     0
 62
     7
  6
Continuous
370
    -3
390
F
  0
LAYER
  5
73
330
2
100
AcDbSymbolTableRecord
100
AcDbLayerTableRecord
  2
FORMAT
 70
     0
 62
     2
  6
Continuous
370
    -3
390
F
  0
LAYER
  5
74
330
2
100
AcDbSymbolTableRecord
100
AcDbLayerTableRecord
  2
외형선
 70
     0
 62
   100
  6
Continuous
370
    35
390
F
  0
LAYER
  5
75
330
2
100
AcDbSymbolTableRecord
100
AcDbLayerTableRecord
  2
숨은선
 70
     0
 62
     2
  6
HIDDEN
370
    25
390
F
  0
LAYER
  5
76
330
2
100
AcDbSymbolTableRecord
100
AcDbLayerTableRecord
  2
중심선
 70
     0
 62
     1
  6
CENTERX2
370
    -3
390
F
  0
LAYER
  5
77
330
2
100
AcDbSymbolTableRecord
100
AcDbLayerTableRecord
  2
파단선
 70
     0
 62
     4
  6
Continuous
370
    -3
390
F
  0
LAYER
  5
78
330
2
100
AcDbSymbolTableRecord
100
AcDbLayerTableRecord
  2
해칭선
 70
     0
 62
   100
  6
Continuous
370
    -3
390
F
  0
LAYER
  5
79
330
2
100
AcDbSymbolTableRecord
100
AcDbLayerTableRecord
  2
가는실선
 70
     0
 62
     4
  6
Continuous
370
    -3
390
F
  0
LAYER
  5
7A
330
2
100
AcDbSymbolTableRecord
100
AcDbLayerTableRecord
  2
치수_보조선
 70
     0
 62
     4
  6
Continuous
370
    -3
390
F
  0
LAYER
  5
7B
330
2
100
AcDbSymbolTableRecord
100
AcDbLayerTableRecord
  2
치수문자_일반주서
 70
     0
 62
     7
  6
Continuous
370
    25
390
F
  0
LAYER
  5
7C
330
2
100
AcDbSymbolTableRecord
100
AcDbLayerTableRecord
  2
개별주서
 70
     0
 62
   100
  6
Continuous
370
    35
390
F
  0
LAYER
  5
7D
330
2
100
AcDbSymbolTableRecord
100
AcDbLayerTableRecord
  2
중간선
 70
     0
 62
     2
  6
Continuous
370
    25
390
F
  0
LAYER
  5
7E
330
2
100
AcDbSymbolTableRecord
100
AcDbLayerTableRecord
  2
윤곽선
 70
     0
 62
     3
  6
Continuous
370
    50
390
F
  0
LAYER
  5
7F
330
2
100
AcDbSymbolTableRecord
100
AcDbLayerTableRecord
  2
중심마크
 70
     0
 62
   100
  6
Continuous
370
    35
390
F
  0
LAYER
  5
80
330
2
100
AcDbSymbolTableRecord
100
AcDbLayerTableRecord
  2
가상선
 70
     0
 62
     4
  6
PHANTOM
370
    -3
390
F
  0
LAYER
  5
81
330
2
100
AcDbSymbolTableRecord
100
AcDbLayerTableRecord
  2
특수지정선
 70
     0
 62
     5
  6
CENTERX2
370
    70
390
F
  0
LAYER
  5
156
330
2
100
AcDbSymbolTableRecord
100
AcDbLayerTableRecord
  2
Defpoints
 70
     0
 62
     7
  6
Continuous
290
     0
370
    -3
390
F
  0
ENDTAB
  0
TABLE
  2
STYLE
  5
3
330
0
100
AcDbSymbolTable
 70
     2
  0
STYLE
  5
11
330
3
100
AcDbSymbolTableRecord
100
AcDbTextStyleTableRecord
  2
Standard
 70
     0
 40
0.0
 41
1.0
 50
0.0
 71
     0
 42
3.5
  3
txt
  4

  0
STYLE
  5
97
330
3
100
AcDbSymbolTableRecord
100
AcDbTextStyleTableRecord
  2
SLDTEXTSTYLE0
 70
     0
 40
0.0
 41
0.75
 50
0.0
 71
     0
 42
3.5
  3
TXT
  4

  0
ENDTAB
  0
TABLE
  2
VIEW
  5
6
330
0
100
AcDbSymbolTable
 70
     0
  0
ENDTAB
  0
TABLE
  2
UCS
  5
7
330
0
100
AcDbSymbolTable
 70
     0
  0
ENDTAB
  0
TABLE
  2
APPID
  5
9
330
0
100
AcDbSymbolTable
 70
     1
  0
APPID
  5
12
330
9
100
AcDbSymbolTableRecord
100
AcDbRegAppTableRecord
  2
ACAD
 70
     0
  0
ENDTAB
  0
TABLE
  2
DIMSTYLE
  5
A
330
0
100
AcDbSymbolTable
 70
     4
100
AcDbDimStyleTable
  0
DIMSTYLE
105
27
330
A
100
AcDbSymbolTableRecord
100
AcDbDimStyleTableRecord
  2
ISO-25
 70
     0
 41
2.5
 42
0.625
 43
3.75
 44
1.25
 73
     0
 74
     0
 77
     1
 78
     8
140
2.5
141
2.5
143
0.03937007874016
147
0.625
171
     3
172
     1
178
     0
271
     2
272
     2
274
     3
278
    44
283
     0
284
     8
340
11
  0
DIMSTYLE
105
F9
102
{ACAD_REACTORS
330
F8
102
}
330
A
100
AcDbSymbolTableRecord
100
AcDbDimStyleTableRecord
  2
SLDDIMSTYLE0
 70
     0
 41
3.302
 44
0.0
 45
0.000000001
 73
     0
 74
     0
 77
     1
 78
    12
 79
     3
140
3.5
147
0.875
172
     1
173
     1
178
     0
271
     1
272
     1
276
     2
284
    12
289
     0
340
97
  0
DIMSTYLE
105
107
102
{ACAD_REACTORS
330
106
102
}
330
A
100
AcDbSymbolTableRecord
100
AcDbDimStyleTableRecord
  2
SLDDIMSTYLE1
 70
     0
 41
3.302
 44
0.0
 45
0.000000001
 73
     0
 74
     0
 77
     1
 78
    12
 79
     3
140
3.5
147
0.875
173
     1
178
     0
271
     2
272
     2
276
     2
284
    12
340
97
  0
DIMSTYLE
105
112
102
{ACAD_REACTORS
330
111
330
11F
102
}
330
A
100
AcDbSymbolTableRecord
100
AcDbDimStyleTableRecord
  2
SLDDIMSTYLE2
 70
     0
 41
3.302
 44
0.0
 45
0.000000001
 73
     0
 74
     0
 77
     1
 78
    12
 79
     3
140
3.5
147
0.875
172
     1
173
     1
178
     0
271
     2
272
     2
276
     2
284
    12
289
     0
340
97
  0
ENDTAB
  0
TABLE
  2
BLOCK_RECORD
  5
1
330
0
100
AcDbSymbolTable
 70
     7
  0
BLOCK_RECORD
  5
1F
330
1
100
AcDbSymbolTableRecord
100
AcDbBlockTableRecord
  2
*Model_Space
340
22
  0
BLOCK_RECORD
  5
1B
330
1
100
AcDbSymbolTableRecord
100
AcDbBlockTableRecord
  2
*Paper_Space
340
1E
  0
BLOCK_RECORD
  5
23
330
1
100
AcDbSymbolTableRecord
100
AcDbBlockTableRecord
  2
*Paper_Space0
340
26
  0
BLOCK_RECORD
  5
82
330
1
100
AcDbSymbolTableRecord
100
AcDbBlockTableRecord
  2
블럭10
340
0
102
{BLKREFS
331
F1
102
}
  0
BLOCK_RECORD
  5
FA
330
1
100
AcDbSymbolTableRecord
100
AcDbBlockTableRecord
  2
_D
340
0
  0
BLOCK_RECORD
  5
108
330
1
100
AcDbSymbolTableRecord
100
AcDbBlockTableRecord
  2
_D_1
340
0
  0
BLOCK_RECORD
  5
113
330
1
100
AcDbSymbolTableRecord
100
AcDbBlockTableRecord
  2
_D_2
340
0
  0
BLOCK_RECORD
  5
120
330
1
100
AcDbSymbolTableRecord
100
AcDbBlockTableRecord
  2
_D_3
340
0
  0
BLOCK_RECORD
  5
12B
330
1
100
AcDbSymbolTableRecord
100
AcDbBlockTableRecord
  2
SW_DOWELSYMBOL_0
340
0
102
{BLKREFS
331
131
102
}
  0
ENDTAB
  0
ENDSEC
  0
SECTION
  2
BLOCKS
  0
BLOCK
  5
20
330
1F
100
AcDbEntity
  8
0
100
AcDbBlockBegin
  2
*Model_Space
 70
     0
 10
0.0
 20
0.0
 30
0.0
  3
*Model_Space
  1

  0
ENDBLK
  5
21
330
1F
100
AcDbEntity
  8
0
100
AcDbBlockEnd
  0
BLOCK
  5
1C
330
1B
100
AcDbEntity
 67
     1
  8
0
100
AcDbBlockBegin
  2
*Paper_Space
 70
     0
 10
0.0
 20
0.0
 30
0.0
  3
*Paper_Space
  1

  0
ENDBLK
  5
1D
330
1B
100
AcDbEntity
 67
     1
  8
0
100
AcDbBlockEnd
  0
BLOCK
  5
24
330
23
100
AcDbEntity
  8
0
100
AcDbBlockBegin
  2
*Paper_Space0
 70
     0
 10
0.0
 20
0.0
 30
0.0
  3
*Paper_Space0
  1

  0
ENDBLK
  5
25
330
23
100
AcDbEntity
  8
0
100
AcDbBlockEnd
  0
BLOCK
  5
83
330
82
100
AcDbEntity
  8
0
100
AcDbBlockBegin
  2
블럭10
 70
     2
 10
0.0
 20
0.0
 30
0.0
  3
블럭10
  1

  0
ELLIPSE
  5
85
330
82
100
AcDbEntity
  8
중심선
100
AcDbEllipse
 10
20.54032771741204
 20
12.0471743016438
 30
0.0
 11
6.600054785286829
 21
-1.261213355974178E-13
 31
0.0
210
0.0
220
0.0
230
1.0
 40
0.636358354079598
 41
0.9219305317359503
 42
6.513795318482858
  0
ELLIPSE
  5
86
330
82
100
AcDbEntity
  8
중심선
100
AcDbEllipse
 10
20.54032771746488
 20
12.04717430159265
 30
0.0
 11
3.960054785062283
 21
1.540847449632565E-10
 31
0.0
210
0.0
220
0.0
230
1.0
 40
0.3939339440162632
 41
1.131841032648279
 42
5.62031148352944
  0
LINE
  5
87
330
82
100
AcDbEntity
  8
중심선
100
AcDbLine
 10
2.268634060543552
 20
16.24717430164393
 30
0.0
 11
5.714909304380834
 21
16.24717430164393
 31
0.0
  0
LINE
  5
88
330
82
100
AcDbEntity
  8
중심선
100
AcDbLine
 10
5.245725140726316
 20
7.84717430164391
 30
0.0
 11
8.692000384563599
 21
7.84717430164391
 31
0.0
  0
LINE
  5
89
330
82
100
AcDbEntity
  8
중심선
100
AcDbLine
 10
15.74043728645272
 20
16.24717430164393
 30
0.0
 11
8.692000384563599
 21
7.84717430164391
 31
0.0
  0
LINE
  5
8A
330
82
100
AcDbEntity
  8
중심선
100
AcDbLine
 10
0.1404042013395286
 20
13.71084872107135
 30
0.0
 11
3.58671253028996
 21
13.71088815037384
 31
0.0
  0
LINE
  5
8B
330
82
100
AcDbEntity
  8
중심선
100
AcDbLine
 10
2.750260043222114
 20
10.84717430164391
 30
0.0
 11
6.196535287059397
 21
10.84717430164391
 31
0.0
  0
LINE
  5
8C
330
82
100
AcDbEntity
  8
중심선
100
AcDbLine
 10
12.29416204261559
 20
16.24717430164393
 30
0.0
 11
5.245725140726316
 21
7.84717430164391
 31
0.0
  0
LINE
  5
8D
330
82
100
AcDbEntity
  8
중심선
100
AcDbLine
 10
10.72767329541681
 20
16.24717430164393
 30
0.0
 11
6.196535287059397
 21
10.84717430164391
 31
0.0
  0
LINE
  5
8E
330
82
100
AcDbEntity
  8
중심선
100
AcDbLine
 10
7.28139805157953
 20
16.24717430164393
 30
0.0
 11
2.750260043222114
 21
10.84717430164391
 31
0.0
  0
LINE
  5
8F
330
82
100
AcDbEntity
  8
중심선
100
AcDbLine
 10
5.714909304380834
 20
16.24717430164393
 30
0.0
 11
3.58671253028996
 21
13.71088815037384
 31
0.0
  0
LINE
  5
90
330
82
100
AcDbEntity
  8
중심선
100
AcDbLine
 10
2.268634060543552
 20
16.24717430164393
 30
0.0
 11
0.1404042013395286
 21
13.71084872107135
 31
0.0
  0
LINE
  5
91
330
82
100
AcDbEntity
  8
중심선
100
AcDbLine
 10
7.28139805157953
 20
16.24717430164393
 30
0.0
 11
10.72767329541681
 21
16.24717430164393
 31
0.0
  0
LINE
  5
92
330
82
100
AcDbEntity
  8
중심선
100
AcDbLine
 10
12.29416204261559
 20
16.24717430164393
 30
0.0
 11
15.74043728645272
 21
16.24717430164393
 31
0.0
  0
LINE
  5
93
330
82
100
AcDbEntity
  8
중심선
100
AcDbLine
 10
19.22036997980202
 20
11.08717430171403
 30
0.0
 11
23.66174974927406
 21
11.08717430171406
 31
0.0
  0
LINE
  5
94
330
82
100
AcDbEntity
  8
중심선
100
AcDbLine
 10
19.22039502424796
 20
13.00717430171391
 30
0.0
 11
19.22036997980202
 21
11.08717430171403
 31
0.0
  0
LINE
  5
95
330
82
100
AcDbEntity
  8
중심선
100
AcDbLine
 10
19.22039502424796
 20
13.00717430171391
 30
0.0
 11
26.96566020931264
 21
13.00717430171391
 31
0.0
  0
LINE
  5
96
330
82
100
AcDbEntity
  8
중심선
100
AcDbLine
 10
22.22332737316547
 20
13.45928029700563
 30
0.0
 11
24.52862924686651
 21
15.39360700705356
 31
0.0
  0
ATTDEF
  5
98
330
82
100
AcDbEntity
  8
FORMAT
 62
     2
100
AcDbText
 10
-16.11926103943555
 20
2.075366912832191
 30
0.0
 40
4.233333333333333
  1
SEME7202016E [ 4 FLUTE ]
 41
0.75
  7
SLDTEXTSTYLE0
 11
-16.11926103943555
 21
-0.0412997538344756
 31
0.0
100
AcDbAttributeDefinition
  3

  2
AUTOATTR0
 70
     0
 74
     1
  0
ENDBLK
  5
84
330
82
100
AcDbEntity
  8
0
100
AcDbBlockEnd
  0
BLOCK
  5
FB
330
FA
100
AcDbEntity
  8
0
100
AcDbBlockBegin
  2
_D
 70
     0
 10
0.0
 20
0.0
 30
0.0
  3
_D
  1

  0
LINE
  5
FD
330
FA
100
AcDbEntity
  8
치수문자_일반주서
 62
     0
370
    -2
100
AcDbLine
 10
26.52660161513776
 20
-1.000000000000006
 30
0.0
 11
38.81830710018461
 21
-0.9999999999999591
 31
0.0
  0
LINE
  5
FE
330
FA
100
AcDbEntity
  8
치수문자_일반주서
 62
     0
370
    -2
100
AcDbLine
 10
26.52660161513776
 20
1.000000000000005
 30
0.0
 11
38.8183071001846
 21
1.000000000000052
 31
0.0
  0
LINE
  5
FF
330
FA
100
AcDbEntity
  8
치수문자_일반주서
 62
     0
370
    -2
100
AcDbLine
 10
38.81830710018461
 20
-0.9999999999999591
 30
0.0
 11
38.81830710018455
 21
13.72900000000005
 31
0.0
  0
LINE
  5
100
330
FA
100
AcDbEntity
  8
치수문자_일반주서
 62
     0
370
    -2
100
AcDbLine
 10
38.81830710018461
 20
-0.9999999999999591
 30
0.0
 11
38.8183071001846
 21
1.000000000000052
 31
0.0
  0
LINE
  5
101
330
FA
100
AcDbEntity
  8
치수문자_일반주서
 62
     0
370
    -2
100
AcDbLine
 10
38.81830710018463
 20
-4.301999999999959
 30
0.0
 11
38.81830710018464
 21
-7.603999999999958
 31
0.0
  0
LINE
  5
102
330
FA
100
AcDbEntity
  8
치수문자_일반주서
 62
     0
370
    -2
100
AcDbLine
 10
38.81830710018459
 20
4.302000000000051
 30
0.0
 11
38.81830710018458
 21
7.604000000000051
 31
0.0
  0
SOLID
  5
103
330
FA
100
AcDbEntity
  8
치수문자_일반주서
 62
     0
100
AcDbTrace
 10
39.36864043351796
 20
-4.301999999999957
 30
0.0
 11
38.26797376685129
 21
-4.301999999999961
 31
0.0
 12
38.81830710018461
 22
-0.9999999999999591
 32
0.0
 13
38.81830710018461
 23
-0.9999999999999591
 33
0.0
  0
SOLID
  5
104
330
FA
100
AcDbEntity
  8
치수문자_일반주서
 62
     0
100
AcDbTrace
 10
38.26797376685126
 20
4.302000000000049
 30
0.0
 11
39.36864043351792
 21
4.302000000000053
 31
0.0
 12
38.8183071001846
 22
1.000000000000052
 32
0.0
 13
38.8183071001846
 23
1.000000000000052
 33
0.0
  0
MTEXT
  5
105
330
FA
100
AcDbEntity
  8
치수문자_일반주서
 62
     0
100
AcDbMText
 10
34.44330710018457
 20
10.66650000000004
 30
0.0
 40
3.5
 41
0.0
 71
     2
 72
     1
  1
\A1;%%c2
  7
SLDTEXTSTYLE0
 11
-3.552713678800481E-15
 21
1.0
 31
0.0
 73
     1
 44
1.0
  0
POINT
  5
15E
330
FA
100
AcDbEntity
  8
Defpoints
 62
     0
100
AcDbPoint
 10
26.46410161513776
 20
-1.000000000000006
 30
0.0
  0
POINT
  5
15F
330
FA
100
AcDbEntity
  8
Defpoints
 62
     0
100
AcDbPoint
 10
26.46410161513776
 20
1.000000000000005
 30
0.0
  0
POINT
  5
160
330
FA
100
AcDbEntity
  8
Defpoints
 62
     0
100
AcDbPoint
 10
38.8183071001846
 20
1.000000000000051
 30
0.0
  0
ENDBLK
  5
FC
330
FA
100
AcDbEntity
  8
0
100
AcDbBlockEnd
  0
BLOCK
  5
109
330
108
100
AcDbEntity
  8
0
100
AcDbBlockBegin
  2
_D_1
 70
     0
 10
0.0
 20
0.0
 30
0.0
  3
_D_1
  1

  0
LINE
  5
10B
330
108
100
AcDbEntity
  8
치수문자_일반주서
 62
     0
370
    -2
100
AcDbLine
 10
-33.53589838486226
 20
2.562499999999995
 30
0.0
 11
-33.53589838486226
 21
20.38913260158165
 31
0.0
  0
LINE
  5
10C
330
108
100
AcDbEntity
  8
치수문자_일반주서
 62
     0
370
    -2
100
AcDbLine
 10
26.46410161513774
 20
1.062500000000004
 30
0.0
 11
26.46410161513774
 21
20.38913260158165
 31
0.0
  0
LINE
  5
10D
330
108
100
AcDbEntity
  8
치수문자_일반주서
 62
     0
370
    -2
100
AcDbLine
 10
-30.23389838486226
 20
20.38913260158165
 30
0.0
 11
23.16210161513774
 21
20.38913260158165
 31
0.0
  0
SOLID
  5
10E
330
108
100
AcDbEntity
  8
치수문자_일반주서
 62
     0
100
AcDbTrace
 10
-30.23389838486226
 20
20.93946593491498
 30
0.0
 11
-30.23389838486226
 21
19.83879926824831
 31
0.0
 12
-33.53589838486226
 22
20.38913260158165
 32
0.0
 13
-33.53589838486226
 23
20.38913260158165
 33
0.0
  0
SOLID
  5
10F
330
108
100
AcDbEntity
  8
치수문자_일반주서
 62
     0
100
AcDbTrace
 10
23.16210161513774
 20
19.83879926824831
 30
0.0
 11
23.16210161513774
 21
20.93946593491498
 31
0.0
 12
26.46410161513774
 22
20.38913260158165
 32
0.0
 13
26.46410161513774
 23
20.38913260158165
 33
0.0
  0
MTEXT
  5
110
330
108
100
AcDbEntity
  8
치수문자_일반주서
 62
     0
100
AcDbMText
 10
-3.535898384862263
 20
24.76413260158165
 30
0.0
 40
3.5
 41
0.0
 71
     2
 72
     1
  1
\A1;60
  7
SLDTEXTSTYLE0
 73
     1
 44
1.0
  0
POINT
  5
157
330
108
100
AcDbEntity
  8
Defpoints
 62
     0
100
AcDbPoint
 10
-33.53589838486226
 20
2.499999999999995
 30
0.0
  0
POINT
  5
158
330
108
100
AcDbEntity
  8
Defpoints
 62
     0
100
AcDbPoint
 10
26.46410161513774
 20
1.000000000000004
 30
0.0
  0
POINT
  5
159
330
108
100
AcDbEntity
  8
Defpoints
 62
     0
100
AcDbPoint
 10
26.46410161513774
 20
20.38913260158165
 30
0.0
  0
ENDBLK
  5
10A
330
108
100
AcDbEntity
  8
0
100
AcDbBlockEnd
  0
BLOCK
  5
114
330
113
100
AcDbEntity
  8
0
100
AcDbBlockBegin
  2
_D_2
 70
     0
 10
0.0
 20
0.0
 30
0.0
  3
_D_2
  1

  0
LINE
  5
116
330
113
100
AcDbEntity
  8
치수문자_일반주서
 62
     0
370
    -2
100
AcDbLine
 10
-33.09839838486225
 20
3.000000000000003
 30
0.0
 11
-42.98190333941864
 21
2.999999999999966
 31
0.0
  0
LINE
  5
117
330
113
100
AcDbEntity
  8
치수문자_일반주서
 62
     0
370
    -2
100
AcDbLine
 10
-33.09839838486225
 20
-3.000000000000003
 30
0.0
 11
-42.98190333941862
 21
-3.000000000000039
 31
0.0
  0
LINE
  5
118
330
113
100
AcDbEntity
  8
치수문자_일반주서
 62
     0
370
    -2
100
AcDbLine
 10
-42.98190333941864
 20
2.999999999999966
 30
0.0
 11
-42.98190333941869
 21
15.72899999999997
 31
0.0
  0
LINE
  5
119
330
113
100
AcDbEntity
  8
치수문자_일반주서
 62
     0
370
    -2
100
AcDbLine
 10
-42.98190333941864
 20
2.999999999999966
 30
0.0
 11
-42.98190333941862
 21
-3.000000000000039
 31
0.0
  0
LINE
  5
11A
330
113
100
AcDbEntity
  8
치수문자_일반주서
 62
     0
370
    -2
100
AcDbLine
 10
-42.98190333941866
 20
6.301999999999966
 30
0.0
 11
-42.98190333941867
 21
9.603999999999965
 31
0.0
  0
LINE
  5
11B
330
113
100
AcDbEntity
  8
치수문자_일반주서
 62
     0
370
    -2
100
AcDbLine
 10
-42.98190333941861
 20
-6.302000000000039
 30
0.0
 11
-42.98190333941859
 21
-9.604000000000038
 31
0.0
  0
SOLID
  5
11C
330
113
100
AcDbEntity
  8
치수문자_일반주서
 62
     0
100
AcDbTrace
 10
-43.53223667275199
 20
6.301999999999964
 30
0.0
 11
-42.43157000608532
 21
6.301999999999968
 31
0.0
 12
-42.98190333941864
 22
2.999999999999966
 32
0.0
 13
-42.98190333941864
 23
2.999999999999966
 33
0.0
  0
SOLID
  5
11D
330
113
100
AcDbEntity
  8
치수문자_일반주서
 62
     0
100
AcDbTrace
 10
-42.43157000608527
 20
-6.302000000000037
 30
0.0
 11
-43.53223667275194
 21
-6.30200000000004
 31
0.0
 12
-42.98190333941862
 22
-3.000000000000039
 32
0.0
 13
-42.98190333941862
 23
-3.000000000000039
 33
0.0
  0
MTEXT
  5
11E
330
113
100
AcDbEntity
  8
치수문자_일반주서
 62
     0
100
AcDbMText
 10
-47.35690333941868
 20
12.66649999999995
 30
0.0
 40
3.5
 41
0.0
 71
     2
 72
     1
  1
\A1;%%c6
  7
SLDTEXTSTYLE0
 11
-3.552713678800498E-15
 21
1.0
 31
0.0
 73
     1
 44
1.0
  0
POINT
  5
15B
330
113
100
AcDbEntity
  8
Defpoints
 62
     0
100
AcDbPoint
 10
-33.03589838486225
 20
3.000000000000003
 30
0.0
  0
POINT
  5
15C
330
113
100
AcDbEntity
  8
Defpoints
 62
     0
100
AcDbPoint
 10
-33.03589838486225
 20
-3.000000000000002
 30
0.0
  0
POINT
  5
15D
330
113
100
AcDbEntity
  8
Defpoints
 62
     0
100
AcDbPoint
 10
-42.98190333941863
 20
-3.00000000000004
 30
0.0
  0
ENDBLK
  5
115
330
113
100
AcDbEntity
  8
0
100
AcDbBlockEnd
  0
BLOCK
  5
121
330
120
100
AcDbEntity
  8
0
100
AcDbBlockBegin
  2
_D_3
 70
     0
 10
0.0
 20
0.0
 30
0.0
  3
_D_3
  1

  0
LINE
  5
123
330
120
100
AcDbEntity
  8
치수문자_일반주서
 62
     0
370
    -2
100
AcDbLine
 10
10.46410161513773
 20
1.0625
 30
0.0
 11
10.46410161513773
 21
11.76281546737129
 31
0.0
  0
LINE
  5
124
330
120
100
AcDbEntity
  8
치수문자_일반주서
 62
     0
370
    -2
100
AcDbLine
 10
26.46410161513774
 20
1.062500000000004
 30
0.0
 11
26.46410161513774
 21
11.76281546737129
 31
0.0
  0
LINE
  5
125
330
120
100
AcDbEntity
  8
치수문자_일반주서
 62
     0
370
    -2
100
AcDbLine
 10
13.76610161513773
 20
11.76281546737129
 30
0.0
 11
23.16210161513774
 21
11.76281546737129
 31
0.0
  0
SOLID
  5
126
330
120
100
AcDbEntity
  8
치수문자_일반주서
 62
     0
100
AcDbTrace
 10
13.76610161513773
 20
12.31314880070462
 30
0.0
 11
13.76610161513773
 21
11.21248213403795
 31
0.0
 12
10.46410161513773
 22
11.76281546737129
 32
0.0
 13
10.46410161513773
 23
11.76281546737129
 33
0.0
  0
SOLID
  5
127
330
120
100
AcDbEntity
  8
치수문자_일반주서
 62
     0
100
AcDbTrace
 10
23.16210161513774
 20
11.21248213403795
 30
0.0
 11
23.16210161513774
 21
12.31314880070462
 31
0.0
 12
26.46410161513774
 22
11.76281546737129
 32
0.0
 13
26.46410161513774
 23
11.76281546737129
 33
0.0
  0
MTEXT
  5
128
330
120
100
AcDbEntity
  8
치수문자_일반주서
 62
     0
100
AcDbMText
 10
18.46410161513774
 20
16.13781546737129
 30
0.0
 40
3.5
 41
0.0
 71
     2
 72
     1
  1
\A1;16
  7
SLDTEXTSTYLE0
 73
     1
 44
1.0
  0
POINT
  5
129
330
120
100
AcDbEntity
  8
Defpoints
 62
     0
100
AcDbPoint
 10
10.46410161513773
 20
1.0
 30
0.0
  0
POINT
  5
12A
330
120
100
AcDbEntity
  8
Defpoints
 62
     0
100
AcDbPoint
 10
26.46410161513774
 20
1.000000000000004
 30
0.0
  0
POINT
  5
15A
330
120
100
AcDbEntity
  8
Defpoints
 62
     0
100
AcDbPoint
 10
26.46410161513774
 20
11.76281546737129
 30
0.0
  0
ENDBLK
  5
122
330
120
100
AcDbEntity
  8
0
100
AcDbBlockEnd
  0
BLOCK
  5
12C
330
12B
100
AcDbEntity
  8
0
100
AcDbBlockBegin
  2
SW_DOWELSYMBOL_0
 70
     0
 10
0.0
 20
0.0
 30
0.0
  3
SW_DOWELSYMBOL_0
  1

  0
CIRCLE
  5
12E
330
12B
100
AcDbEntity
  8
해칭선
 62
     0
100
AcDbCircle
 10
0.0
 20
0.0
 30
0.0
 40
3.000000000000003
  0
HATCH
  5
12F
330
12B
100
AcDbEntity
  8
0
  6
Continuous
 62
     0
370
    18
100
AcDbHatch
 10
0.0
 20
0.0
 30
0.0
210
0.0
220
0.0
230
1.0
  2
SOLID
 70
     1
 71
     0
 91
        1
 92
        0
 93
        3
 72
     2
 10
-0.000007697194682
 20
-0.0000000000000042
 40
3.000000000000003
 50
0.0
 51
90.0
 73
     1
 72
     1
 10
-0.000007697194682
 20
2.999999999999998
 11
-0.000007697194682
 21
-0.0000000000000044
 72
     1
 10
-0.000007697194682
 20
-0.0000000000000042
 11
2.999992302805321
 21
-0.0000000000000042
 97
        0
 75
     0
 76
     1
 98
        1
 10
0.0
 20
0.0
  0
HATCH
  5
130
330
12B
100
AcDbEntity
  8
0
  6
Continuous
 62
     0
370
    18
100
AcDbHatch
 10
0.0
 20
0.0
 30
0.0
210
0.0
220
0.0
230
1.0
  2
SOLID
 70
     1
 71
     0
 91
        1
 92
        0
 93
        3
 72
     2
 10
-0.000007697194682
 20
-0.0000000000000042
 40
3.000000000000003
 50
180.0
 51
270.0000000000008
 73
     1
 72
     1
 10
-0.000007697194682
 20
-3.000000000000007
 11
-0.000007697194682
 21
-0.0000000000000044
 72
     1
 10
-0.000007697194682
 20
-0.0000000000000042
 11
-3.000007697194685
 21
-0.0000000000000042
 97
        0
 75
     0
 76
     1
 98
        1
 10
0.0
 20
0.0
  0
ENDBLK
  5
12D
330
12B
100
AcDbEntity
  8
0
100
AcDbBlockEnd
  0
ENDSEC
  0
SECTION
  2
ENTITIES
  0
LINE
  5
99
330
1F
100
AcDbEntity
  8
0
  6
Continuous
 62
     4
370
    25
100
AcDbLine
 10
2.0
 20
2.999999999999998
 30
0.0
 11
-33.03589838486226
 21
2.999999999999996
 31
0.0
  0
LINE
  5
9A
330
1F
100
AcDbEntity
  8
0
  6
Continuous
 62
     4
370
    25
100
AcDbLine
 10
-33.03589838486226
 20
-3.0
 30
0.0
 11
2.0
 21
-2.999999999999998
 31
0.0
  0
LINE
  5
9B
330
1F
100
AcDbEntity
  8
0
  6
Continuous
 62
     4
370
    25
100
AcDbLine
 10
2.0
 20
-2.999999999999999
 30
0.0
 11
8.963920234759623
 21
-1.134023196941398
 31
0.0
  0
LINE
  5
9C
330
1F
100
AcDbEntity
  8
0
  6
Continuous
 62
     4
370
    25
100
AcDbLine
 10
8.963920234759623
 20
1.134023196941399
 30
0.0
 11
2.0
 21
2.999999999999999
 31
0.0
  0
LINE
  5
9D
330
1F
100
AcDbEntity
  8
0
  6
Continuous
 62
     4
370
    25
100
AcDbLine
 10
-33.03589838486226
 20
2.999999999999995
 30
0.0
 11
-33.53589838486226
 21
2.499999999999995
 31
0.0
  0
LINE
  5
9E
330
1F
100
AcDbEntity
  8
0
  6
Continuous
 62
     4
370
    25
100
AcDbLine
 10
-33.53589838486226
 20
-2.5
 30
0.0
 11
-33.03589838486226
 21
-3.0
 31
0.0
  0
LINE
  5
9F
330
1F
100
AcDbEntity
  8
0
  6
Continuous
 62
     4
370
    25
100
AcDbLine
 10
9.753669288689412
 20
-0.9999999999999996
 30
0.0
 11
10.46410161513773
 21
-0.9999999999999996
 31
0.0
  0
LINE
  5
A0
330
1F
100
AcDbEntity
  8
0
  6
Continuous
 62
     4
370
    25
100
AcDbLine
 10
10.46410161513773
 20
1.0
 30
0.0
 11
9.753669288689409
 21
1.0
 31
0.0
  0
LINE
  5
A1
330
1F
100
AcDbEntity
  8
0
  6
Continuous
 62
     1
370
    25
100
AcDbLine
 10
20.63615806529366
 20
-1.000000000000001
 30
0.0
 11
21.41065774080115
 21
-1.000000000000001
 31
0.0
  0
LINE
  5
A2
330
1F
100
AcDbEntity
  8
0
  6
Continuous
 62
     1
370
    25
100
AcDbLine
 10
10.46410161513773
 20
-1.000000000000001
 30
0.0
 11
10.52690442405234
 21
-1.000000000000001
 31
0.0
  0
LINE
  5
A3
330
1F
100
AcDbEntity
  8
0
  6
Continuous
 62
     1
370
    25
100
AcDbLine
 10
15.96929683352609
 20
1.000000000000002
 30
0.0
 11
15.19404342026717
 21
1.000000000000002
 31
0.0
  0
LINE
  5
A4
330
1F
100
AcDbEntity
  8
0
  6
Continuous
 62
     1
370
    25
100
AcDbLine
 10
26.46410161513774
 20
1.000000000000002
 30
0.0
 11
26.07683960567248
 21
1.000000000000002
 31
0.0
  0
LINE
  5
A5
330
1F
100
AcDbEntity
  8
0
  6
Continuous
 62
     1
370
    25
100
AcDbLine
 10
23.35630187809497
 20
-1.000000000000001
 30
0.0
 11
24.1312953162874
 21
-1.000000000000001
 31
0.0
  0
LINE
  5
A6
330
1F
100
AcDbEntity
  8
0
  6
Continuous
 62
     1
370
    25
100
AcDbLine
 10
12.47350569268965
 20
-1.000000000000001
 30
0.0
 11
13.24849913088208
 21
-1.000000000000001
 31
0.0
  0
LINE
  5
A7
330
1F
100
AcDbEntity
  8
0
  6
Continuous
 62
     1
370
    25
100
AcDbLine
 10
18.68999139737555
 20
1.000000000000002
 30
0.0
 11
17.91458917769755
 21
1.000000000000002
 31
0.0
  0
LINE
  5
A8
330
1F
100
AcDbEntity
  8
0
  6
Continuous
 62
     1
370
    25
100
AcDbLine
 10
26.07683960567246
 20
-1.000000000000001
 30
0.0
 11
26.46410161513774
 21
-1.000000000000001
 31
0.0
  0
LINE
  5
A9
330
1F
100
AcDbEntity
  8
0
  6
Continuous
 62
     1
370
    25
100
AcDbLine
 10
15.19404342026716
 20
-1.000000000000001
 30
0.0
 11
15.96929683352611
 21
-1.000000000000001
 31
0.0
  0
LINE
  5
AA
330
1F
100
AcDbEntity
  8
0
  6
Continuous
 62
     1
370
    25
100
AcDbLine
 10
10.52690442405236
 20
1.000000000000002
 30
0.0
 11
10.46410161513773
 21
1.000000000000002
 31
0.0
  0
LINE
  5
AB
330
1F
100
AcDbEntity
  8
0
  6
Continuous
 62
     1
370
    25
100
AcDbLine
 10
21.41065774080116
 20
1.000000000000002
 30
0.0
 11
20.63615806529368
 21
1.000000000000002
 31
0.0
  0
LINE
  5
AC
330
1F
100
AcDbEntity
  8
0
  6
Continuous
 62
     1
370
    25
100
AcDbLine
 10
18.33763150174224
 20
0.1975646046843111
 30
0.0
 11
18.4389573358284
 21
0.1432770072426259
 31
0.0
  0
LINE
  5
AD
330
1F
100
AcDbEntity
  8
0
  6
Continuous
 62
     1
370
    25
100
AcDbLine
 10
12.91106165797866
 20
0.1883834806166312
 30
0.0
 11
12.99755924312576
 21
0.1432770072426252
 31
0.0
  0
SPLINE
  5
AE
330
1F
100
AcDbEntity
  8
0
  6
Continuous
 62
     1
370
    25
100
AcDbSpline
210
0.0
220
0.0
230
1.0
 70
     8
 71
     3
 72
     9
 73
     5
 74
     0
 42
0.000000001
 43
0.00000001
 40
0.0
 40
0.0
 40
0.0
 40
0.0
 40
0.4332381942949461
 40
0.9999999999999999
 40
0.9999999999999999
 40
0.9999999999999999
 40
0.9999999999999999
 10
15.56922440516929
 20
-0.2133147655505021
 30
0.0
 10
15.53402427733824
 20
-0.195540549585388
 30
0.0
 10
15.45277537478399
 20
-0.1545141207082205
 30
0.0
 10
15.38906382201528
 20
-0.1139719067685426
 30
0.0
 10
15.35295454732382
 20
-0.0909941283888101
 30
0.0
  0
LINE
  5
AF
330
1F
100
AcDbEntity
  8
0
  6
Continuous
 62
     1
370
    25
100
AcDbLine
 10
26.25407932824022
 20
-0.1017762324966024
 30
0.0
 11
26.23575073272912
 21
-0.0909941283888101
 31
0.0
  0
SPLINE
  5
B0
330
1F
100
AcDbEntity
  8
0
  6
Continuous
 62
     1
370
    25
100
AcDbSpline
210
0.0
220
0.0
230
1.0
 70
     8
 71
     3
 72
     9
 73
     5
 74
     0
 42
0.000000001
 43
0.00000001
 40
0.0
 40
0.0
 40
0.0
 40
0.0
 40
0.5430739181916048
 40
1.0
 40
1.0
 40
1.0
 40
1.0
 10
26.46410161513774
 20
-0.2226450624658083
 30
0.0
 10
26.42641355467466
 20
-0.2016104645769969
 30
0.0
 10
26.35701589221912
 20
-0.1628779878658062
 30
0.0
 10
26.28636264133413
 20
-0.120939171523551
 30
0.0
 10
26.25407932824022
 20
-0.1017762324966024
 30
0.0
  0
LINE
  5
B1
330
1F
100
AcDbEntity
  8
0
  6
Continuous
 62
     1
370
    25
100
AcDbLine
 10
23.79385784338397
 20
0.1883834806166317
 30
0.0
 11
23.88035542853107
 21
0.1432770072426259
 31
0.0
  0
LINE
  5
B2
330
1F
100
AcDbEntity
  8
0
  6
Continuous
 62
     1
370
    25
100
AcDbLine
 10
17.91458917769756
 20
-1.000000000000001
 30
0.0
 11
18.68999139737556
 21
-1.000000000000001
 31
0.0
  0
LINE
  5
B3
330
1F
100
AcDbEntity
  8
0
  6
Continuous
 62
     1
370
    25
100
AcDbLine
 10
13.24849913088207
 20
1.000000000000002
 30
0.0
 11
12.47350569268966
 21
1.000000000000002
 31
0.0
  0
LINE
  5
B4
330
1F
100
AcDbEntity
  8
0
  6
Continuous
 62
     1
370
    25
100
AcDbLine
 10
24.13129531628739
 20
1.000000000000002
 30
0.0
 11
23.35630187809497
 21
1.000000000000002
 31
0.0
  0
LINE
  5
B5
330
1F
100
AcDbEntity
  8
0
  6
Continuous
 62
     4
370
    25
100
AcDbLine
 10
2.0
 20
2.999999999999999
 30
0.0
 11
2.0
 21
-2.999999999999999
 31
0.0
  0
LINE
  5
B6
330
1F
100
AcDbEntity
  8
0
  6
Continuous
 62
     4
370
    25
100
AcDbLine
 10
-33.03589838486226
 20
2.999999999999995
 30
0.0
 11
-33.03589838486226
 21
-3.0
 31
0.0
  0
SPLINE
  5
B7
330
1F
100
AcDbEntity
  8
0
  6
Continuous
 62
     4
370
    25
100
AcDbSpline
210
0.0
220
0.0
230
1.0
 70
     8
 71
     3
 72
     8
 73
     4
 74
     0
 42
0.000000001
 43
0.00000001
 40
0.0
 40
0.0
 40
0.0
 40
0.0
 40
1.0
 40
1.0
 40
1.0
 40
1.0
 10
9.267432972631212
 20
-1.009895183084177
 30
0.0
 10
9.33289468337274
 20
-1.00457495958689
 30
0.0
 10
9.398426241194873
 20
-0.996675139627735
 30
0.0
 10
9.464101615137732
 20
-0.9861184505228179
 30
0.0
  0
SPLINE
  5
B8
330
1F
100
AcDbEntity
  8
0
  6
Continuous
 62
     4
370
    25
100
AcDbSpline
210
0.0
220
0.0
230
1.0
 70
     8
 71
     3
 72
    10
 73
     6
 74
     0
 42
0.000000001
 43
0.00000001
 40
0.0
 40
0.0
 40
0.0
 40
0.0
 40
0.5
 40
0.5
 40
1.0
 40
1.0
 40
1.0
 40
1.0
 10
8.963920234759623
 20
-1.123668363724282
 30
0.0
 10
8.963920234759623
 20
-1.113860343442066
 30
0.0
 10
9.006682715757162
 20
-1.085053754714006
 30
0.0
 10
9.128889283727734
 20
-1.034257774218816
 30
0.0
 10
9.207291622525002
 20
-1.014783008659917
 30
0.0
 10
9.26743297263129
 20
-1.00989518308417
 30
0.0
  0
LINE
  5
B9
330
1F
100
AcDbEntity
  8
0
  6
Continuous
 62
     4
370
    25
100
AcDbLine
 10
8.963920234759623
 20
-1.123668363724282
 30
0.0
 11
8.963920234759623
 21
-1.134023196941398
 31
0.0
  0
SPLINE
  5
BA
330
1F
100
AcDbEntity
  8
0
  6
Continuous
 62
     4
370
    25
100
AcDbSpline
210
0.0
220
0.0
230
1.0
 70
     8
 71
     3
 72
     8
 73
     4
 74
     0
 42
0.000000001
 43
0.00000001
 40
0.0
 40
0.0
 40
0.0
 40
0.0
 40
1.0
 40
1.0
 40
1.0
 40
1.0
 10
9.267432972631212
 20
1.009895183084177
 30
0.0
 10
9.33289468337274
 20
1.00457495958689
 30
0.0
 10
9.398426241194873
 20
0.9966751396277358
 30
0.0
 10
9.464101615137732
 20
0.9861184505228188
 30
0.0
  0
SPLINE
  5
BB
330
1F
100
AcDbEntity
  8
0
  6
Continuous
 62
     4
370
    25
100
AcDbSpline
210
0.0
220
0.0
230
1.0
 70
     8
 71
     3
 72
    10
 73
     6
 74
     0
 42
0.000000001
 43
0.00000001
 40
0.0
 40
0.0
 40
0.0
 40
0.0
 40
0.5
 40
0.5
 40
1.0
 40
1.0
 40
1.0
 40
1.0
 10
8.963920234759623
 20
1.123668363724283
 30
0.0
 10
8.963920234759623
 20
1.113860343442067
 30
0.0
 10
9.006682715757162
 20
1.085053754714007
 30
0.0
 10
9.128889283727734
 20
1.034257774218817
 30
0.0
 10
9.207291622525002
 20
1.014783008659918
 30
0.0
 10
9.267432972631294
 20
1.009895183084171
 30
0.0
  0
LINE
  5
BC
330
1F
100
AcDbEntity
  8
0
  6
Continuous
 62
     4
370
    25
100
AcDbLine
 10
8.963920234759623
 20
1.134023196941399
 30
0.0
 11
8.963920234759623
 21
0.9492877279876091
 31
0.0
  0
SPLINE
  5
BD
330
1F
100
AcDbEntity
  8
0
  6
Continuous
 62
     4
370
    25
100
AcDbSpline
210
0.0
220
0.0
230
1.0
 70
     8
 71
     3
 72
     8
 73
     4
 74
     0
 42
0.000000001
 43
0.00000001
 40
0.0
 40
0.0
 40
0.0
 40
0.0
 40
1.0
 40
1.0
 40
1.0
 40
1.0
 10
9.056517627063133
 20
0.8275785384468071
 30
0.0
 10
9.000492912579837
 20
0.8627257719924031
 30
0.0
 10
8.963920234759264
 20
0.9119125472300994
 30
0.0
 10
8.963920234759211
 20
0.9492877279876096
 30
0.0
  0
SPLINE
  5
BE
330
1F
100
AcDbEntity
  8
0
  6
Continuous
 62
     4
370
    25
100
AcDbSpline
210
0.0
220
0.0
230
1.0
 70
     8
 71
     3
 72
     8
 73
     4
 74
     0
 42
0.000000001
 43
0.00000001
 40
0.0
 40
0.0
 40
0.0
 40
0.0
 40
1.0
 40
1.0
 40
1.0
 40
1.0
 10
9.464101615137732
 20
0.5757103901549414
 30
0.0
 10
9.325084645740404
 20
0.6592083145513888
 30
0.0
 10
9.189659765566514
 20
0.7440515114927609
 30
0.0
 10
9.05651762706313
 20
0.8275785384468022
 30
0.0
  0
LINE
  5
BF
330
1F
100
AcDbEntity
  8
0
  6
Continuous
 62
     4
370
    25
100
AcDbLine
 10
9.464101615137732
 20
0.5757103901549415
 30
0.0
 11
9.464101615137732
 21
0.1660433724617517
 31
0.0
  0
SPLINE
  5
C0
330
1F
100
AcDbEntity
  8
0
  6
Continuous
 62
     4
370
    25
100
AcDbSpline
210
0.0
220
0.0
230
1.0
 70
     8
 71
     3
 72
     8
 73
     4
 74
     0
 42
0.000000001
 43
0.00000001
 40
0.0
 40
0.0
 40
0.0
 40
0.0
 40
1.0
 40
1.0
 40
1.0
 40
1.0
 10
9.267432972631212
 20
0.2971247589117305
 30
0.0
 10
9.33289468337274
 20
0.2530628800242489
 30
0.0
 10
9.398426241194873
 20
0.2093303606820414
 30
0.0
 10
9.464101615137732
 20
0.1660433724617525
 30
0.0
  0
SPLINE
  5
C1
330
1F
100
AcDbEntity
  8
0
  6
Continuous
 62
     4
370
    25
100
AcDbSpline
210
0.0
220
0.0
230
1.0
 70
     8
 71
     3
 72
    10
 73
     6
 74
     0
 42
0.000000001
 43
0.00000001
 40
0.0
 40
0.0
 40
0.0
 40
0.0
 40
0.5
 40
0.5
 40
1.0
 40
1.0
 40
1.0
 40
1.0
 10
8.963920234759623
 20
0.1528987232333191
 30
0.0
 10
8.963920234759623
 20
0.2249788679777194
 30
0.0
 10
9.006682715757162
 20
0.2897520204516435
 30
0.0
 10
9.128889283727734
 20
0.3452011912559525
 30
0.0
 10
9.207291622525002
 20
0.3376055354525601
 30
0.0
 10
9.267432972631294
 20
0.2971247589116753
 30
0.0
  0
LINE
  5
C2
330
1F
100
AcDbEntity
  8
0
  6
Continuous
 62
     4
370
    25
100
AcDbLine
 10
8.963920234759623
 20
0.1528987232333192
 30
0.0
 11
8.963920234759623
 21
-0.6203720018612431
 31
0.0
  0
SPLINE
  5
C3
330
1F
100
AcDbEntity
  8
0
  6
Continuous
 62
     4
370
    25
100
AcDbSpline
210
0.0
220
0.0
230
1.0
 70
     8
 71
     3
 72
     8
 73
     4
 74
     0
 42
0.000000001
 43
0.00000001
 40
0.0
 40
0.0
 40
0.0
 40
0.0
 40
1.0
 40
1.0
 40
1.0
 40
1.0
 10
9.056517627063133
 20
-0.7385557399176003
 30
0.0
 10
9.000492912579837
 20
-0.7217176662291606
 30
0.0
 10
8.963920234759264
 20
-0.6775631715434226
 30
0.0
 10
8.963920234759211
 20
-0.6203720018614457
 30
0.0
  0
SPLINE
  5
C4
330
1F
100
AcDbEntity
  8
0
  6
Continuous
 62
     4
370
    25
100
AcDbSpline
210
0.0
220
0.0
230
1.0
 70
     8
 71
     3
 72
     8
 73
     4
 74
     0
 42
0.000000001
 43
0.00000001
 40
0.0
 40
0.0
 40
0.0
 40
0.0
 40
1.0
 40
1.0
 40
1.0
 40
1.0
 10
9.464101615137732
 20
-0.8176536838219803
 30
0.0
 10
9.325084645740404
 20
-0.8044193057946131
 30
0.0
 10
9.189659765566514
 20
-0.778571243072456
 30
0.0
 10
9.05651762706313
 20
-0.7385557399175942
 30
0.0
  0
LINE
  5
C5
330
1F
100
AcDbEntity
  8
0
  6
Continuous
 62
     4
370
    25
100
AcDbLine
 10
9.464101615137732
 20
-0.8176536838219796
 30
0.0
 11
9.464101615137732
 21
-0.9861184505228154
 31
0.0
  0
LINE
  5
C6
330
1F
100
AcDbEntity
  8
0
  6
Continuous
 62
     4
370
    25
100
AcDbLine
 10
-33.53589838486226
 20
2.499999999999995
 30
0.0
 11
-33.53589838486226
 21
-2.500000000000001
 31
0.0
  0
SPLINE
  5
C7
330
1F
100
AcDbEntity
  8
0
  6
Continuous
 62
     4
370
    25
100
AcDbSpline
210
0.0
220
0.0
230
1.0
 70
     8
 71
     3
 72
    12
 73
     8
 74
     0
 42
0.000000001
 43
0.00000001
 40
0.0
 40
0.0
 40
0.0
 40
0.0
 40
0.25
 40
0.25
 40
0.5
 40
0.5
 40
1.0
 40
1.0
 40
1.0
 40
1.0
 10
10.46410161513773
 20
0.9168971647836306
 30
0.0
 10
10.37995938810402
 20
0.936162855710316
 30
0.0
 10
10.29590576756999
 20
0.9522000039697948
 30
0.0
 10
10.13057228836544
 20
0.9774336401984474
 30
0.0
 10
10.04901647670294
 20
0.986684113982694
 30
0.0
 10
9.798284321825331
 20
1.004286198011808
 30
0.0
 10
9.627700448188886
 20
1.001998571013536
 30
0.0
 10
9.464101615137732
 20
0.9861184505228163
 30
0.0
  0
SPLINE
  5
C8
330
1F
100
AcDbEntity
  8
0
  6
Continuous
 62
     4
370
    25
100
AcDbSpline
210
0.0
220
0.0
230
1.0
 70
    24
 71
     3
 72
    16
 73
    12
 74
     0
 42
0.000000001
 43
0.00000001
 40
0.0
 40
0.0
 40
0.0
 40
0.0
 40
0.125
 40
0.125
 40
0.25
 40
0.25
 40
0.5
 40
0.5
 40
0.75
 40
0.75
 40
1.0
 40
1.0
 40
1.0
 40
1.0
 10
10.46410161513773
 20
0.916897164783637
 30
0.0
 10
10.46410161513773
 20
0.8829649850067177
 30
0.0
 10
10.46410161513773
 20
0.8520616107823499
 30
0.0
 10
10.46410161513773
 20
0.7832147515490606
 30
0.0
 10
10.46410161513773
 20
0.7460446665017204
 30
0.0
 10
10.46410161513773
 20
0.6266714747591516
 30
0.0
 10
10.46410161513773
 20
0.5356890582132826
 30
0.0
 10
10.46410161513773
 20
0.3487191884326361
 30
0.0
 10
10.46410161513773
 20
0.2529922485833139
 30
0.0
 10
10.46410161513773
 20
0.10246168108704
 30
0.0
 10
10.46410161513773
 20
0.0500151977675
 30
0.0
 10
10.46410161513773
 20
0.0360881487785925
 30
0.0
  0
SPLINE
  5
C9
330
1F
100
AcDbEntity
  8
0
  6
Continuous
 62
     4
370
    25
100
AcDbSpline
210
0.0
220
0.0
230
1.0
 70
     8
 71
     3
 72
    12
 73
     8
 74
     0
 42
0.000000001
 43
0.00000001
 40
0.0
 40
0.0
 40
0.0
 40
0.0
 40
0.2500000000000001
 40
0.2500000000000001
 40
0.5000000000000001
 40
0.5000000000000001
 40
1.0
 40
1.0
 40
1.0
 40
1.0
 10
10.46410161513773
 20
0.0360881487785925
 30
0.0
 10
10.37995938810402
 20
0.0843267019916462
 30
0.0
 10
10.29590576756999
 20
0.1324196888852923
 30
0.0
 10
10.13057228836544
 20
0.2268321654111766
 30
0.0
 10
10.04901647670294
 20
0.2732130055886393
 30
0.0
 10
9.798284321825328
 20
0.4101565592072215
 30
0.0
 10
9.627700448188886
 20
0.4975113098407644
 30
0.0
 10
9.464101615137732
 20
0.5757103901549415
 30
0.0
  0
SPLINE
  5
CA
330
1F
100
AcDbEntity
  8
0
  6
Continuous
 62
     4
370
    25
100
AcDbSpline
210
0.0
220
0.0
230
1.0
 70
     8
 71
     3
 72
    12
 73
     8
 74
     0
 42
0.000000001
 43
0.00000001
 40
0.0
 40
0.0
 40
0.0
 40
0.0
 40
0.25
 40
0.25
 40
0.5
 40
0.5
 40
1.0
 40
1.0
 40
1.0
 40
1.0
 10
10.46410161513773
 20
-0.3991235262569015
 30
0.0
 10
10.37995938810402
 20
-0.3548649039853944
 30
0.0
 10
10.29590576756999
 20
-0.309221409293209
 30
0.0
 10
10.13057228836544
 20
-0.2166245750919445
 30
0.0
 10
10.04901647670294
 20
-0.1696290675092617
 30
0.0
 10
9.798284321825328
 20
-0.0262197979109465
 30
0.0
 10
9.627700448188886
 20
0.0717325934149645
 30
0.0
 10
9.464101615137732
 20
0.1660433724617518
 30
0.0
  0
SPLINE
  5
CB
330
1F
100
AcDbEntity
  8
0
  6
Continuous
 62
     4
370
    25
100
AcDbSpline
210
0.0
220
0.0
230
1.0
 70
    24
 71
     3
 72
    12
 73
     8
 74
     0
 42
0.000000001
 43
0.00000001
 40
0.0
 40
0.0
 40
0.0
 40
0.0
 40
0.1809446996369933
 40
0.4086632519696197
 40
0.6363818043022466
 40
0.8641003566345286
 40
1.0
 40
1.0
 40
1.0
 40
1.0
 10
10.46410161513773
 20
-0.3808631293704114
 30
0.0
 10
10.46410161513773
 20
-0.3820469134782488
 30
0.0
 10
10.46410161513773
 20
-0.3847204875818798
 30
0.0
 10
10.46410161513773
 20
-0.4822312540366733
 30
0.0
 10
10.46410161513773
 20
-0.644788947021549
 30
0.0
 10
10.46410161513773
 20
-0.8294459071165101
 30
0.0
 10
10.46410161513773
 20
-0.9531246021605945
 30
0.0
 10
10.46410161513773
 20
-0.9993486106047952
 30
0.0
  0
SPLINE
  5
CC
330
1F
100
AcDbEntity
  8
0
  6
Continuous
 62
     4
370
    25
100
AcDbSpline
210
0.0
220
0.0
230
1.0
 70
     8
 71
     3
 72
    12
 73
     8
 74
     0
 42
0.000000001
 43
0.00000001
 40
0.0
 40
0.0
 40
0.0
 40
0.0
 40
0.2499999999999999
 40
0.2499999999999999
 40
0.4999999999999998
 40
0.4999999999999998
 40
1.0
 40
1.0
 40
1.0
 40
1.0
 10
10.46410161513773
 20
-0.999348610604795
 30
0.0
 10
10.37995938810402
 20
-0.9976066358156742
 30
0.0
 10
10.29590576756999
 20
-0.9923546510803888
 30
0.0
 10
10.13057228836544
 20
-0.9751153245951145
 30
0.0
 10
10.04901647670294
 20
-0.9631584578391575
 30
0.0
 10
9.798284321825328
 20
-0.9170876960568211
 30
0.0
 10
9.627700448188886
 20
-0.8727136975272868
 30
0.0
 10
9.464101615137732
 20
-0.8176536838219803
 30
0.0
  0
LINE
  5
CD
330
1F
100
AcDbEntity
  8
0
  6
Continuous
 62
     4
370
    25
100
AcDbLine
 10
10.46410161513773
 20
0.0360881487785925
 30
0.0
 11
10.46410161513773
 21
-0.3991235262569031
 31
0.0
  0
LINE
  5
CE
330
1F
100
AcDbEntity
  8
0
  6
Continuous
 62
     4
370
    25
100
AcDbLine
 10
9.464101615137732
 20
-0.9861184505228154
 30
0.0
 11
9.753669288689412
 21
-0.9898341033774353
 31
0.0
  0
LINE
  5
CF
330
1F
100
AcDbEntity
  8
0
  6
Continuous
 62
     4
370
    25
100
AcDbLine
 10
10.46410161513773
 20
-0.9993486106047952
 30
0.0
 11
10.46410161513773
 21
-0.9999999999999996
 31
0.0
  0
LINE
  5
D0
330
1F
100
AcDbEntity
  8
0
  6
Continuous
 62
     4
370
    25
100
AcDbLine
 10
10.46410161513773
 20
1.0
 30
0.0
 11
10.46410161513773
 21
0.9168971647836358
 31
0.0
  0
SPLINE
  5
D1
330
1F
100
AcDbEntity
  8
0
  6
Continuous
 62
     1
370
    25
100
AcDbSpline
210
0.0
220
0.0
230
1.0
 70
     8
 71
     3
 72
    20
 73
    16
 74
     0
 42
0.000000001
 43
0.00000001
 40
0.0
 40
0.0
 40
0.0
 40
0.0
 40
0.0334078854176884
 40
0.1186155029978288
 40
0.2040592114973271
 40
0.2893120407890921
 40
0.3743873850115875
 40
0.4594401006107636
 40
0.5446256725158893
 40
0.6300601306417706
 40
0.7153394470856276
 40
0.8004257809036524
 40
0.8854736836462405
 40
0.9605363692505533
 40
1.0
 40
1.0
 40
1.0
 40
1.0
 10
14.21814203318536
 20
0.8355457600445526
 30
0.0
 10
14.2895865676035
 20
0.8600841852953778
 30
0.0
 10
14.54325211034887
 20
0.9472084560329735
 30
0.0
 10
14.97977219276322
 20
1.005746153385384
 30
0.0
 10
15.52770060350969
 20
0.9989576732241094
 30
0.0
 10
16.07491261003606
 20
0.8882464067880463
 30
0.0
 10
16.62105914738263
 20
0.6910594327909219
 30
0.0
 10
17.16704342246057
 20
0.4252343648549318
 30
0.0
 10
17.71392333616407
 20
0.1172609696235451
 30
0.0
 10
18.26182301788472
 20
-0.2018001232235222
 30
0.0
 10
18.80914954921008
 20
-0.5010701221383033
 30
0.0
 10
19.35537099352864
 20
-0.7519902003433304
 30
0.0
 10
19.8797311618945
 20
-0.9171419292697959
 30
0.0
 10
20.30654904703167
 20
-0.9969049764261516
 30
0.0
 10
20.55168782010512
 20
-0.992033627123172
 30
0.0
 10
20.63615806529367
 20
-0.9903550510869834
 30
0.0
  0
SPLINE
  5
D2
330
1F
100
AcDbEntity
  8
0
  6
Continuous
 62
     1
370
    25
100
AcDbSpline
210
0.0
220
0.0
230
1.0
 70
     8
 71
     3
 72
    11
 73
     7
 74
     0
 42
0.000000001
 43
0.00000001
 40
0.0
 40
0.0
 40
0.0
 40
0.0
 40
0.1572960304783629
 40
0.5584833503072911
 40
0.9607822689094645
 40
0.9999999999999999
 40
0.9999999999999999
 40
0.9999999999999999
 40
0.9999999999999999
 10
25.10093821859067
 20
0.8355457600445525
 30
0.0
 10
25.17238846189811
 20
0.8600931427184241
 30
0.0
 10
25.42607427419267
 20
0.9472492170026049
 30
0.0
 10
25.86225780093816
 20
1.0052588481511
 30
0.0
 10
26.24649156805347
 20
1.002095240714532
 30
0.0
 10
26.44634924990177
 20
0.9773625779479328
 30
0.0
 10
26.46410161513774
 20
0.9751656983552638
 30
0.0
  0
SPLINE
  5
D3
330
1F
100
AcDbEntity
  8
0
  6
Continuous
 62
     1
370
    25
100
AcDbSpline
210
0.0
220
0.0
230
1.0
 70
     8
 71
     3
 72
    20
 73
    16
 74
     0
 42
0.000000001
 43
0.00000001
 40
0.0
 40
0.0
 40
0.0
 40
0.0
 40
0.0454641381091669
 40
0.1306412841707939
 40
0.2160270470743802
 40
0.3015243193813176
 40
0.3867677007535532
 40
0.4718937867546559
 40
0.5570583391603052
 40
0.6424160515978137
 40
0.7279290483367632
 40
0.8131929300575949
 40
0.8983238333396726
 40
0.9834773860472225
 40
1.0
 40
1.0
 40
1.0
 40
1.0
 10
22.3812072439333
 20
-0.8361673403744568
 30
0.0
 10
22.28407017080525
 20
-0.8678093572693486
 30
0.0
 10
22.00494661316586
 20
-0.9587327508015613
 30
0.0
 10
21.54337136781193
 20
-1.011173380879377
 30
0.0
 10
20.99593113275581
 20
-0.9885283803334126
 30
0.0
 10
20.4480868166938
 20
-0.8642582054873448
 30
0.0
 10
19.90132348876372
 20
-0.6553945746476448
 30
0.0
 10
19.35537421279258
 20
-0.3815422256114063
 30
0.0
 10
18.80914860347802
 20
-0.0700252696350604
 30
0.0
 10
18.2618235747798
 20
0.24860854288003
 30
0.0
 10
17.71392205653115
 20
0.5416049905983276
 30
0.0
 10
17.1670479663517
 20
0.7839309211469607
 30
0.0
 10
16.6210422723188
 20
0.9399296281612609
 30
0.0
 10
16.22197006091026
 20
1.009563399614696
 30
0.0
 10
16.00461718260767
 20
0.9946691745613592
 30
0.0
 10
15.96929683352609
 20
0.9922488282917737
 30
0.0
  0
SPLINE
  5
D4
330
1F
100
AcDbEntity
  8
0
  6
Continuous
 62
     1
370
    25
100
AcDbSpline
210
0.0
220
0.0
230
1.0
 70
     8
 71
     3
 72
    10
 73
     6
 74
     0
 42
0.000000001
 43
0.00000001
 40
0.0
 40
0.0
 40
0.0
 40
0.0
 40
0.2818005711651972
 40
0.8097544576493712
 40
1.0
 40
1.0
 40
1.0
 40
1.0
 10
11.49841105852799
 20
-0.8361673403744573
 30
0.0
 10
11.40127220198963
 20
-0.8677680500129877
 30
0.0
 10
11.12214351971742
 20
-0.9585727470683483
 30
0.0
 10
10.77747572192389
 20
-0.9988537699446227
 30
0.0
 10
10.52972807441177
 20
-0.9992449816203692
 30
0.0
 10
10.46410161513778
 20
-0.9993486106047967
 30
0.0
  0
LINE
  5
D5
330
1F
100
AcDbEntity
  8
0
  6
Continuous
 62
     1
370
    25
100
AcDbLine
 10
26.46410161513774
 20
0.9751656983552638
 30
0.0
 11
26.46410161513774
 21
1.000000000000004
 31
0.0
  0
SPLINE
  5
D6
330
1F
100
AcDbEntity
  8
0
  6
Continuous
 62
     1
370
    25
100
AcDbSpline
210
0.0
220
0.0
230
1.0
 70
     8
 71
     3
 72
    12
 73
     8
 74
     0
 42
0.000000001
 43
0.00000001
 40
0.0
 40
0.0
 40
0.0
 40
0.0
 40
0.1714740498964151
 40
0.3426765725340721
 40
0.6143224770519458
 40
0.8864923250089868
 40
1.0
 40
1.0
 40
1.0
 40
1.0
 10
10.46410161513786
 20
-0.3991235262569711
 30
0.0
 10
10.57894033178955
 20
-0.4582887277723813
 30
0.0
 10
10.80843591925706
 20
-0.5765254433619182
 30
0.0
 10
11.21959762332547
 20
-0.7575531711336987
 30
0.0
 10
11.69853868056229
 20
-0.9131538236668651
 30
0.0
 10
12.13886624535757
 20
-1.000755434716422
 30
0.0
 10
12.39741340112379
 20
-0.9908166534942605
 30
0.0
 10
12.47350569268965
 20
-0.9878915985412297
 30
0.0
  0
SPLINE
  5
D7
330
1F
100
AcDbEntity
  8
0
  6
Continuous
 62
     1
370
    25
100
AcDbSpline
210
0.0
220
0.0
230
1.0
 70
     8
 71
     3
 72
    21
 73
    17
 74
     0
 42
0.000000001
 43
0.00000001
 40
0.0
 40
0.0
 40
0.0
 40
0.0
 40
0.0352116419001484
 40
0.120423190363955
 40
0.205883700944087
 40
0.291189022533162
 40
0.3763013026481233
 40
0.4613751399684443
 40
0.5364607152501254
 40
0.6117634029327051
 40
0.6867499752157874
 40
0.7404642255956885
 40
0.7940934200550541
 40
0.8791865063778078
 40
0.9644437179958659
 40
1.0
 40
1.0
 40
1.0
 40
1.0
 10
16.94094067959797
 20
0.8359612706496451
 30
0.0
 10
17.01621893184535
 20
0.8615968560294068
 30
0.0
 10
17.27366921849653
 20
0.9492701030490364
 30
0.0
 10
17.71392568193024
 20
1.006800256008755
 30
0.0
 10
18.26182221659867
 20
0.9973785995165407
 30
0.0
 10
18.80915040742647
 20
0.8843759706179566
 30
0.0
 10
19.35536836630902
 20
0.6852285167076778
 30
0.0
 10
19.87974033020184
 20
0.4285475425703263
 30
0.0
 10
20.3831170965621
 20
0.1467914270526502
 30
0.0
 10
20.86564489115679
 20
-0.1330087910411367
 30
0.0
 10
21.30134904805955
 20
-0.3790050785243292
 30
0.0
 10
21.69124778696927
 20
-0.5757775332507166
 30
0.0
 10
22.10238678972144
 20
-0.7578879170418127
 30
0.0
 10
22.58133715378666
 20
-0.9130447145271965
 30
0.0
 10
23.02166222476147
 20
-1.000765259198041
 30
0.0
 10
23.28020953968729
 20
-0.990818887442845
 30
0.0
 10
23.35630187809497
 20
-0.9878915985412288
 30
0.0
  0
SPLINE
  5
D8
330
1F
100
AcDbEntity
  8
0
  6
Continuous
 62
     1
370
    25
100
AcDbSpline
210
0.0
220
0.0
230
1.0
 70
     8
 71
     3
 72
    20
 73
    16
 74
     0
 42
0.000000001
 43
0.00000001
 40
0.0
 40
0.0
 40
0.0
 40
0.0
 40
0.0337311581112222
 40
0.1283496317147088
 40
0.2137827458485974
 40
0.2992756152730656
 40
0.3845177977440289
 40
0.4696583803385346
 40
0.5548532465738885
 40
0.6402567730516543
 40
0.725771832131083
 40
0.8110329474565775
 40
0.89617674300892
 40
0.981359012968324
 40
1.0
 40
1.0
 40
1.0
 40
1.0
 10
25.10093821859067
 20
-0.835545760044553
 30
0.0
 10
25.02885183423437
 20
-0.860762945144255
 30
0.0
 10
24.75455763854537
 20
-0.9567162595770495
 30
0.0
 10
24.29763080963309
 20
-1.010206010290456
 30
0.0
 10
23.73004023988964
 20
-0.9906639069808469
 30
0.0
 10
23.18225395503354
 20
-0.8683277943616741
 30
0.0
 10
22.63561304471012
 20
-0.6614548047440426
 30
0.0
 10
22.08968585592979
 20
-0.388882911226146
 30
0.0
 10
21.5433706956751
 20
-0.0779127107626924
 30
0.0
 10
20.9959316045911
 20
0.2408569978575673
 30
0.0
 10
20.44808560326883
 20
0.5348992147519271
 30
0.0
 10
19.9013278537943
 20
0.7787828174205944
 30
0.0
 10
19.3553579816106
 20
0.937205442920507
 30
0.0
 10
18.95174634968331
 20
1.008639534568721
 30
0.0
 10
18.72983462435484
 20
0.9941277991174771
 30
0.0
 10
18.68999139737555
 20
0.9915222839352962
 30
0.0
  0
SPLINE
  5
D9
330
1F
100
AcDbEntity
  8
0
  6
Continuous
 62
     1
370
    25
100
AcDbSpline
210
0.0
220
0.0
230
1.0
 70
     8
 71
     3
 72
    15
 73
    11
 74
     0
 42
0.000000001
 43
0.00000001
 40
0.0
 40
0.0
 40
0.0
 40
0.0
 40
0.0576056653782717
 40
0.2191939544916521
 40
0.3650955973819737
 40
0.5110992896375249
 40
0.6566748617345366
 40
0.802076922786763
 40
0.9475716887867386
 40
1.0
 40
1.0
 40
1.0
 40
1.0
 10
14.21814203318537
 20
-0.8355457600445545
 30
0.0
 10
14.14605565028751
 20
-0.860762927783875
 30
0.0
 10
13.87176146014799
 20
-0.9567161761590931
 30
0.0
 10
13.41483453496379
 20
-1.010207072832571
 30
0.0
 10
12.84724434444409
 20
-0.9906604554835855
 30
0.0
 10
12.29945668645713
 20
-0.8683406877437482
 30
0.0
 10
11.75282088684423
 20
-0.6614068634683075
 30
0.0
 10
11.20687465388921
 20
-0.3890616597316719
 30
0.0
 10
10.77747526917624
 20
-0.143943850705326
 30
0.0
 10
10.52972797959786
 20
-0.0016139536807475
 30
0.0
 10
10.46410161513778
 20
0.0360881487785659
 30
0.0
  0
SPLINE
  5
DA
330
1F
100
AcDbEntity
  8
0
  6
Continuous
 62
     1
370
    25
100
AcDbSpline
210
0.0
220
0.0
230
1.0
 70
     8
 71
     3
 72
    17
 73
    13
 74
     0
 42
0.000000001
 43
0.00000001
 40
0.0
 40
0.0
 40
0.0
 40
0.0
 40
0.0728552296635892
 40
0.1455950938779533
 40
0.2610109528535736
 40
0.3766494228867522
 40
0.4925799701096675
 40
0.608213916769589
 40
0.7236281535916632
 40
0.8390331377330879
 40
0.9546395833577859
 40
0.9999999999999999
 40
0.9999999999999999
 40
0.9999999999999999
 40
0.9999999999999999
 10
10.46410161513787
 20
0.9168971647836008
 30
0.0
 10
10.57894031102876
 20
0.8869576557310446
 30
0.0
 10
10.80843585700757
 20
0.8271260465069049
 30
0.0
 10
11.21959793261036
 20
0.6695126809103316
 30
0.0
 10
11.69853673727825
 20
0.4398005748682756
 30
0.0
 10
12.24561847311923
 20
0.1329725600567223
 30
0.0
 10
12.79356884733989
 20
-0.1861651479093507
 30
0.0
 10
13.34066276771054
 20
-0.4871706046312114
 30
0.0
 10
13.88674162745879
 20
-0.7414672271886251
 30
0.0
 10
14.43277636655315
 20
-0.9163175375609546
 30
0.0
 10
14.86850158764306
 20
-1.001799122311283
 30
0.0
 10
15.12247405125124
 20
-0.991135628134578
 30
0.0
 10
15.19404342026716
 20
-0.9881306584662554
 30
0.0
  0
SPLINE
  5
DB
330
1F
100
AcDbEntity
  8
0
  6
Continuous
 62
     1
370
    25
100
AcDbSpline
210
0.0
220
0.0
230
1.0
 70
     8
 71
     3
 72
    21
 73
    17
 74
     0
 42
0.000000001
 43
0.00000001
 40
0.0
 40
0.0
 40
0.0
 40
0.0
 40
0.0373053022745446
 40
0.1123944721409977
 40
0.1877007648022089
 40
0.2626909269304755
 40
0.3164077487820038
 40
0.3700395106410998
 40
0.4551366706399376
 40
0.5403979637912787
 40
0.6258746081046493
 40
0.711132566131847
 40
0.7962285301021572
 40
0.8813176719870746
 40
0.9665553532514829
 40
1.0
 40
1.0
 40
1.0
 40
1.0
 10
19.66183607814203
 20
0.8358081053823625
 30
0.0
 10
19.74158780145601
 20
0.8628026876682301
 30
0.0
 10
19.98186605408191
 20
0.9441327303618422
 30
0.0
 10
20.38311671004885
 20
0.999654493762198
 30
0.0
 10
20.86564498798451
 20
1.004926283590533
 30
0.0
 10
21.30134905519625
 20
0.9356704145619594
 30
0.0
 10
21.69124772319071
 20
0.8255646615073976
 30
0.0
 10
22.10238710795765
 20
0.670210694717974
 30
0.0
 10
22.58133515346139
 20
0.4395784492131605
 30
0.0
 10
23.12841405856625
 20
0.1330322998152739
 30
0.0
 10
23.67636519322832
 20
-0.1861811277248508
 30
0.0
 10
24.22345891024647
 20
-0.4871663359903327
 30
0.0
 10
24.76953782436065
 20
-0.7414683719371455
 30
0.0
 10
25.31557254879491
 20
-0.9163172225562918
 30
0.0
 10
25.75129777331374
 20
-1.001799148736822
 30
0.0
 10
26.00527023671489
 20
-0.9911356339441506
 30
0.0
 10
26.07683960567247
 20
-0.9881306584662543
 30
0.0
  0
SPLINE
  5
DC
330
1F
100
AcDbEntity
  8
0
  6
Continuous
 62
     1
370
    25
100
AcDbSpline
210
0.0
220
0.0
230
1.0
 70
     8
 71
     3
 72
    16
 73
    12
 74
     0
 42
0.000000001
 43
0.00000001
 40
0.0
 40
0.0
 40
0.0
 40
0.0
 40
0.1293538021642608
 40
0.2587302246097936
 40
0.388164517984754
 40
0.5050336064154385
 40
0.6219844376973553
 40
0.7385923392378646
 40
0.8550612562046912
 40
0.9716044310244235
 40
1.0
 40
1.0
 40
1.0
 40
1.0
 10
26.09726667790111
 20
-0.9068606969289744
 30
0.0
 10
25.89519042791463
 20
-0.8468399691459523
 30
0.0
 10
25.49100259058371
 20
-0.7267880176708442
 30
0.0
 10
24.88459739168344
 20
-0.4289030575685991
 30
0.0
 10
24.29763236399859
 20
-0.0978416501386827
 30
0.0
 10
23.73004011097268
 20
0.2331669308929714
 30
0.0
 10
23.18225297337418
 20
0.5281475435442131
 30
0.0
 10
22.63561708376395
 20
0.7735937560825864
 30
0.0
 10
22.08967069212549
 20
0.9344131424002173
 30
0.0
 10
21.68150727816377
 20
1.007703398696313
 30
0.0
 10
21.45502822115924
 20
0.9936156973730482
 30
0.0
 10
21.41065774080116
 20
0.9908557155755169
 30
0.0
  0
SPLINE
  5
DD
330
1F
100
AcDbEntity
  8
0
  6
Continuous
 62
     1
370
    25
100
AcDbSpline
210
0.0
220
0.0
230
1.0
 70
     8
 71
     3
 72
    20
 73
    16
 74
     0
 42
0.000000001
 43
0.00000001
 40
0.0
 40
0.0
 40
0.0
 40
0.0
 40
0.0498825366542497
 40
0.1350103215014488
 40
0.2203157008200957
 40
0.2692094633090469
 40
0.3637208203523339
 40
0.4582487047295219
 40
0.5528188720545787
 40
0.638208369380446
 40
0.7236575914895766
 40
0.8088562546302915
 40
0.893953369765095
 40
0.9791047408269128
 40
0.9999999999999999
 40
0.9999999999999999
 40
0.9999999999999999
 40
0.9999999999999999
 10
16.94094067959798
 20
-0.8359612706496434
 30
0.0
 10
16.83432677512517
 20
-0.8700376889387277
 30
0.0
 10
16.54576932626953
 20
-0.9622677256891776
 30
0.0
 10
16.07495454397743
 20
-1.012469436352008
 30
0.0
 10
15.60584017186125
 20
-0.9886143248435436
 30
0.0
 10
15.11697954153668
 20
-0.8927202480393757
 30
0.0
 10
14.60819133023214
 20
-0.7217922958799744
 30
0.0
 10
14.00180526596439
 20
-0.4302527315933327
 30
0.0
 10
13.41483519195696
 20
-0.0974980775015343
 30
0.0
 10
12.84724423003388
 20
0.2330104442985229
 30
0.0
 10
12.29945651319008
 20
0.528446746803324
 30
0.0
 10
11.75282169076945
 20
0.7725570901748169
 30
0.0
 10
11.20687161367376
 20
0.9382580107117009
 30
0.0
 10
10.79840161170289
 20
0.9979844609583034
 30
0.0
 10
10.57159419609828
 20
0.9985075405169546
 30
0.0
 10
10.52690442405236
 20
0.9986106072803393
 30
0.0
  0
ELLIPSE
  5
DE
330
1F
100
AcDbEntity
  8
0
  6
Continuous
 62
     1
370
    25
100
AcDbEllipse
 10
26.21987392215964
 20
0.0000000000000014
 30
0.0
 11
1.389323305659968
 21
-0.5503410060417639
 31
0.0
210
0.0
220
0.0
230
1.0
 40
0.6009688174887251
 41
4.860139407233084
 42
5.117950484049575
  0
LINE
  5
DF
330
1F
100
AcDbEntity
  8
0
  6
Continuous
 62
     1
370
    25
100
AcDbLine
 10
26.46410161513774
 20
-1.000000000000003
 30
0.0
 11
26.46410161513774
 21
-0.9843391617328159
 31
0.0
  0
SPLINE
  5
E0
330
1F
100
AcDbEntity
  8
0
  6
Continuous
 62
     4
370
    25
100
AcDbSpline
210
0.0
220
0.0
230
1.0
 70
    24
 71
     3
 72
    14
 73
    10
 74
     0
 42
0.000000001
 43
0.00000001
 40
0.0
 40
0.0
 40
0.0
 40
0.0
 40
0.1016030105203258
 40
0.2484909006322261
 40
0.391239083763093
 40
0.5381269738747901
 40
0.6808751570052421
 40
0.8277630471169118
 40
1.0
 40
1.0
 40
1.0
 40
1.0
 10
10.46410161513773
 20
-0.4071466075197919
 30
0.0
 10
10.46410161513773
 20
-0.4154302232702124
 30
0.0
 10
10.46410161513773
 20
-0.4356894963741475
 30
0.0
 10
10.46410161513774
 20
-0.4889019111591056
 30
0.0
 10
10.46410161513773
 20
-0.5624131449824568
 30
0.0
 10
10.46410161513774
 20
-0.6503751096199666
 30
0.0
 10
10.46410161513773
 20
-0.7510959438986873
 30
0.0
 10
10.46410161513774
 20
-0.8673153186068273
 30
0.0
 10
10.46410161513773
 20
-0.9530670069390826
 30
0.0
 10
10.46410161513773
 20
-0.999348610603422
 30
0.0
  0
LINE
  5
E1
330
1F
100
AcDbEntity
  8
0
  6
Continuous
 62
     1
370
    25
100
AcDbLine
 10
26.46410161513774
 20
0.3586687346939966
 30
0.0
 11
26.46410161513774
 21
0.9751656983552638
 31
0.0
  0
SPLINE
  5
E2
330
1F
100
AcDbEntity
  8
0
  6
Continuous
 62
     1
370
    25
100
AcDbSpline
210
0.0
220
0.0
230
1.0
 70
     8
 71
     3
 72
    11
 73
     7
 74
     0
 42
0.000000001
 43
0.00000001
 40
0.0
 40
0.0
 40
0.0
 40
0.0
 40
0.2544919421169576
 40
0.5172710951296042
 40
0.8464959202566238
 40
1.0
 40
1.0
 40
1.0
 40
1.0
 10
26.46410161513774
 20
0.3586687346939966
 30
0.0
 10
26.43910005713439
 20
0.3508693837918881
 30
0.0
 10
26.38828279674984
 20
0.3350167059079667
 30
0.0
 10
26.30229404419585
 20
0.3331600371705205
 30
0.0
 10
26.22675062815517
 20
0.3427266793947771
 30
0.0
 10
26.18028772587287
 20
0.3611429708174844
 30
0.0
 10
26.1655128802295
 20
0.3669992098754862
 30
0.0
  0
SPLINE
  5
E3
330
1F
100
AcDbEntity
  8
0
  6
Continuous
 62
     1
370
    25
100
AcDbSpline
210
0.0
220
0.0
230
1.0
 70
     8
 71
     3
 72
    11
 73
     7
 74
     0
 42
0.000000001
 43
0.00000001
 40
0.0
 40
0.0
 40
0.0
 40
0.0
 40
0.3083834607454718
 40
0.6168208489403436
 40
0.9253962032189074
 40
1.0
 40
1.0
 40
1.0
 40
1.0
 10
26.09726667788846
 20
0.4214305119127494
 30
0.0
 10
25.89519096679511
 20
0.5227350700360446
 30
0.0
 10
25.49100420734467
 20
0.7253619015531585
 30
0.0
 10
24.88459092207668
 20
0.9194760230497385
 30
0.0
 10
24.43135339893273
 20
1.007767933762745
 30
0.0
 10
24.18019506741569
 20
0.9931042921232248
 30
0.0
 10
24.13129531628739
 20
0.9902493264030903
 30
0.0
  0
SPLINE
  5
E4
330
1F
100
AcDbEntity
  8
0
  6
Continuous
 62
     1
370
    25
100
AcDbSpline
210
0.0
220
0.0
230
1.0
 70
     8
 71
     3
 72
    20
 73
    16
 74
     0
 42
0.000000001
 43
0.00000001
 40
0.0
 40
0.0
 40
0.0
 40
0.0
 40
0.0477906132838175
 40
0.132939048325707
 40
0.2182806068439825
 40
0.3037774202761958
 40
0.3890251658352271
 40
0.4741399581216306
 40
0.5592773955471099
 40
0.6445924475813463
 40
0.6934917541008192
 40
0.7880138277182324
 40
0.8825524305435669
 40
0.9771333211112075
 40
1.0
 40
1.0
 40
1.0
 40
1.0
 10
19.66183607814204
 20
-0.8358081053823605
 30
0.0
 10
19.55970783930508
 20
-0.8687695491744403
 30
0.0
 10
19.27561793241198
 20
-0.9604583279548564
 30
0.0
 10
18.80914981055655
 20
-1.011868845978939
 30
0.0
 10
18.26182313774292
 20
-0.9865770394200599
 30
0.0
 10
17.71392259398759
 20
-0.8600649349297488
 30
0.0
 10
17.16704625965536
 20
-0.6493152120005844
 30
0.0
 10
16.62104855406636
 20
-0.3741677603684423
 30
0.0
 10
16.07495219936669
 20
-0.062151995093513
 30
0.0
 10
15.60584057560854
 20
0.2108542676178083
 30
0.0
 10
15.11697918385382
 20
0.4764802824485393
 30
0.0
 10
14.60819311785028
 20
0.7232843273036721
 30
0.0
 10
14.00179888207352
 20
0.92005387659761
 30
0.0
 10
13.54855701392598
 20
1.007740110070251
 30
0.0
 10
13.29739884948182
 20
0.993099757762322
 30
0.0
 10
13.24849913088207
 20
0.99024932640309
 30
0.0
  0
SPLINE
  5
E5
330
1F
100
AcDbEntity
  8
0
  6
Continuous
 62
     4
370
    25
100
AcDbSpline
210
0.0
220
0.0
230
1.0
 70
    24
 71
     3
 72
    16
 73
    12
 74
     0
 42
0.000000001
 43
0.00000001
 40
0.0
 40
0.0
 40
0.0
 40
0.0
 40
0.125
 40
0.125
 40
0.2500000000000001
 40
0.2500000000000001
 40
0.5000000000000001
 40
0.5000000000000001
 40
0.75
 40
0.75
 40
1.0
 40
1.0
 40
1.0
 40
1.0
 10
10.46410161513773
 20
0.9168971647836376
 30
0.0
 10
10.46410161513773
 20
0.8829649850067484
 30
0.0
 10
10.46410161513773
 20
0.8520616107824058
 30
0.0
 10
10.46410161513773
 20
0.7832147515491873
 30
0.0
 10
10.46410161513773
 20
0.7460446665018883
 30
0.0
 10
10.46410161513773
 20
0.6266714747594526
 30
0.0
 10
10.46410161513773
 20
0.5356890582136924
 30
0.0
 10
10.46410161513773
 20
0.34871918843322
 30
0.0
 10
10.46410161513773
 20
0.2529922485839577
 30
0.0
 10
10.46410161513773
 20
0.1024616810875932
 30
0.0
 10
10.46410161513773
 20
0.0500151977678907
 30
0.0
 10
10.46410161513773
 20
0.036088148778739
 30
0.0
  0
SPLINE
  5
E6
330
1F
100
AcDbEntity
  8
0
  6
Continuous
 62
     1
370
    25
100
AcDbSpline
210
0.0
220
0.0
230
1.0
 70
     8
 71
     3
 72
    20
 73
    16
 74
     0
 42
0.000000001
 43
0.00000001
 40
0.0
 40
0.0
 40
0.0
 40
0.0
 40
0.0311476851429482
 40
0.1164040375746386
 40
0.2018757286891937
 40
0.2871287461900044
 40
0.3722197790211558
 40
0.4573039901622403
 40
0.5425367320752592
 40
0.6280056345214455
 40
0.7132836014772223
 40
0.7983840310304511
 40
0.8834618252880809
 40
0.9686725150256936
 40
1.0
 40
1.0
 40
1.0
 40
1.0
 10
11.498411058528
 20
0.8361673403744586
 30
0.0
 10
11.56500331114079
 20
0.8592171234760912
 30
0.0
 10
11.81386954436948
 20
0.9453579652733566
 30
0.0
 10
12.24562937037485
 20
1.004592508266984
 30
0.0
 10
12.79356599530859
 20
1.000484447242049
 30
0.0
 10
13.34066329584149
 20
0.8920580424445866
 30
0.0
 10
13.88674235613806
 20
0.6968633035866599
 30
0.0
 10
14.43277292152217
 20
0.4324170425631313
 30
0.0
 10
14.97976891201817
 20
0.1251490731532782
 30
0.0
 10
15.52770137854016
 20
-0.1940042815866297
 30
0.0
 10
16.07491278579971
 20
-0.4940870173342558
 30
0.0
 10
16.62105767535554
 20
-0.746930798643558
 30
0.0
 10
17.16704913797183
 20
-0.9194912655638826
 30
0.0
 10
17.59815393073861
 20
-1.002820247813707
 30
0.0
 10
17.84754778035431
 20
-0.9914799786996562
 30
0.0
 10
17.91458917769756
 20
-0.9884315174451944
 30
0.0
  0
SPLINE
  5
E7
330
1F
100
AcDbEntity
  8
0
  6
Continuous
 62
     1
370
    25
100
AcDbSpline
210
0.0
220
0.0
230
1.0
 70
     8
 71
     3
 72
    16
 73
    12
 74
     0
 42
0.000000001
 43
0.00000001
 40
0.0
 40
0.0
 40
0.0
 40
0.0
 40
0.0489483735194094
 40
0.1829281464809191
 40
0.3172463227052612
 40
0.4512208548457721
 40
0.5849408291891783
 40
0.7186500832934435
 40
0.8525927524868363
 40
0.9869065463379676
 40
1.0
 40
1.0
 40
1.0
 40
1.0
 10
22.38120724393331
 20
0.8361673403744592
 30
0.0
 10
22.44779948955376
 20
0.8592171163687352
 30
0.0
 10
22.69666569665092
 20
0.9453579316046354
 30
0.0
 10
23.12842598543161
 20
1.004592944985772
 30
0.0
 10
23.6763606168347
 20
1.000482857638614
 30
0.0
 10
24.22346528467344
 20
0.8920639413317408
 30
0.0
 10
24.7695169307028
 20
0.696841337269566
 30
0.0
 10
25.31564981674947
 20
0.432499079980305
 30
0.0
 10
25.86226294325639
 20
0.1248419488548116
 30
0.0
 10
26.24649147696112
 20
-0.0973574701490237
 30
0.0
 10
26.44634924247057
 20
-0.2113510621312607
 30
0.0
 10
26.46410161513774
 20
-0.2214765467296674
 30
0.0
  0
LINE
  5
E8
330
1F
100
AcDbEntity
  8
0
  6
Continuous
 62
     1
370
    25
100
AcDbLine
 10
26.46410161513774
 20
-0.4999999999999997
 30
0.0
 11
26.46410161513774
 21
-0.2222080185536808
 31
0.0
  0
SPLINE
  5
E9
330
1F
100
AcDbEntity
  8
0
  6
Continuous
 62
     1
370
    25
100
AcDbSpline
210
0.0
220
0.0
230
1.0
 70
    24
 71
     3
 72
    10
 73
     6
 74
     0
 42
0.000000001
 43
0.00000001
 40
0.0
 40
0.0
 40
0.0
 40
0.0
 40
0.5
 40
0.5
 40
1.0
 40
1.0
 40
1.0
 40
1.0
 10
26.46410161513774
 20
-0.4999999999999998
 30
0.0
 10
26.39250978886368
 20
-0.5501291364312908
 30
0.0
 10
26.31669661919354
 20
-0.603214089329906
 30
0.0
 10
26.17073995562958
 20
-0.7054140454093237
 30
0.0
 10
26.09957401537622
 20
-0.75524497323849
 30
0.0
 10
26.03417165354496
 20
-0.8010402000094625
 30
0.0
  0
SPLINE
  5
EA
330
1F
100
AcDbEntity
  8
0
  6
Continuous
 62
     1
370
    25
100
AcDbSpline
210
0.0
220
0.0
230
1.0
 70
     8
 71
     3
 72
     8
 73
     4
 74
     0
 42
0.000000001
 43
0.00000001
 40
0.0
 40
0.0
 40
0.0
 40
0.0
 40
1.0
 40
1.0
 40
1.0
 40
1.0
 10
26.09726667787581
 20
-0.9068606969228582
 30
0.0
 10
26.08093458426372
 20
-0.8678391845057527
 30
0.0
 10
26.05766982250779
 20
-0.8343466187133504
 30
0.0
 10
26.03417165354952
 20
-0.8010402000055641
 30
0.0
  0
ELLIPSE
  5
EB
330
1F
100
AcDbEntity
  8
0
  6
Continuous
 62
     1
370
    25
100
AcDbEllipse
 10
26.21987392215964
 20
0.0000000000000004
 30
0.0
 11
1.419102565980783
 21
-0.9721740704074077
 31
0.0
210
0.0
220
0.0
230
1.0
 40
0.1650759015746651
 41
1.511550483225868
 42
1.769361560042359
  0
LINE
  5
EC
330
1F
100
AcDbEntity
  8
0
  6
Continuous
 62
     1
370
    25
100
AcDbLine
 10
26.46410161513774
 20
-0.2214765467296674
 30
0.0
 11
26.46410161513774
 21
0.176285038160188
 31
0.0
  0
LINE
  5
ED
330
1F
100
AcDbEntity
  8
0
  6
Continuous
 62
     1
370
    25
100
AcDbLine
 10
26.46410161513774
 20
0.1762850381601869
 30
0.0
 11
26.46410161513774
 21
0.3586687346939966
 31
0.0
  0
LINE
  5
EE
330
1F
100
AcDbEntity
  8
0
  6
Continuous
 62
     1
370
    25
100
AcDbLine
 10
26.46410161513774
 20
-0.4999999999999985
 30
0.0
 11
26.46410161513774
 21
-0.9843391617328159
 31
0.0
  0
LINE
  5
EF
330
1F
100
AcDbEntity
  8
중심선
100
AcDbLine
 10
-36.53589838486226
 20
-0.0000000000000043
 30
0.0
 11
27.96410161513772
 21
0.0000000000000036
 31
0.0
  0
CIRCLE
  5
F0
330
1F
100
AcDbEntity
  8
해칭선
100
AcDbCircle
 10
-0.000007697194682
 20
-0.0000000000000042
 30
0.0
 40
3.000000000000003
  0
INSERT
  5
F1
330
1F
100
AcDbEntity
  8
0
  6
Continuous
 62
     7
100
AcDbBlockReference
 66
     1
  2
블럭10
 10
-16.44009924894177
 20
-52.04717430164393
 30
0.0
  0
ATTRIB
  5
F2
330
F1
100
AcDbEntity
  8
FORMAT
 62
     2
100
AcDbText
 10
-32.55936028837733
 20
-49.97180738881174
 30
0.0
 40
4.233333333333333
  1
SEME7202016E [ 4 FLUTE ]
 41
0.75
  7
SLDTEXTSTYLE0
 11
-32.55936028837733
 21
-52.08847405547841
 31
0.0
100
AcDbAttribute
  2
AUTOATTR0
 70
     0
 74
     1
  0
SEQEND
  5
F3
330
F1
100
AcDbEntity
  8
0
  6
Continuous
 62
     7
  0
HATCH
  5
F4
330
1F
100
AcDbEntity
  8
중심선
100
AcDbHatch
 10
0.0
 20
0.0
 30
0.0
210
0.0
220
0.0
230
1.0
  2
SOLID
 70
     1
 71
     0
 91
        1
 92
        0
 93
        4
 72
     1
 10
-10.72518994456093
 20
-35.8
 11
-14.17146518839821
 21
-35.8
 72
     1
 10
-14.17146518839821
 20
-35.8
 11
-16.29969504760223
 21
-38.33632558057262
 72
     1
 10
-16.29969504760223
 20
-38.33632558057262
 11
-12.85338671865177
 21
-38.33628615127013
 72
     1
 10
-12.85338671865177
 20
-38.33628615127013
 11
-10.72518994456093
 21
-35.8
 97
        0
 75
     0
 76
     1
 98
        1
 10
0.0
 20
0.0
  0
HATCH
  5
F5
330
1F
100
AcDbEntity
  8
중심선
100
AcDbHatch
 10
0.0
 20
0.0
 30
0.0
210
0.0
220
0.0
230
1.0
  2
SOLID
 70
     1
 71
     0
 91
        1
 92
        0
 93
        4
 72
     1
 10
-5.712425953524974
 20
-35.8
 11
-9.158701197362229
 21
-35.8
 72
     1
 10
-9.158701197362229
 20
-35.8
 11
-13.68983920571964
 21
-41.20000000000002
 72
     1
 10
-13.68983920571964
 20
-41.20000000000002
 11
-10.24356396188236
 21
-41.20000000000002
 72
     1
 10
-10.24356396188236
 20
-41.20000000000002
 11
-5.712425953524974
 21
-35.8
 97
        0
 75
     0
 76
     1
 98
        1
 10
0.0
 20
0.0
  0
HATCH
  5
F6
330
1F
100
AcDbEntity
  8
중심선
100
AcDbHatch
 10
0.0
 20
0.0
 30
0.0
210
0.0
220
0.0
230
1.0
  2
SOLID
 70
     1
 71
     0
 91
        1
 92
        0
 93
        4
 72
     1
 10
-0.699661962489051
 20
-35.79999999999997
 11
-4.145937206326167
 21
-35.8
 72
     1
 10
-4.145937206326167
 20
-35.8
 11
-11.19437410821544
 21
-44.20000000000002
 72
     1
 10
-11.19437410821544
 20
-44.20000000000002
 11
-7.748098864378161
 21
-44.20000000000002
 72
     1
 10
-7.748098864378161
 20
-44.20000000000002
 11
-0.699661962489051
 21
-35.79999999999997
 97
        0
 75
     0
 76
     1
 98
        1
 10
0.0
 20
0.0
  0
HATCH
  5
F7
330
1F
100
AcDbEntity
  8
중심선
100
AcDbHatch
 10
0.0
 20
0.0
 30
0.0
210
0.0
220
0.0
230
1.0
  2
SOLID
 70
     1
 71
     0
 91
        1
 92
        0
 93
        6
 72
     3
 10
4.10022846852312
 20
-40.00000000005127
 11
3.960054785062284
 21
1.540850780301639E-10
 40
0.3939339440162633
 50
17.09539180608433
 51
320.0019657685081
 73
     0
 72
     1
 10
5.783228124223688
 20
-38.58789400463833
 11
8.088529997924754
 21
-36.6535672945904
 72
     3
 10
4.100228468470274
 20
-40.00000000000015
 11
6.600054785286829
 21
-1.249000902703301E-13
 40
0.6363583540795982
 50
39.9987384933739
 51
368.4976242363725
 73
     1
 72
     1
 10
10.52556096037088
 20
-39.03999999993002
 11
2.780295775306197
 21
-39.03999999993002
 72
     1
 10
2.780295775306196
 20
-39.03999999993002
 11
2.780270730860263
 21
-40.95999999992991
 72
     1
 10
2.780270730860263
 20
-40.95999999992991
 11
7.221650500332299
 21
-40.95999999992988
 97
        0
 75
     0
 76
     1
 98
        1
 10
0.0
 20
0.0
  0
DIMENSION
  5
F8
330
1F
100
AcDbEntity
  8
치수문자_일반주서
100
AcDbDimension
  2
_D
 10
38.8183071001846
 20
1.000000000000052
 30
0.0
 11
38.81830710018457
 21
10.66650000000005
 31
0.0
 70
   160
  1
%%c<>
 71
     2
 42
2.000000000000011
 52
-270.0
  3
SLDDIMSTYLE0
100
AcDbAlignedDimension
 13
26.46410161513776
 23
-1.000000000000006
 33
0.0
 14
26.46410161513776
 24
1.000000000000005
 34
0.0
 50
90.0000000000002
100
AcDbRotatedDimension
  0
DIMENSION
  5
106
330
1F
100
AcDbEntity
  8
치수문자_일반주서
100
AcDbDimension
  2
_D_1
 10
26.46410161513774
 20
20.38913260158165
 30
0.0
 11
-3.535898384862263
 21
20.38913260158165
 31
0.0
 70
   160
  1
<>
 71
     2
 42
60.0
  3
SLDDIMSTYLE1
100
AcDbAlignedDimension
 13
-33.53589838486226
 23
2.499999999999995
 33
0.0
 14
26.46410161513774
 24
1.000000000000004
 34
0.0
 50
-0.0000000000000068
100
AcDbRotatedDimension
  0
DIMENSION
  5
111
330
1F
100
AcDbEntity
  8
치수문자_일반주서
100
AcDbDimension
  2
_D_2
 10
-42.98190333941862
 20
-3.000000000000039
 30
0.0
 11
-42.98190333941868
 21
12.66649999999997
 31
0.0
 70
   160
  1
%%c<>
 71
     2
 42
6.000000000000005
 52
-270.0
  3
SLDDIMSTYLE2
100
AcDbAlignedDimension
 13
-33.03589838486225
 23
3.000000000000003
 33
0.0
 14
-33.03589838486225
 24
-3.000000000000002
 34
0.0
 50
90.0000000000002
100
AcDbRotatedDimension
  0
DIMENSION
  5
11F
330
1F
100
AcDbEntity
  8
치수문자_일반주서
100
AcDbDimension
  2
_D_3
 10
26.46410161513774
 20
11.76281546737129
 30
0.0
 11
18.46410161513774
 21
11.76281546737129
 31
0.0
 70
   160
  1
<>
 71
     2
 42
16.0
  3
SLDDIMSTYLE2
100
AcDbAlignedDimension
 13
10.46410161513773
 23
1.0
 33
0.0
 14
26.46410161513774
 24
1.000000000000004
 34
0.0
100
AcDbRotatedDimension
  0
INSERT
  5
131
330
1F
100
AcDbEntity
  8
해칭선
100
AcDbBlockReference
  2
SW_DOWELSYMBOL_0
 10
-0.000007697194682
 20
-0.0000000000000042
 30
0.0
  0
ENDSEC
  0
SECTION
  2
OBJECTS
  0
DICTIONARY
  5
C
330
0
100
AcDbDictionary
281
     1
  3
ACAD_GROUP
350
D
  3
ACAD_IMAGE_VARS
350
155
  3
ACAD_LAYOUT
350
1A
  3
ACAD_MLINESTYLE
350
17
  3
ACAD_PLOTSETTINGS
350
19
  3
ACAD_PLOTSTYLENAME
350
E
  3
ACAD_SCALELIST
350
47
  3
APPDATA
350
153
  3
DWGPROPS
350
163
  0
DICTIONARY
  5
D
102
{ACAD_REACTORS
330
C
102
}
330
C
100
AcDbDictionary
281
     1
  0
RASTERVARIABLES
  5
155
102
{ACAD_REACTORS
330
C
102
}
330
C
100
AcDbRasterVariables
 90
        0
 70
     1
 71
     1
 72
     1
  0
DICTIONARY
  5
1A
102
{ACAD_REACTORS
330
C
102
}
330
C
100
AcDbDictionary
281
     1
  3
Layout1
350
1E
  3
Layout2
350
26
  3
Model
350
22
  0
DICTIONARY
  5
17
102
{ACAD_REACTORS
330
C
102
}
330
C
100
AcDbDictionary
281
     1
  3
Standard
350
18
  0
DICTIONARY
  5
19
102
{ACAD_REACTORS
330
C
102
}
330
C
100
AcDbDictionary
281
     1
  0
ACDBDICTIONARYWDFLT
  5
E
102
{ACAD_REACTORS
330
C
102
}
330
C
100
AcDbDictionary
281
     1
  3
Normal
350
F
100
AcDbDictionaryWithDefault
340
F
  0
DICTIONARY
  5
47
102
{ACAD_REACTORS
330
C
102
}
330
C
100
AcDbDictionary
281
     1
  3
A0
350
48
  3
A1
350
49
  3
A2
350
4A
  3
A3
350
4B
  3
A4
350
4C
  3
A5
350
4D
  3
A6
350
4E
  3
A7
350
4F
  3
A8
350
50
  3
A9
350
51
  3
B0
350
52
  3
B1
350
53
  3
B2
350
54
  3
B3
350
55
  3
B4
350
56
  3
B5
350
57
  3
B6
350
58
  3
B7
350
59
  3
B8
350
5A
  3
B9
350
5B
  3
C0
350
5C
  3
C1
350
5D
  3
C2
350
5E
  3
C3
350
5F
  3
C4
350
60
  3
C5
350
61
  3
C6
350
62
  3
C7
350
63
  3
C8
350
64
  3
C9
350
65
  3
D0
350
66
  3
D1
350
67
  3
D2
350
68
  0
DICTIONARY
  5
153
102
{ACAD_REACTORS
330
C
102
}
330
C
100
AcDbDictionary
281
     1
  0
XRECORD
  5
163
102
{ACAD_REACTORS
330
C
102
}
330
C
100
AcDbXrecord
280
     1
  1
DWGPROPS COOKIE
  2

  3

  4

  6

  7

  8
12014102
  9

300
=
301
=
302
=
303
=
304
=
305
=
306
=
307
=
308
=
309
=
 40
0.0
 41
2458260.193517164
 42
2458268.103329584
  1

 90
        0
  0
LAYOUT
  5
1E
102
{ACAD_REACTORS
330
1A
102
}
330
1A
100
AcDbPlotSettings
  1

  2
none_device
  4

  6

 40
0.0
 41
0.0
 42
0.0
 43
0.0
 44
0.0
 45
0.0
 46
0.0
 47
0.0
 48
0.0
 49
0.0
140
0.0
141
0.0
142
1.0
143
1.0
 70
   688
 72
     1
 73
     0
 74
     5
  7

 75
    16
147
1.0
148
0.0
149
0.0
100
AcDbLayout
  1
Layout1
 70
     1
 71
     1
 10
0.0
 20
0.0
 11
420.0
 21
297.0
 12
0.0
 22
0.0
 32
0.0
 14
1.000000000000000E+20
 24
1.000000000000000E+20
 34
1.000000000000000E+20
 15
-1.000000000000000E+20
 25
-1.000000000000000E+20
 35
-1.000000000000000E+20
146
0.0
 13
0.0
 23
0.0
 33
0.0
 16
1.0
 26
0.0
 36
0.0
 17
0.0
 27
1.0
 37
0.0
 76
     0
330
1B
  0
LAYOUT
  5
26
102
{ACAD_REACTORS
330
1A
102
}
330
1A
100
AcDbPlotSettings
  1

  2
none_device
  4

  6

 40
0.0
 41
0.0
 42
0.0
 43
0.0
 44
0.0
 45
0.0
 46
0.0
 47
0.0
 48
0.0
 49
0.0
140
0.0
141
0.0
142
1.0
143
1.0
 70
   688
 72
     1
 73
     0
 74
     5
  7

 75
    16
147
1.0
148
0.0
149
0.0
100
AcDbLayout
  1
Layout2
 70
     1
 71
     2
 10
0.0
 20
0.0
 11
0.0
 21
0.0
 12
0.0
 22
0.0
 32
0.0
 14
0.0
 24
0.0
 34
0.0
 15
0.0
 25
0.0
 35
0.0
146
0.0
 13
0.0
 23
0.0
 33
0.0
 16
1.0
 26
0.0
 36
0.0
 17
0.0
 27
1.0
 37
0.0
 76
     0
330
23
  0
LAYOUT
  5
22
102
{ACAD_REACTORS
330
1A
102
}
330
1A
100
AcDbPlotSettings
  1

  2
none_device
  4
ANSI_A_(11.00_x_8.50_Inches)
  6

 40
6.35
 41
19.05
 42
6.35000508
 43
19.05000254
 44
279.4
 45
215.9
 46
142.1869779282097
 47
125.3847137330092
 48
0.0
 49
0.0
140
0.0
141
0.0
142
0.1112850254374008
143
1.0
 70
  1696
 72
     0
 73
     0
 74
     0
  7

 75
     0
147
0.0235690232323232
148
0.0
149
0.0
100
AcDbLayout
  1
Model
 70
     1
 71
     0
 10
0.0
 20
0.0
 11
420.0
 21
297.0
 12
0.0
 22
0.0
 32
0.0
 14
-47.35690333941868
 24
-49.97180738881174
 34
0.0
 15
39.36864043351797
 25
24.76413260158165
 35
0.0
146
0.0
 13
0.0
 23
0.0
 33
0.0
 16
1.0
 26
0.0
 36
0.0
 17
0.0
 27
1.0
 37
0.0
 76
     0
330
1F
331
29
  0
MLINESTYLE
  5
18
102
{ACAD_REACTORS
330
17
102
}
330
17
100
AcDbMlineStyle
  2
Standard
 70
     0
  3

 62
   256
 51
90.0
 52
90.0
 71
     2
 49
0.5
 62
   256
  6
BYLAYER
 49
-0.5
 62
   256
  6
BYLAYER
  0
ACDBPLACEHOLDER
  5
F
102
{ACAD_REACTORS
330
E
102
}
330
E
  0
SCALE
  5
48
102
{ACAD_REACTORS
330
47
102
}
330
47
100
AcDbScale
 70
     0
300
1:1
140
1.0
141
1.0
290
     1
  0
SCALE
  5
49
102
{ACAD_REACTORS
330
47
102
}
330
47
100
AcDbScale
 70
     0
300
1:2
140
1.0
141
2.0
290
     0
  0
SCALE
  5
4A
102
{ACAD_REACTORS
330
47
102
}
330
47
100
AcDbScale
 70
     0
300
1:4
140
1.0
141
4.0
290
     0
  0
SCALE
  5
4B
102
{ACAD_REACTORS
330
47
102
}
330
47
100
AcDbScale
 70
     0
300
1:5
140
1.0
141
5.0
290
     0
  0
SCALE
  5
4C
102
{ACAD_REACTORS
330
47
102
}
330
47
100
AcDbScale
 70
     0
300
1:8
140
1.0
141
8.0
290
     0
  0
SCALE
  5
4D
102
{ACAD_REACTORS
330
47
102
}
330
47
100
AcDbScale
 70
     0
300
1:10
140
1.0
141
10.0
290
     0
  0
SCALE
  5
4E
102
{ACAD_REACTORS
330
47
102
}
330
47
100
AcDbScale
 70
     0
300
1:16
140
1.0
141
16.0
290
     0
  0
SCALE
  5
4F
102
{ACAD_REACTORS
330
47
102
}
330
47
100
AcDbScale
 70
     0
300
1:20
140
1.0
141
20.0
290
     0
  0
SCALE
  5
50
102
{ACAD_REACTORS
330
47
102
}
330
47
100
AcDbScale
 70
     0
300
1:30
140
1.0
141
30.0
290
     0
  0
SCALE
  5
51
102
{ACAD_REACTORS
330
47
102
}
330
47
100
AcDbScale
 70
     0
300
1:40
140
1.0
141
40.0
290
     0
  0
SCALE
  5
52
102
{ACAD_REACTORS
330
47
102
}
330
47
100
AcDbScale
 70
     0
300
1:50
140
1.0
141
50.0
290
     0
  0
SCALE
  5
53
102
{ACAD_REACTORS
330
47
102
}
330
47
100
AcDbScale
 70
     0
300
1:100
140
1.0
141
100.0
290
     0
  0
SCALE
  5
54
102
{ACAD_REACTORS
330
47
102
}
330
47
100
AcDbScale
 70
     0
300
2:1
140
2.0
141
1.0
290
     0
  0
SCALE
  5
55
102
{ACAD_REACTORS
330
47
102
}
330
47
100
AcDbScale
 70
     0
300
4:1
140
4.0
141
1.0
290
     0
  0
SCALE
  5
56
102
{ACAD_REACTORS
330
47
102
}
330
47
100
AcDbScale
 70
     0
300
8:1
140
8.0
141
1.0
290
     0
  0
SCALE
  5
57
102
{ACAD_REACTORS
330
47
102
}
330
47
100
AcDbScale
 70
     0
300
10:1
140
10.0
141
1.0
290
     0
  0
SCALE
  5
58
102
{ACAD_REACTORS
330
47
102
}
330
47
100
AcDbScale
 70
     0
300
100:1
140
100.0
141
1.0
290
     0
  0
SCALE
  5
59
102
{ACAD_REACTORS
330
47
102
}
330
47
100
AcDbScale
 70
     0
300
1/128" = 1'-0"
140
0.0078125
141
12.0
290
     0
  0
SCALE
  5
5A
102
{ACAD_REACTORS
330
47
102
}
330
47
100
AcDbScale
 70
     0
300
1/64" = 1'-0"
140
0.015625
141
12.0
290
     0
  0
SCALE
  5
5B
102
{ACAD_REACTORS
330
47
102
}
330
47
100
AcDbScale
 70
     0
300
1/32" = 1'-0"
140
0.03125
141
12.0
290
     0
  0
SCALE
  5
5C
102
{ACAD_REACTORS
330
47
102
}
330
47
100
AcDbScale
 70
     0
300
1/16" = 1'-0"
140
0.0625
141
12.0
290
     0
  0
SCALE
  5
5D
102
{ACAD_REACTORS
330
47
102
}
330
47
100
AcDbScale
 70
     0
300
3/32" = 1'-0"
140
0.09375
141
12.0
290
     0
  0
SCALE
  5
5E
102
{ACAD_REACTORS
330
47
102
}
330
47
100
AcDbScale
 70
     0
300
1/8" = 1'-0"
140
0.125
141
12.0
290
     0
  0
SCALE
  5
5F
102
{ACAD_REACTORS
330
47
102
}
330
47
100
AcDbScale
 70
     0
300
3/16" = 1'-0"
140
0.1875
141
12.0
290
     0
  0
SCALE
  5
60
102
{ACAD_REACTORS
330
47
102
}
330
47
100
AcDbScale
 70
     0
300
1/4" = 1'-0"
140
0.25
141
12.0
290
     0
  0
SCALE
  5
61
102
{ACAD_REACTORS
330
47
102
}
330
47
100
AcDbScale
 70
     0
300
3/8" = 1'-0"
140
0.375
141
12.0
290
     0
  0
SCALE
  5
62
102
{ACAD_REACTORS
330
47
102
}
330
47
100
AcDbScale
 70
     0
300
1/2" = 1'-0"
140
0.5
141
12.0
290
     0
  0
SCALE
  5
63
102
{ACAD_REACTORS
330
47
102
}
330
47
100
AcDbScale
 70
     0
300
3/4" = 1'-0"
140
0.75
141
12.0
290
     0
  0
SCALE
  5
64
102
{ACAD_REACTORS
330
47
102
}
330
47
100
AcDbScale
 70
     0
300
1" = 1'-0"
140
1.0
141
12.0
290
     0
  0
SCALE
  5
65
102
{ACAD_REACTORS
330
47
102
}
330
47
100
AcDbScale
 70
     0
300
1-1/2" = 1'-0"
140
1.5
141
12.0
290
     0
  0
SCALE
  5
66
102
{ACAD_REACTORS
330
47
102
}
330
47
100
AcDbScale
 70
     0
300
3" = 1'-0"
140
3.0
141
12.0
290
     0
  0
SCALE
  5
67
102
{ACAD_REACTORS
330
47
102
}
330
47
100
AcDbScale
 70
     0
300
6" = 1'-0"
140
6.0
141
12.0
290
     0
  0
SCALE
  5
68
102
{ACAD_REACTORS
330
47
102
}
330
47
100
AcDbScale
 70
     0
300
1'-0" = 1'-0"
140
12.0
141
12.0
290
     0
  0
ENDSEC
  0
EOF
