  0
SECTION
  2
HEADER
  9
$ACADVER
  1
AC1015
  9
$ACADMAINTVER
 70
     6
  9
$DWGCODEPAGE
  3
ANSI_949
  9
$INSBASE
 10
0.0
 20
0.0
 30
0.0
  9
$EXTMIN
 10
-59.29314822768217
 20
-49.97180738881174
 30
0.0
  9
$EXTMAX
 10
36.8172258902632
 20
24.76413260158164
 30
0.0
  9
$LIMMIN
 10
0.0
 20
0.0
  9
$LIMMAX
 10
420.0
 20
297.0
  9
$ORTHOMODE
 70
     0
  9
$REGENMODE
 70
     1
  9
$FILLMODE
 70
     1
  9
$QTEXTMODE
 70
     0
  9
$MIRRTEXT
 70
     1
  9
$LTSCALE
 40
1.0
  9
$ATTMODE
 70
     1
  9
$TEXTSIZE
 40
3.5
  9
$TRACEWID
 40
1.0
  9
$TEXTSTYLE
  7
Standard
  9
$CLAYER
  8
0
  9
$CELTYPE
  6
ByLayer
  9
$CECOLOR
 62
   256
  9
$CELTSCALE
 40
1.0
  9
$DISPSILH
 70
     0
  9
$DIMSCALE
 40
1.0
  9
$DIMASZ
 40
3.302
  9
$DIMEXO
 40
1.0
  9
$DIMDLI
 40
3.75
  9
$DIMRND
 40
0.0
  9
$DIMDLE
 40
0.0
  9
$DIMEXE
 40
1.0
  9
$DIMTP
 40
0.0
  9
$DIMTM
 40
0.0
  9
$DIMTXT
 40
3.5
  9
$DIMCEN
 40
2.5
  9
$DIMTSZ
 40
0.0
  9
$DIMTOL
 70
     0
  9
$DIMLIM
 70
     0
  9
$DIMTIH
 70
     1
  9
$DIMTOH
 70
     1
  9
$DIMSE1
 70
     0
  9
$DIMSE2
 70
     0
  9
$DIMTAD
 70
     1
  9
$DIMZIN
 70
     0
  9
$DIMBLK
  1

  9
$DIMASO
 70
     1
  9
$DIMSHO
 70
     1
  9
$DIMPOST
  1

  9
$DIMAPOST
  1

  9
$DIMALT
 70
     0
  9
$DIMALTD
 70
     3
  9
$DIMALTF
 40
0.0393700787401575
  9
$DIMLFAC
 40
1.0
  9
$DIMTOFL
 70
     1
  9
$DIMTVP
 40
0.0
  9
$DIMTIX
 70
     0
  9
$DIMSOXD
 70
     0
  9
$DIMSAH
 70
     0
  9
$DIMBLK1
  1

  9
$DIMBLK2
  1

  9
$DIMSTYLE
  2
ISO-25
  9
$DIMCLRD
 70
     0
  9
$DIMCLRE
 70
     0
  9
$DIMCLRT
 70
     0
  9
$DIMTFAC
 40
1.0
  9
$DIMGAP
 40
1.524
  9
$DIMJUST
 70
     0
  9
$DIMSD1
 70
     0
  9
$DIMSD2
 70
     0
  9
$DIMTOLJ
 70
     0
  9
$DIMTZIN
 70
     0
  9
$DIMALTZ
 70
     0
  9
$DIMALTTZ
 70
     0
  9
$DIMUPT
 70
     0
  9
$DIMDEC
 70
     2
  9
$DIMTDEC
 70
     2
  9
$DIMALTU
 70
     2
  9
$DIMALTTD
 70
     3
  9
$DIMTXSTY
  7
Standard
  9
$DIMAUNIT
 70
     0
  9
$DIMADEC
 70
     2
  9
$DIMALTRND
 40
0.0
  9
$DIMAZIN
 70
     0
  9
$DIMDSEP
 70
    44
  9
$DIMATFIT
 70
     3
  9
$DIMFRAC
 70
     0
  9
$DIMLDRBLK
  1

  9
$DIMLUNIT
 70
     2
  9
$DIMLWD
 70
    -2
  9
$DIMLWE
 70
    -2
  9
$DIMTMOVE
 70
     0
  9
$LUNITS
 70
     2
  9
$LUPREC
 70
     2
  9
$SKETCHINC
 40
1.0
  9
$FILLETRAD
 40
10.0
  9
$AUNITS
 70
     0
  9
$AUPREC
 70
     2
  9
$MENU
  1
.
  9
$ELEVATION
 40
0.0
  9
$PELEVATION
 40
0.0
  9
$THICKNESS
 40
0.0
  9
$LIMCHECK
 70
     0
  9
$CHAMFERA
 40
0.0
  9
$CHAMFERB
 40
0.0
  9
$CHAMFERC
 40
0.0
  9
$CHAMFERD
 40
0.0
  9
$SKPOLY
 70
     0
  9
$TDCREATE
 40
2458260.57040794
  9
$TDUCREATE
 40
2458260.19540794
  9
$TDUPDATE
 40
2458268.487908009
  9
$TDUUPDATE
 40
2458268.112908009
  9
$TDINDWG
 40
0.0009627778
  9
$TDUSRTIMER
 40
2458268.111945266
  9
$USRTIMER
 70
     1
  9
$ANGBASE
 50
0.0
  9
$ANGDIR
 70
     0
  9
$PDMODE
 70
     0
  9
$PDSIZE
 40
-1.0
  9
$PLINEWID
 40
0.0
  9
$SPLFRAME
 70
     0
  9
$SPLINETYPE
 70
     6
  9
$SPLINESEGS
 70
     8
  9
$HANDSEED
  5
15A
  9
$SURFTAB1
 70
     6
  9
$SURFTAB2
 70
     6
  9
$SURFTYPE
 70
     6
  9
$SURFU
 70
     6
  9
$SURFV
 70
     6
  9
$UCSBASE
  2

  9
$UCSNAME
  2

  9
$UCSORG
 10
0.0
 20
0.0
 30
0.0
  9
$UCSXDIR
 10
1.0
 20
0.0
 30
0.0
  9
$UCSYDIR
 10
0.0
 20
1.0
 30
0.0
  9
$UCSORTHOREF
  2

  9
$UCSORTHOVIEW
 70
     0
  9
$UCSORGTOP
 10
0.0
 20
0.0
 30
0.0
  9
$UCSORGBOTTOM
 10
0.0
 20
0.0
 30
0.0
  9
$UCSORGLEFT
 10
0.0
 20
0.0
 30
0.0
  9
$UCSORGRIGHT
 10
0.0
 20
0.0
 30
0.0
  9
$UCSORGFRONT
 10
0.0
 20
0.0
 30
0.0
  9
$UCSORGBACK
 10
0.0
 20
0.0
 30
0.0
  9
$PUCSBASE
  2

  9
$PUCSNAME
  2

  9
$PUCSORG
 10
0.0
 20
0.0
 30
0.0
  9
$PUCSXDIR
 10
1.0
 20
0.0
 30
0.0
  9
$PUCSYDIR
 10
0.0
 20
1.0
 30
0.0
  9
$PUCSORTHOREF
  2

  9
$PUCSORTHOVIEW
 70
     0
  9
$PUCSORGTOP
 10
0.0
 20
0.0
 30
0.0
  9
$PUCSORGBOTTOM
 10
0.0
 20
0.0
 30
0.0
  9
$PUCSORGLEFT
 10
0.0
 20
0.0
 30
0.0
  9
$PUCSORGRIGHT
 10
0.0
 20
0.0
 30
0.0
  9
$PUCSORGFRONT
 10
0.0
 20
0.0
 30
0.0
  9
$PUCSORGBACK
 10
0.0
 20
0.0
 30
0.0
  9
$USERI1
 70
     0
  9
$USERI2
 70
     0
  9
$USERI3
 70
     0
  9
$USERI4
 70
     0
  9
$USERI5
 70
     0
  9
$USERR1
 40
0.0
  9
$USERR2
 40
0.0
  9
$USERR3
 40
0.0
  9
$USERR4
 40
0.0
  9
$USERR5
 40
0.0
  9
$WORLDVIEW
 70
     1
  9
$SHADEDGE
 70
     3
  9
$SHADEDIF
 70
    70
  9
$TILEMODE
 70
     1
  9
$MAXACTVP
 70
    64
  9
$PINSBASE
 10
0.0
 20
0.0
 30
0.0
  9
$PLIMCHECK
 70
     0
  9
$PEXTMIN
 10
1.000000000000000E+20
 20
1.000000000000000E+20
 30
1.000000000000000E+20
  9
$PEXTMAX
 10
-1.000000000000000E+20
 20
-1.000000000000000E+20
 30
-1.000000000000000E+20
  9
$PLIMMIN
 10
0.0
 20
0.0
  9
$PLIMMAX
 10
0.0
 20
0.0
  9
$UNITMODE
 70
     0
  9
$VISRETAIN
 70
     1
  9
$PLINEGEN
 70
     0
  9
$PSLTSCALE
 70
     1
  9
$TREEDEPTH
 70
  3020
  9
$CMLSTYLE
  2
Standard
  9
$CMLJUST
 70
     0
  9
$CMLSCALE
 40
20.0
  9
$PROXYGRAPHICS
 70
     1
  9
$MEASUREMENT
 70
     1
  9
$CELWEIGHT
370
    -1
  9
$ENDCAPS
280
     0
  9
$JOINSTYLE
280
     0
  9
$LWDISPLAY
290
     1
  9
$INSUNITS
 70
     4
  9
$HYPERLINKBASE
  1

  9
$STYLESHEET
  1

  9
$XEDIT
290
     1
  9
$CEPSNTYPE
380
     0
  9
$PSTYLEMODE
290
     1
  9
$FINGERPRINTGUID
  2
{9FE29E22-349B-4CC8-A236-3C6CB43D1A74}
  9
$VERSIONGUID
  2
{FAEB1C32-E019-11D5-929B-00C0DF256EC4}
  9
$EXTNAMES
290
     1
  9
$PSVPSCALE
 40
0.0
  9
$OLESTARTUP
290
     0
  0
ENDSEC
  0
SECTION
  2
CLASSES
  0
CLASS
  1
ACDBDICTIONARYWDFLT
  2
AcDbDictionaryWithDefault
  3
ObjectDBX Classes
 90
        0
280
     0
281
     0
  0
CLASS
  1
VISUALSTYLE
  2
AcDbVisualStyle
  3
ObjectDBX Classes
 90
     4095
280
     0
281
     0
  0
CLASS
  1
MATERIAL
  2
AcDbMaterial
  3
ObjectDBX Classes
 90
     1153
280
     0
281
     0
  0
CLASS
  1
SCALE
  2
AcDbScale
  3
ObjectDBX Classes
 90
     1153
280
     0
281
     0
  0
CLASS
  1
TABLESTYLE
  2
AcDbTableStyle
  3
ObjectDBX Classes
 90
     4095
280
     0
281
     0
  0
CLASS
  1
MLEADERSTYLE
  2
AcDbMLeaderStyle
  3
ACDB_MLEADERSTYLE_CLASS
 90
     4095
280
     0
281
     0
  0
CLASS
  1
SUN
  2
AcDbSun
  3
SCENEOE
 90
     1153
280
     0
281
     0
  0
CLASS
  1
ACDBPLACEHOLDER
  2
AcDbPlaceHolder
  3
ObjectDBX Classes
 90
        0
280
     0
281
     0
  0
CLASS
  1
LAYOUT
  2
AcDbLayout
  3
ObjectDBX Classes
 90
        0
280
     0
281
     0
  0
CLASS
  1
RASTERVARIABLES
  2
AcDbRasterVariables
  3
ISM
 90
        0
280
     0
281
     0
  0
ENDSEC
  0
SECTION
  2
TABLES
  0
TABLE
  2
VPORT
  5
8
330
0
100
AcDbSymbolTable
 70
     1
  0
VPORT
  5
29
330
8
100
AcDbSymbolTableRecord
100
AcDbViewportTableRecord
  2
*Active
 70
     0
 10
0.0
 20
0.0
 11
1.0
 21
1.0
 12
-11.23796116870948
 22
-12.60383739361505
 13
0.0
 23
0.0
 14
10.0
 24
10.0
 15
10.0
 25
10.0
 16
0.0
 26
0.0
 36
1.0
 17
0.0
 27
0.0
 37
0.0
 40
76.23065879020125
 41
1.737726098191214
 42
50.0
 43
0.0
 44
0.0
 50
0.0
 51
0.0
 71
    16
 72
  2000
 73
     1
 74
     3
 75
     0
 76
     0
 77
     0
 78
     0
281
     0
 65
     1
110
0.0
120
0.0
130
0.0
111
1.0
121
0.0
131
0.0
112
0.0
122
1.0
132
0.0
 79
     0
146
0.0
  0
ENDTAB
  0
TABLE
  2
LTYPE
  5
5
330
0
100
AcDbSymbolTable
 70
     6
  0
LTYPE
  5
14
330
5
100
AcDbSymbolTableRecord
100
AcDbLinetypeTableRecord
  2
ByBlock
 70
     0
  3

 72
    65
 73
     0
 40
0.0
  0
LTYPE
  5
15
330
5
100
AcDbSymbolTableRecord
100
AcDbLinetypeTableRecord
  2
ByLayer
 70
     0
  3

 72
    65
 73
     0
 40
0.0
  0
LTYPE
  5
16
330
5
100
AcDbSymbolTableRecord
100
AcDbLinetypeTableRecord
  2
Continuous
 70
     0
  3
Solid line
 72
    65
 73
     0
 40
0.0
  0
LTYPE
  5
6E
330
5
100
AcDbSymbolTableRecord
100
AcDbLinetypeTableRecord
  2
HIDDEN
 70
     0
  3
Hidden __ __ __ __ __ __ __ __ __ __ __ __ __ __
 72
    65
 73
     2
 40
1.905
 49
1.27
 74
     0
 49
-0.635
 74
     0
  0
LTYPE
  5
6F
330
5
100
AcDbSymbolTableRecord
100
AcDbLinetypeTableRecord
  2
PHANTOM
 70
     0
  3
Phantom ______  __  __  ______  __  __  ______
 72
    65
 73
     6
 40
12.7
 49
6.35
 74
     0
 49
-1.27
 74
     0
 49
1.27
 74
     0
 49
-1.27
 74
     0
 49
1.27
 74
     0
 49
-1.27
 74
     0
  0
LTYPE
  5
70
330
5
100
AcDbSymbolTableRecord
100
AcDbLinetypeTableRecord
  2
CENTER
 70
     0
  3
Center ____ _ ____ _ ____ _ ____ _ ____ _ ____
 72
    65
 73
     4
 40
10.16
 49
6.35
 74
     0
 49
-1.27
 74
     0
 49
1.27
 74
     0
 49
-1.27
 74
     0
  0
LTYPE
  5
71
330
5
100
AcDbSymbolTableRecord
100
AcDbLinetypeTableRecord
  2
CENTERX2
 70
     0
  3
Center (2x) ________  __  ________  __  _____
 72
    65
 73
     4
 40
20.32
 49
12.7
 74
     0
 49
-2.54
 74
     0
 49
2.54
 74
     0
 49
-2.54
 74
     0
  0
LTYPE
  5
72
330
5
100
AcDbSymbolTableRecord
100
AcDbLinetypeTableRecord
  2
DOT2
 70
     0
  3
Dot (.5x) ........................................
 72
    65
 73
     2
 40
0.635
 49
0.0
 74
     0
 49
-0.635
 74
     0
  0
ENDTAB
  0
TABLE
  2
LAYER
  5
2
330
0
100
AcDbSymbolTable
 70
    17
  0
LAYER
  5
10
330
2
100
AcDbSymbolTableRecord
100
AcDbLayerTableRecord
  2
0
 70
     0
 62
     7
  6
Continuous
370
    -3
390
F
  0
LAYER
  5
73
330
2
100
AcDbSymbolTableRecord
100
AcDbLayerTableRecord
  2
FORMAT
 70
     0
 62
     2
  6
Continuous
370
    -3
390
F
  0
LAYER
  5
74
330
2
100
AcDbSymbolTableRecord
100
AcDbLayerTableRecord
  2
외형선
 70
     0
 62
   100
  6
Continuous
370
    35
390
F
  0
LAYER
  5
75
330
2
100
AcDbSymbolTableRecord
100
AcDbLayerTableRecord
  2
숨은선
 70
     0
 62
     2
  6
HIDDEN
370
    25
390
F
  0
LAYER
  5
76
330
2
100
AcDbSymbolTableRecord
100
AcDbLayerTableRecord
  2
중심선
 70
     0
 62
     1
  6
CENTERX2
370
    -3
390
F
  0
LAYER
  5
77
330
2
100
AcDbSymbolTableRecord
100
AcDbLayerTableRecord
  2
파단선
 70
     0
 62
     4
  6
Continuous
370
    -3
390
F
  0
LAYER
  5
78
330
2
100
AcDbSymbolTableRecord
100
AcDbLayerTableRecord
  2
해칭선
 70
     0
 62
   100
  6
Continuous
370
    -3
390
F
  0
LAYER
  5
79
330
2
100
AcDbSymbolTableRecord
100
AcDbLayerTableRecord
  2
가는실선
 70
     0
 62
     4
  6
Continuous
370
    -3
390
F
  0
LAYER
  5
7A
330
2
100
AcDbSymbolTableRecord
100
AcDbLayerTableRecord
  2
치수_보조선
 70
     0
 62
     4
  6
Continuous
370
    -3
390
F
  0
LAYER
  5
7B
330
2
100
AcDbSymbolTableRecord
100
AcDbLayerTableRecord
  2
치수문자_일반주서
 70
     0
 62
     7
  6
Continuous
370
    25
390
F
  0
LAYER
  5
7C
330
2
100
AcDbSymbolTableRecord
100
AcDbLayerTableRecord
  2
개별주서
 70
     0
 62
   100
  6
Continuous
370
    35
390
F
  0
LAYER
  5
7D
330
2
100
AcDbSymbolTableRecord
100
AcDbLayerTableRecord
  2
중간선
 70
     0
 62
     2
  6
Continuous
370
    25
390
F
  0
LAYER
  5
7E
330
2
100
AcDbSymbolTableRecord
100
AcDbLayerTableRecord
  2
윤곽선
 70
     0
 62
     3
  6
Continuous
370
    50
390
F
  0
LAYER
  5
7F
330
2
100
AcDbSymbolTableRecord
100
AcDbLayerTableRecord
  2
중심마크
 70
     0
 62
   100
  6
Continuous
370
    35
390
F
  0
LAYER
  5
80
330
2
100
AcDbSymbolTableRecord
100
AcDbLayerTableRecord
  2
가상선
 70
     0
 62
     4
  6
PHANTOM
370
    -3
390
F
  0
LAYER
  5
81
330
2
100
AcDbSymbolTableRecord
100
AcDbLayerTableRecord
  2
특수지정선
 70
     0
 62
     5
  6
CENTERX2
370
    70
390
F
  0
LAYER
  5
14E
330
2
100
AcDbSymbolTableRecord
100
AcDbLayerTableRecord
  2
Defpoints
 70
     0
 62
     7
  6
Continuous
290
     0
370
    -3
390
F
  0
ENDTAB
  0
TABLE
  2
STYLE
  5
3
330
0
100
AcDbSymbolTable
 70
     2
  0
STYLE
  5
11
330
3
100
AcDbSymbolTableRecord
100
AcDbTextStyleTableRecord
  2
Standard
 70
     0
 40
0.0
 41
1.0
 50
0.0
 71
     0
 42
3.5
  3
txt
  4

  0
STYLE
  5
97
330
3
100
AcDbSymbolTableRecord
100
AcDbTextStyleTableRecord
  2
SLDTEXTSTYLE0
 70
     0
 40
0.0
 41
0.75
 50
0.0
 71
     0
 42
3.5
  3
TXT
  4

  0
ENDTAB
  0
TABLE
  2
VIEW
  5
6
330
0
100
AcDbSymbolTable
 70
     0
  0
ENDTAB
  0
TABLE
  2
UCS
  5
7
330
0
100
AcDbSymbolTable
 70
     0
  0
ENDTAB
  0
TABLE
  2
APPID
  5
9
330
0
100
AcDbSymbolTable
 70
     1
  0
APPID
  5
12
330
9
100
AcDbSymbolTableRecord
100
AcDbRegAppTableRecord
  2
ACAD
 70
     0
  0
ENDTAB
  0
TABLE
  2
DIMSTYLE
  5
A
330
0
100
AcDbSymbolTable
 70
     4
100
AcDbDimStyleTable
  0
DIMSTYLE
105
27
330
A
100
AcDbSymbolTableRecord
100
AcDbDimStyleTableRecord
  2
ISO-25
 70
     0
 41
2.5
 42
0.625
 43
3.75
 44
1.25
 73
     0
 74
     0
 77
     1
 78
     8
140
2.5
141
2.5
143
0.03937007874016
147
0.625
171
     3
172
     1
178
     0
271
     2
272
     2
274
     3
278
    44
283
     0
284
     8
340
11
  0
DIMSTYLE
105
F1
102
{ACAD_REACTORS
330
F0
102
}
330
A
100
AcDbSymbolTableRecord
100
AcDbDimStyleTableRecord
  2
SLDDIMSTYLE0
 70
     0
 41
3.302
 44
0.0
 45
0.000000001
 73
     0
 74
     0
 77
     1
 78
    12
 79
     3
140
3.5
147
0.875
172
     1
173
     1
178
     0
271
     1
272
     1
276
     2
284
    12
289
     0
340
97
  0
DIMSTYLE
105
FF
102
{ACAD_REACTORS
330
FE
102
}
330
A
100
AcDbSymbolTableRecord
100
AcDbDimStyleTableRecord
  2
SLDDIMSTYLE1
 70
     0
 41
3.302
 44
0.0
 45
0.000000001
 73
     0
 74
     0
 77
     1
 78
    12
 79
     3
140
3.5
147
0.875
173
     1
178
     0
271
     2
272
     2
276
     2
284
    12
340
97
  0
DIMSTYLE
105
10A
102
{ACAD_REACTORS
330
109
330
117
102
}
330
A
100
AcDbSymbolTableRecord
100
AcDbDimStyleTableRecord
  2
SLDDIMSTYLE2
 70
     0
 41
3.302
 44
0.0
 45
0.000000001
 73
     0
 74
     0
 77
     1
 78
    12
 79
     3
140
3.5
147
0.875
172
     1
173
     1
178
     0
271
     2
272
     2
276
     2
284
    12
289
     0
340
97
  0
ENDTAB
  0
TABLE
  2
BLOCK_RECORD
  5
1
330
0
100
AcDbSymbolTable
 70
     7
  0
BLOCK_RECORD
  5
1F
330
1
100
AcDbSymbolTableRecord
100
AcDbBlockTableRecord
  2
*Model_Space
340
22
  0
BLOCK_RECORD
  5
1B
330
1
100
AcDbSymbolTableRecord
100
AcDbBlockTableRecord
  2
*Paper_Space
340
1E
  0
BLOCK_RECORD
  5
23
330
1
100
AcDbSymbolTableRecord
100
AcDbBlockTableRecord
  2
*Paper_Space0
340
26
  0
BLOCK_RECORD
  5
82
330
1
100
AcDbSymbolTableRecord
100
AcDbBlockTableRecord
  2
블럭10
340
0
102
{BLKREFS
331
E9
102
}
  0
BLOCK_RECORD
  5
F2
330
1
100
AcDbSymbolTableRecord
100
AcDbBlockTableRecord
  2
_D
340
0
  0
BLOCK_RECORD
  5
100
330
1
100
AcDbSymbolTableRecord
100
AcDbBlockTableRecord
  2
_D_1
340
0
  0
BLOCK_RECORD
  5
10B
330
1
100
AcDbSymbolTableRecord
100
AcDbBlockTableRecord
  2
_D_2
340
0
  0
BLOCK_RECORD
  5
118
330
1
100
AcDbSymbolTableRecord
100
AcDbBlockTableRecord
  2
_D_3
340
0
  0
BLOCK_RECORD
  5
123
330
1
100
AcDbSymbolTableRecord
100
AcDbBlockTableRecord
  2
SW_DOWELSYMBOL_0
340
0
102
{BLKREFS
331
129
102
}
  0
ENDTAB
  0
ENDSEC
  0
SECTION
  2
BLOCKS
  0
BLOCK
  5
20
330
1F
100
AcDbEntity
  8
0
100
AcDbBlockBegin
  2
*Model_Space
 70
     0
 10
0.0
 20
0.0
 30
0.0
  3
*Model_Space
  1

  0
ENDBLK
  5
21
330
1F
100
AcDbEntity
  8
0
100
AcDbBlockEnd
  0
BLOCK
  5
1C
330
1B
100
AcDbEntity
 67
     1
  8
0
100
AcDbBlockBegin
  2
*Paper_Space
 70
     0
 10
0.0
 20
0.0
 30
0.0
  3
*Paper_Space
  1

  0
ENDBLK
  5
1D
330
1B
100
AcDbEntity
 67
     1
  8
0
100
AcDbBlockEnd
  0
BLOCK
  5
24
330
23
100
AcDbEntity
  8
0
100
AcDbBlockBegin
  2
*Paper_Space0
 70
     0
 10
0.0
 20
0.0
 30
0.0
  3
*Paper_Space0
  1

  0
ENDBLK
  5
25
330
23
100
AcDbEntity
  8
0
100
AcDbBlockEnd
  0
BLOCK
  5
83
330
82
100
AcDbEntity
  8
0
100
AcDbBlockBegin
  2
블럭10
 70
     2
 10
0.0
 20
0.0
 30
0.0
  3
블럭10
  1

  0
ELLIPSE
  5
85
330
82
100
AcDbEntity
  8
중심선
100
AcDbEllipse
 10
20.54032771741204
 20
12.0471743016438
 30
0.0
 11
6.600054785286829
 21
-1.261213355974178E-13
 31
0.0
210
0.0
220
0.0
230
1.0
 40
0.636358354079598
 41
0.9219305317359503
 42
6.513795318482858
  0
ELLIPSE
  5
86
330
82
100
AcDbEntity
  8
중심선
100
AcDbEllipse
 10
20.54032771746488
 20
12.04717430159265
 30
0.0
 11
3.960054785062283
 21
1.540847449632565E-10
 31
0.0
210
0.0
220
0.0
230
1.0
 40
0.3939339440162632
 41
1.131841032648279
 42
5.62031148352944
  0
LINE
  5
87
330
82
100
AcDbEntity
  8
중심선
100
AcDbLine
 10
2.268634060543552
 20
16.24717430164393
 30
0.0
 11
5.714909304380834
 21
16.24717430164393
 31
0.0
  0
LINE
  5
88
330
82
100
AcDbEntity
  8
중심선
100
AcDbLine
 10
5.245725140726316
 20
7.84717430164391
 30
0.0
 11
8.692000384563599
 21
7.84717430164391
 31
0.0
  0
LINE
  5
89
330
82
100
AcDbEntity
  8
중심선
100
AcDbLine
 10
15.74043728645272
 20
16.24717430164393
 30
0.0
 11
8.692000384563599
 21
7.84717430164391
 31
0.0
  0
LINE
  5
8A
330
82
100
AcDbEntity
  8
중심선
100
AcDbLine
 10
0.1404042013395286
 20
13.71084872107135
 30
0.0
 11
3.58671253028996
 21
13.71088815037384
 31
0.0
  0
LINE
  5
8B
330
82
100
AcDbEntity
  8
중심선
100
AcDbLine
 10
2.750260043222114
 20
10.84717430164391
 30
0.0
 11
6.196535287059397
 21
10.84717430164391
 31
0.0
  0
LINE
  5
8C
330
82
100
AcDbEntity
  8
중심선
100
AcDbLine
 10
12.29416204261559
 20
16.24717430164393
 30
0.0
 11
5.245725140726316
 21
7.84717430164391
 31
0.0
  0
LINE
  5
8D
330
82
100
AcDbEntity
  8
중심선
100
AcDbLine
 10
10.72767329541681
 20
16.24717430164393
 30
0.0
 11
6.196535287059397
 21
10.84717430164391
 31
0.0
  0
LINE
  5
8E
330
82
100
AcDbEntity
  8
중심선
100
AcDbLine
 10
7.28139805157953
 20
16.24717430164393
 30
0.0
 11
2.750260043222114
 21
10.84717430164391
 31
0.0
  0
LINE
  5
8F
330
82
100
AcDbEntity
  8
중심선
100
AcDbLine
 10
5.714909304380834
 20
16.24717430164393
 30
0.0
 11
3.58671253028996
 21
13.71088815037384
 31
0.0
  0
LINE
  5
90
330
82
100
AcDbEntity
  8
중심선
100
AcDbLine
 10
2.268634060543552
 20
16.24717430164393
 30
0.0
 11
0.1404042013395286
 21
13.71084872107135
 31
0.0
  0
LINE
  5
91
330
82
100
AcDbEntity
  8
중심선
100
AcDbLine
 10
7.28139805157953
 20
16.24717430164393
 30
0.0
 11
10.72767329541681
 21
16.24717430164393
 31
0.0
  0
LINE
  5
92
330
82
100
AcDbEntity
  8
중심선
100
AcDbLine
 10
12.29416204261559
 20
16.24717430164393
 30
0.0
 11
15.74043728645272
 21
16.24717430164393
 31
0.0
  0
LINE
  5
93
330
82
100
AcDbEntity
  8
중심선
100
AcDbLine
 10
19.22036997980202
 20
11.08717430171403
 30
0.0
 11
23.66174974927406
 21
11.08717430171406
 31
0.0
  0
LINE
  5
94
330
82
100
AcDbEntity
  8
중심선
100
AcDbLine
 10
19.22039502424796
 20
13.00717430171391
 30
0.0
 11
19.22036997980202
 21
11.08717430171403
 31
0.0
  0
LINE
  5
95
330
82
100
AcDbEntity
  8
중심선
100
AcDbLine
 10
19.22039502424796
 20
13.00717430171391
 30
0.0
 11
26.96566020931264
 21
13.00717430171391
 31
0.0
  0
LINE
  5
96
330
82
100
AcDbEntity
  8
중심선
100
AcDbLine
 10
22.22332737316547
 20
13.45928029700563
 30
0.0
 11
24.52862924686651
 21
15.39360700705356
 31
0.0
  0
ATTDEF
  5
98
330
82
100
AcDbEntity
  8
FORMAT
 62
     2
100
AcDbText
 10
-16.11926103943555
 20
2.075366912832191
 30
0.0
 40
4.233333333333333
  1
SEME7203016E [ 4 FLUTE ]
 41
0.75
  7
SLDTEXTSTYLE0
 11
-16.11926103943555
 21
-0.0412997538344756
 31
0.0
100
AcDbAttributeDefinition
  3

  2
AUTOATTR0
 70
     0
 74
     1
  0
ENDBLK
  5
84
330
82
100
AcDbEntity
  8
0
100
AcDbBlockEnd
  0
BLOCK
  5
F3
330
F2
100
AcDbEntity
  8
0
100
AcDbBlockBegin
  2
_D
 70
     0
 10
0.0
 20
0.0
 30
0.0
  3
_D
  1

  0
LINE
  5
F5
330
F2
100
AcDbEntity
  8
치수문자_일반주서
 62
     0
370
    -2
100
AcDbLine
 10
24.66057621135333
 20
-1.500000000000004
 30
0.0
 11
36.26689255692985
 21
-1.499999999999961
 31
0.0
  0
LINE
  5
F6
330
F2
100
AcDbEntity
  8
치수문자_일반주서
 62
     0
370
    -2
100
AcDbLine
 10
24.66057621135333
 20
1.500000000000004
 30
0.0
 11
36.26689255692985
 21
1.500000000000046
 31
0.0
  0
LINE
  5
F7
330
F2
100
AcDbEntity
  8
치수문자_일반주서
 62
     0
370
    -2
100
AcDbLine
 10
36.26689255692985
 20
-1.499999999999961
 30
0.0
 11
36.26689255692982
 21
14.22900000000005
 31
0.0
  0
LINE
  5
F8
330
F2
100
AcDbEntity
  8
치수문자_일반주서
 62
     0
370
    -2
100
AcDbLine
 10
36.26689255692985
 20
-1.499999999999961
 30
0.0
 11
36.26689255692985
 21
1.500000000000046
 31
0.0
  0
LINE
  5
F9
330
F2
100
AcDbEntity
  8
치수문자_일반주서
 62
     0
370
    -2
100
AcDbLine
 10
36.26689255692986
 20
-4.801999999999961
 30
0.0
 11
36.26689255692987
 21
-8.10399999999996
 31
0.0
  0
LINE
  5
FA
330
F2
100
AcDbEntity
  8
치수문자_일반주서
 62
     0
370
    -2
100
AcDbLine
 10
36.26689255692984
 20
4.802000000000046
 30
0.0
 11
36.26689255692983
 21
8.104000000000045
 31
0.0
  0
SOLID
  5
FB
330
F2
100
AcDbEntity
  8
치수문자_일반주서
 62
     0
100
AcDbTrace
 10
36.8172258902632
 20
-4.80199999999996
 30
0.0
 11
35.71655922359653
 21
-4.801999999999961
 31
0.0
 12
36.26689255692985
 22
-1.499999999999961
 32
0.0
 13
36.26689255692985
 23
-1.499999999999961
 33
0.0
  0
SOLID
  5
FC
330
F2
100
AcDbEntity
  8
치수문자_일반주서
 62
     0
100
AcDbTrace
 10
35.71655922359651
 20
4.802000000000045
 30
0.0
 11
36.81722589026317
 21
4.802000000000047
 31
0.0
 12
36.26689255692985
 22
1.500000000000046
 32
0.0
 13
36.26689255692985
 23
1.500000000000046
 33
0.0
  0
MTEXT
  5
FD
330
F2
100
AcDbEntity
  8
치수문자_일반주서
 62
     0
100
AcDbMText
 10
31.89189255692983
 20
11.16650000000004
 30
0.0
 40
3.5
 41
0.0
 71
     2
 72
     1
  1
\A1;%%c3
  7
SLDTEXTSTYLE0
 11
-2.368475785866994E-15
 21
1.0
 31
0.0
 73
     1
 44
1.0
  0
POINT
  5
156
330
F2
100
AcDbEntity
  8
Defpoints
 62
     0
100
AcDbPoint
 10
24.59807621135333
 20
-1.500000000000004
 30
0.0
  0
POINT
  5
157
330
F2
100
AcDbEntity
  8
Defpoints
 62
     0
100
AcDbPoint
 10
24.59807621135333
 20
1.500000000000004
 30
0.0
  0
POINT
  5
158
330
F2
100
AcDbEntity
  8
Defpoints
 62
     0
100
AcDbPoint
 10
36.26689255692985
 20
1.500000000000048
 30
0.0
  0
ENDBLK
  5
F4
330
F2
100
AcDbEntity
  8
0
100
AcDbBlockEnd
  0
BLOCK
  5
101
330
100
100
AcDbEntity
  8
0
100
AcDbBlockBegin
  2
_D_1
 70
     0
 10
0.0
 20
0.0
 30
0.0
  3
_D_1
  1

  0
LINE
  5
103
330
100
100
AcDbEntity
  8
치수문자_일반주서
 62
     0
370
    -2
100
AcDbLine
 10
-45.40192378864671
 20
2.562499999999994
 30
0.0
 11
-45.40192378864671
 21
20.38913260158164
 31
0.0
  0
LINE
  5
104
330
100
100
AcDbEntity
  8
치수문자_일반주서
 62
     0
370
    -2
100
AcDbLine
 10
24.59807621135331
 20
1.562500000000002
 30
0.0
 11
24.59807621135329
 21
20.38913260158164
 31
0.0
  0
LINE
  5
105
330
100
100
AcDbEntity
  8
치수문자_일반주서
 62
     0
370
    -2
100
AcDbLine
 10
-42.09992378864671
 20
20.38913260158164
 30
0.0
 11
21.2960762113533
 21
20.38913260158164
 31
0.0
  0
SOLID
  5
106
330
100
100
AcDbEntity
  8
치수문자_일반주서
 62
     0
100
AcDbTrace
 10
-42.09992378864671
 20
20.93946593491498
 30
0.0
 11
-42.09992378864671
 21
19.83879926824831
 31
0.0
 12
-45.40192378864671
 22
20.38913260158164
 32
0.0
 13
-45.40192378864671
 23
20.38913260158164
 33
0.0
  0
SOLID
  5
107
330
100
100
AcDbEntity
  8
치수문자_일반주서
 62
     0
100
AcDbTrace
 10
21.2960762113533
 20
19.83879926824831
 30
0.0
 11
21.2960762113533
 21
20.93946593491498
 31
0.0
 12
24.59807621135329
 22
20.38913260158164
 32
0.0
 13
24.59807621135329
 23
20.38913260158164
 33
0.0
  0
MTEXT
  5
108
330
100
100
AcDbEntity
  8
치수문자_일반주서
 62
     0
100
AcDbMText
 10
-10.4019237886467
 20
24.76413260158164
 30
0.0
 40
3.5
 41
0.0
 71
     2
 72
     1
  1
\A1;70
  7
SLDTEXTSTYLE0
 73
     1
 44
1.0
  0
POINT
  5
14F
330
100
100
AcDbEntity
  8
Defpoints
 62
     0
100
AcDbPoint
 10
-45.40192378864671
 20
2.499999999999994
 30
0.0
  0
POINT
  5
150
330
100
100
AcDbEntity
  8
Defpoints
 62
     0
100
AcDbPoint
 10
24.59807621135331
 20
1.500000000000002
 30
0.0
  0
POINT
  5
151
330
100
100
AcDbEntity
  8
Defpoints
 62
     0
100
AcDbPoint
 10
24.59807621135331
 20
20.38913260158164
 30
0.0
  0
ENDBLK
  5
102
330
100
100
AcDbEntity
  8
0
100
AcDbBlockEnd
  0
BLOCK
  5
10C
330
10B
100
AcDbEntity
  8
0
100
AcDbBlockBegin
  2
_D_2
 70
     0
 10
0.0
 20
0.0
 30
0.0
  3
_D_2
  1

  0
LINE
  5
10E
330
10B
100
AcDbEntity
  8
치수문자_일반주서
 62
     0
370
    -2
100
AcDbLine
 10
-44.96442378864669
 20
3.000000000000003
 30
0.0
 11
-54.91814822768212
 21
2.999999999999966
 31
0.0
  0
LINE
  5
10F
330
10B
100
AcDbEntity
  8
치수문자_일반주서
 62
     0
370
    -2
100
AcDbLine
 10
-44.96442378864669
 20
-3.000000000000002
 30
0.0
 11
-54.9181482276821
 21
-3.000000000000039
 31
0.0
  0
LINE
  5
110
330
10B
100
AcDbEntity
  8
치수문자_일반주서
 62
     0
370
    -2
100
AcDbLine
 10
-54.91814822768212
 20
2.999999999999966
 30
0.0
 11
-54.91814822768217
 21
15.72899999999997
 31
0.0
  0
LINE
  5
111
330
10B
100
AcDbEntity
  8
치수문자_일반주서
 62
     0
370
    -2
100
AcDbLine
 10
-54.91814822768212
 20
2.999999999999966
 30
0.0
 11
-54.9181482276821
 21
-3.000000000000039
 31
0.0
  0
LINE
  5
112
330
10B
100
AcDbEntity
  8
치수문자_일반주서
 62
     0
370
    -2
100
AcDbLine
 10
-54.91814822768214
 20
6.301999999999966
 30
0.0
 11
-54.91814822768215
 21
9.603999999999965
 31
0.0
  0
LINE
  5
113
330
10B
100
AcDbEntity
  8
치수문자_일반주서
 62
     0
370
    -2
100
AcDbLine
 10
-54.91814822768209
 20
-6.302000000000039
 30
0.0
 11
-54.91814822768207
 21
-9.604000000000038
 31
0.0
  0
SOLID
  5
114
330
10B
100
AcDbEntity
  8
치수문자_일반주서
 62
     0
100
AcDbTrace
 10
-55.46848156101547
 20
6.301999999999964
 30
0.0
 11
-54.3678148943488
 21
6.301999999999968
 31
0.0
 12
-54.91814822768212
 22
2.999999999999966
 32
0.0
 13
-54.91814822768212
 23
2.999999999999966
 33
0.0
  0
SOLID
  5
115
330
10B
100
AcDbEntity
  8
치수문자_일반주서
 62
     0
100
AcDbTrace
 10
-54.36781489434875
 20
-6.302000000000037
 30
0.0
 11
-55.46848156101542
 21
-6.30200000000004
 31
0.0
 12
-54.9181482276821
 22
-3.000000000000039
 32
0.0
 13
-54.9181482276821
 23
-3.000000000000039
 33
0.0
  0
MTEXT
  5
116
330
10B
100
AcDbEntity
  8
치수문자_일반주서
 62
     0
100
AcDbMText
 10
-59.29314822768216
 20
12.66649999999995
 30
0.0
 40
3.5
 41
0.0
 71
     2
 72
     1
  1
\A1;%%c6
  7
SLDTEXTSTYLE0
 11
-3.552713678800498E-15
 21
1.0
 31
0.0
 73
     1
 44
1.0
  0
POINT
  5
153
330
10B
100
AcDbEntity
  8
Defpoints
 62
     0
100
AcDbPoint
 10
-44.90192378864669
 20
3.000000000000004
 30
0.0
  0
POINT
  5
154
330
10B
100
AcDbEntity
  8
Defpoints
 62
     0
100
AcDbPoint
 10
-44.90192378864669
 20
-3.000000000000002
 30
0.0
  0
POINT
  5
155
330
10B
100
AcDbEntity
  8
Defpoints
 62
     0
100
AcDbPoint
 10
-54.91814822768211
 20
-3.000000000000039
 30
0.0
  0
ENDBLK
  5
10D
330
10B
100
AcDbEntity
  8
0
100
AcDbBlockEnd
  0
BLOCK
  5
119
330
118
100
AcDbEntity
  8
0
100
AcDbBlockBegin
  2
_D_3
 70
     0
 10
0.0
 20
0.0
 30
0.0
  3
_D_3
  1

  0
LINE
  5
11B
330
118
100
AcDbEntity
  8
치수문자_일반주서
 62
     0
370
    -2
100
AcDbLine
 10
8.598076211353304
 20
1.555256610706038
 30
0.0
 11
8.598076211353305
 21
12.33867491329369
 31
0.0
  0
LINE
  5
11C
330
118
100
AcDbEntity
  8
치수문자_일반주서
 62
     0
370
    -2
100
AcDbLine
 10
24.59807621135331
 20
1.562500000000002
 30
0.0
 11
24.59807621135331
 21
12.33867491329369
 31
0.0
  0
LINE
  5
11D
330
118
100
AcDbEntity
  8
치수문자_일반주서
 62
     0
370
    -2
100
AcDbLine
 10
11.9000762113533
 20
12.33867491329369
 30
0.0
 11
21.29607621135331
 21
12.33867491329369
 31
0.0
  0
SOLID
  5
11E
330
118
100
AcDbEntity
  8
치수문자_일반주서
 62
     0
100
AcDbTrace
 10
11.9000762113533
 20
12.88900824662702
 30
0.0
 11
11.9000762113533
 21
11.78834157996036
 31
0.0
 12
8.598076211353305
 22
12.33867491329369
 32
0.0
 13
8.598076211353305
 23
12.33867491329369
 33
0.0
  0
SOLID
  5
11F
330
118
100
AcDbEntity
  8
치수문자_일반주서
 62
     0
100
AcDbTrace
 10
21.29607621135331
 20
11.78834157996036
 30
0.0
 11
21.29607621135331
 21
12.88900824662702
 31
0.0
 12
24.59807621135331
 22
12.33867491329369
 32
0.0
 13
24.59807621135331
 23
12.33867491329369
 33
0.0
  0
MTEXT
  5
120
330
118
100
AcDbEntity
  8
치수문자_일반주서
 62
     0
100
AcDbMText
 10
16.59807621135331
 20
16.71367491329369
 30
0.0
 40
3.5
 41
0.0
 71
     2
 72
     1
  1
\A1;16
  7
SLDTEXTSTYLE0
 73
     1
 44
1.0
  0
POINT
  5
121
330
118
100
AcDbEntity
  8
Defpoints
 62
     0
100
AcDbPoint
 10
8.598076211353304
 20
1.492756610706038
 30
0.0
  0
POINT
  5
122
330
118
100
AcDbEntity
  8
Defpoints
 62
     0
100
AcDbPoint
 10
24.59807621135331
 20
1.500000000000002
 30
0.0
  0
POINT
  5
152
330
118
100
AcDbEntity
  8
Defpoints
 62
     0
100
AcDbPoint
 10
24.59807621135331
 20
12.33867491329369
 30
0.0
  0
ENDBLK
  5
11A
330
118
100
AcDbEntity
  8
0
100
AcDbBlockEnd
  0
BLOCK
  5
124
330
123
100
AcDbEntity
  8
0
100
AcDbBlockBegin
  2
SW_DOWELSYMBOL_0
 70
     0
 10
0.0
 20
0.0
 30
0.0
  3
SW_DOWELSYMBOL_0
  1

  0
CIRCLE
  5
126
330
123
100
AcDbEntity
  8
해칭선
 62
     0
100
AcDbCircle
 10
0.0
 20
0.0
 30
0.0
 40
3.000000000000003
  0
HATCH
  5
127
330
123
100
AcDbEntity
  8
0
  6
Continuous
 62
     0
370
    18
100
AcDbHatch
 10
0.0
 20
0.0
 30
0.0
210
0.0
220
0.0
230
1.0
  2
SOLID
 70
     1
 71
     0
 91
        1
 92
        0
 93
        3
 72
     2
 10
0.0
 20
0.0
 40
3.000000000000003
 50
0.0
 51
90.0
 73
     1
 72
     1
 10
0.0
 20
3.000000000000003
 11
0.0
 21
0.0
 72
     1
 10
0.0
 20
0.0
 11
3.000000000000003
 21
0.0
 97
        0
 75
     0
 76
     1
 98
        1
 10
0.0
 20
0.0
  0
HATCH
  5
128
330
123
100
AcDbEntity
  8
0
  6
Continuous
 62
     0
370
    18
100
AcDbHatch
 10
0.0
 20
0.0
 30
0.0
210
0.0
220
0.0
230
1.0
  2
SOLID
 70
     1
 71
     0
 91
        1
 92
        0
 93
        3
 72
     2
 10
0.0
 20
0.0
 40
3.000000000000003
 50
180.0
 51
270.0000000000008
 73
     1
 72
     1
 10
0.0
 20
-3.000000000000003
 11
0.0
 21
0.0
 72
     1
 10
0.0
 20
0.0
 11
-3.000000000000003
 21
0.0
 97
        0
 75
     0
 76
     1
 98
        1
 10
0.0
 20
0.0
  0
ENDBLK
  5
125
330
123
100
AcDbEntity
  8
0
100
AcDbBlockEnd
  0
ENDSEC
  0
SECTION
  2
ENTITIES
  0
LINE
  5
99
330
1F
100
AcDbEntity
  8
0
  6
Continuous
 62
     4
370
    25
100
AcDbLine
 10
2.0
 20
2.999999999999998
 30
0.0
 11
-44.9019237886467
 21
2.999999999999996
 31
0.0
  0
LINE
  5
9A
330
1F
100
AcDbEntity
  8
0
  6
Continuous
 62
     4
370
    25
100
AcDbLine
 10
-44.9019237886467
 20
-3.0
 30
0.0
 11
2.0
 21
-2.999999999999997
 31
0.0
  0
LINE
  5
9B
330
1F
100
AcDbEntity
  8
0
  6
Continuous
 62
     4
370
    25
100
AcDbLine
 10
2.0
 20
-2.999999999999999
 30
0.0
 11
7.14668977641537
 21
-1.620948630715983
 31
0.0
  0
LINE
  5
9C
330
1F
100
AcDbEntity
  8
0
  6
Continuous
 62
     4
370
    25
100
AcDbLine
 10
7.146689776415366
 20
1.620948630715985
 30
0.0
 11
2.0
 21
3.0
 31
0.0
  0
LINE
  5
9D
330
1F
100
AcDbEntity
  8
0
  6
Continuous
 62
     4
370
    25
100
AcDbLine
 10
-44.9019237886467
 20
2.999999999999994
 30
0.0
 11
-45.40192378864671
 21
2.499999999999993
 31
0.0
  0
LINE
  5
9E
330
1F
100
AcDbEntity
  8
0
  6
Continuous
 62
     4
370
    25
100
AcDbLine
 10
-45.40192378864671
 20
-2.499999999999998
 30
0.0
 11
-44.9019237886467
 21
-2.999999999999998
 31
0.0
  0
LINE
  5
9F
330
1F
100
AcDbEntity
  8
0
  6
Continuous
 62
     4
370
    25
100
AcDbLine
 10
7.692979988697227
 20
-1.499999999999999
 30
0.0
 11
8.598076211353304
 21
-1.499999999999999
 31
0.0
  0
LINE
  5
A0
330
1F
100
AcDbEntity
  8
0
  6
Continuous
 62
     4
370
    25
100
AcDbLine
 10
8.598076211353304
 20
1.500000000000001
 30
0.0
 11
7.692979988697227
 21
1.500000000000001
 31
0.0
  0
LINE
  5
A1
330
1F
100
AcDbEntity
  8
0
  6
Continuous
 62
     4
370
    25
100
AcDbLine
 10
12.53163807715797
 20
0.2307203434990967
 30
0.0
 11
12.56467335983883
 21
0.2136522862396603
 31
0.0
  0
LINE
  5
A2
330
1F
100
AcDbEntity
  8
0
  6
Continuous
 62
     1
370
    25
100
AcDbLine
 10
16.28246417473543
 20
-0.24198941786977
 30
0.0
 11
16.22988794450345
 21
-0.2147546684250427
 31
0.0
  0
LINE
  5
A3
330
1F
100
AcDbEntity
  8
0
  6
Continuous
 62
     1
370
    25
100
AcDbLine
 10
24.28977129565773
 20
-0.1568722422506718
 30
0.0
 11
24.25482911359977
 21
-0.136326632370683
 31
0.0
  0
SPLINE
  5
A4
330
1F
100
AcDbEntity
  8
0
  6
Continuous
 62
     1
370
    25
100
AcDbSpline
210
0.0
220
0.0
230
1.0
 70
     8
 71
     3
 72
     9
 73
     5
 74
     0
 42
0.000000001
 43
0.00000001
 40
0.0
 40
0.0
 40
0.0
 40
0.0
 40
0.5564154025912068
 40
0.9999999999999999
 40
0.9999999999999999
 40
0.9999999999999999
 40
0.9999999999999999
 10
24.59807621135331
 20
-0.3339678349114087
 30
0.0
 10
24.54135448010992
 20
-0.3023988662970126
 30
0.0
 10
24.43941314099668
 20
-0.2456625350103865
 30
0.0
 10
24.33575323384088
 20
-0.1841557186318441
 30
0.0
 10
24.28977129565774
 20
-0.1568722422506718
 30
0.0
  0
LINE
  5
A5
330
1F
100
AcDbEntity
  8
0
  6
Continuous
 62
     1
370
    25
100
AcDbLine
 10
20.63983119919339
 20
0.2586549520932122
 30
0.0
 11
20.72677049889284
 21
0.2136522862396572
 31
0.0
  0
LINE
  5
A6
330
1F
100
AcDbEntity
  8
0
  6
Continuous
 62
     1
370
    25
100
AcDbLine
 10
20.35911792542764
 20
-0.2405684480831907
 30
0.0
 11
20.30728478475971
 21
-0.213652286239606
 31
0.0
  0
LINE
  5
A7
330
1F
100
AcDbEntity
  8
0
  6
Continuous
 62
     1
370
    25
100
AcDbLine
 10
16.59288744228278
 20
0.2403629727939097
 30
0.0
 11
16.64207020009551
 21
0.214754668424861
 31
0.0
  0
LINE
  5
A8
330
1F
100
AcDbEntity
  8
0
  6
Continuous
 62
     1
370
    25
100
AcDbLine
 10
12.26481195729437
 20
-0.2753061865074184
 30
0.0
 11
12.14518764570573
 21
-0.2136522862396073
 31
0.0
  0
LINE
  5
A9
330
1F
100
AcDbEntity
  8
0
  6
Continuous
 62
     1
370
    25
100
AcDbLine
 10
15.85504809987385
 20
-1.500000000000001
 30
0.0
 11
17.01483226847479
 21
-1.500000000000001
 31
0.0
  0
LINE
  5
AA
330
1F
100
AcDbEntity
  8
0
  6
Continuous
 62
     1
370
    25
100
AcDbLine
 10
8.853121323621624
 20
1.500000000000002
 30
0.0
 11
8.598076211353304
 21
1.500000000000002
 31
0.0
  0
LINE
  5
AB
330
1F
100
AcDbEntity
  8
0
  6
Continuous
 62
     1
370
    25
100
AcDbLine
 10
24.59807621135331
 20
1.500000000000002
 30
0.0
 11
24.01705527856718
 21
1.500000000000002
 31
0.0
  0
LINE
  5
AC
330
1F
100
AcDbEntity
  8
0
  6
Continuous
 62
     1
370
    25
100
AcDbLine
 10
19.93656311238043
 20
-1.500000000000001
 30
0.0
 11
21.09645327809149
 21
-1.500000000000001
 31
0.0
  0
LINE
  5
AD
330
1F
100
AcDbEntity
  8
0
  6
Continuous
 62
     1
370
    25
100
AcDbLine
 10
12.93563610708581
 20
1.500000000000002
 30
0.0
 11
11.77419455191075
 21
1.500000000000002
 31
0.0
  0
LINE
  5
AE
330
1F
100
AcDbEntity
  8
0
  6
Continuous
 62
     1
370
    25
100
AcDbLine
 10
11.77419455191078
 20
-1.500000000000001
 30
0.0
 11
12.9356361070858
 21
-1.500000000000001
 31
0.0
  0
LINE
  5
AF
330
1F
100
AcDbEntity
  8
0
  6
Continuous
 62
     1
370
    25
100
AcDbLine
 10
21.09645327809147
 20
1.500000000000002
 30
0.0
 11
19.93656311238045
 21
1.500000000000002
 31
0.0
  0
LINE
  5
B0
330
1F
100
AcDbEntity
  8
0
  6
Continuous
 62
     1
370
    25
100
AcDbLine
 10
24.01705527856717
 20
-1.500000000000001
 30
0.0
 11
24.59807621135331
 21
-1.500000000000001
 31
0.0
  0
LINE
  5
B1
330
1F
100
AcDbEntity
  8
0
  6
Continuous
 62
     1
370
    25
100
AcDbLine
 10
8.598076211353304
 20
-1.500000000000001
 30
0.0
 11
8.85312132362165
 21
-1.500000000000001
 31
0.0
  0
LINE
  5
B2
330
1F
100
AcDbEntity
  8
0
  6
Continuous
 62
     1
370
    25
100
AcDbLine
 10
17.01483226847482
 20
1.500000000000002
 30
0.0
 11
15.85504809987388
 21
1.500000000000002
 31
0.0
  0
LINE
  5
B3
330
1F
100
AcDbEntity
  8
0
  6
Continuous
 62
     4
370
    25
100
AcDbLine
 10
2.0
 20
3.0
 30
0.0
 11
2.0
 21
-3.0
 31
0.0
  0
LINE
  5
B4
330
1F
100
AcDbEntity
  8
0
  6
Continuous
 62
     4
370
    25
100
AcDbLine
 10
-44.9019237886467
 20
2.999999999999994
 30
0.0
 11
-44.9019237886467
 21
-2.999999999999998
 31
0.0
  0
SPLINE
  5
B5
330
1F
100
AcDbEntity
  8
0
  6
Continuous
 62
     4
370
    25
100
AcDbSpline
210
0.0
220
0.0
230
1.0
 70
     8
 71
     3
 72
     8
 73
     4
 74
     0
 42
0.000000001
 43
0.00000001
 40
0.0
 40
0.0
 40
0.0
 40
0.0
 40
1.0
 40
1.0
 40
1.0
 40
1.0
 10
7.548349194236222
 20
1.510883699181798
 30
0.0
 10
7.564911160868341
 20
1.507033726497249
 30
0.0
 10
7.5814867691256
 20
1.503073347630157
 30
0.0
 10
7.598076211353304
 20
1.499003178892729
 30
0.0
  0
SPLINE
  5
B6
330
1F
100
AcDbEntity
  8
0
  6
Continuous
 62
     4
370
    25
100
AcDbSpline
210
0.0
220
0.0
230
1.0
 70
     8
 71
     3
 72
    12
 73
     8
 74
     0
 42
0.000000001
 43
0.00000001
 40
0.0
 40
0.0
 40
0.0
 40
0.0
 40
0.2499999999999999
 40
0.2499999999999999
 40
0.4999999999999999
 40
0.4999999999999999
 40
1.0
 40
1.0
 40
1.0
 40
1.0
 10
7.098255423706888
 20
1.626091329808838
 30
0.0
 10
7.098255423706888
 20
1.631369350340005
 30
0.0
 10
7.112682531369344
 20
1.629837970542831
 30
0.0
 10
7.166711397573774
 20
1.615773350628578
 30
0.0
 10
7.206367785959655
 20
1.603371704306258
 30
0.0
 10
7.342747214291267
 20
1.562226379465093
 30
0.0
 10
7.458916895330541
 20
1.531673012163242
 30
0.0
 10
7.548349194236222
 20
1.510883699181798
 30
0.0
  0
LINE
  5
B7
330
1F
100
AcDbEntity
  8
0
  6
Continuous
 62
     4
370
    25
100
AcDbLine
 10
7.098255423706888
 20
1.626091329808838
 30
0.0
 11
7.098255423706888
 21
1.139772004129688
 31
0.0
  0
SPLINE
  5
B8
330
1F
100
AcDbEntity
  8
0
  6
Continuous
 62
     4
370
    25
100
AcDbSpline
210
0.0
220
0.0
230
1.0
 70
     8
 71
     3
 72
    10
 73
     6
 74
     0
 42
0.000000001
 43
0.00000001
 40
0.0
 40
0.0
 40
0.0
 40
0.0
 40
0.5
 40
0.5
 40
1.0
 40
1.0
 40
1.0
 40
1.0
 10
7.241046938841903
 20
0.9210340795519347
 30
0.0
 10
7.197832025337842
 20
0.9490185756143468
 30
0.0
 10
7.161593279175554
 20
0.9848069003976323
 30
0.0
 10
7.11169160955664
 20
1.061607623319797
 30
0.0
 10
7.098255423706709
 20
1.102635428030704
 30
0.0
 10
7.098255423706888
 20
1.139772004129688
 30
0.0
  0
SPLINE
  5
B9
330
1F
100
AcDbEntity
  8
0
  6
Continuous
 62
     4
370
    25
100
AcDbSpline
210
0.0
220
0.0
230
1.0
 70
     8
 71
     3
 72
     8
 73
     4
 74
     0
 42
0.000000001
 43
0.00000001
 40
0.0
 40
0.0
 40
0.0
 40
0.0
 40
1.0
 40
1.0
 40
1.0
 40
1.0
 10
7.598076211353307
 20
0.696810534184723
 30
0.0
 10
7.477101949631157
 20
0.769487092390527
 30
0.0
 10
7.358555672629338
 20
0.8449394531525419
 30
0.0
 10
7.241046938841903
 20
0.9210340795519315
 30
0.0
  0
LINE
  5
BA
330
1F
100
AcDbEntity
  8
0
  6
Continuous
 62
     4
370
    25
100
AcDbLine
 10
7.598076211353304
 20
0.696810534184572
 30
0.0
 11
7.598076211353304
 21
0.0546760429209721
 31
0.0
  0
SPLINE
  5
BB
330
1F
100
AcDbEntity
  8
0
  6
Continuous
 62
     4
370
    25
100
AcDbSpline
210
0.0
220
0.0
230
1.0
 70
     8
 71
     3
 72
     8
 73
     4
 74
     0
 42
0.000000001
 43
0.00000001
 40
0.0
 40
0.0
 40
0.0
 40
0.0
 40
1.0
 40
1.0
 40
1.0
 40
1.0
 10
7.548349194236222
 20
0.0859123223291238
 30
0.0
 10
7.564911160868341
 20
0.0754491249329885
 30
0.0
 10
7.5814867691256
 20
0.0650369901548064
 30
0.0
 10
7.598076211353304
 20
0.0546760429209729
 30
0.0
  0
SPLINE
  5
BC
330
1F
100
AcDbEntity
  8
0
  6
Continuous
 62
     4
370
    25
100
AcDbSpline
210
0.0
220
0.0
230
1.0
 70
     8
 71
     3
 72
    12
 73
     8
 74
     0
 42
0.000000001
 43
0.00000001
 40
0.0
 40
0.0
 40
0.0
 40
0.0
 40
0.25
 40
0.25
 40
0.5
 40
0.5
 40
1.0
 40
1.0
 40
1.0
 40
1.0
 10
7.098255423706888
 20
-0.1598219140791034
 30
0.0
 10
7.098255423706888
 20
-0.1061212468474769
 30
0.0
 10
7.112682531369344
 20
-0.0528400517106362
 30
0.0
 10
7.166711397573774
 20
0.0381207474291623
 30
0.0
 10
7.206367785959655
 20
0.0755603895413194
 30
0.0
 10
7.342747214291267
 20
0.1478363540778058
 30
0.0
 10
7.458916895330541
 20
0.1424121220102605
 30
0.0
 10
7.548349194236225
 20
0.0859123223291234
 30
0.0
  0
LINE
  5
BD
330
1F
100
AcDbEntity
  8
0
  6
Continuous
 62
     4
370
    25
100
AcDbLine
 10
7.098255423706888
 20
-0.1598219140791034
 30
0.0
 11
7.098255423706888
 21
-1.1707415751145
 31
0.0
  0
SPLINE
  5
BE
330
1F
100
AcDbEntity
  8
0
  6
Continuous
 62
     4
370
    25
100
AcDbSpline
210
0.0
220
0.0
230
1.0
 70
     8
 71
     3
 72
    10
 73
     6
 74
     0
 42
0.000000001
 43
0.00000001
 40
0.0
 40
0.0
 40
0.0
 40
0.0
 40
0.5
 40
0.5
 40
1.0
 40
1.0
 40
1.0
 40
1.0
 10
7.241046938841903
 20
-1.303013916731065
 30
0.0
 10
7.197832025337842
 20
-1.29741319279587
 30
0.0
 10
7.161593279175554
 20
-1.283214071840782
 30
0.0
 10
7.11169160955664
 20
-1.238100159802853
 30
0.0
 10
7.098255423706709
 20
-1.206895779139237
 30
0.0
 10
7.098255423706888
 20
-1.1707415751145
 30
0.0
  0
SPLINE
  5
BF
330
1F
100
AcDbEntity
  8
0
  6
Continuous
 62
     4
370
    25
100
AcDbSpline
210
0.0
220
0.0
230
1.0
 70
     8
 71
     3
 72
     8
 73
     4
 74
     0
 42
0.000000001
 43
0.00000001
 40
0.0
 40
0.0
 40
0.0
 40
0.0
 40
1.0
 40
1.0
 40
1.0
 40
1.0
 10
7.598076211353307
 20
-1.328327926172331
 30
0.0
 10
7.477101949631157
 20
-1.326807700852813
 30
0.0
 10
7.358555672629338
 20
-1.318243242085509
 30
0.0
 10
7.241046938841903
 20
-1.303013916731058
 30
0.0
  0
LINE
  5
C0
330
1F
100
AcDbEntity
  8
0
  6
Continuous
 62
     4
370
    25
100
AcDbLine
 10
7.598076211353304
 20
-1.328327926171978
 30
0.0
 11
7.598076211353304
 21
-1.499003178892722
 31
0.0
  0
SPLINE
  5
C1
330
1F
100
AcDbEntity
  8
0
  6
Continuous
 62
     4
370
    25
100
AcDbSpline
210
0.0
220
0.0
230
1.0
 70
     8
 71
     3
 72
     8
 73
     4
 74
     0
 42
0.000000001
 43
0.00000001
 40
0.0
 40
0.0
 40
0.0
 40
0.0
 40
1.0
 40
1.0
 40
1.0
 40
1.0
 10
7.548349194236222
 20
-1.510883699181797
 30
0.0
 10
7.564911160868341
 20
-1.507033726497247
 30
0.0
 10
7.5814867691256
 20
-1.503073347630155
 30
0.0
 10
7.598076211353304
 20
-1.499003178892727
 30
0.0
  0
SPLINE
  5
C2
330
1F
100
AcDbEntity
  8
0
  6
Continuous
 62
     4
370
    25
100
AcDbSpline
210
0.0
220
0.0
230
1.0
 70
     8
 71
     3
 72
    13
 73
     9
 74
     0
 42
0.000000001
 43
0.00000001
 40
0.0
 40
0.0
 40
0.0
 40
0.0
 40
0.0328347452673358
 40
0.2301482234775762
 40
0.4370966027757586
 40
0.6542906241441253
 40
0.8776311233792373
 40
0.9999999999999999
 40
0.9999999999999999
 40
0.9999999999999999
 40
0.9999999999999999
 10
7.146617655132097
 20
-1.620679470422516
 30
0.0
 10
7.148822302092741
 20
-1.620178819871208
 30
0.0
 10
7.164275310095571
 20
-1.616669615398066
 30
0.0
 10
7.217240899957087
 20
-1.599959577290577
 30
0.0
 10
7.300771804090477
 20
-1.574803046623076
 30
0.0
 10
7.399672775294277
 20
-1.546925695075164
 30
0.0
 10
7.485499123273858
 20
-1.52553901471195
 30
0.0
 10
7.531918410412136
 20
-1.514715012618085
 30
0.0
 10
7.548349194236222
 20
-1.510883699181797
 30
0.0
  0
LINE
  5
C3
330
1F
100
AcDbEntity
  8
0
  6
Continuous
 62
     4
370
    25
100
AcDbLine
 10
-45.40192378864671
 20
2.499999999999994
 30
0.0
 11
-45.40192378864671
 21
-2.499999999999998
 31
0.0
  0
SPLINE
  5
C4
330
1F
100
AcDbEntity
  8
0
  6
Continuous
 62
     4
370
    25
100
AcDbSpline
210
0.0
220
0.0
230
1.0
 70
     8
 71
     3
 72
    10
 73
     6
 74
     0
 42
0.000000001
 43
0.00000001
 40
0.0
 40
0.0
 40
0.0
 40
0.0
 40
0.5
 40
0.5
 40
1.0
 40
1.0
 40
1.0
 40
1.0
 10
8.598076211353298
 20
1.409909530847641
 30
0.0
 10
8.430506941939758
 20
1.44280584202147
 30
0.0
 10
8.266923272493678
 20
1.466762887646176
 30
0.0
 10
7.934066958990014
 20
1.496689540348322
 30
0.0
 10
7.765040553689698
 20
1.50251184454531
 30
0.0
 10
7.598076211353304
 20
1.499003178892724
 30
0.0
  0
SPLINE
  5
C5
330
1F
100
AcDbEntity
  8
0
  6
Continuous
 62
     4
370
    25
100
AcDbSpline
210
0.0
220
0.0
230
1.0
 70
    24
 71
     3
 72
    13
 73
     9
 74
     0
 42
0.000000001
 43
0.00000001
 40
0.0
 40
0.0
 40
0.0
 40
0.0
 40
0.131805147142054
 40
0.3345131863842934
 40
0.5372212256265341
 40
0.7399292648687744
 40
0.9426373041109363
 40
1.0
 40
1.0
 40
1.0
 40
1.0
 10
8.598076211353302
 20
1.409909530847696
 30
0.0
 10
8.598076211353302
 20
1.333965985165577
 30
0.0
 10
8.598076211353302
 20
1.141226035305599
 30
0.0
 10
8.598076211353302
 20
0.8279204647759613
 30
0.0
 10
8.598076211353307
 20
0.5157801554615679
 30
0.0
 10
8.598076211353304
 20
0.2830585858240527
 30
0.0
 10
8.598076211353307
 20
0.1752912532379418
 30
0.0
 10
8.598076211353304
 20
0.1595987297477499
 30
0.0
 10
8.598076211353304
 20
0.1561374965865267
 30
0.0
  0
SPLINE
  5
C6
330
1F
100
AcDbEntity
  8
0
  6
Continuous
 62
     4
370
    25
100
AcDbSpline
210
0.0
220
0.0
230
1.0
 70
     8
 71
     3
 72
    10
 73
     6
 74
     0
 42
0.000000001
 43
0.00000001
 40
0.0
 40
0.0
 40
0.0
 40
0.0
 40
0.5
 40
0.5
 40
1.0
 40
1.0
 40
1.0
 40
1.0
 10
8.598076211353304
 20
0.1472334920877724
 30
0.0
 10
8.430506941939761
 20
0.2431419783418532
 30
0.0
 10
8.266923272493681
 20
0.3373813925511205
 30
0.0
 10
7.934066958990018
 20
0.5216387391634847
 30
0.0
 10
7.765040553689698
 20
0.6115692050586635
 30
0.0
 10
7.598076211353304
 20
0.6968105341845721
 30
0.0
  0
SPLINE
  5
C7
330
1F
100
AcDbEntity
  8
0
  6
Continuous
 62
     4
370
    25
100
AcDbSpline
210
0.0
220
0.0
230
1.0
 70
     8
 71
     3
 72
    10
 73
     6
 74
     0
 42
0.000000001
 43
0.00000001
 40
0.0
 40
0.0
 40
0.0
 40
0.0
 40
0.5000000000000001
 40
0.5000000000000001
 40
1.0
 40
1.0
 40
1.0
 40
1.0
 10
8.598076211353298
 20
-0.5120108542062147
 30
0.0
 10
8.430506941939758
 20
-0.4214252303416245
 30
0.0
 10
8.266923272493678
 20
-0.3284088751787949
 30
0.0
 10
7.934066958990014
 20
-0.1384419650405169
 30
0.0
 10
7.765040553689698
 20
-0.0415178417480114
 30
0.0
 10
7.598076211353304
 20
0.054676042920972
 30
0.0
  0
SPLINE
  5
C8
330
1F
100
AcDbEntity
  8
0
  6
Continuous
 62
     4
370
    25
100
AcDbSpline
210
0.0
220
0.0
230
1.0
 70
     8
 71
     3
 72
    10
 73
     6
 74
     0
 42
0.000000001
 43
0.00000001
 40
0.0
 40
0.0
 40
0.0
 40
0.0
 40
0.5
 40
0.5
 40
1.0
 40
1.0
 40
1.0
 40
1.0
 10
8.598076211353304
 20
-1.492756610706036
 30
0.0
 10
8.430506941939761
 20
-1.483296969897371
 30
0.0
 10
8.266923272493681
 20
-1.464725077900818
 30
0.0
 10
7.934066958990018
 20
-1.409659101937494
 30
0.0
 10
7.765040553689701
 20
-1.373043583286859
 30
0.0
 10
7.598076211353304
 20
-1.328327926171979
 30
0.0
  0
SPLINE
  5
C9
330
1F
100
AcDbEntity
  8
0
  6
Continuous
 62
     4
370
    25
100
AcDbSpline
210
0.0
220
0.0
230
1.0
 70
    24
 71
     3
 72
    12
 73
     8
 74
     0
 42
0.000000001
 43
0.00000001
 40
0.0
 40
0.0
 40
0.0
 40
0.0
 40
0.1588542093186809
 40
0.400320796991733
 40
0.641787384664785
 40
0.8832539723377433
 40
1.0
 40
1.0
 40
1.0
 40
1.0
 10
8.598076211353302
 20
-0.5120108542064821
 30
0.0
 10
8.598076211353302
 20
-0.5217503221844694
 30
0.0
 10
8.598076211353302
 20
-0.5462942835937742
 30
0.0
 10
8.598076211353307
 20
-0.7166228495129033
 30
0.0
 10
8.598076211353304
 20
-0.9844538135955908
 30
0.0
 10
8.598076211353307
 20
-1.262311662291841
 30
0.0
 10
8.598076211353304
 20
-1.436112663451171
 30
0.0
 10
8.598076211353304
 20
-1.492756610706036
 30
0.0
  0
LINE
  5
CA
330
1F
100
AcDbEntity
  8
0
  6
Continuous
 62
     4
370
    25
100
AcDbLine
 10
8.598076211353304
 20
0.1472334920877724
 30
0.0
 11
8.598076211353302
 21
-0.5120108542062283
 31
0.0
  0
LINE
  5
CB
330
1F
100
AcDbEntity
  8
0
  6
Continuous
 62
     4
370
    25
100
AcDbLine
 10
7.59807621135646
 20
-1.499003178892789
 30
0.0
 11
7.692979988697227
 21
-1.495739668671957
 31
0.0
  0
LINE
  5
CC
330
1F
100
AcDbEntity
  8
0
  6
Continuous
 62
     4
370
    25
100
AcDbLine
 10
8.598076211353304
 20
-1.492756610706035
 30
0.0
 11
8.598076211353304
 21
-1.499999999999999
 31
0.0
  0
LINE
  5
CD
330
1F
100
AcDbEntity
  8
0
  6
Continuous
 62
     4
370
    25
100
AcDbLine
 10
8.598076211353304
 20
1.500000000000001
 30
0.0
 11
8.598076211353302
 21
1.409909530847696
 31
0.0
  0
SPLINE
  5
CE
330
1F
100
AcDbEntity
  8
0
  6
Continuous
 62
     1
370
    25
100
AcDbSpline
210
0.0
220
0.0
230
1.0
 70
     8
 71
     3
 72
    20
 73
    16
 74
     0
 42
0.000000001
 43
0.00000001
 40
0.0
 40
0.0
 40
0.0
 40
0.0
 40
0.0004456957714406
 40
0.0913659311554446
 40
0.1822822580324325
 40
0.2731952985252216
 40
0.3641056771239058
 40
0.4550140202385147
 40
0.5459209557487131
 40
0.6368271125512327
 40
0.7277331201057287
 40
0.8023109911219501
 40
0.8770352847167624
 40
0.9518713449434882
 40
1.0
 40
1.0
 40
1.0
 40
1.0
 10
18.47571164974226
 20
-1.268882884107855
 30
0.0
 10
18.47428191793273
 20
-1.269430563095452
 30
0.0
 10
18.18119235673223
 20
-1.381702664117114
 30
0.0
 10
17.59646369092651
 20
-1.480383087473132
 30
0.0
 10
16.72153528643177
 20
-1.52157846865052
 30
0.0
 10
15.84664635489057
 20
-1.375768706063203
 30
0.0
 10
14.97178633548717
 20
-1.079686880983162
 30
0.0
 10
14.09695557381139
 20
-0.6611389921280136
 30
0.0
 10
13.22211986542687
 20
-0.1686626821427532
 30
0.0
 10
12.34737219132152
 20
0.3429948078258478
 30
0.0
 10
11.52472302220473
 20
0.7872387735350961
 30
0.0
 10
10.75487652173538
 20
1.131677926471519
 30
0.0
 10
10.03602248637002
 20
1.361997319648148
 30
0.0
 10
9.401650574563462
 20
1.488884355914912
 30
0.0
 10
9.007422890389307
 20
1.487457099414142
 30
0.0
 10
8.853121323621627
 20
1.486898468138134
 30
0.0
  0
SPLINE
  5
CF
330
1F
100
AcDbEntity
  8
0
  6
Continuous
 62
     1
370
    25
100
AcDbSpline
210
0.0
220
0.0
230
1.0
 70
     8
 71
     3
 72
    19
 73
    15
 74
     0
 42
0.000000001
 43
0.00000001
 40
0.0
 40
0.0
 40
0.0
 40
0.0
 40
0.045716035091662
 40
0.1203075633001028
 40
0.2112302181630071
 40
0.3021530223012656
 40
0.393076605289805
 40
0.484001596140525
 40
0.5749286228480712
 40
0.6658583119371861
 40
0.7567912880123244
 40
0.8477281733102302
 40
0.9386695872561628
 40
1.0
 40
1.0
 40
1.0
 40
1.0
 10
10.31549354727857
 20
1.257722126355143
 30
0.0
 10
10.46209881501965
 20
1.303841375958332
 30
0.0
 10
10.8479092312888
 20
1.425210049550958
 30
0.0
 10
11.52470833874734
 20
1.513462289138248
 30
0.0
 10
12.34737644869678
 20
1.49257706662025
 30
0.0
 10
13.22211872563835
 20
1.297159762958603
 30
0.0
 10
14.09695587555519
 20
0.9574725331949614
 30
0.0
 10
14.97178626832126
 20
0.5098459550269767
 30
0.0
 10
15.84664632180008
 20
0.0049148928208141
 30
0.0
 10
16.72153548597179
 20
-0.50014372641373
 30
0.0
 10
17.59646292581445
 20
-0.9507200354061015
 30
0.0
 10
18.47143577635842
 20
-1.288083837466864
 30
0.0
 10
19.25147235884302
 20
-1.481086019773669
 30
0.0
 10
19.73985684753578
 20
-1.481292835308532
 30
0.0
 10
19.93656311238043
 20
-1.481376134250895
 30
0.0
  0
SPLINE
  5
D0
330
1F
100
AcDbEntity
  8
0
  6
Continuous
 62
     1
370
    25
100
AcDbSpline
210
0.0
220
0.0
230
1.0
 70
     8
 71
     3
 72
    16
 73
    12
 74
     0
 42
0.000000001
 43
0.00000001
 40
0.0
 40
0.0
 40
0.0
 40
0.0
 40
0.115443206722314
 40
0.2308760570428416
 40
0.3462993040647023
 40
0.4617137076931241
 40
0.5771200341174707
 40
0.6925190552837738
 40
0.8079115483585245
 40
0.9232982951845276
 40
1.0
 40
1.0
 40
1.0
 40
1.0
 10
24.59807621135331
 20
-1.462748547532532
 30
0.0
 10
24.30624701580695
 20
-1.409325770976502
 30
0.0
 10
23.72261480469041
 20
-1.302485010417892
 30
0.0
 10
22.84722395429806
 20
-0.9517576965084258
 30
0.0
 10
21.97191921076465
 20
-0.5059067051268723
 30
0.0
 10
21.09669519155601
 20
0.0000750361268636
 30
0.0
 10
20.22154455494458
 20
0.5047188333775543
 30
0.0
 10
19.34646030688344
 20
0.954603597536047
 30
0.0
 10
18.47143569370938
 20
1.290636152266178
 30
0.0
 10
17.69423199913413
 20
1.481896927009064
 30
0.0
 10
17.20870513301586
 20
1.481327970460648
 30
0.0
 10
17.01483226847482
 20
1.48110078378255
 30
0.0
  0
SPLINE
  5
D1
330
1F
100
AcDbEntity
  8
0
  6
Continuous
 62
     1
370
    25
100
AcDbSpline
210
0.0
220
0.0
230
1.0
 70
     8
 71
     3
 72
    10
 73
     6
 74
     0
 42
0.000000001
 43
0.00000001
 40
0.0
 40
0.0
 40
0.0
 40
0.0
 40
0.1625622536159159
 40
0.5818224884682052
 40
1.0
 40
1.0
 40
1.0
 40
1.0
 10
10.31549354727858
 20
-1.25772212635514
 30
0.0
 10
10.22244035128543
 20
-1.28912276696468
 30
0.0
 10
9.88939598921246
 20
-1.401508012940069
 30
0.0
 10
9.3165778634481
 20
-1.496863113599904
 30
0.0
 10
8.837370239533694
 20
-1.494124264651641
 30
0.0
 10
8.598076211361624
 20
-1.492756610706507
 30
0.0
  0
SPLINE
  5
D2
330
1F
100
AcDbEntity
  8
0
  6
Continuous
 62
     4
370
    25
100
AcDbSpline
210
0.0
220
0.0
230
1.0
 70
    24
 71
     3
 72
    12
 73
     8
 74
     0
 42
0.000000001
 43
0.00000001
 40
0.0
 40
0.0
 40
0.0
 40
0.0
 40
0.1962984066839363
 40
0.4270159391207488
 40
0.657733471557561
 40
0.8884510039942844
 40
1.0
 40
1.0
 40
1.0
 40
1.0
 10
8.598076211353304
 20
-0.4996684461487422
 30
0.0
 10
8.598076211353304
 20
-0.5114439668805414
 30
0.0
 10
8.598076211353304
 20
-0.537059737934768
 30
0.0
 10
8.598076211353304
 20
-0.7157264341150564
 30
0.0
 10
8.598076211353304
 20
-0.9846985381613854
 30
0.0
 10
8.598076211353304
 20
-1.262285515024433
 30
0.0
 10
8.598076211353304
 20
-1.436106236386482
 30
0.0
 10
8.598076211353304
 20
-1.492756610704888
 30
0.0
  0
SPLINE
  5
D3
330
1F
100
AcDbEntity
  8
0
  6
Continuous
 62
     1
370
    25
100
AcDbSpline
210
0.0
220
0.0
230
1.0
 70
     8
 71
     3
 72
    12
 73
     8
 74
     0
 42
0.000000001
 43
0.00000001
 40
0.0
 40
0.0
 40
0.0
 40
0.0
 40
0.2261011564090593
 40
0.4527877220954796
 40
0.6791357344979614
 40
0.9050402169847976
 40
1.0
 40
1.0
 40
1.0
 40
1.0
 10
8.598076211361686
 20
-0.5120108542107498
 30
0.0
 10
8.837375823278665
 20
-0.6380585803741302
 30
0.0
 10
9.31659462914001
 20
-0.8904803888746419
 30
0.0
 10
10.03601134672143
 20
-1.19229999677958
 30
0.0
 10
10.75489472571742
 20
-1.397997155070349
 30
0.0
 10
11.3338020395186
 20
-1.504280948904985
 30
0.0
 10
11.67362418430601
 20
-1.486193079041048
 30
0.0
 10
11.77419455191078
 20
-1.480839973749628
 30
0.0
  0
SPLINE
  5
D4
330
1F
100
AcDbEntity
  8
0
  6
Continuous
 62
     1
370
    25
100
AcDbSpline
210
0.0
220
0.0
230
1.0
 70
     8
 71
     3
 72
    14
 73
    10
 74
     0
 42
0.000000001
 43
0.00000001
 40
0.0
 40
0.0
 40
0.0
 40
0.0
 40
0.1422275865117745
 40
0.2851638655134213
 40
0.4281091930008475
 40
0.5710645251268183
 40
0.7140308109137394
 40
0.857008991600322
 40
0.9999999999999999
 40
0.9999999999999999
 40
0.9999999999999999
 40
0.9999999999999999
 10
18.47571164974228
 20
1.268882884107856
 30
0.0
 10
18.76595559190149
 20
1.344485782409787
 30
0.0
 10
19.34788970551401
 20
1.496068293598725
 30
0.0
 10
20.22154464867705
 20
1.517631790743256
 30
0.0
 10
21.09669516643853
 20
1.379108206286765
 30
0.0
 10
21.9719192174933
 20
1.082618215481941
 30
0.0
 10
22.84722395250353
 20
0.6659058712488607
 30
0.0
 10
23.7226148051391
 20
0.1714512244275147
 30
0.0
 10
24.30624701595652
 20
-0.1643211180098429
 30
0.0
 10
24.59807621135331
 20
-0.3322148200945007
 30
0.0
  0
LINE
  5
D5
330
1F
100
AcDbEntity
  8
0
  6
Continuous
 62
     1
370
    25
100
AcDbLine
 10
24.59807621135331
 20
-0.500000000000001
 30
0.0
 11
24.59807621135331
 21
-0.3333856900530302
 31
0.0
  0
SPLINE
  5
D6
330
1F
100
AcDbEntity
  8
0
  6
Continuous
 62
     1
370
    25
100
AcDbSpline
210
0.0
220
0.0
230
1.0
 70
    24
 71
     3
 72
    10
 73
     6
 74
     0
 42
0.000000001
 43
0.00000001
 40
0.0
 40
0.0
 40
0.0
 40
0.0
 40
0.5
 40
0.5
 40
1.0
 40
1.0
 40
1.0
 40
1.0
 10
24.59807621135331
 20
-0.5000000000000009
 30
0.0
 10
24.52274727136002
 20
-0.5527458916286452
 30
0.0
 10
24.42051794841748
 20
-0.6243276341790951
 30
0.0
 10
24.20162612327922
 20
-0.7775973401933792
 30
0.0
 10
24.08808910964738
 20
-0.857096813004212
 30
0.0
 10
23.98017819404715
 20
-0.9326568495626054
 30
0.0
  0
SPLINE
  5
D7
330
1F
100
AcDbEntity
  8
0
  6
Continuous
 62
     1
370
    25
100
AcDbSpline
210
0.0
220
0.0
230
1.0
 70
     8
 71
     3
 72
     8
 73
     4
 74
     0
 42
0.000000001
 43
0.00000001
 40
0.0
 40
0.0
 40
0.0
 40
0.0
 40
1.0
 40
1.0
 40
1.0
 40
1.0
 10
24.59807621135331
 20
-1.404383063753668
 30
0.0
 10
24.37780991610114
 20
-1.277322519792199
 30
0.0
 10
24.17575580507328
 20
-1.111824184871083
 30
0.0
 10
23.98017819404716
 20
-0.9326568495625978
 30
0.0
  0
LINE
  5
D8
330
1F
100
AcDbEntity
  8
0
  6
Continuous
 62
     1
370
    25
100
AcDbLine
 10
24.59807621135331
 20
-1.462748547532893
 30
0.0
 11
24.59807621135331
 21
-1.404383063753667
 31
0.0
  0
SPLINE
  5
D9
330
1F
100
AcDbEntity
  8
0
  6
Continuous
 62
     1
370
    25
100
AcDbSpline
210
0.0
220
0.0
230
1.0
 70
     8
 71
     3
 72
    19
 73
    15
 74
     0
 42
0.000000001
 43
0.00000001
 40
0.0
 40
0.0
 40
0.0
 40
0.0
 40
0.0606860447962714
 40
0.1516605265039931
 40
0.2426286414201247
 40
0.3335909980249592
 40
0.4245482089137754
 40
0.5155008903679182
 40
0.6064496619202434
 40
0.6973951459155806
 40
0.7883379670668814
 40
0.8792787520077181
 40
0.9702181288418221
 40
1.0
 40
1.0
 40
1.0
 40
1.0
 10
22.55573969941367
 20
-1.253288810997539
 30
0.0
 10
22.36112565944953
 20
-1.3133758422557
 30
0.0
 10
21.87476560970306
 20
-1.463539373711199
 30
0.0
 10
21.09669552106669
 20
-1.525104618830537
 30
0.0
 10
20.22154445560754
 20
-1.443730293981627
 30
0.0
 10
19.3464603747471
 20
-1.19455859245165
 30
0.0
 10
18.47143552159707
 20
-0.8126348975769991
 30
0.0
 10
17.59646297592461
 20
-0.3390679888962785
 30
0.0
 10
16.7215355402719
 20
0.1727070746408861
 30
0.0
 10
15.846646054506
 20
0.6642568861488984
 30
0.0
 10
14.97178728315896
 20
1.084299698393237
 30
0.0
 10
14.09695208360282
 20
1.370799954579597
 30
0.0
 10
13.41823771774786
 20
1.507509995931564
 30
0.0
 10
13.03113432048229
 20
1.486506725062249
 30
0.0
 10
12.93563610708581
 20
1.481325228703213
 30
0.0
  0
SPLINE
  5
DA
330
1F
100
AcDbEntity
  8
0
  6
Continuous
 62
     1
370
    25
100
AcDbSpline
210
0.0
220
0.0
230
1.0
 70
     8
 71
     3
 72
    19
 73
    15
 74
     0
 42
0.000000001
 43
0.00000001
 40
0.0
 40
0.0
 40
0.0
 40
0.0
 40
0.0598255517494597
 40
0.1507631258954504
 40
0.2417033627318433
 40
0.3326468869355465
 40
0.4235943208154829
 40
0.5145462838687642
 40
0.605503392341178
 40
0.6964662587926599
 40
0.7874354916683952
 40
0.8784116948761845
 40
0.9693954673706963
 40
1.0
 40
1.0
 40
1.0
 40
1.0
 10
14.39623752835366
 20
1.253080368211697
 30
0.0
 10
14.58808535498845
 20
1.312579498536363
 30
0.0
 10
15.07155065023284
 20
1.462520027515912
 30
0.0
 10
15.84664613031428
 20
1.525031752690222
 30
0.0
 10
16.72153552033071
 20
1.445350150149462
 30
0.0
 10
17.59646297987744
 20
1.197616137953729
 30
0.0
 10
18.47143552572841
 20
0.8168092026811619
 30
0.0
 10
19.34646035426698
 20
0.3438647809385687
 30
0.0
 10
20.22154453340318
 20
-0.1678448894765041
 30
0.0
 10
21.09669523033755
 20
-0.6599063285736256
 30
0.0
 10
21.97191907716763
 20
-1.080904389649028
 30
0.0
 10
22.84722444995887
 20
-1.368888980768958
 30
0.0
 10
23.52894353567318
 20
-1.506905828000168
 30
0.0
 10
23.9189006480163
 20
-1.486258709362914
 30
0.0
 10
24.01705527856717
 20
-1.481061701185265
 30
0.0
  0
SPLINE
  5
DB
330
1F
100
AcDbEntity
  8
0
  6
Continuous
 62
     1
370
    25
100
AcDbSpline
210
0.0
220
0.0
230
1.0
 70
     8
 71
     3
 72
    12
 73
     8
 74
     0
 42
0.000000001
 43
0.00000001
 40
0.0
 40
0.0
 40
0.0
 40
0.0
 40
0.2500160497341335
 40
0.5000096705463963
 40
0.7499824934367604
 40
0.999936164136566
 40
1.0
 40
1.0
 40
1.0
 40
1.0
 10
24.59807621135331
 20
0.3322148200944751
 30
0.0
 10
24.30624703602116
 20
0.4924983929006932
 30
0.0
 10
23.72261486533123
 20
0.8130511594853215
 30
0.0
 10
22.84722371176852
 20
1.197610909019416
 30
0.0
 10
21.97192012013921
 20
1.429787291882007
 30
0.0
 10
21.38833900011339
 20
1.528081729815947
 30
0.0
 10
21.09652778495754
 20
1.499985652084143
 30
0.0
 10
21.09645327809147
 20
1.499978478436963
 30
0.0
  0
SPLINE
  5
DC
330
1F
100
AcDbEntity
  8
0
  6
Continuous
 62
     1
370
    25
100
AcDbSpline
210
0.0
220
0.0
230
1.0
 70
     8
 71
     3
 72
    15
 73
    11
 74
     0
 42
0.000000001
 43
0.00000001
 40
0.0
 40
0.0
 40
0.0
 40
0.0
 40
0.0516107550923364
 40
0.2024683950987412
 40
0.3533247428604779
 40
0.5041808429490919
 40
0.6279408350230417
 40
0.7519438114691506
 40
0.8761322616662699
 40
1.0
 40
1.0
 40
1.0
 40
1.0
 10
14.39623752835366
 20
-1.253080368211694
 30
0.0
 10
14.29647450492813
 20
-1.288075975034305
 30
0.0
 10
13.90510531827261
 20
-1.425363335705622
 30
0.0
 10
13.2221195465436
 20
-1.513281507033001
 30
0.0
 10
12.34737243820354
 20
-1.491281402623939
 30
0.0
 10
11.52472240837329
 20
-1.304157047874255
 30
0.0
 10
10.75487831779783
 20
-1.014518063102578
 30
0.0
 10
10.03601573348148
 20
-0.6672799228654109
 30
0.0
 10
9.316593535072517
 20
-0.2692329695339482
 30
0.0
 10
8.837375458903928
 20
0.008531045248696
 30
0.0
 10
8.598076211361624
 20
0.1472334920830108
 30
0.0
  0
SPLINE
  5
DD
330
1F
100
AcDbEntity
  8
0
  6
Continuous
 62
     4
370
    25
100
AcDbSpline
210
0.0
220
0.0
230
1.0
 70
    24
 71
     3
 72
    16
 73
    12
 74
     0
 42
0.000000001
 43
0.00000001
 40
0.0
 40
0.0
 40
0.0
 40
0.0
 40
0.1250000000000001
 40
0.1250000000000001
 40
0.2500000000000002
 40
0.2500000000000002
 40
0.5000000000000001
 40
0.5000000000000001
 40
0.75
 40
0.75
 40
1.0
 40
1.0
 40
1.0
 40
1.0
 10
8.598076211353304
 20
1.409909530847699
 30
0.0
 10
8.598076211353304
 20
1.358243364013165
 30
0.0
 10
8.598076211353304
 20
1.311412488018446
 30
0.0
 10
8.598076211353304
 20
1.207551129898055
 30
0.0
 10
8.598076211353304
 20
1.151717126102505
 30
0.0
 10
8.598076211353304
 20
0.9734146311034177
 30
0.0
 10
8.598076211353304
 20
0.8387806400758234
 30
0.0
 10
8.598076211353304
 20
0.5668014874848042
 30
0.0
 10
8.598076211353304
 20
0.4299787894907773
 30
0.0
 10
8.598076211353304
 20
0.222827235988189
 30
0.0
 10
8.598076211353304
 20
0.1560190532040482
 30
0.0
 10
8.598076211353304
 20
0.1472334920878232
 30
0.0
  0
SPLINE
  5
DE
330
1F
100
AcDbEntity
  8
0
  6
Continuous
 62
     1
370
    25
100
AcDbSpline
210
0.0
220
0.0
230
1.0
 70
     8
 71
     3
 72
    17
 73
    13
 74
     0
 42
0.000000001
 43
0.00000001
 40
0.0
 40
0.0
 40
0.0
 40
0.0
 40
0.0989704562588155
 40
0.19819716164169
 40
0.2972756732978648
 40
0.3961600401791386
 40
0.5166942265301492
 40
0.6372286107722507
 40
0.7577640275192329
 40
0.8783013106384925
 40
0.9988412926488749
 40
1.0
 40
1.0
 40
1.0
 40
1.0
 10
8.59807621136169
 20
1.409909530845994
 30
0.0
 10
8.837375458809497
 20
1.352247962399842
 30
0.0
 10
9.316593534788842
 20
1.236775531193208
 30
0.0
 10
10.03601573461914
 20
0.9415053055928195
 30
0.0
 10
10.75487831354276
 20
0.5820938197191616
 30
0.0
 10
11.52472242569146
 20
0.1466979410829459
 30
0.0
 10
12.34737235762403
 20
-0.3344030697340753
 30
0.0
 10
13.22211984531052
 20
-0.8074383839706694
 30
0.0
 10
14.09695548797136
 20
-1.19509007295855
 30
0.0
 10
14.97178669897373
 20
-1.428282392431954
 30
0.0
 10
15.55782091445971
 20
-1.527525208233679
 30
0.0
 10
15.85224485534883
 20
-1.499464722568858
 30
0.0
 10
15.85504809987386
 20
-1.499197555426906
 30
0.0
  0
SPLINE
  5
DF
330
1F
100
AcDbEntity
  8
0
  6
Continuous
 62
     1
370
    25
100
AcDbSpline
210
0.0
220
0.0
230
1.0
 70
     8
 71
     3
 72
    10
 73
     6
 74
     0
 42
0.000000001
 43
0.00000001
 40
0.0
 40
0.0
 40
0.0
 40
0.0
 40
0.1427132896032763
 40
0.5713374171568759
 40
1.0
 40
1.0
 40
1.0
 40
1.0
 10
22.55573969941367
 20
1.253288810997542
 30
0.0
 10
22.65289360264267
 20
1.287347071245931
 30
0.0
 10
23.04183888091261
 20
1.423695679685019
 30
0.0
 10
23.72261534662372
 20
1.520849311937451
 30
0.0
 10
24.30624719645679
 20
1.482116048153438
 30
0.0
 10
24.59807621135331
 20
1.462748547532887
 30
0.0
  0
LINE
  5
E0
330
1F
100
AcDbEntity
  8
0
  6
Continuous
 62
     1
370
    25
100
AcDbLine
 10
24.59807621135331
 20
0.8043077700777156
 30
0.0
 11
24.59807621135331
 21
1.462748547532894
 31
0.0
  0
SPLINE
  5
E1
330
1F
100
AcDbEntity
  8
0
  6
Continuous
 62
     1
370
    25
100
AcDbSpline
210
0.0
220
0.0
230
1.0
 70
     8
 71
     3
 72
    10
 73
     6
 74
     0
 42
0.000000001
 43
0.00000001
 40
0.0
 40
0.0
 40
0.0
 40
0.0
 40
0.3154082355538419
 40
0.6295726553169676
 40
1.0
 40
1.0
 40
1.0
 40
1.0
 10
24.59807621135331
 20
0.8043077700777156
 30
0.0
 10
24.55422585256726
 20
0.7566816493011782
 30
0.0
 10
24.46669805935964
 20
0.6616172218708651
 30
0.0
 10
24.28560550633837
 20
0.5886063861680857
 30
0.0
 10
24.15864966829922
 20
0.5972868166429023
 30
0.0
 10
24.08995483961558
 20
0.6019837308894438
 30
0.0
  0
LINE
  5
E2
330
1F
100
AcDbEntity
  8
0
  6
Continuous
 62
     1
370
    25
100
AcDbLine
 10
24.59807621135331
 20
1.462748547532894
 30
0.0
 11
24.59807621135331
 21
1.500000000000004
 31
0.0
  0
LINE
  5
E3
330
1F
100
AcDbEntity
  8
0
  6
Continuous
 62
     1
370
    25
100
AcDbLine
 10
24.59807621135331
 20
-0.3322148200945011
 30
0.0
 11
24.59807621135331
 21
0.3322148200945037
 31
0.0
  0
LINE
  5
E4
330
1F
100
AcDbEntity
  8
0
  6
Continuous
 62
     1
370
    25
100
AcDbLine
 10
24.59807621135331
 20
-1.5
 30
0.0
 11
24.59807621135331
 21
-1.462748547532893
 31
0.0
  0
LINE
  5
E5
330
1F
100
AcDbEntity
  8
0
  6
Continuous
 62
     1
370
    25
100
AcDbLine
 10
24.59807621135331
 20
0.3322148200945037
 30
0.0
 11
24.59807621135331
 21
0.8043077700777156
 31
0.0
  0
LINE
  5
E6
330
1F
100
AcDbEntity
  8
0
  6
Continuous
 62
     1
370
    25
100
AcDbLine
 10
24.59807621135331
 20
-0.4999999999999981
 30
0.0
 11
24.59807621135331
 21
-1.404383063753668
 31
0.0
  0
LINE
  5
E7
330
1F
100
AcDbEntity
  8
중심선
100
AcDbLine
 10
-48.4019237886467
 20
-0.0000000000000039
 30
0.0
 11
27.59807621135332
 21
0.0000000000000091
 31
0.0
  0
CIRCLE
  5
E8
330
1F
100
AcDbEntity
  8
해칭선
100
AcDbCircle
 10
0.0003528955370129
 20
-0.0000000000000041
 30
0.0
 40
3.000000000000003
  0
INSERT
  5
E9
330
1F
100
AcDbEntity
  8
0
  6
Continuous
 62
     7
100
AcDbBlockReference
 66
     1
  2
블럭10
 10
-21.44009924894178
 20
-52.04717430164393
 30
0.0
  0
ATTRIB
  5
EA
330
E9
100
AcDbEntity
  8
FORMAT
 62
     2
100
AcDbText
 10
-37.55936028837733
 20
-49.97180738881174
 30
0.0
 40
4.233333333333333
  1
SEME7203016E [ 4 FLUTE ]
 41
0.75
  7
SLDTEXTSTYLE0
 11
-37.55936028837733
 21
-52.08847405547841
 31
0.0
100
AcDbAttribute
  2
AUTOATTR0
 70
     0
 74
     1
  0
SEQEND
  5
EB
330
E9
100
AcDbEntity
  8
0
  6
Continuous
 62
     7
  0
HATCH
  5
EC
330
1F
100
AcDbEntity
  8
중심선
100
AcDbHatch
 10
0.0
 20
0.0
 30
0.0
210
0.0
220
0.0
230
1.0
  2
SOLID
 70
     1
 71
     0
 91
        1
 92
        0
 93
        4
 72
     1
 10
-15.72518994456093
 20
-35.8
 11
-19.17146518839821
 21
-35.8
 72
     1
 10
-19.17146518839821
 20
-35.8
 11
-21.29969504760223
 21
-38.33632558057259
 72
     1
 10
-21.29969504760223
 20
-38.33632558057259
 11
-17.85338671865181
 21
-38.3362861512701
 72
     1
 10
-17.85338671865181
 20
-38.3362861512701
 11
-15.72518994456093
 21
-35.8
 97
        0
 75
     0
 76
     1
 98
        1
 10
0.0
 20
0.0
  0
HATCH
  5
ED
330
1F
100
AcDbEntity
  8
중심선
100
AcDbHatch
 10
0.0
 20
0.0
 30
0.0
210
0.0
220
0.0
230
1.0
  2
SOLID
 70
     1
 71
     0
 91
        1
 92
        0
 93
        4
 72
     1
 10
-10.71242595352492
 20
-35.8
 11
-14.15870119736226
 21
-35.80000000000003
 72
     1
 10
-14.15870119736226
 20
-35.80000000000003
 11
-18.68983920571965
 21
-41.20000000000002
 72
     1
 10
-18.68983920571965
 20
-41.20000000000002
 11
-15.24356396188237
 21
-41.20000000000002
 72
     1
 10
-15.24356396188237
 20
-41.20000000000002
 11
-10.71242595352492
 21
-35.8
 97
        0
 75
     0
 76
     1
 98
        1
 10
0.0
 20
0.0
  0
HATCH
  5
EE
330
1F
100
AcDbEntity
  8
중심선
100
AcDbHatch
 10
0.0
 20
0.0
 30
0.0
210
0.0
220
0.0
230
1.0
  2
SOLID
 70
     1
 71
     0
 91
        1
 92
        0
 93
        4
 72
     1
 10
-5.699661962489055
 20
-35.8
 11
-9.145937206326144
 21
-35.8
 72
     1
 10
-9.145937206326144
 20
-35.8
 11
-16.19437410821545
 21
-44.20000000000002
 72
     1
 10
-16.19437410821545
 20
-44.20000000000002
 11
-12.74809886437817
 21
-44.20000000000002
 72
     1
 10
-12.74809886437817
 20
-44.20000000000002
 11
-5.699661962489055
 21
-35.8
 97
        0
 75
     0
 76
     1
 98
        1
 10
0.0
 20
0.0
  0
HATCH
  5
EF
330
1F
100
AcDbEntity
  8
중심선
100
AcDbHatch
 10
0.0
 20
0.0
 30
0.0
210
0.0
220
0.0
230
1.0
  2
SOLID
 70
     1
 71
     0
 91
        1
 92
        0
 93
        6
 72
     3
 10
-0.8997715314768839
 20
-40.00000000005127
 11
3.960054785062284
 21
1.540850780301639E-10
 40
0.3939339440162633
 50
17.09539180608433
 51
320.0019657685081
 73
     0
 72
     1
 10
0.7832281242236838
 20
-38.58789400463833
 11
3.088529997924749
 21
-36.65356729459038
 72
     3
 10
-0.8997715315297306
 20
-40.00000000000015
 11
6.600054785286829
 21
-1.249000902703301E-13
 40
0.6363583540795982
 50
39.99873849337408
 51
368.4976242363725
 73
     1
 72
     1
 10
5.525560960370878
 20
-39.03999999993002
 11
-2.219704224693809
 21
-39.03999999993002
 72
     1
 10
-2.219704224693808
 20
-39.03999999993002
 11
-2.219729269139742
 21
-40.95999999992991
 72
     1
 10
-2.219729269139742
 20
-40.95999999992991
 11
2.221650500332295
 21
-40.95999999992988
 97
        0
 75
     0
 76
     1
 98
        1
 10
0.0
 20
0.0
  0
DIMENSION
  5
F0
330
1F
100
AcDbEntity
  8
치수문자_일반주서
100
AcDbDimension
  2
_D
 10
36.26689255692985
 20
1.500000000000046
 30
0.0
 11
36.26689255692983
 21
11.16650000000005
 31
0.0
 70
   160
  1
%%c<>
 71
     2
 42
3.000000000000008
 52
-270.0
  3
SLDDIMSTYLE0
100
AcDbAlignedDimension
 13
24.59807621135333
 23
-1.500000000000004
 33
0.0
 14
24.59807621135333
 24
1.500000000000004
 34
0.0
 50
90.0000000000002
100
AcDbRotatedDimension
  0
DIMENSION
  5
FE
330
1F
100
AcDbEntity
  8
치수문자_일반주서
100
AcDbDimension
  2
_D_1
 10
24.59807621135329
 20
20.38913260158164
 30
0.0
 11
-10.4019237886467
 21
20.38913260158164
 31
0.0
 70
   160
  1
<>
 71
     2
 42
70.00000000000001
  3
SLDDIMSTYLE1
100
AcDbAlignedDimension
 13
-45.40192378864671
 23
2.499999999999994
 33
0.0
 14
24.59807621135331
 24
1.500000000000002
 34
0.0
 50
-0.0000000000000058
100
AcDbRotatedDimension
  0
DIMENSION
  5
109
330
1F
100
AcDbEntity
  8
치수문자_일반주서
100
AcDbDimension
  2
_D_2
 10
-54.9181482276821
 20
-3.000000000000039
 30
0.0
 11
-54.91814822768216
 21
12.66649999999997
 31
0.0
 70
   160
  1
%%c<>
 71
     2
 42
6.000000000000005
 52
-270.0
  3
SLDDIMSTYLE2
100
AcDbAlignedDimension
 13
-44.90192378864669
 23
3.000000000000004
 33
0.0
 14
-44.90192378864669
 24
-3.000000000000002
 34
0.0
 50
90.0000000000002
100
AcDbRotatedDimension
  0
DIMENSION
  5
117
330
1F
100
AcDbEntity
  8
치수문자_일반주서
100
AcDbDimension
  2
_D_3
 10
24.59807621135331
 20
12.33867491329369
 30
0.0
 11
16.59807621135331
 21
12.33867491329369
 31
0.0
 70
   160
  1
<>
 71
     2
 42
16.0
  3
SLDDIMSTYLE2
100
AcDbAlignedDimension
 13
8.598076211353304
 23
1.492756610706038
 33
0.0
 14
24.59807621135331
 24
1.500000000000002
 34
0.0
100
AcDbRotatedDimension
  0
INSERT
  5
129
330
1F
100
AcDbEntity
  8
해칭선
100
AcDbBlockReference
  2
SW_DOWELSYMBOL_0
 10
0.0003528955370129
 20
-0.0000000000000041
 30
0.0
  0
ENDSEC
  0
SECTION
  2
OBJECTS
  0
DICTIONARY
  5
C
330
0
100
AcDbDictionary
281
     1
  3
ACAD_GROUP
350
D
  3
ACAD_IMAGE_VARS
350
14D
  3
ACAD_LAYOUT
350
1A
  3
ACAD_MLINESTYLE
350
17
  3
ACAD_PLOTSETTINGS
350
19
  3
ACAD_PLOTSTYLENAME
350
E
  3
ACAD_SCALELIST
350
47
  3
APPDATA
350
14B
  3
DWGPROPS
350
159
  0
DICTIONARY
  5
D
102
{ACAD_REACTORS
330
C
102
}
330
C
100
AcDbDictionary
281
     1
  0
RASTERVARIABLES
  5
14D
102
{ACAD_REACTORS
330
C
102
}
330
C
100
AcDbRasterVariables
 90
        0
 70
     1
 71
     1
 72
     1
  0
DICTIONARY
  5
1A
102
{ACAD_REACTORS
330
C
102
}
330
C
100
AcDbDictionary
281
     1
  3
Layout1
350
1E
  3
Layout2
350
26
  3
Model
350
22
  0
DICTIONARY
  5
17
102
{ACAD_REACTORS
330
C
102
}
330
C
100
AcDbDictionary
281
     1
  3
Standard
350
18
  0
DICTIONARY
  5
19
102
{ACAD_REACTORS
330
C
102
}
330
C
100
AcDbDictionary
281
     1
  0
ACDBDICTIONARYWDFLT
  5
E
102
{ACAD_REACTORS
330
C
102
}
330
C
100
AcDbDictionary
281
     1
  3
Normal
350
F
100
AcDbDictionaryWithDefault
340
F
  0
DICTIONARY
  5
47
102
{ACAD_REACTORS
330
C
102
}
330
C
100
AcDbDictionary
281
     1
  3
A0
350
48
  3
A1
350
49
  3
A2
350
4A
  3
A3
350
4B
  3
A4
350
4C
  3
A5
350
4D
  3
A6
350
4E
  3
A7
350
4F
  3
A8
350
50
  3
A9
350
51
  3
B0
350
52
  3
B1
350
53
  3
B2
350
54
  3
B3
350
55
  3
B4
350
56
  3
B5
350
57
  3
B6
350
58
  3
B7
350
59
  3
B8
350
5A
  3
B9
350
5B
  3
C0
350
5C
  3
C1
350
5D
  3
C2
350
5E
  3
C3
350
5F
  3
C4
350
60
  3
C5
350
61
  3
C6
350
62
  3
C7
350
63
  3
C8
350
64
  3
C9
350
65
  3
D0
350
66
  3
D1
350
67
  3
D2
350
68
  0
DICTIONARY
  5
14B
102
{ACAD_REACTORS
330
C
102
}
330
C
100
AcDbDictionary
281
     1
  0
XRECORD
  5
159
102
{ACAD_REACTORS
330
C
102
}
330
C
100
AcDbXrecord
280
     1
  1
DWGPROPS COOKIE
  2

  3

  4

  6

  7

  8
12014102
  9

300
=
301
=
302
=
303
=
304
=
305
=
306
=
307
=
308
=
309
=
 40
0.0
 41
2458260.19540794
 42
2458268.112908009
  1

 90
        0
  0
LAYOUT
  5
1E
102
{ACAD_REACTORS
330
1A
102
}
330
1A
100
AcDbPlotSettings
  1

  2
none_device
  4

  6

 40
0.0
 41
0.0
 42
0.0
 43
0.0
 44
0.0
 45
0.0
 46
0.0
 47
0.0
 48
0.0
 49
0.0
140
0.0
141
0.0
142
1.0
143
1.0
 70
   688
 72
     1
 73
     0
 74
     5
  7

 75
    16
147
1.0
148
0.0
149
0.0
100
AcDbLayout
  1
Layout1
 70
     1
 71
     1
 10
0.0
 20
0.0
 11
420.0
 21
297.0
 12
0.0
 22
0.0
 32
0.0
 14
1.000000000000000E+20
 24
1.000000000000000E+20
 34
1.000000000000000E+20
 15
-1.000000000000000E+20
 25
-1.000000000000000E+20
 35
-1.000000000000000E+20
146
0.0
 13
0.0
 23
0.0
 33
0.0
 16
1.0
 26
0.0
 36
0.0
 17
0.0
 27
1.0
 37
0.0
 76
     0
330
1B
  0
LAYOUT
  5
26
102
{ACAD_REACTORS
330
1A
102
}
330
1A
100
AcDbPlotSettings
  1

  2
none_device
  4

  6

 40
0.0
 41
0.0
 42
0.0
 43
0.0
 44
0.0
 45
0.0
 46
0.0
 47
0.0
 48
0.0
 49
0.0
140
0.0
141
0.0
142
1.0
143
1.0
 70
   688
 72
     1
 73
     0
 74
     5
  7

 75
    16
147
1.0
148
0.0
149
0.0
100
AcDbLayout
  1
Layout2
 70
     1
 71
     2
 10
0.0
 20
0.0
 11
0.0
 21
0.0
 12
0.0
 22
0.0
 32
0.0
 14
0.0
 24
0.0
 34
0.0
 15
0.0
 25
0.0
 35
0.0
146
0.0
 13
0.0
 23
0.0
 33
0.0
 16
1.0
 26
0.0
 36
0.0
 17
0.0
 27
1.0
 37
0.0
 76
     0
330
23
  0
LAYOUT
  5
22
102
{ACAD_REACTORS
330
1A
102
}
330
1A
100
AcDbPlotSettings
  1

  2
none_device
  4
ANSI_A_(11.00_x_8.50_Inches)
  6

 40
6.35
 41
19.05
 42
6.35000508
 43
19.05000254
 44
279.4
 45
215.9
 46
154.7855383691465
 47
122.9471696842158
 48
0.0
 49
0.0
140
0.0
141
0.0
142
0.103850072157585
143
1.0
 70
  1696
 72
     0
 73
     0
 74
     0
  7

 75
     0
147
0.0235690232323232
148
0.0
149
0.0
100
AcDbLayout
  1
Model
 70
     1
 71
     0
 10
0.0
 20
0.0
 11
420.0
 21
297.0
 12
0.0
 22
0.0
 32
0.0
 14
-59.29314822768217
 24
-49.97180738881174
 34
0.0
 15
36.8172258902632
 25
24.76413260158164
 35
0.0
146
0.0
 13
0.0
 23
0.0
 33
0.0
 16
1.0
 26
0.0
 36
0.0
 17
0.0
 27
1.0
 37
0.0
 76
     0
330
1F
331
29
  0
MLINESTYLE
  5
18
102
{ACAD_REACTORS
330
17
102
}
330
17
100
AcDbMlineStyle
  2
Standard
 70
     0
  3

 62
   256
 51
90.0
 52
90.0
 71
     2
 49
0.5
 62
   256
  6
BYLAYER
 49
-0.5
 62
   256
  6
BYLAYER
  0
ACDBPLACEHOLDER
  5
F
102
{ACAD_REACTORS
330
E
102
}
330
E
  0
SCALE
  5
48
102
{ACAD_REACTORS
330
47
102
}
330
47
100
AcDbScale
 70
     0
300
1:1
140
1.0
141
1.0
290
     1
  0
SCALE
  5
49
102
{ACAD_REACTORS
330
47
102
}
330
47
100
AcDbScale
 70
     0
300
1:2
140
1.0
141
2.0
290
     0
  0
SCALE
  5
4A
102
{ACAD_REACTORS
330
47
102
}
330
47
100
AcDbScale
 70
     0
300
1:4
140
1.0
141
4.0
290
     0
  0
SCALE
  5
4B
102
{ACAD_REACTORS
330
47
102
}
330
47
100
AcDbScale
 70
     0
300
1:5
140
1.0
141
5.0
290
     0
  0
SCALE
  5
4C
102
{ACAD_REACTORS
330
47
102
}
330
47
100
AcDbScale
 70
     0
300
1:8
140
1.0
141
8.0
290
     0
  0
SCALE
  5
4D
102
{ACAD_REACTORS
330
47
102
}
330
47
100
AcDbScale
 70
     0
300
1:10
140
1.0
141
10.0
290
     0
  0
SCALE
  5
4E
102
{ACAD_REACTORS
330
47
102
}
330
47
100
AcDbScale
 70
     0
300
1:16
140
1.0
141
16.0
290
     0
  0
SCALE
  5
4F
102
{ACAD_REACTORS
330
47
102
}
330
47
100
AcDbScale
 70
     0
300
1:20
140
1.0
141
20.0
290
     0
  0
SCALE
  5
50
102
{ACAD_REACTORS
330
47
102
}
330
47
100
AcDbScale
 70
     0
300
1:30
140
1.0
141
30.0
290
     0
  0
SCALE
  5
51
102
{ACAD_REACTORS
330
47
102
}
330
47
100
AcDbScale
 70
     0
300
1:40
140
1.0
141
40.0
290
     0
  0
SCALE
  5
52
102
{ACAD_REACTORS
330
47
102
}
330
47
100
AcDbScale
 70
     0
300
1:50
140
1.0
141
50.0
290
     0
  0
SCALE
  5
53
102
{ACAD_REACTORS
330
47
102
}
330
47
100
AcDbScale
 70
     0
300
1:100
140
1.0
141
100.0
290
     0
  0
SCALE
  5
54
102
{ACAD_REACTORS
330
47
102
}
330
47
100
AcDbScale
 70
     0
300
2:1
140
2.0
141
1.0
290
     0
  0
SCALE
  5
55
102
{ACAD_REACTORS
330
47
102
}
330
47
100
AcDbScale
 70
     0
300
4:1
140
4.0
141
1.0
290
     0
  0
SCALE
  5
56
102
{ACAD_REACTORS
330
47
102
}
330
47
100
AcDbScale
 70
     0
300
8:1
140
8.0
141
1.0
290
     0
  0
SCALE
  5
57
102
{ACAD_REACTORS
330
47
102
}
330
47
100
AcDbScale
 70
     0
300
10:1
140
10.0
141
1.0
290
     0
  0
SCALE
  5
58
102
{ACAD_REACTORS
330
47
102
}
330
47
100
AcDbScale
 70
     0
300
100:1
140
100.0
141
1.0
290
     0
  0
SCALE
  5
59
102
{ACAD_REACTORS
330
47
102
}
330
47
100
AcDbScale
 70
     0
300
1/128" = 1'-0"
140
0.0078125
141
12.0
290
     0
  0
SCALE
  5
5A
102
{ACAD_REACTORS
330
47
102
}
330
47
100
AcDbScale
 70
     0
300
1/64" = 1'-0"
140
0.015625
141
12.0
290
     0
  0
SCALE
  5
5B
102
{ACAD_REACTORS
330
47
102
}
330
47
100
AcDbScale
 70
     0
300
1/32" = 1'-0"
140
0.03125
141
12.0
290
     0
  0
SCALE
  5
5C
102
{ACAD_REACTORS
330
47
102
}
330
47
100
AcDbScale
 70
     0
300
1/16" = 1'-0"
140
0.0625
141
12.0
290
     0
  0
SCALE
  5
5D
102
{ACAD_REACTORS
330
47
102
}
330
47
100
AcDbScale
 70
     0
300
3/32" = 1'-0"
140
0.09375
141
12.0
290
     0
  0
SCALE
  5
5E
102
{ACAD_REACTORS
330
47
102
}
330
47
100
AcDbScale
 70
     0
300
1/8" = 1'-0"
140
0.125
141
12.0
290
     0
  0
SCALE
  5
5F
102
{ACAD_REACTORS
330
47
102
}
330
47
100
AcDbScale
 70
     0
300
3/16" = 1'-0"
140
0.1875
141
12.0
290
     0
  0
SCALE
  5
60
102
{ACAD_REACTORS
330
47
102
}
330
47
100
AcDbScale
 70
     0
300
1/4" = 1'-0"
140
0.25
141
12.0
290
     0
  0
SCALE
  5
61
102
{ACAD_REACTORS
330
47
102
}
330
47
100
AcDbScale
 70
     0
300
3/8" = 1'-0"
140
0.375
141
12.0
290
     0
  0
SCALE
  5
62
102
{ACAD_REACTORS
330
47
102
}
330
47
100
AcDbScale
 70
     0
300
1/2" = 1'-0"
140
0.5
141
12.0
290
     0
  0
SCALE
  5
63
102
{ACAD_REACTORS
330
47
102
}
330
47
100
AcDbScale
 70
     0
300
3/4" = 1'-0"
140
0.75
141
12.0
290
     0
  0
SCALE
  5
64
102
{ACAD_REACTORS
330
47
102
}
330
47
100
AcDbScale
 70
     0
300
1" = 1'-0"
140
1.0
141
12.0
290
     0
  0
SCALE
  5
65
102
{ACAD_REACTORS
330
47
102
}
330
47
100
AcDbScale
 70
     0
300
1-1/2" = 1'-0"
140
1.5
141
12.0
290
     0
  0
SCALE
  5
66
102
{ACAD_REACTORS
330
47
102
}
330
47
100
AcDbScale
 70
     0
300
3" = 1'-0"
140
3.0
141
12.0
290
     0
  0
SCALE
  5
67
102
{ACAD_REACTORS
330
47
102
}
330
47
100
AcDbScale
 70
     0
300
6" = 1'-0"
140
6.0
141
12.0
290
     0
  0
SCALE
  5
68
102
{ACAD_REACTORS
330
47
102
}
330
47
100
AcDbScale
 70
     0
300
1'-0" = 1'-0"
140
12.0
141
12.0
290
     0
  0
ENDSEC
  0
EOF
