  0
SECTION
  2
HEADER
  9
$ACADVER
  1
AC1015
  9
$ACADMAINTVER
 70
     6
  9
$DWGCODEPAGE
  3
ANSI_949
  9
$INSBASE
 10
0.0
 20
0.0
 30
0.0
  9
$EXTMIN
 10
-55.67845790978433
 20
-49.97180738881174
 30
0.0
  9
$EXTMAX
 10
40.68556027153965
 20
24.76413260158165
 30
0.0
  9
$LIMMIN
 10
0.0
 20
0.0
  9
$LIMMAX
 10
420.0
 20
297.0
  9
$ORTHOMODE
 70
     0
  9
$REGENMODE
 70
     1
  9
$FILLMODE
 70
     1
  9
$QTEXTMODE
 70
     0
  9
$MIRRTEXT
 70
     1
  9
$LTSCALE
 40
1.0
  9
$ATTMODE
 70
     1
  9
$TEXTSIZE
 40
3.5
  9
$TRACEWID
 40
1.0
  9
$TEXTSTYLE
  7
Standard
  9
$CLAYER
  8
0
  9
$CELTYPE
  6
ByLayer
  9
$CECOLOR
 62
   256
  9
$CELTSCALE
 40
1.0
  9
$DISPSILH
 70
     0
  9
$DIMSCALE
 40
1.0
  9
$DIMASZ
 40
3.302
  9
$DIMEXO
 40
1.0
  9
$DIMDLI
 40
3.75
  9
$DIMRND
 40
0.0
  9
$DIMDLE
 40
0.0
  9
$DIMEXE
 40
1.0
  9
$DIMTP
 40
0.0
  9
$DIMTM
 40
0.0
  9
$DIMTXT
 40
3.5
  9
$DIMCEN
 40
2.5
  9
$DIMTSZ
 40
0.0
  9
$DIMTOL
 70
     0
  9
$DIMLIM
 70
     0
  9
$DIMTIH
 70
     1
  9
$DIMTOH
 70
     1
  9
$DIMSE1
 70
     0
  9
$DIMSE2
 70
     0
  9
$DIMTAD
 70
     1
  9
$DIMZIN
 70
     0
  9
$DIMBLK
  1

  9
$DIMASO
 70
     1
  9
$DIMSHO
 70
     1
  9
$DIMPOST
  1

  9
$DIMAPOST
  1

  9
$DIMALT
 70
     0
  9
$DIMALTD
 70
     3
  9
$DIMALTF
 40
0.0393700787401575
  9
$DIMLFAC
 40
1.0
  9
$DIMTOFL
 70
     1
  9
$DIMTVP
 40
0.0
  9
$DIMTIX
 70
     0
  9
$DIMSOXD
 70
     0
  9
$DIMSAH
 70
     0
  9
$DIMBLK1
  1

  9
$DIMBLK2
  1

  9
$DIMSTYLE
  2
ISO-25
  9
$DIMCLRD
 70
     0
  9
$DIMCLRE
 70
     0
  9
$DIMCLRT
 70
     0
  9
$DIMTFAC
 40
1.0
  9
$DIMGAP
 40
1.524
  9
$DIMJUST
 70
     0
  9
$DIMSD1
 70
     0
  9
$DIMSD2
 70
     0
  9
$DIMTOLJ
 70
     0
  9
$DIMTZIN
 70
     0
  9
$DIMALTZ
 70
     0
  9
$DIMALTTZ
 70
     0
  9
$DIMUPT
 70
     0
  9
$DIMDEC
 70
     2
  9
$DIMTDEC
 70
     2
  9
$DIMALTU
 70
     2
  9
$DIMALTTD
 70
     3
  9
$DIMTXSTY
  7
Standard
  9
$DIMAUNIT
 70
     0
  9
$DIMADEC
 70
     2
  9
$DIMALTRND
 40
0.0
  9
$DIMAZIN
 70
     0
  9
$DIMDSEP
 70
    44
  9
$DIMATFIT
 70
     3
  9
$DIMFRAC
 70
     0
  9
$DIMLDRBLK
  1

  9
$DIMLUNIT
 70
     2
  9
$DIMLWD
 70
    -2
  9
$DIMLWE
 70
    -2
  9
$DIMTMOVE
 70
     0
  9
$LUNITS
 70
     2
  9
$LUPREC
 70
     2
  9
$SKETCHINC
 40
1.0
  9
$FILLETRAD
 40
10.0
  9
$AUNITS
 70
     0
  9
$AUPREC
 70
     2
  9
$MENU
  1
.
  9
$ELEVATION
 40
0.0
  9
$PELEVATION
 40
0.0
  9
$THICKNESS
 40
0.0
  9
$LIMCHECK
 70
     0
  9
$CHAMFERA
 40
0.0
  9
$CHAMFERB
 40
0.0
  9
$CHAMFERC
 40
0.0
  9
$CHAMFERD
 40
0.0
  9
$SKPOLY
 70
     0
  9
$TDCREATE
 40
2458260.570596979
  9
$TDUCREATE
 40
2458260.195596979
  9
$TDUPDATE
 40
2458268.491372291
  9
$TDUUPDATE
 40
2458268.116372291
  9
$TDINDWG
 40
0.0033402431
  9
$TDUSRTIMER
 40
2458268.113032095
  9
$USRTIMER
 70
     1
  9
$ANGBASE
 50
0.0
  9
$ANGDIR
 70
     0
  9
$PDMODE
 70
     0
  9
$PDSIZE
 40
-1.0
  9
$PLINEWID
 40
0.0
  9
$SPLFRAME
 70
     0
  9
$SPLINETYPE
 70
     6
  9
$SPLINESEGS
 70
     8
  9
$HANDSEED
  5
15C
  9
$SURFTAB1
 70
     6
  9
$SURFTAB2
 70
     6
  9
$SURFTYPE
 70
     6
  9
$SURFU
 70
     6
  9
$SURFV
 70
     6
  9
$UCSBASE
  2

  9
$UCSNAME
  2

  9
$UCSORG
 10
0.0
 20
0.0
 30
0.0
  9
$UCSXDIR
 10
1.0
 20
0.0
 30
0.0
  9
$UCSYDIR
 10
0.0
 20
1.0
 30
0.0
  9
$UCSORTHOREF
  2

  9
$UCSORTHOVIEW
 70
     0
  9
$UCSORGTOP
 10
0.0
 20
0.0
 30
0.0
  9
$UCSORGBOTTOM
 10
0.0
 20
0.0
 30
0.0
  9
$UCSORGLEFT
 10
0.0
 20
0.0
 30
0.0
  9
$UCSORGRIGHT
 10
0.0
 20
0.0
 30
0.0
  9
$UCSORGFRONT
 10
0.0
 20
0.0
 30
0.0
  9
$UCSORGBACK
 10
0.0
 20
0.0
 30
0.0
  9
$PUCSBASE
  2

  9
$PUCSNAME
  2

  9
$PUCSORG
 10
0.0
 20
0.0
 30
0.0
  9
$PUCSXDIR
 10
1.0
 20
0.0
 30
0.0
  9
$PUCSYDIR
 10
0.0
 20
1.0
 30
0.0
  9
$PUCSORTHOREF
  2

  9
$PUCSORTHOVIEW
 70
     0
  9
$PUCSORGTOP
 10
0.0
 20
0.0
 30
0.0
  9
$PUCSORGBOTTOM
 10
0.0
 20
0.0
 30
0.0
  9
$PUCSORGLEFT
 10
0.0
 20
0.0
 30
0.0
  9
$PUCSORGRIGHT
 10
0.0
 20
0.0
 30
0.0
  9
$PUCSORGFRONT
 10
0.0
 20
0.0
 30
0.0
  9
$PUCSORGBACK
 10
0.0
 20
0.0
 30
0.0
  9
$USERI1
 70
     0
  9
$USERI2
 70
     0
  9
$USERI3
 70
     0
  9
$USERI4
 70
     0
  9
$USERI5
 70
     0
  9
$USERR1
 40
0.0
  9
$USERR2
 40
0.0
  9
$USERR3
 40
0.0
  9
$USERR4
 40
0.0
  9
$USERR5
 40
0.0
  9
$WORLDVIEW
 70
     1
  9
$SHADEDGE
 70
     3
  9
$SHADEDIF
 70
    70
  9
$TILEMODE
 70
     1
  9
$MAXACTVP
 70
    64
  9
$PINSBASE
 10
0.0
 20
0.0
 30
0.0
  9
$PLIMCHECK
 70
     0
  9
$PEXTMIN
 10
1.000000000000000E+20
 20
1.000000000000000E+20
 30
1.000000000000000E+20
  9
$PEXTMAX
 10
-1.000000000000000E+20
 20
-1.000000000000000E+20
 30
-1.000000000000000E+20
  9
$PLIMMIN
 10
0.0
 20
0.0
  9
$PLIMMAX
 10
0.0
 20
0.0
  9
$UNITMODE
 70
     0
  9
$VISRETAIN
 70
     1
  9
$PLINEGEN
 70
     0
  9
$PSLTSCALE
 70
     1
  9
$TREEDEPTH
 70
  3020
  9
$CMLSTYLE
  2
Standard
  9
$CMLJUST
 70
     0
  9
$CMLSCALE
 40
20.0
  9
$PROXYGRAPHICS
 70
     1
  9
$MEASUREMENT
 70
     1
  9
$CELWEIGHT
370
    -1
  9
$ENDCAPS
280
     0
  9
$JOINSTYLE
280
     0
  9
$LWDISPLAY
290
     1
  9
$INSUNITS
 70
     4
  9
$HYPERLINKBASE
  1

  9
$STYLESHEET
  1

  9
$XEDIT
290
     1
  9
$CEPSNTYPE
380
     0
  9
$PSTYLEMODE
290
     1
  9
$FINGERPRINTGUID
  2
{311D7AAE-EA10-4A22-AC44-86DE27E74483}
  9
$VERSIONGUID
  2
{FAEB1C32-E019-11D5-929B-00C0DF256EC4}
  9
$EXTNAMES
290
     1
  9
$PSVPSCALE
 40
0.0
  9
$OLESTARTUP
290
     0
  0
ENDSEC
  0
SECTION
  2
CLASSES
  0
CLASS
  1
ACDBDICTIONARYWDFLT
  2
AcDbDictionaryWithDefault
  3
ObjectDBX Classes
 90
        0
280
     0
281
     0
  0
CLASS
  1
VISUALSTYLE
  2
AcDbVisualStyle
  3
ObjectDBX Classes
 90
     4095
280
     0
281
     0
  0
CLASS
  1
MATERIAL
  2
AcDbMaterial
  3
ObjectDBX Classes
 90
     1153
280
     0
281
     0
  0
CLASS
  1
SCALE
  2
AcDbScale
  3
ObjectDBX Classes
 90
     1153
280
     0
281
     0
  0
CLASS
  1
TABLESTYLE
  2
AcDbTableStyle
  3
ObjectDBX Classes
 90
     4095
280
     0
281
     0
  0
CLASS
  1
MLEADERSTYLE
  2
AcDbMLeaderStyle
  3
ACDB_MLEADERSTYLE_CLASS
 90
     4095
280
     0
281
     0
  0
CLASS
  1
SUN
  2
AcDbSun
  3
SCENEOE
 90
     1153
280
     0
281
     0
  0
CLASS
  1
ACDBPLACEHOLDER
  2
AcDbPlaceHolder
  3
ObjectDBX Classes
 90
        0
280
     0
281
     0
  0
CLASS
  1
LAYOUT
  2
AcDbLayout
  3
ObjectDBX Classes
 90
        0
280
     0
281
     0
  0
CLASS
  1
RASTERVARIABLES
  2
AcDbRasterVariables
  3
ISM
 90
        0
280
     0
281
     0
  0
ENDSEC
  0
SECTION
  2
TABLES
  0
TABLE
  2
VPORT
  5
8
330
0
100
AcDbSymbolTable
 70
     1
  0
VPORT
  5
29
330
8
100
AcDbSymbolTableRecord
100
AcDbViewportTableRecord
  2
*Active
 70
     0
 10
0.0
 20
0.0
 11
1.0
 21
1.0
 12
-7.496448819122342
 22
-12.60383739361504
 13
0.0
 23
0.0
 14
10.0
 24
10.0
 15
10.0
 25
10.0
 16
0.0
 26
0.0
 36
1.0
 17
0.0
 27
0.0
 37
0.0
 40
76.23065879020126
 41
1.737726098191214
 42
50.0
 43
0.0
 44
0.0
 50
0.0
 51
0.0
 71
    16
 72
  2000
 73
     1
 74
     3
 75
     0
 76
     0
 77
     0
 78
     0
281
     0
 65
     1
110
0.0
120
0.0
130
0.0
111
1.0
121
0.0
131
0.0
112
0.0
122
1.0
132
0.0
 79
     0
146
0.0
  0
ENDTAB
  0
TABLE
  2
LTYPE
  5
5
330
0
100
AcDbSymbolTable
 70
     6
  0
LTYPE
  5
14
330
5
100
AcDbSymbolTableRecord
100
AcDbLinetypeTableRecord
  2
ByBlock
 70
     0
  3

 72
    65
 73
     0
 40
0.0
  0
LTYPE
  5
15
330
5
100
AcDbSymbolTableRecord
100
AcDbLinetypeTableRecord
  2
ByLayer
 70
     0
  3

 72
    65
 73
     0
 40
0.0
  0
LTYPE
  5
16
330
5
100
AcDbSymbolTableRecord
100
AcDbLinetypeTableRecord
  2
Continuous
 70
     0
  3
Solid line
 72
    65
 73
     0
 40
0.0
  0
LTYPE
  5
6E
330
5
100
AcDbSymbolTableRecord
100
AcDbLinetypeTableRecord
  2
HIDDEN
 70
     0
  3
Hidden __ __ __ __ __ __ __ __ __ __ __ __ __ __
 72
    65
 73
     2
 40
1.905
 49
1.27
 74
     0
 49
-0.635
 74
     0
  0
LTYPE
  5
6F
330
5
100
AcDbSymbolTableRecord
100
AcDbLinetypeTableRecord
  2
PHANTOM
 70
     0
  3
Phantom ______  __  __  ______  __  __  ______
 72
    65
 73
     6
 40
12.7
 49
6.35
 74
     0
 49
-1.27
 74
     0
 49
1.27
 74
     0
 49
-1.27
 74
     0
 49
1.27
 74
     0
 49
-1.27
 74
     0
  0
LTYPE
  5
70
330
5
100
AcDbSymbolTableRecord
100
AcDbLinetypeTableRecord
  2
CENTER
 70
     0
  3
Center ____ _ ____ _ ____ _ ____ _ ____ _ ____
 72
    65
 73
     4
 40
10.16
 49
6.35
 74
     0
 49
-1.27
 74
     0
 49
1.27
 74
     0
 49
-1.27
 74
     0
  0
LTYPE
  5
71
330
5
100
AcDbSymbolTableRecord
100
AcDbLinetypeTableRecord
  2
CENTERX2
 70
     0
  3
Center (2x) ________  __  ________  __  _____
 72
    65
 73
     4
 40
20.32
 49
12.7
 74
     0
 49
-2.54
 74
     0
 49
2.54
 74
     0
 49
-2.54
 74
     0
  0
LTYPE
  5
72
330
5
100
AcDbSymbolTableRecord
100
AcDbLinetypeTableRecord
  2
DOT2
 70
     0
  3
Dot (.5x) ........................................
 72
    65
 73
     2
 40
0.635
 49
0.0
 74
     0
 49
-0.635
 74
     0
  0
ENDTAB
  0
TABLE
  2
LAYER
  5
2
330
0
100
AcDbSymbolTable
 70
    17
  0
LAYER
  5
10
330
2
100
AcDbSymbolTableRecord
100
AcDbLayerTableRecord
  2
0
 70
     0
 62
     7
  6
Continuous
370
    -3
390
F
  0
LAYER
  5
73
330
2
100
AcDbSymbolTableRecord
100
AcDbLayerTableRecord
  2
FORMAT
 70
     0
 62
     2
  6
Continuous
370
    -3
390
F
  0
LAYER
  5
74
330
2
100
AcDbSymbolTableRecord
100
AcDbLayerTableRecord
  2
외형선
 70
     0
 62
   100
  6
Continuous
370
    35
390
F
  0
LAYER
  5
75
330
2
100
AcDbSymbolTableRecord
100
AcDbLayerTableRecord
  2
숨은선
 70
     0
 62
     2
  6
HIDDEN
370
    25
390
F
  0
LAYER
  5
76
330
2
100
AcDbSymbolTableRecord
100
AcDbLayerTableRecord
  2
중심선
 70
     0
 62
     1
  6
CENTERX2
370
    -3
390
F
  0
LAYER
  5
77
330
2
100
AcDbSymbolTableRecord
100
AcDbLayerTableRecord
  2
파단선
 70
     0
 62
     4
  6
Continuous
370
    -3
390
F
  0
LAYER
  5
78
330
2
100
AcDbSymbolTableRecord
100
AcDbLayerTableRecord
  2
해칭선
 70
     0
 62
   100
  6
Continuous
370
    -3
390
F
  0
LAYER
  5
79
330
2
100
AcDbSymbolTableRecord
100
AcDbLayerTableRecord
  2
가는실선
 70
     0
 62
     4
  6
Continuous
370
    -3
390
F
  0
LAYER
  5
7A
330
2
100
AcDbSymbolTableRecord
100
AcDbLayerTableRecord
  2
치수_보조선
 70
     0
 62
     4
  6
Continuous
370
    -3
390
F
  0
LAYER
  5
7B
330
2
100
AcDbSymbolTableRecord
100
AcDbLayerTableRecord
  2
치수문자_일반주서
 70
     0
 62
     7
  6
Continuous
370
    25
390
F
  0
LAYER
  5
7C
330
2
100
AcDbSymbolTableRecord
100
AcDbLayerTableRecord
  2
개별주서
 70
     0
 62
   100
  6
Continuous
370
    35
390
F
  0
LAYER
  5
7D
330
2
100
AcDbSymbolTableRecord
100
AcDbLayerTableRecord
  2
중간선
 70
     0
 62
     2
  6
Continuous
370
    25
390
F
  0
LAYER
  5
7E
330
2
100
AcDbSymbolTableRecord
100
AcDbLayerTableRecord
  2
윤곽선
 70
     0
 62
     3
  6
Continuous
370
    50
390
F
  0
LAYER
  5
7F
330
2
100
AcDbSymbolTableRecord
100
AcDbLayerTableRecord
  2
중심마크
 70
     0
 62
   100
  6
Continuous
370
    35
390
F
  0
LAYER
  5
80
330
2
100
AcDbSymbolTableRecord
100
AcDbLayerTableRecord
  2
가상선
 70
     0
 62
     4
  6
PHANTOM
370
    -3
390
F
  0
LAYER
  5
81
330
2
100
AcDbSymbolTableRecord
100
AcDbLayerTableRecord
  2
특수지정선
 70
     0
 62
     5
  6
CENTERX2
370
    70
390
F
  0
LAYER
  5
14B
330
2
100
AcDbSymbolTableRecord
100
AcDbLayerTableRecord
  2
Defpoints
 70
     0
 62
     7
  6
Continuous
290
     0
370
    -3
390
F
  0
ENDTAB
  0
TABLE
  2
STYLE
  5
3
330
0
100
AcDbSymbolTable
 70
     2
  0
STYLE
  5
11
330
3
100
AcDbSymbolTableRecord
100
AcDbTextStyleTableRecord
  2
Standard
 70
     0
 40
0.0
 41
1.0
 50
0.0
 71
     0
 42
3.5
  3
txt
  4

  0
STYLE
  5
97
330
3
100
AcDbSymbolTableRecord
100
AcDbTextStyleTableRecord
  2
SLDTEXTSTYLE0
 70
     0
 40
0.0
 41
0.75
 50
0.0
 71
     0
 42
3.5
  3
TXT
  4

  0
ENDTAB
  0
TABLE
  2
VIEW
  5
6
330
0
100
AcDbSymbolTable
 70
     0
  0
ENDTAB
  0
TABLE
  2
UCS
  5
7
330
0
100
AcDbSymbolTable
 70
     0
  0
ENDTAB
  0
TABLE
  2
APPID
  5
9
330
0
100
AcDbSymbolTable
 70
     1
  0
APPID
  5
12
330
9
100
AcDbSymbolTableRecord
100
AcDbRegAppTableRecord
  2
ACAD
 70
     0
  0
ENDTAB
  0
TABLE
  2
DIMSTYLE
  5
A
330
0
100
AcDbSymbolTable
 70
     4
100
AcDbDimStyleTable
  0
DIMSTYLE
105
27
330
A
100
AcDbSymbolTableRecord
100
AcDbDimStyleTableRecord
  2
ISO-25
 70
     0
 41
2.5
 42
0.625
 43
3.75
 44
1.25
 73
     0
 74
     0
 77
     1
 78
     8
140
2.5
141
2.5
143
0.03937007874016
147
0.625
171
     3
172
     1
178
     0
271
     2
272
     2
274
     3
278
    44
283
     0
284
     8
340
11
  0
DIMSTYLE
105
F0
102
{ACAD_REACTORS
330
EF
102
}
330
A
100
AcDbSymbolTableRecord
100
AcDbDimStyleTableRecord
  2
SLDDIMSTYLE0
 70
     0
 41
3.302
 44
0.0
 45
0.000000001
 73
     0
 74
     0
 77
     1
 78
    12
 79
     3
140
3.5
147
0.875
172
     1
173
     1
178
     0
271
     1
272
     1
276
     2
284
    12
289
     0
340
97
  0
DIMSTYLE
105
FE
102
{ACAD_REACTORS
330
FD
102
}
330
A
100
AcDbSymbolTableRecord
100
AcDbDimStyleTableRecord
  2
SLDDIMSTYLE1
 70
     0
 41
3.302
 44
0.0
 45
0.000000001
 73
     0
 74
     0
 77
     1
 78
    12
 79
     3
140
3.5
147
0.875
173
     1
178
     0
271
     2
272
     2
276
     2
284
    12
340
97
  0
DIMSTYLE
105
109
102
{ACAD_REACTORS
330
108
330
116
102
}
330
A
100
AcDbSymbolTableRecord
100
AcDbDimStyleTableRecord
  2
SLDDIMSTYLE2
 70
     0
 41
3.302
 44
0.0
 45
0.000000001
 73
     0
 74
     0
 77
     1
 78
    12
 79
     3
140
3.5
147
0.875
172
     1
173
     1
178
     0
271
     2
272
     2
276
     2
284
    12
289
     0
340
97
  0
ENDTAB
  0
TABLE
  2
BLOCK_RECORD
  5
1
330
0
100
AcDbSymbolTable
 70
     7
  0
BLOCK_RECORD
  5
1F
330
1
100
AcDbSymbolTableRecord
100
AcDbBlockTableRecord
  2
*Model_Space
340
22
  0
BLOCK_RECORD
  5
1B
330
1
100
AcDbSymbolTableRecord
100
AcDbBlockTableRecord
  2
*Paper_Space
340
1E
  0
BLOCK_RECORD
  5
23
330
1
100
AcDbSymbolTableRecord
100
AcDbBlockTableRecord
  2
*Paper_Space0
340
26
  0
BLOCK_RECORD
  5
82
330
1
100
AcDbSymbolTableRecord
100
AcDbBlockTableRecord
  2
블럭10
340
0
102
{BLKREFS
331
E8
102
}
  0
BLOCK_RECORD
  5
F1
330
1
100
AcDbSymbolTableRecord
100
AcDbBlockTableRecord
  2
_D
340
0
  0
BLOCK_RECORD
  5
FF
330
1
100
AcDbSymbolTableRecord
100
AcDbBlockTableRecord
  2
_D_1
340
0
  0
BLOCK_RECORD
  5
10A
330
1
100
AcDbSymbolTableRecord
100
AcDbBlockTableRecord
  2
_D_2
340
0
  0
BLOCK_RECORD
  5
117
330
1
100
AcDbSymbolTableRecord
100
AcDbBlockTableRecord
  2
_D_3
340
0
  0
BLOCK_RECORD
  5
120
330
1
100
AcDbSymbolTableRecord
100
AcDbBlockTableRecord
  2
SW_DOWELSYMBOL_0
340
0
102
{BLKREFS
331
126
102
}
  0
ENDTAB
  0
ENDSEC
  0
SECTION
  2
BLOCKS
  0
BLOCK
  5
20
330
1F
100
AcDbEntity
  8
0
100
AcDbBlockBegin
  2
*Model_Space
 70
     0
 10
0.0
 20
0.0
 30
0.0
  3
*Model_Space
  1

  0
ENDBLK
  5
21
330
1F
100
AcDbEntity
  8
0
100
AcDbBlockEnd
  0
BLOCK
  5
1C
330
1B
100
AcDbEntity
 67
     1
  8
0
100
AcDbBlockBegin
  2
*Paper_Space
 70
     0
 10
0.0
 20
0.0
 30
0.0
  3
*Paper_Space
  1

  0
ENDBLK
  5
1D
330
1B
100
AcDbEntity
 67
     1
  8
0
100
AcDbBlockEnd
  0
BLOCK
  5
24
330
23
100
AcDbEntity
  8
0
100
AcDbBlockBegin
  2
*Paper_Space0
 70
     0
 10
0.0
 20
0.0
 30
0.0
  3
*Paper_Space0
  1

  0
ENDBLK
  5
25
330
23
100
AcDbEntity
  8
0
100
AcDbBlockEnd
  0
BLOCK
  5
83
330
82
100
AcDbEntity
  8
0
100
AcDbBlockBegin
  2
블럭10
 70
     2
 10
0.0
 20
0.0
 30
0.0
  3
블럭10
  1

  0
ELLIPSE
  5
85
330
82
100
AcDbEntity
  8
중심선
100
AcDbEllipse
 10
20.54032771741204
 20
12.0471743016438
 30
0.0
 11
6.600054785286829
 21
-1.261213355974178E-13
 31
0.0
210
0.0
220
0.0
230
1.0
 40
0.636358354079598
 41
0.9219305317359503
 42
6.513795318482858
  0
ELLIPSE
  5
86
330
82
100
AcDbEntity
  8
중심선
100
AcDbEllipse
 10
20.54032771746488
 20
12.04717430159265
 30
0.0
 11
3.960054785062283
 21
1.540847449632565E-10
 31
0.0
210
0.0
220
0.0
230
1.0
 40
0.3939339440162632
 41
1.131841032648279
 42
5.62031148352944
  0
LINE
  5
87
330
82
100
AcDbEntity
  8
중심선
100
AcDbLine
 10
2.268634060543552
 20
16.24717430164393
 30
0.0
 11
5.714909304380834
 21
16.24717430164393
 31
0.0
  0
LINE
  5
88
330
82
100
AcDbEntity
  8
중심선
100
AcDbLine
 10
5.245725140726316
 20
7.84717430164391
 30
0.0
 11
8.692000384563599
 21
7.84717430164391
 31
0.0
  0
LINE
  5
89
330
82
100
AcDbEntity
  8
중심선
100
AcDbLine
 10
15.74043728645272
 20
16.24717430164393
 30
0.0
 11
8.692000384563599
 21
7.84717430164391
 31
0.0
  0
LINE
  5
8A
330
82
100
AcDbEntity
  8
중심선
100
AcDbLine
 10
0.1404042013395286
 20
13.71084872107135
 30
0.0
 11
3.58671253028996
 21
13.71088815037384
 31
0.0
  0
LINE
  5
8B
330
82
100
AcDbEntity
  8
중심선
100
AcDbLine
 10
2.750260043222114
 20
10.84717430164391
 30
0.0
 11
6.196535287059397
 21
10.84717430164391
 31
0.0
  0
LINE
  5
8C
330
82
100
AcDbEntity
  8
중심선
100
AcDbLine
 10
12.29416204261559
 20
16.24717430164393
 30
0.0
 11
5.245725140726316
 21
7.84717430164391
 31
0.0
  0
LINE
  5
8D
330
82
100
AcDbEntity
  8
중심선
100
AcDbLine
 10
10.72767329541681
 20
16.24717430164393
 30
0.0
 11
6.196535287059397
 21
10.84717430164391
 31
0.0
  0
LINE
  5
8E
330
82
100
AcDbEntity
  8
중심선
100
AcDbLine
 10
7.28139805157953
 20
16.24717430164393
 30
0.0
 11
2.750260043222114
 21
10.84717430164391
 31
0.0
  0
LINE
  5
8F
330
82
100
AcDbEntity
  8
중심선
100
AcDbLine
 10
5.714909304380834
 20
16.24717430164393
 30
0.0
 11
3.58671253028996
 21
13.71088815037384
 31
0.0
  0
LINE
  5
90
330
82
100
AcDbEntity
  8
중심선
100
AcDbLine
 10
2.268634060543552
 20
16.24717430164393
 30
0.0
 11
0.1404042013395286
 21
13.71084872107135
 31
0.0
  0
LINE
  5
91
330
82
100
AcDbEntity
  8
중심선
100
AcDbLine
 10
7.28139805157953
 20
16.24717430164393
 30
0.0
 11
10.72767329541681
 21
16.24717430164393
 31
0.0
  0
LINE
  5
92
330
82
100
AcDbEntity
  8
중심선
100
AcDbLine
 10
12.29416204261559
 20
16.24717430164393
 30
0.0
 11
15.74043728645272
 21
16.24717430164393
 31
0.0
  0
LINE
  5
93
330
82
100
AcDbEntity
  8
중심선
100
AcDbLine
 10
19.22036997980202
 20
11.08717430171403
 30
0.0
 11
23.66174974927406
 21
11.08717430171406
 31
0.0
  0
LINE
  5
94
330
82
100
AcDbEntity
  8
중심선
100
AcDbLine
 10
19.22039502424796
 20
13.00717430171391
 30
0.0
 11
19.22036997980202
 21
11.08717430171403
 31
0.0
  0
LINE
  5
95
330
82
100
AcDbEntity
  8
중심선
100
AcDbLine
 10
19.22039502424796
 20
13.00717430171391
 30
0.0
 11
26.96566020931264
 21
13.00717430171391
 31
0.0
  0
LINE
  5
96
330
82
100
AcDbEntity
  8
중심선
100
AcDbLine
 10
22.22332737316547
 20
13.45928029700563
 30
0.0
 11
24.52862924686651
 21
15.39360700705356
 31
0.0
  0
ATTDEF
  5
98
330
82
100
AcDbEntity
  8
FORMAT
 62
     2
100
AcDbText
 10
-16.11926103943555
 20
2.075366912832191
 30
0.0
 40
4.233333333333333
  1
SEME7203020E [ 4 FLUTE ]
 41
0.75
  7
SLDTEXTSTYLE0
 11
-16.11926103943555
 21
-0.0412997538344756
 31
0.0
100
AcDbAttributeDefinition
  3

  2
AUTOATTR0
 70
     0
 74
     1
  0
ENDBLK
  5
84
330
82
100
AcDbEntity
  8
0
100
AcDbBlockEnd
  0
BLOCK
  5
F2
330
F1
100
AcDbEntity
  8
0
100
AcDbBlockBegin
  2
_D
 70
     0
 10
0.0
 20
0.0
 30
0.0
  3
_D
  1

  0
LINE
  5
F4
330
F1
100
AcDbEntity
  8
치수문자_일반주서
 62
     0
370
    -2
100
AcDbLine
 10
28.66057621135333
 20
-1.500000000000004
 30
0.0
 11
40.13522693820631
 21
-1.499999999999961
 31
0.0
  0
LINE
  5
F5
330
F1
100
AcDbEntity
  8
치수문자_일반주서
 62
     0
370
    -2
100
AcDbLine
 10
28.66057621135333
 20
1.500000000000004
 30
0.0
 11
40.1352269382063
 21
1.500000000000046
 31
0.0
  0
LINE
  5
F6
330
F1
100
AcDbEntity
  8
치수문자_일반주서
 62
     0
370
    -2
100
AcDbLine
 10
40.13522693820631
 20
-1.499999999999961
 30
0.0
 11
40.13522693820627
 21
14.22900000000005
 31
0.0
  0
LINE
  5
F7
330
F1
100
AcDbEntity
  8
치수문자_일반주서
 62
     0
370
    -2
100
AcDbLine
 10
40.13522693820631
 20
-1.499999999999961
 30
0.0
 11
40.1352269382063
 21
1.500000000000046
 31
0.0
  0
LINE
  5
F8
330
F1
100
AcDbEntity
  8
치수문자_일반주서
 62
     0
370
    -2
100
AcDbLine
 10
40.13522693820632
 20
-4.801999999999961
 30
0.0
 11
40.13522693820632
 21
-8.10399999999996
 31
0.0
  0
LINE
  5
F9
330
F1
100
AcDbEntity
  8
치수문자_일반주서
 62
     0
370
    -2
100
AcDbLine
 10
40.13522693820629
 20
4.802000000000046
 30
0.0
 11
40.13522693820629
 21
8.104000000000045
 31
0.0
  0
SOLID
  5
FA
330
F1
100
AcDbEntity
  8
치수문자_일반주서
 62
     0
100
AcDbTrace
 10
40.68556027153965
 20
-4.80199999999996
 30
0.0
 11
39.58489360487298
 21
-4.801999999999961
 31
0.0
 12
40.13522693820631
 22
-1.499999999999961
 32
0.0
 13
40.13522693820631
 23
-1.499999999999961
 33
0.0
  0
SOLID
  5
FB
330
F1
100
AcDbEntity
  8
치수문자_일반주서
 62
     0
100
AcDbTrace
 10
39.58489360487296
 20
4.802000000000045
 30
0.0
 11
40.68556027153963
 21
4.802000000000047
 31
0.0
 12
40.1352269382063
 22
1.500000000000046
 32
0.0
 13
40.1352269382063
 23
1.500000000000046
 33
0.0
  0
MTEXT
  5
FC
330
F1
100
AcDbEntity
  8
치수문자_일반주서
 62
     0
100
AcDbMText
 10
35.76022693820628
 20
11.16650000000004
 30
0.0
 40
3.5
 41
0.0
 71
     2
 72
     1
  1
\A1;%%c3
  7
SLDTEXTSTYLE0
 11
-2.368475785866994E-15
 21
1.0
 31
0.0
 73
     1
 44
1.0
  0
POINT
  5
155
330
F1
100
AcDbEntity
  8
Defpoints
 62
     0
100
AcDbPoint
 10
28.59807621135333
 20
-1.500000000000004
 30
0.0
  0
POINT
  5
156
330
F1
100
AcDbEntity
  8
Defpoints
 62
     0
100
AcDbPoint
 10
28.59807621135333
 20
1.500000000000004
 30
0.0
  0
POINT
  5
157
330
F1
100
AcDbEntity
  8
Defpoints
 62
     0
100
AcDbPoint
 10
40.13522693820631
 20
1.500000000000047
 30
0.0
  0
ENDBLK
  5
F3
330
F1
100
AcDbEntity
  8
0
100
AcDbBlockEnd
  0
BLOCK
  5
100
330
FF
100
AcDbEntity
  8
0
100
AcDbBlockBegin
  2
_D_1
 70
     0
 10
0.0
 20
0.0
 30
0.0
  3
_D_1
  1

  0
LINE
  5
102
330
FF
100
AcDbEntity
  8
치수문자_일반주서
 62
     0
370
    -2
100
AcDbLine
 10
-41.4019237886467
 20
2.562499999999994
 30
0.0
 11
-41.4019237886467
 21
20.38913260158165
 31
0.0
  0
LINE
  5
103
330
FF
100
AcDbEntity
  8
치수문자_일반주서
 62
     0
370
    -2
100
AcDbLine
 10
28.5980762113533
 20
1.562500000000002
 30
0.0
 11
28.59807621135329
 21
20.38913260158165
 31
0.0
  0
LINE
  5
104
330
FF
100
AcDbEntity
  8
치수문자_일반주서
 62
     0
370
    -2
100
AcDbLine
 10
-38.0999237886467
 20
20.38913260158165
 30
0.0
 11
25.2960762113533
 21
20.38913260158165
 31
0.0
  0
SOLID
  5
105
330
FF
100
AcDbEntity
  8
치수문자_일반주서
 62
     0
100
AcDbTrace
 10
-38.0999237886467
 20
20.93946593491498
 30
0.0
 11
-38.0999237886467
 21
19.83879926824831
 31
0.0
 12
-41.4019237886467
 22
20.38913260158165
 32
0.0
 13
-41.4019237886467
 23
20.38913260158165
 33
0.0
  0
SOLID
  5
106
330
FF
100
AcDbEntity
  8
치수문자_일반주서
 62
     0
100
AcDbTrace
 10
25.2960762113533
 20
19.83879926824831
 30
0.0
 11
25.2960762113533
 21
20.93946593491498
 31
0.0
 12
28.59807621135329
 22
20.38913260158165
 32
0.0
 13
28.59807621135329
 23
20.38913260158165
 33
0.0
  0
MTEXT
  5
107
330
FF
100
AcDbEntity
  8
치수문자_일반주서
 62
     0
100
AcDbMText
 10
-6.401923788646696
 20
24.76413260158165
 30
0.0
 40
3.5
 41
0.0
 71
     2
 72
     1
  1
\A1;70
  7
SLDTEXTSTYLE0
 73
     1
 44
1.0
  0
POINT
  5
14C
330
FF
100
AcDbEntity
  8
Defpoints
 62
     0
100
AcDbPoint
 10
-41.4019237886467
 20
2.499999999999994
 30
0.0
  0
POINT
  5
14D
330
FF
100
AcDbEntity
  8
Defpoints
 62
     0
100
AcDbPoint
 10
28.5980762113533
 20
1.500000000000002
 30
0.0
  0
POINT
  5
14E
330
FF
100
AcDbEntity
  8
Defpoints
 62
     0
100
AcDbPoint
 10
28.5980762113533
 20
20.38913260158165
 30
0.0
  0
ENDBLK
  5
101
330
FF
100
AcDbEntity
  8
0
100
AcDbBlockEnd
  0
BLOCK
  5
10B
330
10A
100
AcDbEntity
  8
0
100
AcDbBlockBegin
  2
_D_2
 70
     0
 10
0.0
 20
0.0
 30
0.0
  3
_D_2
  1

  0
LINE
  5
10D
330
10A
100
AcDbEntity
  8
치수문자_일반주서
 62
     0
370
    -2
100
AcDbLine
 10
-40.96442378864668
 20
3.000000000000003
 30
0.0
 11
-51.30345790978429
 21
2.999999999999964
 31
0.0
  0
LINE
  5
10E
330
10A
100
AcDbEntity
  8
치수문자_일반주서
 62
     0
370
    -2
100
AcDbLine
 10
-40.96442378864668
 20
-3.000000000000003
 30
0.0
 11
-51.30345790978427
 21
-3.000000000000041
 31
0.0
  0
LINE
  5
10F
330
10A
100
AcDbEntity
  8
치수문자_일반주서
 62
     0
370
    -2
100
AcDbLine
 10
-51.30345790978429
 20
2.999999999999964
 30
0.0
 11
-51.30345790978434
 21
15.72899999999996
 31
0.0
  0
LINE
  5
110
330
10A
100
AcDbEntity
  8
치수문자_일반주서
 62
     0
370
    -2
100
AcDbLine
 10
-51.30345790978429
 20
2.999999999999964
 30
0.0
 11
-51.30345790978427
 21
-3.000000000000041
 31
0.0
  0
LINE
  5
111
330
10A
100
AcDbEntity
  8
치수문자_일반주서
 62
     0
370
    -2
100
AcDbLine
 10
-51.30345790978431
 20
6.301999999999964
 30
0.0
 11
-51.30345790978432
 21
9.603999999999964
 31
0.0
  0
LINE
  5
112
330
10A
100
AcDbEntity
  8
치수문자_일반주서
 62
     0
370
    -2
100
AcDbLine
 10
-51.30345790978426
 20
-6.30200000000004
 30
0.0
 11
-51.30345790978424
 21
-9.60400000000004
 31
0.0
  0
SOLID
  5
113
330
10A
100
AcDbEntity
  8
치수문자_일반주서
 62
     0
100
AcDbTrace
 10
-51.85379124311764
 20
6.301999999999962
 30
0.0
 11
-50.75312457645097
 21
6.301999999999966
 31
0.0
 12
-51.30345790978429
 22
2.999999999999964
 32
0.0
 13
-51.30345790978429
 23
2.999999999999964
 33
0.0
  0
SOLID
  5
114
330
10A
100
AcDbEntity
  8
치수문자_일반주서
 62
     0
100
AcDbTrace
 10
-50.75312457645092
 20
-6.302000000000039
 30
0.0
 11
-51.85379124311759
 21
-6.302000000000042
 31
0.0
 12
-51.30345790978427
 22
-3.000000000000041
 32
0.0
 13
-51.30345790978427
 23
-3.000000000000041
 33
0.0
  0
MTEXT
  5
115
330
10A
100
AcDbEntity
  8
치수문자_일반주서
 62
     0
100
AcDbMText
 10
-55.67845790978433
 20
12.66649999999995
 30
0.0
 40
3.5
 41
0.0
 71
     2
 72
     1
  1
\A1;%%c6
  7
SLDTEXTSTYLE0
 11
-3.552713678800498E-15
 21
1.0
 31
0.0
 73
     1
 44
1.0
  0
POINT
  5
152
330
10A
100
AcDbEntity
  8
Defpoints
 62
     0
100
AcDbPoint
 10
-40.90192378864668
 20
3.000000000000003
 30
0.0
  0
POINT
  5
153
330
10A
100
AcDbEntity
  8
Defpoints
 62
     0
100
AcDbPoint
 10
-40.90192378864668
 20
-3.000000000000002
 30
0.0
  0
POINT
  5
154
330
10A
100
AcDbEntity
  8
Defpoints
 62
     0
100
AcDbPoint
 10
-51.30345790978427
 20
-3.000000000000041
 30
0.0
  0
ENDBLK
  5
10C
330
10A
100
AcDbEntity
  8
0
100
AcDbBlockEnd
  0
BLOCK
  5
118
330
117
100
AcDbEntity
  8
0
100
AcDbBlockBegin
  2
_D_3
 70
     0
 10
0.0
 20
0.0
 30
0.0
  3
_D_3
  1

  0
LINE
  5
11A
330
117
100
AcDbEntity
  8
치수문자_일반주서
 62
     0
370
    -2
100
AcDbLine
 10
8.5980762113533
 20
1.5625
 30
0.0
 11
8.598076211353298
 21
12.34591830258765
 31
0.0
  0
LINE
  5
11B
330
117
100
AcDbEntity
  8
치수문자_일반주서
 62
     0
370
    -2
100
AcDbLine
 10
28.5980762113533
 20
1.562500000000002
 30
0.0
 11
28.59807621135329
 21
12.34591830258765
 31
0.0
  0
LINE
  5
11C
330
117
100
AcDbEntity
  8
치수문자_일반주서
 62
     0
370
    -2
100
AcDbLine
 10
11.9000762113533
 20
12.34591830258765
 30
0.0
 11
25.2960762113533
 21
12.34591830258765
 31
0.0
  0
SOLID
  5
11D
330
117
100
AcDbEntity
  8
치수문자_일반주서
 62
     0
100
AcDbTrace
 10
11.9000762113533
 20
12.89625163592098
 30
0.0
 11
11.9000762113533
 21
11.79558496925432
 31
0.0
 12
8.598076211353298
 22
12.34591830258765
 32
0.0
 13
8.598076211353298
 23
12.34591830258765
 33
0.0
  0
SOLID
  5
11E
330
117
100
AcDbEntity
  8
치수문자_일반주서
 62
     0
100
AcDbTrace
 10
25.2960762113533
 20
11.79558496925432
 30
0.0
 11
25.2960762113533
 21
12.89625163592098
 31
0.0
 12
28.59807621135329
 22
12.34591830258765
 32
0.0
 13
28.59807621135329
 23
12.34591830258765
 33
0.0
  0
MTEXT
  5
11F
330
117
100
AcDbEntity
  8
치수문자_일반주서
 62
     0
100
AcDbMText
 10
18.5980762113533
 20
16.72091830258765
 30
0.0
 40
3.5
 41
0.0
 71
     2
 72
     1
  1
\A1;20
  7
SLDTEXTSTYLE0
 73
     1
 44
1.0
  0
POINT
  5
14F
330
117
100
AcDbEntity
  8
Defpoints
 62
     0
100
AcDbPoint
 10
8.5980762113533
 20
1.5
 30
0.0
  0
POINT
  5
150
330
117
100
AcDbEntity
  8
Defpoints
 62
     0
100
AcDbPoint
 10
28.5980762113533
 20
1.500000000000002
 30
0.0
  0
POINT
  5
151
330
117
100
AcDbEntity
  8
Defpoints
 62
     0
100
AcDbPoint
 10
28.5980762113533
 20
12.34591830258765
 30
0.0
  0
ENDBLK
  5
119
330
117
100
AcDbEntity
  8
0
100
AcDbBlockEnd
  0
BLOCK
  5
121
330
120
100
AcDbEntity
  8
0
100
AcDbBlockBegin
  2
SW_DOWELSYMBOL_0
 70
     0
 10
0.0
 20
0.0
 30
0.0
  3
SW_DOWELSYMBOL_0
  1

  0
CIRCLE
  5
123
330
120
100
AcDbEntity
  8
해칭선
 62
     0
100
AcDbCircle
 10
0.0
 20
0.0
 30
0.0
 40
3.000000000000003
  0
HATCH
  5
124
330
120
100
AcDbEntity
  8
0
  6
Continuous
 62
     0
370
    18
100
AcDbHatch
 10
0.0
 20
0.0
 30
0.0
210
0.0
220
0.0
230
1.0
  2
SOLID
 70
     1
 71
     0
 91
        1
 92
        0
 93
        3
 72
     2
 10
-0.0000074587690971
 20
-0.0000000000000041
 40
3.000000000000003
 50
0.0
 51
90.0
 73
     1
 72
     1
 10
-0.0000074587690971
 20
2.999999999999998
 11
-0.0000074587690971
 21
-0.000000000000004
 72
     1
 10
-0.0000074587690971
 20
-0.0000000000000041
 11
2.999992541230906
 21
-0.0000000000000041
 97
        0
 75
     0
 76
     1
 98
        1
 10
0.0
 20
0.0
  0
HATCH
  5
125
330
120
100
AcDbEntity
  8
0
  6
Continuous
 62
     0
370
    18
100
AcDbHatch
 10
0.0
 20
0.0
 30
0.0
210
0.0
220
0.0
230
1.0
  2
SOLID
 70
     1
 71
     0
 91
        1
 92
        0
 93
        3
 72
     2
 10
-0.0000074587690971
 20
-0.0000000000000041
 40
3.000000000000003
 50
180.0
 51
270.0000000000008
 73
     1
 72
     1
 10
-0.0000074587690971
 20
-3.000000000000007
 11
-0.0000074587690971
 21
-0.000000000000004
 72
     1
 10
-0.0000074587690971
 20
-0.0000000000000041
 11
-3.0000074587691
 21
-0.0000000000000041
 97
        0
 75
     0
 76
     1
 98
        1
 10
0.0
 20
0.0
  0
ENDBLK
  5
122
330
120
100
AcDbEntity
  8
0
100
AcDbBlockEnd
  0
ENDSEC
  0
SECTION
  2
ENTITIES
  0
LINE
  5
99
330
1F
100
AcDbEntity
  8
0
  6
Continuous
 62
     4
370
    25
100
AcDbLine
 10
2.0
 20
2.999999999999998
 30
0.0
 11
-40.9019237886467
 21
2.999999999999996
 31
0.0
  0
LINE
  5
9A
330
1F
100
AcDbEntity
  8
0
  6
Continuous
 62
     4
370
    25
100
AcDbLine
 10
-40.9019237886467
 20
-3.000000000000001
 30
0.0
 11
1.999999999999996
 21
-2.999999999999998
 31
0.0
  0
LINE
  5
9B
330
1F
100
AcDbEntity
  8
0
  6
Continuous
 62
     4
370
    25
100
AcDbLine
 10
2.0
 20
-2.999999999999999
 30
0.0
 11
7.188080634034277
 21
-1.609857983842964
 31
0.0
  0
LINE
  5
9C
330
1F
100
AcDbEntity
  8
0
  6
Continuous
 62
     4
370
    25
100
AcDbLine
 10
7.188080634034268
 20
1.609857983842968
 30
0.0
 11
2.0
 21
3.0
 31
0.0
  0
LINE
  5
9D
330
1F
100
AcDbEntity
  8
0
  6
Continuous
 62
     4
370
    25
100
AcDbLine
 10
-40.9019237886467
 20
2.999999999999994
 30
0.0
 11
-41.4019237886467
 21
2.499999999999994
 31
0.0
  0
LINE
  5
9E
330
1F
100
AcDbEntity
  8
0
  6
Continuous
 62
     4
370
    25
100
AcDbLine
 10
-41.4019237886467
 20
-2.5
 30
0.0
 11
-40.9019237886467
 21
-2.999999999999999
 31
0.0
  0
LINE
  5
9F
330
1F
100
AcDbEntity
  8
0
  6
Continuous
 62
     4
370
    25
100
AcDbLine
 10
7.5980762113533
 20
-1.5
 30
0.0
 11
8.5980762113533
 21
-1.5
 31
0.0
  0
LINE
  5
A0
330
1F
100
AcDbEntity
  8
0
  6
Continuous
 62
     4
370
    25
100
AcDbLine
 10
8.5980762113533
 20
1.5
 30
0.0
 11
7.5980762113533
 21
1.5
 31
0.0
  0
LINE
  5
A1
330
1F
100
AcDbEntity
  8
0
  6
Continuous
 62
     1
370
    25
100
AcDbLine
 10
24.39225934735189
 20
-0.2577782845844175
 30
0.0
 11
24.30728478475976
 21
-0.2136522862396391
 31
0.0
  0
LINE
  5
A2
330
1F
100
AcDbEntity
  8
0
  6
Continuous
 62
     1
370
    25
100
AcDbLine
 10
20.60101197145167
 20
0.2361327216842663
 30
0.0
 11
20.6420702000955
 21
0.2147546684248609
 31
0.0
  0
SPLINE
  5
A3
330
1F
100
AcDbEntity
  8
0
  6
Continuous
 62
     1
370
    25
100
AcDbSpline
210
0.0
220
0.0
230
1.0
 70
     8
 71
     3
 72
     9
 73
     5
 74
     0
 42
0.000000001
 43
0.00000001
 40
0.0
 40
0.0
 40
0.0
 40
0.0
 40
0.4990260427460124
 40
1.0
 40
1.0
 40
1.0
 40
1.0
 10
12.27388193328331
 20
0.3333115528179131
 30
0.0
 10
12.33068273967749
 20
0.3018317535796757
 30
0.0
 10
12.44450607058345
 20
0.2387492758295925
 30
0.0
 10
12.55951336943263
 20
0.1705118204138649
 30
0.0
 10
12.61712903105019
 20
0.1363266323413053
 30
0.0
  0
LINE
  5
A4
330
1F
100
AcDbEntity
  8
0
  6
Continuous
 62
     1
370
    25
100
AcDbLine
 10
16.24295865987336
 20
-0.2640430828638173
 30
0.0
 11
16.14518764570578
 21
-0.2136522862396389
 31
0.0
  0
LINE
  5
A5
330
1F
100
AcDbEntity
  8
0
  6
Continuous
 62
     1
370
    25
100
AcDbLine
 10
15.77450331057461
 20
-1.500000000000001
 30
0.0
 11
16.93501799046161
 21
-1.500000000000001
 31
0.0
  0
LINE
  5
A6
330
1F
100
AcDbEntity
  8
0
  6
Continuous
 62
     1
370
    25
100
AcDbLine
 10
8.773261661645103
 20
1.500000000000002
 30
0.0
 11
8.5980762113533
 21
1.500000000000002
 31
0.0
  0
LINE
  5
A7
330
1F
100
AcDbEntity
  8
0
  6
Continuous
 62
     1
370
    25
100
AcDbLine
 10
25.09779949227621
 20
1.500000000000002
 30
0.0
 11
23.93733970355114
 21
1.500000000000002
 31
0.0
  0
LINE
  5
A8
330
1F
100
AcDbEntity
  8
0
  6
Continuous
 62
     1
370
    25
100
AcDbLine
 10
19.85683876754119
 20
-1.500000000000001
 30
0.0
 11
21.01581381665537
 21
-1.500000000000001
 31
0.0
  0
LINE
  5
A9
330
1F
100
AcDbEntity
  8
0
  6
Continuous
 62
     1
370
    25
100
AcDbLine
 10
12.85339913970752
 20
1.500000000000002
 30
0.0
 11
11.69311794131546
 21
1.500000000000002
 31
0.0
  0
LINE
  5
AA
330
1F
100
AcDbEntity
  8
0
  6
Continuous
 62
     1
370
    25
100
AcDbLine
 10
28.5980762113533
 20
1.500000000000002
 30
0.0
 11
28.01731221942343
 21
1.500000000000002
 31
0.0
  0
LINE
  5
AB
330
1F
100
AcDbEntity
  8
0
  6
Continuous
 62
     1
370
    25
100
AcDbLine
 10
23.93733970355115
 20
-1.500000000000001
 30
0.0
 11
25.09779949227624
 21
-1.500000000000001
 31
0.0
  0
LINE
  5
AC
330
1F
100
AcDbEntity
  8
0
  6
Continuous
 62
     1
370
    25
100
AcDbLine
 10
8.5980762113533
 20
-1.500000000000001
 30
0.0
 11
8.773261661645082
 21
-1.500000000000001
 31
0.0
  0
LINE
  5
AD
330
1F
100
AcDbEntity
  8
0
  6
Continuous
 62
     1
370
    25
100
AcDbLine
 10
16.93501799046161
 20
1.500000000000002
 30
0.0
 11
15.77450331057459
 21
1.500000000000002
 31
0.0
  0
LINE
  5
AE
330
1F
100
AcDbEntity
  8
0
  6
Continuous
 62
     1
370
    25
100
AcDbLine
 10
28.01731221942345
 20
-1.500000000000001
 30
0.0
 11
28.5980762113533
 21
-1.500000000000001
 31
0.0
  0
LINE
  5
AF
330
1F
100
AcDbEntity
  8
0
  6
Continuous
 62
     1
370
    25
100
AcDbLine
 10
11.69311794131547
 20
-1.500000000000001
 30
0.0
 11
12.85339913970753
 21
-1.500000000000001
 31
0.0
  0
LINE
  5
B0
330
1F
100
AcDbEntity
  8
0
  6
Continuous
 62
     1
370
    25
100
AcDbLine
 10
21.01581381665541
 20
1.500000000000002
 30
0.0
 11
19.8568387675412
 21
1.500000000000002
 31
0.0
  0
LINE
  5
B1
330
1F
100
AcDbEntity
  8
0
  6
Continuous
 62
     4
370
    25
100
AcDbLine
 10
2.0
 20
3.0
 30
0.0
 11
2.0
 21
-3.0
 31
0.0
  0
LINE
  5
B2
330
1F
100
AcDbEntity
  8
0
  6
Continuous
 62
     4
370
    25
100
AcDbLine
 10
-40.9019237886467
 20
2.999999999999994
 30
0.0
 11
-40.9019237886467
 21
-2.999999999999999
 31
0.0
  0
SPLINE
  5
B3
330
1F
100
AcDbEntity
  8
0
  6
Continuous
 62
     4
370
    25
100
AcDbSpline
210
0.0
220
0.0
230
1.0
 70
     8
 71
     3
 72
     8
 73
     4
 74
     0
 42
0.000000001
 43
0.00000001
 40
0.0
 40
0.0
 40
0.0
 40
0.0
 40
1.0
 40
1.0
 40
1.0
 40
1.0
 10
7.547953532200907
 20
1.512900944858151
 30
0.0
 10
7.564655874391935
 20
1.508699823204741
 30
0.0
 10
7.581363371705585
 20
1.504390829700263
 30
0.0
 10
7.598076211353293
 20
1.499973748107337
 30
0.0
  0
SPLINE
  5
B4
330
1F
100
AcDbEntity
  8
0
  6
Continuous
 62
     4
370
    25
100
AcDbSpline
210
0.0
220
0.0
230
1.0
 70
     8
 71
     3
 72
    12
 73
     8
 74
     0
 42
0.000000001
 43
0.00000001
 40
0.0
 40
0.0
 40
0.0
 40
0.0
 40
0.25
 40
0.25
 40
0.5
 40
0.5
 40
1.0
 40
1.0
 40
1.0
 40
1.0
 10
7.097895069400774
 20
1.620585984152767
 30
0.0
 10
7.097895069400774
 20
1.627491299646857
 30
0.0
 10
7.112320965837077
 20
1.627578513550219
 30
0.0
 10
7.166343033208776
 20
1.616284352033904
 30
0.0
 10
7.205994273317797
 20
1.605027041337152
 30
0.0
 10
7.342358526258515
 20
1.566099680742348
 30
0.0
 10
7.458518719970758
 20
1.535396384236143
 30
0.0
 10
7.547953532201056
 20
1.512900944858112
 30
0.0
  0
LINE
  5
B5
330
1F
100
AcDbEntity
  8
0
  6
Continuous
 62
     4
370
    25
100
AcDbLine
 10
7.097895069400774
 20
1.620585984152767
 30
0.0
 11
7.097895069400774
 21
1.102442335526374
 31
0.0
  0
SPLINE
  5
B6
330
1F
100
AcDbEntity
  8
0
  6
Continuous
 62
     4
370
    25
100
AcDbSpline
210
0.0
220
0.0
230
1.0
 70
     8
 71
     3
 72
    10
 73
     6
 74
     0
 42
0.000000001
 43
0.00000001
 40
0.0
 40
0.0
 40
0.0
 40
0.0
 40
0.5
 40
0.5
 40
1.0
 40
1.0
 40
1.0
 40
1.0
 10
7.241584609882398
 20
0.8790708792502407
 30
0.0
 10
7.198131288479967
 20
0.9071979996010427
 30
0.0
 10
7.161664559472035
 20
0.9434819998419723
 30
0.0
 10
7.111428736765452
 20
1.021898946975524
 30
0.0
 10
7.097895069400424
 20
1.064053840888169
 30
0.0
 10
7.097895069400774
 20
1.102442335526371
 30
0.0
  0
SPLINE
  5
B7
330
1F
100
AcDbEntity
  8
0
  6
Continuous
 62
     4
370
    25
100
AcDbSpline
210
0.0
220
0.0
230
1.0
 70
     8
 71
     3
 72
     8
 73
     4
 74
     0
 42
0.000000001
 43
0.00000001
 40
0.0
 40
0.0
 40
0.0
 40
0.0
 40
1.0
 40
1.0
 40
1.0
 40
1.0
 10
7.5980762113533
 20
0.6559214435263955
 30
0.0
 10
7.477640948834711
 20
0.7285091858947631
 30
0.0
 10
7.358932860128201
 20
0.8031119363871193
 30
0.0
 10
7.241584609882395
 20
0.8790708792502342
 30
0.0
  0
LINE
  5
B8
330
1F
100
AcDbEntity
  8
0
  6
Continuous
 62
     4
370
    25
100
AcDbLine
 10
7.5980762113533
 20
0.6559214435262859
 30
0.0
 11
7.5980762113533
 21
0.0088744007590666
 31
0.0
  0
SPLINE
  5
B9
330
1F
100
AcDbEntity
  8
0
  6
Continuous
 62
     4
370
    25
100
AcDbSpline
210
0.0
220
0.0
230
1.0
 70
     8
 71
     3
 72
     8
 73
     4
 74
     0
 42
0.000000001
 43
0.00000001
 40
0.0
 40
0.0
 40
0.0
 40
0.0
 40
1.0
 40
1.0
 40
1.0
 40
1.0
 10
7.547953532200907
 20
0.0400262295622937
 30
0.0
 10
7.564655874391935
 20
0.0296007270148051
 30
0.0
 10
7.581363371705585
 20
0.0192166649982755
 30
0.0
 10
7.598076211353293
 20
0.0088744007590716
 30
0.0
  0
SPLINE
  5
BA
330
1F
100
AcDbEntity
  8
0
  6
Continuous
 62
     4
370
    25
100
AcDbSpline
210
0.0
220
0.0
230
1.0
 70
     8
 71
     3
 72
    12
 73
     8
 74
     0
 42
0.000000001
 43
0.00000001
 40
0.0
 40
0.0
 40
0.0
 40
0.0
 40
0.2499999999999999
 40
0.2499999999999999
 40
0.4999999999999998
 40
0.4999999999999998
 40
1.0
 40
1.0
 40
1.0
 40
1.0
 10
7.097895069400774
 20
-0.2091235695180606
 30
0.0
 10
7.097895069400774
 20
-0.1556113923317975
 30
0.0
 10
7.112320965837077
 20
-0.1023118919258771
 30
0.0
 10
7.166343033208779
 20
-0.0109702635023168
 30
0.0
 10
7.205994273317797
 20
0.0268287561891431
 30
0.0
 10
7.342358526258515
 20
0.1003286846527245
 30
0.0
 10
7.458518719970758
 20
0.095850906848548
 30
0.0
 10
7.547953532201056
 20
0.0400262295621996
 30
0.0
  0
LINE
  5
BB
330
1F
100
AcDbEntity
  8
0
  6
Continuous
 62
     4
370
    25
100
AcDbLine
 10
7.097895069400774
 20
-0.2091235695180607
 30
0.0
 11
7.097895069400774
 21
-1.206089754620094
 31
0.0
  0
SPLINE
  5
BC
330
1F
100
AcDbEntity
  8
0
  6
Continuous
 62
     4
370
    25
100
AcDbSpline
210
0.0
220
0.0
230
1.0
 70
     8
 71
     3
 72
    10
 73
     6
 74
     0
 42
0.000000001
 43
0.00000001
 40
0.0
 40
0.0
 40
0.0
 40
0.0
 40
0.5
 40
0.5
 40
1.0
 40
1.0
 40
1.0
 40
1.0
 10
7.241584609882398
 20
-1.331511803366474
 30
0.0
 10
7.198131288479974
 20
-1.32689402720777
 30
0.0
 10
7.161664559472042
 20
-1.313876812203951
 30
0.0
 10
7.111428736765459
 20
-1.271166515447739
 30
0.0
 10
7.097895069400424
 20
-1.24117926725737
 30
0.0
 10
7.097895069400774
 20
-1.206089754620094
 30
0.0
  0
SPLINE
  5
BD
330
1F
100
AcDbEntity
  8
0
  6
Continuous
 62
     4
370
    25
100
AcDbSpline
210
0.0
220
0.0
230
1.0
 70
     8
 71
     3
 72
     8
 73
     4
 74
     0
 42
0.000000001
 43
0.00000001
 40
0.0
 40
0.0
 40
0.0
 40
0.0
 40
1.0
 40
1.0
 40
1.0
 40
1.0
 10
7.5980762113533
 20
-1.348987420223867
 30
0.0
 10
7.477640948834711
 20
-1.349575965550269
 30
0.0
 10
7.358932860128201
 20
-1.343982379487258
 30
0.0
 10
7.241584609882395
 20
-1.331511803366458
 30
0.0
  0
LINE
  5
BE
330
1F
100
AcDbEntity
  8
0
  6
Continuous
 62
     4
370
    25
100
AcDbLine
 10
7.5980762113533
 20
-1.348987420223524
 30
0.0
 11
7.5980762113533
 21
-1.499973748107331
 31
0.0
  0
SPLINE
  5
BF
330
1F
100
AcDbEntity
  8
0
  6
Continuous
 62
     4
370
    25
100
AcDbSpline
210
0.0
220
0.0
230
1.0
 70
     8
 71
     3
 72
     8
 73
     4
 74
     0
 42
0.000000001
 43
0.00000001
 40
0.0
 40
0.0
 40
0.0
 40
0.0
 40
1.0
 40
1.0
 40
1.0
 40
1.0
 10
7.547953532200907
 20
-1.51290094485815
 30
0.0
 10
7.564655874391935
 20
-1.50869982320474
 30
0.0
 10
7.581363371705585
 20
-1.504390829700262
 30
0.0
 10
7.598076211353293
 20
-1.499973748107336
 30
0.0
  0
SPLINE
  5
C0
330
1F
100
AcDbEntity
  8
0
  6
Continuous
 62
     4
370
    25
100
AcDbSpline
210
0.0
220
0.0
230
1.0
 70
     8
 71
     3
 72
    12
 73
     8
 74
     0
 42
0.000000001
 43
0.00000001
 40
0.0
 40
0.0
 40
0.0
 40
0.0
 40
0.1042332597379604
 40
0.3450700351185167
 40
0.5978271643215425
 40
0.8577317774844213
 40
1.0
 40
1.0
 40
1.0
 40
1.0
 10
7.187999561452717
 20
-1.609555416849477
 30
0.0
 10
7.197310619621593
 20
-1.607116420133409
 30
0.0
 10
7.228135398366907
 20
-1.599041985115419
 30
0.0
 10
7.3016167436204
 20
-1.577498486584741
 30
0.0
 10
7.398977347262884
 20
-1.55064778877908
 30
0.0
 10
7.485173485140098
 20
-1.528589113608054
 30
0.0
 10
7.531548440097067
 20
-1.51700042973164
 30
0.0
 10
7.547953532200907
 20
-1.512900944858151
 30
0.0
  0
LINE
  5
C1
330
1F
100
AcDbEntity
  8
0
  6
Continuous
 62
     4
370
    25
100
AcDbLine
 10
-41.4019237886467
 20
2.499999999999994
 30
0.0
 11
-41.4019237886467
 21
-2.5
 31
0.0
  0
SPLINE
  5
C2
330
1F
100
AcDbEntity
  8
0
  6
Continuous
 62
     4
370
    25
100
AcDbSpline
210
0.0
220
0.0
230
1.0
 70
     8
 71
     3
 72
    10
 73
     6
 74
     0
 42
0.000000001
 43
0.00000001
 40
0.0
 40
0.0
 40
0.0
 40
0.0
 40
0.4999999999999998
 40
0.4999999999999998
 40
1.0
 40
1.0
 40
1.0
 40
1.0
 10
8.598076211353298
 20
1.393471891620839
 30
0.0
 10
8.433069667021428
 20
1.428984082859463
 30
0.0
 10
8.264310903131152
 20
1.456131868199488
 30
0.0
 10
7.928558358082071
 20
1.491899100785584
 30
0.0
 10
7.764321231633229
 20
1.50054280246768
 30
0.0
 10
7.5980762113533
 20
1.499973748107332
 30
0.0
  0
SPLINE
  5
C3
330
1F
100
AcDbEntity
  8
0
  6
Continuous
 62
     4
370
    25
100
AcDbSpline
210
0.0
220
0.0
230
1.0
 70
    24
 71
     3
 72
    13
 73
     9
 74
     0
 42
0.000000001
 43
0.00000001
 40
0.0
 40
0.0
 40
0.0
 40
0.0
 40
0.1203143928384953
 40
0.321493746211881
 40
0.5226730995852666
 40
0.7238524529586519
 40
0.92503180633188
 40
1.0
 40
1.0
 40
1.0
 40
1.0
 10
8.5980762113533
 20
1.39347189162087
 30
0.0
 10
8.5980762113533
 20
1.324064997384912
 30
0.0
 10
8.5980762113533
 20
1.138601879345468
 30
0.0
 10
8.5980762113533
 20
0.8289409888251098
 30
0.0
 10
8.5980762113533
 20
0.5086370521626005
 30
0.0
 10
8.5980762113533
 20
0.2627792046267465
 30
0.0
 10
8.5980762113533
 20
0.1388599847991474
 30
0.0
 10
8.5980762113533
 20
0.1167024499123305
 30
0.0
 10
8.5980762113533
 20
0.1106871498149724
 30
0.0
  0
SPLINE
  5
C4
330
1F
100
AcDbEntity
  8
0
  6
Continuous
 62
     4
370
    25
100
AcDbSpline
210
0.0
220
0.0
230
1.0
 70
     8
 71
     3
 72
    10
 73
     6
 74
     0
 42
0.000000001
 43
0.00000001
 40
0.0
 40
0.0
 40
0.0
 40
0.0
 40
0.5
 40
0.5
 40
1.0
 40
1.0
 40
1.0
 40
1.0
 10
8.5980762113533
 20
0.1011899763743012
 30
0.0
 10
8.433069667021432
 20
0.1969174347828569
 30
0.0
 10
8.26431090313116
 20
0.2927386150885857
 30
0.0
 10
7.928558358082075
 20
0.4792352063585018
 30
0.0
 10
7.764321231633229
 20
0.5694201467769752
 30
0.0
 10
7.5980762113533
 20
0.6559214435262859
 30
0.0
  0
SPLINE
  5
C5
330
1F
100
AcDbEntity
  8
0
  6
Continuous
 62
     4
370
    25
100
AcDbSpline
210
0.0
220
0.0
230
1.0
 70
     8
 71
     3
 72
    10
 73
     6
 74
     0
 42
0.000000001
 43
0.00000001
 40
0.0
 40
0.0
 40
0.0
 40
0.0
 40
0.4999999999999998
 40
0.4999999999999998
 40
1.0
 40
1.0
 40
1.0
 40
1.0
 10
8.598076211353298
 20
-0.5551901361359233
 30
0.0
 10
8.433069667021428
 20
-0.4660580765404507
 30
0.0
 10
8.264310903131156
 20
-0.3728160661828615
 30
0.0
 10
7.928558358082071
 20
-0.1831636150150013
 30
0.0
 10
7.764321231633229
 20
-0.0873086120370854
 30
0.0
 10
7.5980762113533
 20
0.0088744007590666
 30
0.0
  0
SPLINE
  5
C6
330
1F
100
AcDbEntity
  8
0
  6
Continuous
 62
     4
370
    25
100
AcDbSpline
210
0.0
220
0.0
230
1.0
 70
    24
 71
     3
 72
    12
 73
     8
 74
     0
 42
0.000000001
 43
0.00000001
 40
0.0
 40
0.0
 40
0.0
 40
0.0
 40
0.1008699669271447
 40
0.3551660888718763
 40
0.6094622108166075
 40
0.8637583327611399
 40
1.0
 40
1.0
 40
1.0
 40
1.0
 10
8.5980762113533
 20
-0.5551901361359256
 30
0.0
 10
8.5980762113533
 20
-0.5595141725251205
 30
0.0
 10
8.5980762113533
 20
-0.5747392304811644
 30
0.0
 10
8.5980762113533
 20
-0.7224666174029011
 30
0.0
 10
8.5980762113533
 20
-0.976510952688452
 30
0.0
 10
8.5980762113533
 20
-1.254801541813442
 30
0.0
 10
8.5980762113533
 20
-1.434050720223583
 30
0.0
 10
8.5980762113533
 20
-1.49658297086406
 30
0.0
  0
SPLINE
  5
C7
330
1F
100
AcDbEntity
  8
0
  6
Continuous
 62
     4
370
    25
100
AcDbSpline
210
0.0
220
0.0
230
1.0
 70
     8
 71
     3
 72
    10
 73
     6
 74
     0
 42
0.000000001
 43
0.00000001
 40
0.0
 40
0.0
 40
0.0
 40
0.0
 40
0.5
 40
0.5
 40
1.0
 40
1.0
 40
1.0
 40
1.0
 10
8.5980762113533
 20
-1.49658297086406
 30
0.0
 10
8.433069667021432
 20
-1.49011045350731
 30
0.0
 10
8.26431090313116
 20
-1.474318805423424
 30
0.0
 10
7.928558358082075
 20
-1.424656258111288
 30
0.0
 10
7.764321231633229
 20
-1.391047156719289
 30
0.0
 10
7.5980762113533
 20
-1.348987420223524
 30
0.0
  0
LINE
  5
C8
330
1F
100
AcDbEntity
  8
0
  6
Continuous
 62
     4
370
    25
100
AcDbLine
 10
8.5980762113533
 20
0.1011899763743012
 30
0.0
 11
8.5980762113533
 21
-0.5551901361359328
 31
0.0
  0
LINE
  5
C9
330
1F
100
AcDbEntity
  8
0
  6
Continuous
 62
     4
370
    25
100
AcDbLine
 10
8.5980762113533
 20
-1.49658297086406
 30
0.0
 11
8.5980762113533
 21
-1.5
 31
0.0
  0
LINE
  5
CA
330
1F
100
AcDbEntity
  8
0
  6
Continuous
 62
     4
370
    25
100
AcDbLine
 10
8.5980762113533
 20
1.5
 30
0.0
 11
8.5980762113533
 21
1.39347189162087
 31
0.0
  0
SPLINE
  5
CB
330
1F
100
AcDbEntity
  8
0
  6
Continuous
 62
     1
370
    25
100
AcDbSpline
210
0.0
220
0.0
230
1.0
 70
     8
 71
     3
 72
    21
 73
    17
 74
     0
 42
0.000000001
 43
0.00000001
 40
0.0
 40
0.0
 40
0.0
 40
0.0
 40
0.002258839217329
 40
0.0820055742680262
 40
0.1617114635886876
 40
0.24142880971151
 40
0.3212097599784701
 40
0.4011056032362195
 40
0.4810129732081213
 40
0.5608015354841334
 40
0.640522188371341
 40
0.7202270344506827
 40
0.7999683903941452
 40
0.8797980788610954
 40
0.9597347818119697
 40
1.0
 40
1.0
 40
1.0
 40
1.0
 10
22.47591722170767
 20
-1.267716430432116
 30
0.0
 10
22.46867109829471
 20
-1.270418245674082
 30
0.0
 10
22.2056056675469
 20
-1.368505753976473
 30
0.0
 10
21.68703441656171
 20
-1.463850401636828
 30
0.0
 10
20.92005918033517
 20
-1.522971021556653
 30
0.0
 10
20.15297167834315
 20
-1.438051582480615
 30
0.0
 10
19.3851649105655
 20
-1.231591808691917
 30
0.0
 10
18.61645587727124
 20
-0.9175374803124372
 30
0.0
 10
17.84768108477677
 20
-0.5242231998119703
 30
0.0
 10
17.07979406032046
 20
-0.0852031875941564
 30
0.0
 10
16.31266140286096
 20
0.3611301310049885
 30
0.0
 10
15.54572008700864
 20
0.7756596123067763
 30
0.0
 10
14.77834745241022
 20
1.124813264564219
 30
0.0
 10
14.01009523042286
 20
1.369784253550048
 30
0.0
 10
13.36813866970799
 20
1.495946101358715
 30
0.0
 10
12.98256016029034
 20
1.48673269265803
 30
0.0
 10
12.85339913970752
 20
1.483646386648329
 30
0.0
  0
SPLINE
  5
CC
330
1F
100
AcDbEntity
  8
0
  6
Continuous
 62
     1
370
    25
100
AcDbSpline
210
0.0
220
0.0
230
1.0
 70
     8
 71
     3
 72
    20
 73
    16
 74
     0
 42
0.000000001
 43
0.00000001
 40
0.0
 40
0.0
 40
0.0
 40
0.0
 40
0.0481093729303981
 40
0.1278575393310357
 40
0.2075691927493602
 40
0.2872966543255604
 40
0.3670920310904918
 40
0.4470062256983018
 40
0.5269088926074995
 40
0.6066966567132606
 40
0.6864208112426554
 40
0.7661335079913995
 40
0.8458870539586847
 40
0.9257332035840408
 40
1.0
 40
1.0
 40
1.0
 40
1.0
 10
14.31567056278255
 20
1.255979769423512
 30
0.0
 10
14.46998927432787
 20
1.304797414374067
 30
0.0
 10
14.88011332145411
 20
1.434537287898176
 30
0.0
 10
15.5457124698765
 20
1.513021871312795
 30
0.0
 10
16.31266344521174
 20
1.490253982735574
 30
0.0
 10
17.07979350747248
 20
1.333517485865661
 30
0.0
 10
17.84768125213959
 20
1.062320034547093
 30
0.0
 10
18.61645576164613
 20
0.6988066430715193
 30
0.0
 10
19.38516520534453
 20
0.2747897226794034
 30
0.0
 10
20.15297061678315
 20
-0.1733074244253471
 30
0.0
 10
20.92006312880482
 20
-0.6059282572972922
 30
0.0
 10
21.68701968201291
 20
-0.9870189148835898
 30
0.0
 10
22.45444340356549
 20
-1.278864591158463
 30
0.0
 10
23.20459387284532
 20
-1.469235810879824
 30
0.0
 10
23.69905812547356
 20
-1.4828292107826
 30
0.0
 10
23.93733970355114
 20
-1.489379849707571
 30
0.0
  0
SPLINE
  5
CD
330
1F
100
AcDbEntity
  8
0
  6
Continuous
 62
     1
370
    25
100
AcDbSpline
210
0.0
220
0.0
230
1.0
 70
     8
 71
     3
 72
    17
 73
    13
 74
     0
 42
0.000000001
 43
0.00000001
 40
0.0
 40
0.0
 40
0.0
 40
0.0
 40
0.101402116015534
 40
0.2026557543699283
 40
0.3038259407764905
 40
0.4049788270511839
 40
0.5061807993405196
 40
0.6074975797096974
 40
0.7089447311552702
 40
0.810267685480167
 40
0.9114731278616433
 40
0.9999999999999999
 40
0.9999999999999999
 40
0.9999999999999999
 40
0.9999999999999999
 10
28.59807621135331
 20
-1.462748547532532
 30
0.0
 10
28.34170347128187
 20
-1.417628332647265
 30
0.0
 10
27.82933338394461
 20
-1.327453969979072
 30
0.0
 10
27.061487322976
 20
-1.042971527816886
 30
0.0
 10
26.29437510077889
 20
-0.6772501475645674
 30
0.0
 10
25.52742720221583
 20
-0.250435150660412
 30
0.0
 10
24.76002763275848
 20
0.1975833848112936
 30
0.0
 10
23.99172785137496
 20
0.62854416070136
 30
0.0
 10
23.22278549656934
 20
1.00551223504688
 30
0.0
 10
22.4544483035705
 20
1.292280432600034
 30
0.0
 10
21.71892750295121
 20
1.471505303923205
 30
0.0
 10
21.2395061811483
 20
1.486083064762094
 30
0.0
 10
21.01581381665541
 20
1.492884876952674
 30
0.0
  0
SPLINE
  5
CE
330
1F
100
AcDbEntity
  8
0
  6
Continuous
 62
     1
370
    25
100
AcDbSpline
210
0.0
220
0.0
230
1.0
 70
     8
 71
     3
 72
    16
 73
    12
 74
     0
 42
0.000000001
 43
0.00000001
 40
0.0
 40
0.0
 40
0.0
 40
0.0
 40
0.0533885433614078
 40
0.1879127863939314
 40
0.3222814973324029
 40
0.3570858287463031
 40
0.4915511788889562
 40
0.6258196386561614
 40
0.7599774360838979
 40
0.8941122924885017
 40
0.9999999999999999
 40
0.9999999999999999
 40
0.9999999999999999
 40
0.9999999999999999
 10
14.31567056278257
 20
-1.25597976942351
 30
0.0
 10
14.21390574380112
 20
-1.290552503394264
 30
0.0
 10
13.85572195590067
 20
-1.412238887113745
 30
0.0
 10
13.24134652279376
 20
-1.500610000524282
 30
0.0
 10
12.66173389675926
 20
-1.505871752134504
 30
0.0
 10
12.08446927231461
 20
-1.443780727915607
 30
0.0
 10
11.50490529164565
 20
-1.321825062491466
 30
0.0
 10
10.73735338263173
 20
-1.044444659004525
 30
0.0
 10
9.970172928873312
 20
-0.6769780122121434
 30
0.0
 10
9.257154510164323
 20
-0.2800823769707837
 30
0.0
 10
8.799828792575173
 20
-0.0155225319492677
 30
0.0
 10
8.5980762113533
 20
0.1011899763743978
 30
0.0
  0
SPLINE
  5
CF
330
1F
100
AcDbEntity
  8
0
  6
Continuous
 62
     4
370
    25
100
AcDbSpline
210
0.0
220
0.0
230
1.0
 70
    24
 71
     3
 72
    16
 73
    12
 74
     0
 42
0.000000001
 43
0.00000001
 40
0.0
 40
0.0
 40
0.0
 40
0.0
 40
0.1250000000000001
 40
0.1250000000000001
 40
0.2500000000000003
 40
0.2500000000000003
 40
0.5000000000000002
 40
0.5000000000000002
 40
0.7500000000000002
 40
0.7500000000000002
 40
1.0
 40
1.0
 40
1.0
 40
1.0
 10
8.5980762113533
 20
1.393471891620873
 30
0.0
 10
8.5980762113533
 20
1.342161070344649
 30
0.0
 10
8.5980762113533
 20
1.295543206474406
 30
0.0
 10
8.5980762113533
 20
1.191924343594921
 30
0.0
 10
8.5980762113533
 20
1.136102383161879
 30
0.0
 10
8.5980762113533
 20
0.9573384828525489
 30
0.0
 10
8.5980762113533
 20
0.8217281198885993
 30
0.0
 10
8.5980762113533
 20
0.5454191731190332
 30
0.0
 10
8.5980762113533
 20
0.4051780755488333
 30
0.0
 10
8.5980762113533
 20
0.1886913881627824
 30
0.0
 10
8.5980762113533
 20
0.1159756266486221
 30
0.0
 10
8.5980762113533
 20
0.1011899763743979
 30
0.0
  0
SPLINE
  5
D0
330
1F
100
AcDbEntity
  8
0
  6
Continuous
 62
     1
370
    25
100
AcDbSpline
210
0.0
220
0.0
230
1.0
 70
     8
 71
     3
 72
    17
 73
    13
 74
     0
 42
0.000000001
 43
0.00000001
 40
0.0
 40
0.0
 40
0.0
 40
0.0
 40
0.1081109336812242
 40
0.2160994940863347
 40
0.3240242780648001
 40
0.4319446554790081
 40
0.5399200497389118
 40
0.6469802885281016
 40
0.7541644497915965
 40
0.8612051193012534
 40
0.9681273470051717
 40
1.0
 40
1.0
 40
1.0
 40
1.0
 10
8.598076211353298
 20
1.393471891620839
 30
0.0
 10
8.856748937615853
 20
1.32621643120121
 30
0.0
 10
9.373801592475862
 20
1.191781638379238
 30
0.0
 10
10.1488370488163
 20
0.8516797362750667
 30
0.0
 10
10.92334354807227
 20
0.4452245656050155
 30
0.0
 10
11.69780569961939
 20
-0.002874561163298
 30
0.0
 10
12.47028649659486
 20
-0.4489508626937244
 30
0.0
 10
13.24114608423827
 20
-0.8538001066015274
 30
0.0
 10
14.0100881978256
 20
-1.185538160128513
 30
0.0
 10
14.77834806781651
 20
-1.40521404347472
 30
0.0
 10
15.36633801134742
 20
-1.507329415034452
 30
0.0
 10
15.69827726649198
 20
-1.490259481061741
 30
0.0
 10
15.77450331057461
 20
-1.486339566440843
 30
0.0
  0
SPLINE
  5
D1
330
1F
100
AcDbEntity
  8
0
  6
Continuous
 62
     1
370
    25
100
AcDbSpline
210
0.0
220
0.0
230
1.0
 70
     8
 71
     3
 72
    15
 73
    11
 74
     0
 42
0.000000001
 43
0.00000001
 40
0.0
 40
0.0
 40
0.0
 40
0.0
 40
0.1219456149275317
 40
0.2606475414744479
 40
0.3995064460569533
 40
0.526242125240486
 40
0.652834349366014
 40
0.7793518100196931
 40
0.9058641049709317
 40
1.0
 40
1.0
 40
1.0
 40
1.0
 10
22.47591722170769
 20
1.267716430432118
 30
0.0
 10
22.72477377013674
 20
1.334674219302109
 30
0.0
 10
23.25668176507688
 20
1.477790337597136
 30
0.0
 10
24.07223190349352
 20
1.523226046879408
 30
0.0
 10
24.89755286906928
 20
1.421990322705736
 30
0.0
 10
25.69798897639782
 20
1.186125675739484
 30
0.0
 10
26.47303358039696
 20
0.8531009280053243
 30
0.0
 10
27.24753569979876
 20
0.4451892376642714
 30
0.0
 10
27.9558205526993
 20
0.0342463241318696
 30
0.0
 10
28.40601023932972
 20
-0.2226249473914438
 30
0.0
 10
28.5980762113533
 20
-0.3322148200945015
 30
0.0
  0
LINE
  5
D2
330
1F
100
AcDbEntity
  8
0
  6
Continuous
 62
     1
370
    25
100
AcDbLine
 10
28.5980762113533
 20
-0.500000000000001
 30
0.0
 11
28.5980762113533
 21
-0.3333856900530319
 31
0.0
  0
SPLINE
  5
D3
330
1F
100
AcDbEntity
  8
0
  6
Continuous
 62
     1
370
    25
100
AcDbSpline
210
0.0
220
0.0
230
1.0
 70
    24
 71
     3
 72
    10
 73
     6
 74
     0
 42
0.000000001
 43
0.00000001
 40
0.0
 40
0.0
 40
0.0
 40
0.0
 40
0.5
 40
0.5
 40
1.0
 40
1.0
 40
1.0
 40
1.0
 10
28.5980762113533
 20
-0.5000000000000011
 30
0.0
 10
28.52274727136001
 20
-0.5527458916286452
 30
0.0
 10
28.42051794841748
 20
-0.6243276341790963
 30
0.0
 10
28.20162612327922
 20
-0.7775973401933798
 30
0.0
 10
28.08808910964739
 20
-0.8570968130042103
 30
0.0
 10
27.98017819404715
 20
-0.9326568495626035
 30
0.0
  0
SPLINE
  5
D4
330
1F
100
AcDbEntity
  8
0
  6
Continuous
 62
     1
370
    25
100
AcDbSpline
210
0.0
220
0.0
230
1.0
 70
     8
 71
     3
 72
     8
 73
     4
 74
     0
 42
0.000000001
 43
0.00000001
 40
0.0
 40
0.0
 40
0.0
 40
0.0
 40
1.0
 40
1.0
 40
1.0
 40
1.0
 10
28.5980762113533
 20
-1.404383063753668
 30
0.0
 10
28.37780991610113
 20
-1.277322519792199
 30
0.0
 10
28.17575580507328
 20
-1.111824184871081
 30
0.0
 10
27.98017819404716
 20
-0.9326568495625971
 30
0.0
  0
LINE
  5
D5
330
1F
100
AcDbEntity
  8
0
  6
Continuous
 62
     1
370
    25
100
AcDbLine
 10
28.5980762113533
 20
-1.462748547532894
 30
0.0
 11
28.5980762113533
 21
-1.404383063753669
 31
0.0
  0
SPLINE
  5
D6
330
1F
100
AcDbEntity
  8
0
  6
Continuous
 62
     1
370
    25
100
AcDbSpline
210
0.0
220
0.0
230
1.0
 70
     8
 71
     3
 72
    21
 73
    17
 74
     0
 42
0.000000001
 43
0.00000001
 40
0.0
 40
0.0
 40
0.0
 40
0.0
 40
0.0262321281229132
 40
0.1060306622007265
 40
0.1858679197609477
 40
0.2657957483054392
 40
0.3458264253317251
 40
0.4257591244501961
 40
0.5055991195325595
 40
0.5853982211177395
 40
0.6652087929032682
 40
0.7450830432149702
 40
0.8250723208793758
 40
0.9050731387378802
 40
0.9849550099605187
 40
1.0
 40
1.0
 40
1.0
 40
1.0
 10
26.54641517046278
 20
-1.260566565703974
 30
0.0
 10
26.46238854041917
 20
-1.289567689481539
 30
0.0
 10
26.12275161945443
 20
-1.406790674375949
 30
0.0
 10
25.52742999286587
 20
-1.496466321043331
 30
0.0
 10
24.76002688220811
 20
-1.510402295212454
 30
0.0
 10
23.99172805934494
 20
-1.385742770747153
 30
0.0
 10
23.22278541672689
 20
-1.143137087313486
 30
0.0
 10
22.45444841491086
 20
-0.8006488938505348
 30
0.0
 10
21.68701833514793
 20
-0.3889427517805982
 30
0.0
 10
20.92006351022748
 20
0.0563719986314258
 30
0.0
 10
20.15297043770913
 20
0.4970309575717573
 30
0.0
 10
19.38516554039414
 20
0.8939279453815274
 30
0.0
 10
18.616454598937
 20
1.216247592709103
 30
0.0
 10
17.84768556516273
 20
1.421619787804683
 30
0.0
 10
17.28727544531841
 20
1.512856336637534
 30
0.0
 10
16.98320950344359
 20
1.493149577330734
 30
0.0
 10
16.93501799046161
 20
1.490026246446943
 30
0.0
  0
SPLINE
  5
D7
330
1F
100
AcDbEntity
  8
0
  6
Continuous
 62
     1
370
    25
100
AcDbSpline
210
0.0
220
0.0
230
1.0
 70
     8
 71
     3
 72
    10
 73
     6
 74
     0
 42
0.000000001
 43
0.00000001
 40
0.0
 40
0.0
 40
0.0
 40
0.0
 40
0.1551970951278662
 40
0.6273090269661787
 40
1.0
 40
1.0
 40
1.0
 40
1.0
 10
10.22222089235481
 20
-1.260566565703976
 30
0.0
 10
10.13819472903805
 20
-1.289498306951777
 30
0.0
 10
9.798559694590306
 20
-1.406440846602038
 30
0.0
 10
9.257152529839091
 20
-1.492964123283721
 30
0.0
 10
8.799828186371437
 20
-1.495475193772506
 30
0.0
 10
8.5980762113533
 20
-1.496582970862789
 30
0.0
  0
SPLINE
  5
D8
330
1F
100
AcDbEntity
  8
0
  6
Continuous
 62
     4
370
    25
100
AcDbSpline
210
0.0
220
0.0
230
1.0
 70
    24
 71
     3
 72
    14
 73
    10
 74
     0
 42
0.000000001
 43
0.00000001
 40
0.0
 40
0.0
 40
0.0
 40
0.0
 40
0.1307166750070758
 40
0.2756866127769361
 40
0.4165708967670462
 40
0.561540834536768
 40
0.7024251185266329
 40
0.8473950562963757
 40
1.0
 40
1.0
 40
1.0
 40
1.0
 10
8.5980762113533
 20
-0.5786144657265182
 30
0.0
 10
8.5980762113533
 20
-0.59725476006674
 30
0.0
 10
8.5980762113533
 20
-0.636567874537734
 30
0.0
 10
8.5980762113533
 20
-0.7293771568888532
 30
0.0
 10
8.5980762113533
 20
-0.8470466985316186
 30
0.0
 10
8.5980762113533
 20
-0.9848788464498945
 30
0.0
 10
8.5980762113533
 20
-1.140701819657555
 30
0.0
 10
8.5980762113533
 20
-1.311858740096765
 30
0.0
 10
8.5980762113533
 20
-1.433963925627562
 30
0.0
 10
8.5980762113533
 20
-1.496582970862789
 30
0.0
  0
SPLINE
  5
D9
330
1F
100
AcDbEntity
  8
0
  6
Continuous
 62
     1
370
    25
100
AcDbSpline
210
0.0
220
0.0
230
1.0
 70
     8
 71
     3
 72
    11
 73
     7
 74
     0
 42
0.000000001
 43
0.00000001
 40
0.0
 40
0.0
 40
0.0
 40
0.0
 40
0.2506585147943523
 40
0.5010333033956479
 40
0.7512602243961612
 40
0.9999999999999999
 40
0.9999999999999999
 40
0.9999999999999999
 40
0.9999999999999999
 10
8.598076211353298
 20
-0.5551901361359235
 30
0.0
 10
8.85674885143759
 20
-0.6891552662741669
 30
0.0
 10
9.373801334038616
 20
-0.9569338883092493
 30
0.0
 10
10.14883808094629
 20
-1.258685390261127
 30
0.0
 10
10.92181616441939
 20
-1.461812219124329
 30
0.0
 10
11.43652870738605
 20
-1.487036658838267
 30
0.0
 10
11.69311794131547
 20
-1.49961128860189
 30
0.0
  0
SPLINE
  5
DA
330
1F
100
AcDbEntity
  8
0
  6
Continuous
 62
     1
370
    25
100
AcDbSpline
210
0.0
220
0.0
230
1.0
 70
     8
 71
     3
 72
    20
 73
    16
 74
     0
 42
0.000000001
 43
0.00000001
 40
0.0
 40
0.0
 40
0.0
 40
0.0
 40
0.0230849951366968
 40
0.1029794852430845
 40
0.1827590843045613
 40
0.2624750802991287
 40
0.3421796196855722
 40
0.4219250041102706
 40
0.5017629827164872
 40
0.5900021654518636
 40
0.6783412142375007
 40
0.7589677277472832
 40
0.839502978234318
 40
0.9199906658084313
 40
1.0
 40
1.0
 40
1.0
 40
1.0
 10
18.39428240150368
 20
1.257862793166214
 30
0.0
 10
18.46834990906583
 20
1.283828677964185
 30
0.0
 10
18.79875646782072
 20
1.399659477777771
 30
0.0
 10
19.38517036251693
 20
1.491942262423665
 30
0.0
 10
20.15296925383147
 20
1.513452196676546
 30
0.0
 10
20.92006343100076
 20
1.395726748798949
 30
0.0
 10
21.68701983545844
 20
1.159193872204297
 30
0.0
 10
22.45444248645185
 20
0.8214820535800783
 30
0.0
 10
23.24944436008592
 20
0.3986001593466802
 30
0.0
 10
24.07222888469692
 20
-0.0796474046825779
 30
0.0
 10
24.89755364367019
 20
-0.5509401689381428
 30
0.0
 10
25.69798863179757
 20
-0.9547315983060563
 30
0.0
 10
26.47303421873307
 20
-1.259272116236458
 30
0.0
 10
27.24600998094362
 20
-1.461666590124117
 30
0.0
 10
27.76072283193879
 20
-1.486988212387446
 30
0.0
 10
28.01731221942344
 20
-1.49961128860189
 30
0.0
  0
SPLINE
  5
DB
330
1F
100
AcDbEntity
  8
0
  6
Continuous
 62
     1
370
    25
100
AcDbSpline
210
0.0
220
0.0
230
1.0
 70
     8
 71
     3
 72
    12
 73
     8
 74
     0
 42
0.000000001
 43
0.00000001
 40
0.0
 40
0.0
 40
0.0
 40
0.0
 40
0.2196455341773562
 40
0.4389694532200792
 40
0.6581126083065852
 40
0.8772182898486038
 40
1.0
 40
1.0
 40
1.0
 40
1.0
 10
28.5980762113533
 20
0.3322148200944746
 30
0.0
 10
28.34170339181708
 20
0.4734588913583954
 30
0.0
 10
27.82933314566659
 20
0.7557402177942739
 30
0.0
 10
27.06148827413346
 20
1.107686786486509
 30
0.0
 10
26.29437153730435
 20
1.359457328843983
 30
0.0
 10
25.63992688039729
 20
1.492626474469886
 30
0.0
 10
25.24104837103564
 20
1.486205027782677
 30
0.0
 10
25.09779949227621
 20
1.483898899434403
 30
0.0
  0
SPLINE
  5
DC
330
1F
100
AcDbEntity
  8
0
  6
Continuous
 62
     1
370
    25
100
AcDbSpline
210
0.0
220
0.0
230
1.0
 70
     8
 71
     3
 72
    21
 73
    17
 74
     0
 42
0.000000001
 43
0.00000001
 40
0.0
 40
0.0
 40
0.0
 40
0.0
 40
0.0568282837875567
 40
0.1366256923384629
 40
0.2163551839713511
 40
0.2960688670438493
 40
0.3758190640283704
 40
0.4556576033299356
 40
0.5356031689802777
 40
0.6154563044414177
 40
0.6361399514870549
 40
0.7160505180525678
 40
0.795844075876151
 40
0.875571868874558
 40
0.9552860283967258
 40
1.0
 40
1.0
 40
1.0
 40
1.0
 10
18.39428240150368
 20
-1.257862793166212
 30
0.0
 10
18.21196255562198
 20
-1.313076588096837
 30
0.0
 10
17.77363196545758
 20
-1.445820750972337
 30
0.0
 10
17.0797958147423
 20
-1.517112622699001
 30
0.0
 10
16.31266204261906
 20
-1.479204560080178
 30
0.0
 10
15.54571577451825
 20
-1.309142266713883
 30
0.0
 10
14.77836407920633
 20
-1.026603727979318
 30
0.0
 10
14.01003292886059
 20
-0.6546619280676437
 30
0.0
 10
13.24135131752968
 20
-0.2261531027238782
 30
0.0
 10
12.66173363167242
 20
0.1110623739602119
 30
0.0
 10
12.08446942200847
 20
0.440835873257567
 30
0.0
 10
11.50490528110669
 20
0.7543020242140032
 30
0.0
 10
10.73735322314367
 20
1.107748419639796
 30
0.0
 10
9.9701735767575
 20
1.360645666816418
 30
0.0
 10
9.315552978441026
 20
1.488719352344866
 30
0.0
 10
8.916620400532283
 20
1.490871657696469
 30
0.0
 10
8.7732616616451
 20
1.491645101125239
 30
0.0
  0
SPLINE
  5
DD
330
1F
100
AcDbEntity
  8
0
  6
Continuous
 62
     1
370
    25
100
AcDbSpline
210
0.0
220
0.0
230
1.0
 70
     8
 71
     3
 72
    20
 73
    16
 74
     0
 42
0.000000001
 43
0.00000001
 40
0.0
 40
0.0
 40
0.0
 40
0.0
 40
0.0727855409974792
 40
0.1531713250234785
 40
0.2335980890050882
 40
0.3133431884875397
 40
0.3931805931072982
 40
0.4729111161778081
 40
0.5525534164525505
 40
0.632159252216163
 40
0.7117808751522353
 40
0.7914703231192555
 40
0.8712784311978197
 40
0.9510750268808541
 40
1.0
 40
1.0
 40
1.0
 40
1.0
 10
10.22222089235481
 20
1.260566565703977
 30
0.0
 10
10.45593279940595
 20
1.326159389134691
 30
0.0
 10
10.94776073646871
 20
1.464194217745245
 30
0.0
 10
11.69780475355495
 20
1.52070491215807
 30
0.0
 10
12.47028672301617
 20
1.454992319257083
 30
0.0
 10
13.24114611508232
 20
1.259551491814583
 30
0.0
 10
14.01008784797644
 20
0.9564880438394764
 30
0.0
 10
14.77834943350088
 20
0.5700010470882052
 30
0.0
 10
15.54571953248869
 20
0.1342945921597312
 30
0.0
 10
16.3126616417686
 20
-0.3130961255353631
 30
0.0
 10
17.07979365894239
 20
-0.7329765438107869
 30
0.0
 10
17.84768245333788
 20
-1.090933292223232
 30
0.0
 10
18.61645079710359
 20
-1.34858186789326
 30
0.0
 10
19.28637417824838
 20
-1.489282789897666
 30
0.0
 10
19.69972923760204
 20
-1.485824149433527
 30
0.0
 10
19.85683876754119
 20
-1.484509576488904
 30
0.0
  0
SPLINE
  5
DE
330
1F
100
AcDbEntity
  8
0
  6
Continuous
 62
     1
370
    25
100
AcDbSpline
210
0.0
220
0.0
230
1.0
 70
     8
 71
     3
 72
    10
 73
     6
 74
     0
 42
0.000000001
 43
0.00000001
 40
0.0
 40
0.0
 40
0.0
 40
0.0
 40
0.3417399365780091
 40
0.719164248582094
 40
1.0
 40
1.0
 40
1.0
 40
1.0
 10
26.54641517046278
 20
1.260566565703977
 30
0.0
 10
26.78012664559434
 20
1.325814673905672
 30
0.0
 10
27.27195367371706
 20
1.463124077003674
 30
0.0
 10
27.95581982761459
 20
1.520007733322576
 30
0.0
 10
28.4060100224938
 20
1.47987185509397
 30
0.0
 10
28.5980762113533
 20
1.462748547532895
 30
0.0
  0
LINE
  5
DF
330
1F
100
AcDbEntity
  8
0
  6
Continuous
 62
     1
370
    25
100
AcDbLine
 10
28.5980762113533
 20
0.8043077700777151
 30
0.0
 11
28.5980762113533
 21
1.462748547532895
 31
0.0
  0
SPLINE
  5
E0
330
1F
100
AcDbEntity
  8
0
  6
Continuous
 62
     1
370
    25
100
AcDbSpline
210
0.0
220
0.0
230
1.0
 70
     8
 71
     3
 72
    10
 73
     6
 74
     0
 42
0.000000001
 43
0.00000001
 40
0.0
 40
0.0
 40
0.0
 40
0.0
 40
0.3178348521718444
 40
0.6344163191640583
 40
1.0
 40
1.0
 40
1.0
 40
1.0
 10
28.5980762113533
 20
0.8043077700777153
 30
0.0
 10
28.55422522248417
 20
0.7566940471661386
 30
0.0
 10
28.46669617159514
 20
0.661654366574635
 30
0.0
 10
28.28699611897683
 20
0.5890063817516861
 30
0.0
 10
28.16146086724623
 20
0.5974970292119488
 30
0.0
 10
28.09418443198938
 20
0.6020473088049266
 30
0.0
  0
LINE
  5
E1
330
1F
100
AcDbEntity
  8
0
  6
Continuous
 62
     1
370
    25
100
AcDbLine
 10
28.5980762113533
 20
-0.3322148200945015
 30
0.0
 11
28.5980762113533
 21
0.3322148200945036
 31
0.0
  0
LINE
  5
E2
330
1F
100
AcDbEntity
  8
0
  6
Continuous
 62
     1
370
    25
100
AcDbLine
 10
28.5980762113533
 20
1.462748547532895
 30
0.0
 11
28.5980762113533
 21
1.500000000000004
 31
0.0
  0
LINE
  5
E3
330
1F
100
AcDbEntity
  8
0
  6
Continuous
 62
     1
370
    25
100
AcDbLine
 10
28.5980762113533
 20
-1.5
 30
0.0
 11
28.5980762113533
 21
-1.462748547532894
 31
0.0
  0
LINE
  5
E4
330
1F
100
AcDbEntity
  8
0
  6
Continuous
 62
     1
370
    25
100
AcDbLine
 10
28.5980762113533
 20
0.3322148200944765
 30
0.0
 11
28.5980762113533
 21
0.8043077700777151
 31
0.0
  0
LINE
  5
E5
330
1F
100
AcDbEntity
  8
0
  6
Continuous
 62
     1
370
    25
100
AcDbLine
 10
28.5980762113533
 20
-0.4999999999999983
 30
0.0
 11
28.5980762113533
 21
-1.404383063753668
 31
0.0
  0
LINE
  5
E6
330
1F
100
AcDbEntity
  8
중심선
100
AcDbLine
 10
-44.4019237886467
 20
-0.0000000000000043
 30
0.0
 11
31.5980762113533
 21
0.000000000000005
 31
0.0
  0
CIRCLE
  5
E7
330
1F
100
AcDbEntity
  8
해칭선
100
AcDbCircle
 10
-0.0000074587690971
 20
-0.0000000000000041
 30
0.0
 40
3.000000000000003
  0
INSERT
  5
E8
330
1F
100
AcDbEntity
  8
0
  6
Continuous
 62
     7
100
AcDbBlockReference
 66
     1
  2
블럭10
 10
-17.44009924894178
 20
-52.04717430164393
 30
0.0
  0
ATTRIB
  5
E9
330
E8
100
AcDbEntity
  8
FORMAT
 62
     2
100
AcDbText
 10
-33.55936028837733
 20
-49.97180738881174
 30
0.0
 40
4.233333333333333
  1
SEME7203020E [ 4 FLUTE ]
 41
0.75
  7
SLDTEXTSTYLE0
 11
-33.55936028837733
 21
-52.08847405547841
 31
0.0
100
AcDbAttribute
  2
AUTOATTR0
 70
     0
 74
     1
  0
SEQEND
  5
EA
330
E8
100
AcDbEntity
  8
0
  6
Continuous
 62
     7
  0
HATCH
  5
EB
330
1F
100
AcDbEntity
  8
중심선
100
AcDbHatch
 10
0.0
 20
0.0
 30
0.0
210
0.0
220
0.0
230
1.0
  2
SOLID
 70
     1
 71
     0
 91
        1
 92
        0
 93
        4
 72
     1
 10
-11.72518994456093
 20
-35.8
 11
-15.17146518839821
 21
-35.8
 72
     1
 10
-15.17146518839821
 20
-35.8
 11
-17.29969504760223
 21
-38.33632558057262
 72
     1
 10
-17.29969504760223
 20
-38.33632558057262
 11
-13.85338671865177
 21
-38.33628615127013
 72
     1
 10
-13.85338671865177
 20
-38.33628615127013
 11
-11.72518994456093
 21
-35.8
 97
        0
 75
     0
 76
     1
 98
        1
 10
0.0
 20
0.0
  0
HATCH
  5
EC
330
1F
100
AcDbEntity
  8
중심선
100
AcDbHatch
 10
0.0
 20
0.0
 30
0.0
210
0.0
220
0.0
230
1.0
  2
SOLID
 70
     1
 71
     0
 91
        1
 92
        0
 93
        4
 72
     1
 10
-6.71242595352492
 20
-35.8
 11
-10.1587011973622
 21
-35.8
 72
     1
 10
-10.1587011973622
 20
-35.8
 11
-14.68983920571965
 21
-41.20000000000002
 72
     1
 10
-14.68983920571965
 20
-41.20000000000002
 11
-11.24356396188236
 21
-41.20000000000002
 72
     1
 10
-11.24356396188236
 20
-41.20000000000002
 11
-6.71242595352492
 21
-35.8
 97
        0
 75
     0
 76
     1
 98
        1
 10
0.0
 20
0.0
  0
HATCH
  5
ED
330
1F
100
AcDbEntity
  8
중심선
100
AcDbHatch
 10
0.0
 20
0.0
 30
0.0
210
0.0
220
0.0
230
1.0
  2
SOLID
 70
     1
 71
     0
 91
        1
 92
        0
 93
        4
 72
     1
 10
-1.69966196248908
 20
-35.8
 11
-5.145937206326168
 21
-35.8
 72
     1
 10
-5.145937206326168
 20
-35.8
 11
-12.19437410821545
 21
-44.20000000000002
 72
     1
 10
-12.19437410821545
 20
-44.20000000000002
 11
-8.748098864378163
 21
-44.20000000000002
 72
     1
 10
-8.748098864378163
 20
-44.20000000000002
 11
-1.699661962489079
 21
-35.8
 97
        0
 75
     0
 76
     1
 98
        1
 10
0.0
 20
0.0
  0
HATCH
  5
EE
330
1F
100
AcDbEntity
  8
중심선
100
AcDbHatch
 10
0.0
 20
0.0
 30
0.0
210
0.0
220
0.0
230
1.0
  2
SOLID
 70
     1
 71
     0
 91
        1
 92
        0
 93
        6
 72
     3
 10
3.100228468523119
 20
-40.00000000005127
 11
3.960054785062284
 21
1.540850780301639E-10
 40
0.3939339440162633
 50
17.09539180608433
 51
320.0019657685079
 73
     0
 72
     1
 10
4.783228124223715
 20
-38.5878940046383
 11
7.088529997924753
 21
-36.65356729459038
 72
     3
 10
3.100228468470273
 20
-40.00000000000015
 11
6.600054785286829
 21
-1.249000902703301E-13
 40
0.6363583540795982
 50
39.99873849337408
 51
368.4976242363725
 73
     1
 72
     1
 10
9.525560960370882
 20
-39.03999999993002
 11
1.780295775306195
 21
-39.03999999993002
 72
     1
 10
1.780295775306195
 20
-39.03999999993002
 11
1.780270730860262
 21
-40.95999999992991
 72
     1
 10
1.780270730860262
 20
-40.95999999992991
 11
6.221650500332299
 21
-40.95999999992988
 97
        0
 75
     0
 76
     1
 98
        1
 10
0.0
 20
0.0
  0
DIMENSION
  5
EF
330
1F
100
AcDbEntity
  8
치수문자_일반주서
100
AcDbDimension
  2
_D
 10
40.1352269382063
 20
1.500000000000046
 30
0.0
 11
40.13522693820628
 21
11.16650000000005
 31
0.0
 70
   160
  1
%%c<>
 71
     2
 42
3.000000000000008
 52
-270.0
  3
SLDDIMSTYLE0
100
AcDbAlignedDimension
 13
28.59807621135333
 23
-1.500000000000004
 33
0.0
 14
28.59807621135333
 24
1.500000000000004
 34
0.0
 50
90.0000000000002
100
AcDbRotatedDimension
  0
DIMENSION
  5
FD
330
1F
100
AcDbEntity
  8
치수문자_일반주서
100
AcDbDimension
  2
_D_1
 10
28.59807621135329
 20
20.38913260158165
 30
0.0
 11
-6.401923788646696
 21
20.38913260158165
 31
0.0
 70
   160
  1
<>
 71
     2
 42
70.0
  3
SLDDIMSTYLE1
100
AcDbAlignedDimension
 13
-41.4019237886467
 23
2.499999999999994
 33
0.0
 14
28.5980762113533
 24
1.500000000000002
 34
0.0
 50
-0.0000000000000058
100
AcDbRotatedDimension
  0
DIMENSION
  5
108
330
1F
100
AcDbEntity
  8
치수문자_일반주서
100
AcDbDimension
  2
_D_2
 10
-51.30345790978427
 20
-3.000000000000041
 30
0.0
 11
-51.30345790978433
 21
12.66649999999996
 31
0.0
 70
   160
  1
%%c<>
 71
     2
 42
6.000000000000005
 52
-270.0
  3
SLDDIMSTYLE2
100
AcDbAlignedDimension
 13
-40.90192378864668
 23
3.000000000000003
 33
0.0
 14
-40.90192378864668
 24
-3.000000000000002
 34
0.0
 50
90.0000000000002
100
AcDbRotatedDimension
  0
DIMENSION
  5
116
330
1F
100
AcDbEntity
  8
치수문자_일반주서
100
AcDbDimension
  2
_D_3
 10
28.59807621135329
 20
12.34591830258765
 30
0.0
 11
18.5980762113533
 21
12.34591830258765
 31
0.0
 70
   160
  1
<>
 71
     2
 42
20.0
  3
SLDDIMSTYLE2
100
AcDbAlignedDimension
 13
8.5980762113533
 23
1.5
 33
0.0
 14
28.5980762113533
 24
1.500000000000002
 34
0.0
 50
0.0000000000000051
100
AcDbRotatedDimension
  0
INSERT
  5
126
330
1F
100
AcDbEntity
  8
해칭선
100
AcDbBlockReference
  2
SW_DOWELSYMBOL_0
 10
-0.0000074587690971
 20
-0.0000000000000041
 30
0.0
  0
ENDSEC
  0
SECTION
  2
OBJECTS
  0
DICTIONARY
  5
C
330
0
100
AcDbDictionary
281
     1
  3
ACAD_GROUP
350
D
  3
ACAD_IMAGE_VARS
350
14A
  3
ACAD_LAYOUT
350
1A
  3
ACAD_MLINESTYLE
350
17
  3
ACAD_PLOTSETTINGS
350
19
  3
ACAD_PLOTSTYLENAME
350
E
  3
ACAD_SCALELIST
350
47
  3
APPDATA
350
148
  3
DWGPROPS
350
15B
  0
DICTIONARY
  5
D
102
{ACAD_REACTORS
330
C
102
}
330
C
100
AcDbDictionary
281
     1
  0
RASTERVARIABLES
  5
14A
102
{ACAD_REACTORS
330
C
102
}
330
C
100
AcDbRasterVariables
 90
        0
 70
     1
 71
     1
 72
     1
  0
DICTIONARY
  5
1A
102
{ACAD_REACTORS
330
C
102
}
330
C
100
AcDbDictionary
281
     1
  3
Layout1
350
1E
  3
Layout2
350
26
  3
Model
350
22
  0
DICTIONARY
  5
17
102
{ACAD_REACTORS
330
C
102
}
330
C
100
AcDbDictionary
281
     1
  3
Standard
350
18
  0
DICTIONARY
  5
19
102
{ACAD_REACTORS
330
C
102
}
330
C
100
AcDbDictionary
281
     1
  0
ACDBDICTIONARYWDFLT
  5
E
102
{ACAD_REACTORS
330
C
102
}
330
C
100
AcDbDictionary
281
     1
  3
Normal
350
F
100
AcDbDictionaryWithDefault
340
F
  0
DICTIONARY
  5
47
102
{ACAD_REACTORS
330
C
102
}
330
C
100
AcDbDictionary
281
     1
  3
A0
350
48
  3
A1
350
49
  3
A2
350
4A
  3
A3
350
4B
  3
A4
350
4C
  3
A5
350
4D
  3
A6
350
4E
  3
A7
350
4F
  3
A8
350
50
  3
A9
350
51
  3
B0
350
52
  3
B1
350
53
  3
B2
350
54
  3
B3
350
55
  3
B4
350
56
  3
B5
350
57
  3
B6
350
58
  3
B7
350
59
  3
B8
350
5A
  3
B9
350
5B
  3
C0
350
5C
  3
C1
350
5D
  3
C2
350
5E
  3
C3
350
5F
  3
C4
350
60
  3
C5
350
61
  3
C6
350
62
  3
C7
350
63
  3
C8
350
64
  3
C9
350
65
  3
D0
350
66
  3
D1
350
67
  3
D2
350
68
  0
DICTIONARY
  5
148
102
{ACAD_REACTORS
330
C
102
}
330
C
100
AcDbDictionary
281
     1
  0
XRECORD
  5
15B
102
{ACAD_REACTORS
330
C
102
}
330
C
100
AcDbXrecord
280
     1
  1
DWGPROPS COOKIE
  2

  3

  4

  6

  7

  8
12014102
  9

300
=
301
=
302
=
303
=
304
=
305
=
306
=
307
=
308
=
309
=
 40
0.0
 41
2458260.195596979
 42
2458268.116372291
  1

 90
        0
  0
LAYOUT
  5
1E
102
{ACAD_REACTORS
330
1A
102
}
330
1A
100
AcDbPlotSettings
  1

  2
none_device
  4

  6

 40
0.0
 41
0.0
 42
0.0
 43
0.0
 44
0.0
 45
0.0
 46
0.0
 47
0.0
 48
0.0
 49
0.0
140
0.0
141
0.0
142
1.0
143
1.0
 70
   688
 72
     1
 73
     0
 74
     5
  7

 75
    16
147
1.0
148
0.0
149
0.0
100
AcDbLayout
  1
Layout1
 70
     1
 71
     1
 10
0.0
 20
0.0
 11
420.0
 21
297.0
 12
0.0
 22
0.0
 32
0.0
 14
1.000000000000000E+20
 24
1.000000000000000E+20
 34
1.000000000000000E+20
 15
-1.000000000000000E+20
 25
-1.000000000000000E+20
 35
-1.000000000000000E+20
146
0.0
 13
0.0
 23
0.0
 33
0.0
 16
1.0
 26
0.0
 36
0.0
 17
0.0
 27
1.0
 37
0.0
 76
     0
330
1B
  0
LAYOUT
  5
26
102
{ACAD_REACTORS
330
1A
102
}
330
1A
100
AcDbPlotSettings
  1

  2
none_device
  4

  6

 40
0.0
 41
0.0
 42
0.0
 43
0.0
 44
0.0
 45
0.0
 46
0.0
 47
0.0
 48
0.0
 49
0.0
140
0.0
141
0.0
142
1.0
143
1.0
 70
   688
 72
     1
 73
     0
 74
     5
  7

 75
    16
147
1.0
148
0.0
149
0.0
100
AcDbLayout
  1
Layout2
 70
     1
 71
     2
 10
0.0
 20
0.0
 11
0.0
 21
0.0
 12
0.0
 22
0.0
 32
0.0
 14
0.0
 24
0.0
 34
0.0
 15
0.0
 25
0.0
 35
0.0
146
0.0
 13
0.0
 23
0.0
 33
0.0
 16
1.0
 26
0.0
 36
0.0
 17
0.0
 27
1.0
 37
0.0
 76
     0
330
23
  0
LAYOUT
  5
22
102
{ACAD_REACTORS
330
1A
102
}
330
1A
100
AcDbPlotSettings
  1

  2
none_device
  4
ANSI_A_(11.00_x_8.50_Inches)
  6

 40
6.35
 41
19.05
 42
6.35000508
 43
19.05000254
 44
279.4
 45
215.9
 46
144.2343710379358
 47
122.9471696842158
 48
0.0
 49
0.0
140
0.0
141
0.0
142
0.103850072157585
143
1.0
 70
  1696
 72
     0
 73
     0
 74
     0
  7

 75
     0
147
0.0235690232323232
148
0.0
149
0.0
100
AcDbLayout
  1
Model
 70
     1
 71
     0
 10
0.0
 20
0.0
 11
420.0
 21
297.0
 12
0.0
 22
0.0
 32
0.0
 14
-55.67845790978433
 24
-49.97180738881174
 34
0.0
 15
40.68556027153965
 25
24.76413260158165
 35
0.0
146
0.0
 13
0.0
 23
0.0
 33
0.0
 16
1.0
 26
0.0
 36
0.0
 17
0.0
 27
1.0
 37
0.0
 76
     0
330
1F
331
29
  0
MLINESTYLE
  5
18
102
{ACAD_REACTORS
330
17
102
}
330
17
100
AcDbMlineStyle
  2
Standard
 70
     0
  3

 62
   256
 51
90.0
 52
90.0
 71
     2
 49
0.5
 62
   256
  6
BYLAYER
 49
-0.5
 62
   256
  6
BYLAYER
  0
ACDBPLACEHOLDER
  5
F
102
{ACAD_REACTORS
330
E
102
}
330
E
  0
SCALE
  5
48
102
{ACAD_REACTORS
330
47
102
}
330
47
100
AcDbScale
 70
     0
300
1:1
140
1.0
141
1.0
290
     1
  0
SCALE
  5
49
102
{ACAD_REACTORS
330
47
102
}
330
47
100
AcDbScale
 70
     0
300
1:2
140
1.0
141
2.0
290
     0
  0
SCALE
  5
4A
102
{ACAD_REACTORS
330
47
102
}
330
47
100
AcDbScale
 70
     0
300
1:4
140
1.0
141
4.0
290
     0
  0
SCALE
  5
4B
102
{ACAD_REACTORS
330
47
102
}
330
47
100
AcDbScale
 70
     0
300
1:5
140
1.0
141
5.0
290
     0
  0
SCALE
  5
4C
102
{ACAD_REACTORS
330
47
102
}
330
47
100
AcDbScale
 70
     0
300
1:8
140
1.0
141
8.0
290
     0
  0
SCALE
  5
4D
102
{ACAD_REACTORS
330
47
102
}
330
47
100
AcDbScale
 70
     0
300
1:10
140
1.0
141
10.0
290
     0
  0
SCALE
  5
4E
102
{ACAD_REACTORS
330
47
102
}
330
47
100
AcDbScale
 70
     0
300
1:16
140
1.0
141
16.0
290
     0
  0
SCALE
  5
4F
102
{ACAD_REACTORS
330
47
102
}
330
47
100
AcDbScale
 70
     0
300
1:20
140
1.0
141
20.0
290
     0
  0
SCALE
  5
50
102
{ACAD_REACTORS
330
47
102
}
330
47
100
AcDbScale
 70
     0
300
1:30
140
1.0
141
30.0
290
     0
  0
SCALE
  5
51
102
{ACAD_REACTORS
330
47
102
}
330
47
100
AcDbScale
 70
     0
300
1:40
140
1.0
141
40.0
290
     0
  0
SCALE
  5
52
102
{ACAD_REACTORS
330
47
102
}
330
47
100
AcDbScale
 70
     0
300
1:50
140
1.0
141
50.0
290
     0
  0
SCALE
  5
53
102
{ACAD_REACTORS
330
47
102
}
330
47
100
AcDbScale
 70
     0
300
1:100
140
1.0
141
100.0
290
     0
  0
SCALE
  5
54
102
{ACAD_REACTORS
330
47
102
}
330
47
100
AcDbScale
 70
     0
300
2:1
140
2.0
141
1.0
290
     0
  0
SCALE
  5
55
102
{ACAD_REACTORS
330
47
102
}
330
47
100
AcDbScale
 70
     0
300
4:1
140
4.0
141
1.0
290
     0
  0
SCALE
  5
56
102
{ACAD_REACTORS
330
47
102
}
330
47
100
AcDbScale
 70
     0
300
8:1
140
8.0
141
1.0
290
     0
  0
SCALE
  5
57
102
{ACAD_REACTORS
330
47
102
}
330
47
100
AcDbScale
 70
     0
300
10:1
140
10.0
141
1.0
290
     0
  0
SCALE
  5
58
102
{ACAD_REACTORS
330
47
102
}
330
47
100
AcDbScale
 70
     0
300
100:1
140
100.0
141
1.0
290
     0
  0
SCALE
  5
59
102
{ACAD_REACTORS
330
47
102
}
330
47
100
AcDbScale
 70
     0
300
1/128" = 1'-0"
140
0.0078125
141
12.0
290
     0
  0
SCALE
  5
5A
102
{ACAD_REACTORS
330
47
102
}
330
47
100
AcDbScale
 70
     0
300
1/64" = 1'-0"
140
0.015625
141
12.0
290
     0
  0
SCALE
  5
5B
102
{ACAD_REACTORS
330
47
102
}
330
47
100
AcDbScale
 70
     0
300
1/32" = 1'-0"
140
0.03125
141
12.0
290
     0
  0
SCALE
  5
5C
102
{ACAD_REACTORS
330
47
102
}
330
47
100
AcDbScale
 70
     0
300
1/16" = 1'-0"
140
0.0625
141
12.0
290
     0
  0
SCALE
  5
5D
102
{ACAD_REACTORS
330
47
102
}
330
47
100
AcDbScale
 70
     0
300
3/32" = 1'-0"
140
0.09375
141
12.0
290
     0
  0
SCALE
  5
5E
102
{ACAD_REACTORS
330
47
102
}
330
47
100
AcDbScale
 70
     0
300
1/8" = 1'-0"
140
0.125
141
12.0
290
     0
  0
SCALE
  5
5F
102
{ACAD_REACTORS
330
47
102
}
330
47
100
AcDbScale
 70
     0
300
3/16" = 1'-0"
140
0.1875
141
12.0
290
     0
  0
SCALE
  5
60
102
{ACAD_REACTORS
330
47
102
}
330
47
100
AcDbScale
 70
     0
300
1/4" = 1'-0"
140
0.25
141
12.0
290
     0
  0
SCALE
  5
61
102
{ACAD_REACTORS
330
47
102
}
330
47
100
AcDbScale
 70
     0
300
3/8" = 1'-0"
140
0.375
141
12.0
290
     0
  0
SCALE
  5
62
102
{ACAD_REACTORS
330
47
102
}
330
47
100
AcDbScale
 70
     0
300
1/2" = 1'-0"
140
0.5
141
12.0
290
     0
  0
SCALE
  5
63
102
{ACAD_REACTORS
330
47
102
}
330
47
100
AcDbScale
 70
     0
300
3/4" = 1'-0"
140
0.75
141
12.0
290
     0
  0
SCALE
  5
64
102
{ACAD_REACTORS
330
47
102
}
330
47
100
AcDbScale
 70
     0
300
1" = 1'-0"
140
1.0
141
12.0
290
     0
  0
SCALE
  5
65
102
{ACAD_REACTORS
330
47
102
}
330
47
100
AcDbScale
 70
     0
300
1-1/2" = 1'-0"
140
1.5
141
12.0
290
     0
  0
SCALE
  5
66
102
{ACAD_REACTORS
330
47
102
}
330
47
100
AcDbScale
 70
     0
300
3" = 1'-0"
140
3.0
141
12.0
290
     0
  0
SCALE
  5
67
102
{ACAD_REACTORS
330
47
102
}
330
47
100
AcDbScale
 70
     0
300
6" = 1'-0"
140
6.0
141
12.0
290
     0
  0
SCALE
  5
68
102
{ACAD_REACTORS
330
47
102
}
330
47
100
AcDbScale
 70
     0
300
1'-0" = 1'-0"
140
12.0
141
12.0
290
     0
  0
ENDSEC
  0
EOF
