  0
SECTION
  2
HEADER
  9
$ACADVER
  1
AC1015
  9
$ACADMAINTVER
 70
     6
  9
$DWGCODEPAGE
  3
ANSI_949
  9
$INSBASE
 10
0.0
 20
0.0
 30
0.0
  9
$EXTMIN
 10
-50.37668928745303
 20
-49.97180738881174
 30
0.0
  9
$EXTMAX
 10
46.02037690630839
 20
24.76413260158165
 30
0.0
  9
$LIMMIN
 10
0.0
 20
0.0
  9
$LIMMAX
 10
420.0
 20
297.0
  9
$ORTHOMODE
 70
     0
  9
$REGENMODE
 70
     1
  9
$FILLMODE
 70
     1
  9
$QTEXTMODE
 70
     0
  9
$MIRRTEXT
 70
     1
  9
$LTSCALE
 40
1.0
  9
$ATTMODE
 70
     1
  9
$TEXTSIZE
 40
3.5
  9
$TRACEWID
 40
1.0
  9
$TEXTSTYLE
  7
Standard
  9
$CLAYER
  8
0
  9
$CELTYPE
  6
ByLayer
  9
$CECOLOR
 62
   256
  9
$CELTSCALE
 40
1.0
  9
$DISPSILH
 70
     0
  9
$DIMSCALE
 40
1.0
  9
$DIMASZ
 40
3.302
  9
$DIMEXO
 40
1.0
  9
$DIMDLI
 40
3.75
  9
$DIMRND
 40
0.0
  9
$DIMDLE
 40
0.0
  9
$DIMEXE
 40
1.0
  9
$DIMTP
 40
0.0
  9
$DIMTM
 40
0.0
  9
$DIMTXT
 40
3.5
  9
$DIMCEN
 40
2.5
  9
$DIMTSZ
 40
0.0
  9
$DIMTOL
 70
     0
  9
$DIMLIM
 70
     0
  9
$DIMTIH
 70
     1
  9
$DIMTOH
 70
     1
  9
$DIMSE1
 70
     0
  9
$DIMSE2
 70
     0
  9
$DIMTAD
 70
     1
  9
$DIMZIN
 70
     0
  9
$DIMBLK
  1

  9
$DIMASO
 70
     1
  9
$DIMSHO
 70
     1
  9
$DIMPOST
  1

  9
$DIMAPOST
  1

  9
$DIMALT
 70
     0
  9
$DIMALTD
 70
     3
  9
$DIMALTF
 40
0.0393700787401575
  9
$DIMLFAC
 40
1.0
  9
$DIMTOFL
 70
     1
  9
$DIMTVP
 40
0.0
  9
$DIMTIX
 70
     0
  9
$DIMSOXD
 70
     0
  9
$DIMSAH
 70
     0
  9
$DIMBLK1
  1

  9
$DIMBLK2
  1

  9
$DIMSTYLE
  2
ISO-25
  9
$DIMCLRD
 70
     0
  9
$DIMCLRE
 70
     0
  9
$DIMCLRT
 70
     0
  9
$DIMTFAC
 40
1.0
  9
$DIMGAP
 40
1.524
  9
$DIMJUST
 70
     0
  9
$DIMSD1
 70
     0
  9
$DIMSD2
 70
     0
  9
$DIMTOLJ
 70
     0
  9
$DIMTZIN
 70
     0
  9
$DIMALTZ
 70
     0
  9
$DIMALTTZ
 70
     0
  9
$DIMUPT
 70
     0
  9
$DIMDEC
 70
     2
  9
$DIMTDEC
 70
     2
  9
$DIMALTU
 70
     2
  9
$DIMALTTD
 70
     3
  9
$DIMTXSTY
  7
Standard
  9
$DIMAUNIT
 70
     0
  9
$DIMADEC
 70
     2
  9
$DIMALTRND
 40
0.0
  9
$DIMAZIN
 70
     0
  9
$DIMDSEP
 70
    44
  9
$DIMATFIT
 70
     3
  9
$DIMFRAC
 70
     0
  9
$DIMLDRBLK
  1

  9
$DIMLUNIT
 70
     2
  9
$DIMLWD
 70
    -2
  9
$DIMLWE
 70
    -2
  9
$DIMTMOVE
 70
     0
  9
$LUNITS
 70
     2
  9
$LUPREC
 70
     2
  9
$SKETCHINC
 40
1.0
  9
$FILLETRAD
 40
10.0
  9
$AUNITS
 70
     0
  9
$AUPREC
 70
     2
  9
$MENU
  1
.
  9
$ELEVATION
 40
0.0
  9
$PELEVATION
 40
0.0
  9
$THICKNESS
 40
0.0
  9
$LIMCHECK
 70
     0
  9
$CHAMFERA
 40
0.0
  9
$CHAMFERB
 40
0.0
  9
$CHAMFERC
 40
0.0
  9
$CHAMFERD
 40
0.0
  9
$SKPOLY
 70
     0
  9
$TDCREATE
 40
2458260.57078603
  9
$TDUCREATE
 40
2458260.19578603
  9
$TDUPDATE
 40
2458268.492702523
  9
$TDUUPDATE
 40
2458268.117702523
  9
$TDINDWG
 40
0.0011822106
  9
$TDUSRTIMER
 40
2458268.116520335
  9
$USRTIMER
 70
     1
  9
$ANGBASE
 50
0.0
  9
$ANGDIR
 70
     0
  9
$PDMODE
 70
     0
  9
$PDSIZE
 40
-1.0
  9
$PLINEWID
 40
0.0
  9
$SPLFRAME
 70
     0
  9
$SPLINETYPE
 70
     6
  9
$SPLINESEGS
 70
     8
  9
$HANDSEED
  5
166
  9
$SURFTAB1
 70
     6
  9
$SURFTAB2
 70
     6
  9
$SURFTYPE
 70
     6
  9
$SURFU
 70
     6
  9
$SURFV
 70
     6
  9
$UCSBASE
  2

  9
$UCSNAME
  2

  9
$UCSORG
 10
0.0
 20
0.0
 30
0.0
  9
$UCSXDIR
 10
1.0
 20
0.0
 30
0.0
  9
$UCSYDIR
 10
0.0
 20
1.0
 30
0.0
  9
$UCSORTHOREF
  2

  9
$UCSORTHOVIEW
 70
     0
  9
$UCSORGTOP
 10
0.0
 20
0.0
 30
0.0
  9
$UCSORGBOTTOM
 10
0.0
 20
0.0
 30
0.0
  9
$UCSORGLEFT
 10
0.0
 20
0.0
 30
0.0
  9
$UCSORGRIGHT
 10
0.0
 20
0.0
 30
0.0
  9
$UCSORGFRONT
 10
0.0
 20
0.0
 30
0.0
  9
$UCSORGBACK
 10
0.0
 20
0.0
 30
0.0
  9
$PUCSBASE
  2

  9
$PUCSNAME
  2

  9
$PUCSORG
 10
0.0
 20
0.0
 30
0.0
  9
$PUCSXDIR
 10
1.0
 20
0.0
 30
0.0
  9
$PUCSYDIR
 10
0.0
 20
1.0
 30
0.0
  9
$PUCSORTHOREF
  2

  9
$PUCSORTHOVIEW
 70
     0
  9
$PUCSORGTOP
 10
0.0
 20
0.0
 30
0.0
  9
$PUCSORGBOTTOM
 10
0.0
 20
0.0
 30
0.0
  9
$PUCSORGLEFT
 10
0.0
 20
0.0
 30
0.0
  9
$PUCSORGRIGHT
 10
0.0
 20
0.0
 30
0.0
  9
$PUCSORGFRONT
 10
0.0
 20
0.0
 30
0.0
  9
$PUCSORGBACK
 10
0.0
 20
0.0
 30
0.0
  9
$USERI1
 70
     0
  9
$USERI2
 70
     0
  9
$USERI3
 70
     0
  9
$USERI4
 70
     0
  9
$USERI5
 70
     0
  9
$USERR1
 40
0.0
  9
$USERR2
 40
0.0
  9
$USERR3
 40
0.0
  9
$USERR4
 40
0.0
  9
$USERR5
 40
0.0
  9
$WORLDVIEW
 70
     1
  9
$SHADEDGE
 70
     3
  9
$SHADEDIF
 70
    70
  9
$TILEMODE
 70
     1
  9
$MAXACTVP
 70
    64
  9
$PINSBASE
 10
0.0
 20
0.0
 30
0.0
  9
$PLIMCHECK
 70
     0
  9
$PEXTMIN
 10
1.000000000000000E+20
 20
1.000000000000000E+20
 30
1.000000000000000E+20
  9
$PEXTMAX
 10
-1.000000000000000E+20
 20
-1.000000000000000E+20
 30
-1.000000000000000E+20
  9
$PLIMMIN
 10
0.0
 20
0.0
  9
$PLIMMAX
 10
0.0
 20
0.0
  9
$UNITMODE
 70
     0
  9
$VISRETAIN
 70
     1
  9
$PLINEGEN
 70
     0
  9
$PSLTSCALE
 70
     1
  9
$TREEDEPTH
 70
  3020
  9
$CMLSTYLE
  2
Standard
  9
$CMLJUST
 70
     0
  9
$CMLSCALE
 40
20.0
  9
$PROXYGRAPHICS
 70
     1
  9
$MEASUREMENT
 70
     1
  9
$CELWEIGHT
370
    -1
  9
$ENDCAPS
280
     0
  9
$JOINSTYLE
280
     0
  9
$LWDISPLAY
290
     1
  9
$INSUNITS
 70
     4
  9
$HYPERLINKBASE
  1

  9
$STYLESHEET
  1

  9
$XEDIT
290
     1
  9
$CEPSNTYPE
380
     0
  9
$PSTYLEMODE
290
     1
  9
$FINGERPRINTGUID
  2
{DD5DE682-3CDD-4D37-A135-1ADAC1E216EA}
  9
$VERSIONGUID
  2
{FAEB1C32-E019-11D5-929B-00C0DF256EC4}
  9
$EXTNAMES
290
     1
  9
$PSVPSCALE
 40
0.0
  9
$OLESTARTUP
290
     0
  0
ENDSEC
  0
SECTION
  2
CLASSES
  0
CLASS
  1
ACDBDICTIONARYWDFLT
  2
AcDbDictionaryWithDefault
  3
ObjectDBX Classes
 90
        0
280
     0
281
     0
  0
CLASS
  1
VISUALSTYLE
  2
AcDbVisualStyle
  3
ObjectDBX Classes
 90
     4095
280
     0
281
     0
  0
CLASS
  1
MATERIAL
  2
AcDbMaterial
  3
ObjectDBX Classes
 90
     1153
280
     0
281
     0
  0
CLASS
  1
SCALE
  2
AcDbScale
  3
ObjectDBX Classes
 90
     1153
280
     0
281
     0
  0
CLASS
  1
TABLESTYLE
  2
AcDbTableStyle
  3
ObjectDBX Classes
 90
     4095
280
     0
281
     0
  0
CLASS
  1
MLEADERSTYLE
  2
AcDbMLeaderStyle
  3
ACDB_MLEADERSTYLE_CLASS
 90
     4095
280
     0
281
     0
  0
CLASS
  1
SUN
  2
AcDbSun
  3
SCENEOE
 90
     1153
280
     0
281
     0
  0
CLASS
  1
ACDBPLACEHOLDER
  2
AcDbPlaceHolder
  3
ObjectDBX Classes
 90
        0
280
     0
281
     0
  0
CLASS
  1
LAYOUT
  2
AcDbLayout
  3
ObjectDBX Classes
 90
        0
280
     0
281
     0
  0
CLASS
  1
RASTERVARIABLES
  2
AcDbRasterVariables
  3
ISM
 90
        0
280
     0
281
     0
  0
ENDSEC
  0
SECTION
  2
TABLES
  0
TABLE
  2
VPORT
  5
8
330
0
100
AcDbSymbolTable
 70
     1
  0
VPORT
  5
29
330
8
100
AcDbSymbolTableRecord
100
AcDbViewportTableRecord
  2
*Active
 70
     0
 10
0.0
 20
0.0
 11
1.0
 21
1.0
 12
-2.178156190572324
 22
-12.60383739361504
 13
0.0
 23
0.0
 14
10.0
 24
10.0
 15
10.0
 25
10.0
 16
0.0
 26
0.0
 36
1.0
 17
0.0
 27
0.0
 37
0.0
 40
76.23065879020126
 41
1.737726098191214
 42
50.0
 43
0.0
 44
0.0
 50
0.0
 51
0.0
 71
    16
 72
  2000
 73
     1
 74
     3
 75
     0
 76
     0
 77
     0
 78
     0
281
     0
 65
     1
110
0.0
120
0.0
130
0.0
111
1.0
121
0.0
131
0.0
112
0.0
122
1.0
132
0.0
 79
     0
146
0.0
  0
ENDTAB
  0
TABLE
  2
LTYPE
  5
5
330
0
100
AcDbSymbolTable
 70
     6
  0
LTYPE
  5
14
330
5
100
AcDbSymbolTableRecord
100
AcDbLinetypeTableRecord
  2
ByBlock
 70
     0
  3

 72
    65
 73
     0
 40
0.0
  0
LTYPE
  5
15
330
5
100
AcDbSymbolTableRecord
100
AcDbLinetypeTableRecord
  2
ByLayer
 70
     0
  3

 72
    65
 73
     0
 40
0.0
  0
LTYPE
  5
16
330
5
100
AcDbSymbolTableRecord
100
AcDbLinetypeTableRecord
  2
Continuous
 70
     0
  3
Solid line
 72
    65
 73
     0
 40
0.0
  0
LTYPE
  5
6E
330
5
100
AcDbSymbolTableRecord
100
AcDbLinetypeTableRecord
  2
HIDDEN
 70
     0
  3
Hidden __ __ __ __ __ __ __ __ __ __ __ __ __ __
 72
    65
 73
     2
 40
1.905
 49
1.27
 74
     0
 49
-0.635
 74
     0
  0
LTYPE
  5
6F
330
5
100
AcDbSymbolTableRecord
100
AcDbLinetypeTableRecord
  2
PHANTOM
 70
     0
  3
Phantom ______  __  __  ______  __  __  ______
 72
    65
 73
     6
 40
12.7
 49
6.35
 74
     0
 49
-1.27
 74
     0
 49
1.27
 74
     0
 49
-1.27
 74
     0
 49
1.27
 74
     0
 49
-1.27
 74
     0
  0
LTYPE
  5
70
330
5
100
AcDbSymbolTableRecord
100
AcDbLinetypeTableRecord
  2
CENTER
 70
     0
  3
Center ____ _ ____ _ ____ _ ____ _ ____ _ ____
 72
    65
 73
     4
 40
10.16
 49
6.35
 74
     0
 49
-1.27
 74
     0
 49
1.27
 74
     0
 49
-1.27
 74
     0
  0
LTYPE
  5
71
330
5
100
AcDbSymbolTableRecord
100
AcDbLinetypeTableRecord
  2
CENTERX2
 70
     0
  3
Center (2x) ________  __  ________  __  _____
 72
    65
 73
     4
 40
20.32
 49
12.7
 74
     0
 49
-2.54
 74
     0
 49
2.54
 74
     0
 49
-2.54
 74
     0
  0
LTYPE
  5
72
330
5
100
AcDbSymbolTableRecord
100
AcDbLinetypeTableRecord
  2
DOT2
 70
     0
  3
Dot (.5x) ........................................
 72
    65
 73
     2
 40
0.635
 49
0.0
 74
     0
 49
-0.635
 74
     0
  0
ENDTAB
  0
TABLE
  2
LAYER
  5
2
330
0
100
AcDbSymbolTable
 70
    17
  0
LAYER
  5
10
330
2
100
AcDbSymbolTableRecord
100
AcDbLayerTableRecord
  2
0
 70
     0
 62
     7
  6
Continuous
370
    -3
390
F
  0
LAYER
  5
73
330
2
100
AcDbSymbolTableRecord
100
AcDbLayerTableRecord
  2
FORMAT
 70
     0
 62
     2
  6
Continuous
370
    -3
390
F
  0
LAYER
  5
74
330
2
100
AcDbSymbolTableRecord
100
AcDbLayerTableRecord
  2
외형선
 70
     0
 62
   100
  6
Continuous
370
    35
390
F
  0
LAYER
  5
75
330
2
100
AcDbSymbolTableRecord
100
AcDbLayerTableRecord
  2
숨은선
 70
     0
 62
     2
  6
HIDDEN
370
    25
390
F
  0
LAYER
  5
76
330
2
100
AcDbSymbolTableRecord
100
AcDbLayerTableRecord
  2
중심선
 70
     0
 62
     1
  6
CENTERX2
370
    -3
390
F
  0
LAYER
  5
77
330
2
100
AcDbSymbolTableRecord
100
AcDbLayerTableRecord
  2
파단선
 70
     0
 62
     4
  6
Continuous
370
    -3
390
F
  0
LAYER
  5
78
330
2
100
AcDbSymbolTableRecord
100
AcDbLayerTableRecord
  2
해칭선
 70
     0
 62
   100
  6
Continuous
370
    -3
390
F
  0
LAYER
  5
79
330
2
100
AcDbSymbolTableRecord
100
AcDbLayerTableRecord
  2
가는실선
 70
     0
 62
     4
  6
Continuous
370
    -3
390
F
  0
LAYER
  5
7A
330
2
100
AcDbSymbolTableRecord
100
AcDbLayerTableRecord
  2
치수_보조선
 70
     0
 62
     4
  6
Continuous
370
    -3
390
F
  0
LAYER
  5
7B
330
2
100
AcDbSymbolTableRecord
100
AcDbLayerTableRecord
  2
치수문자_일반주서
 70
     0
 62
     7
  6
Continuous
370
    25
390
F
  0
LAYER
  5
7C
330
2
100
AcDbSymbolTableRecord
100
AcDbLayerTableRecord
  2
개별주서
 70
     0
 62
   100
  6
Continuous
370
    35
390
F
  0
LAYER
  5
7D
330
2
100
AcDbSymbolTableRecord
100
AcDbLayerTableRecord
  2
중간선
 70
     0
 62
     2
  6
Continuous
370
    25
390
F
  0
LAYER
  5
7E
330
2
100
AcDbSymbolTableRecord
100
AcDbLayerTableRecord
  2
윤곽선
 70
     0
 62
     3
  6
Continuous
370
    50
390
F
  0
LAYER
  5
7F
330
2
100
AcDbSymbolTableRecord
100
AcDbLayerTableRecord
  2
중심마크
 70
     0
 62
   100
  6
Continuous
370
    35
390
F
  0
LAYER
  5
80
330
2
100
AcDbSymbolTableRecord
100
AcDbLayerTableRecord
  2
가상선
 70
     0
 62
     4
  6
PHANTOM
370
    -3
390
F
  0
LAYER
  5
81
330
2
100
AcDbSymbolTableRecord
100
AcDbLayerTableRecord
  2
특수지정선
 70
     0
 62
     5
  6
CENTERX2
370
    70
390
F
  0
LAYER
  5
156
330
2
100
AcDbSymbolTableRecord
100
AcDbLayerTableRecord
  2
Defpoints
 70
     0
 62
     7
  6
Continuous
290
     0
370
    -3
390
F
  0
ENDTAB
  0
TABLE
  2
STYLE
  5
3
330
0
100
AcDbSymbolTable
 70
     2
  0
STYLE
  5
11
330
3
100
AcDbSymbolTableRecord
100
AcDbTextStyleTableRecord
  2
Standard
 70
     0
 40
0.0
 41
1.0
 50
0.0
 71
     0
 42
3.5
  3
txt
  4

  0
STYLE
  5
97
330
3
100
AcDbSymbolTableRecord
100
AcDbTextStyleTableRecord
  2
SLDTEXTSTYLE0
 70
     0
 40
0.0
 41
0.75
 50
0.0
 71
     0
 42
3.5
  3
TXT
  4

  0
ENDTAB
  0
TABLE
  2
VIEW
  5
6
330
0
100
AcDbSymbolTable
 70
     0
  0
ENDTAB
  0
TABLE
  2
UCS
  5
7
330
0
100
AcDbSymbolTable
 70
     0
  0
ENDTAB
  0
TABLE
  2
APPID
  5
9
330
0
100
AcDbSymbolTable
 70
     1
  0
APPID
  5
12
330
9
100
AcDbSymbolTableRecord
100
AcDbRegAppTableRecord
  2
ACAD
 70
     0
  0
ENDTAB
  0
TABLE
  2
DIMSTYLE
  5
A
330
0
100
AcDbSymbolTable
 70
     4
100
AcDbDimStyleTable
  0
DIMSTYLE
105
27
330
A
100
AcDbSymbolTableRecord
100
AcDbDimStyleTableRecord
  2
ISO-25
 70
     0
 41
2.5
 42
0.625
 43
3.75
 44
1.25
 73
     0
 74
     0
 77
     1
 78
     8
140
2.5
141
2.5
143
0.03937007874016
147
0.625
171
     3
172
     1
178
     0
271
     2
272
     2
274
     3
278
    44
283
     0
284
     8
340
11
  0
DIMSTYLE
105
FB
102
{ACAD_REACTORS
330
FA
102
}
330
A
100
AcDbSymbolTableRecord
100
AcDbDimStyleTableRecord
  2
SLDDIMSTYLE0
 70
     0
 41
3.302
 44
0.0
 45
0.000000001
 73
     0
 74
     0
 77
     1
 78
    12
 79
     3
140
3.5
147
0.875
172
     1
173
     1
178
     0
271
     1
272
     1
276
     2
284
    12
289
     0
340
97
  0
DIMSTYLE
105
109
102
{ACAD_REACTORS
330
108
330
121
102
}
330
A
100
AcDbSymbolTableRecord
100
AcDbDimStyleTableRecord
  2
SLDDIMSTYLE1
 70
     0
 41
3.302
 44
0.0
 45
0.000000001
 73
     0
 74
     0
 77
     1
 78
    12
 79
     3
140
3.5
147
0.875
173
     1
178
     0
271
     2
272
     2
276
     2
284
    12
340
97
  0
DIMSTYLE
105
114
102
{ACAD_REACTORS
330
113
102
}
330
A
100
AcDbSymbolTableRecord
100
AcDbDimStyleTableRecord
  2
SLDDIMSTYLE2
 70
     0
 41
3.302
 44
0.0
 45
0.000000001
 73
     0
 74
     0
 77
     1
 78
    12
 79
     3
140
3.5
147
0.875
172
     1
173
     1
178
     0
271
     2
272
     2
276
     2
284
    12
289
     0
340
97
  0
ENDTAB
  0
TABLE
  2
BLOCK_RECORD
  5
1
330
0
100
AcDbSymbolTable
 70
     7
  0
BLOCK_RECORD
  5
1F
330
1
100
AcDbSymbolTableRecord
100
AcDbBlockTableRecord
  2
*Model_Space
340
22
  0
BLOCK_RECORD
  5
1B
330
1
100
AcDbSymbolTableRecord
100
AcDbBlockTableRecord
  2
*Paper_Space
340
1E
  0
BLOCK_RECORD
  5
23
330
1
100
AcDbSymbolTableRecord
100
AcDbBlockTableRecord
  2
*Paper_Space0
340
26
  0
BLOCK_RECORD
  5
82
330
1
100
AcDbSymbolTableRecord
100
AcDbBlockTableRecord
  2
블럭10
340
0
102
{BLKREFS
331
F3
102
}
  0
BLOCK_RECORD
  5
FC
330
1
100
AcDbSymbolTableRecord
100
AcDbBlockTableRecord
  2
_D
340
0
  0
BLOCK_RECORD
  5
10A
330
1
100
AcDbSymbolTableRecord
100
AcDbBlockTableRecord
  2
_D_1
340
0
  0
BLOCK_RECORD
  5
115
330
1
100
AcDbSymbolTableRecord
100
AcDbBlockTableRecord
  2
_D_2
340
0
  0
BLOCK_RECORD
  5
122
330
1
100
AcDbSymbolTableRecord
100
AcDbBlockTableRecord
  2
_D_3
340
0
  0
BLOCK_RECORD
  5
12B
330
1
100
AcDbSymbolTableRecord
100
AcDbBlockTableRecord
  2
SW_DOWELSYMBOL_0
340
0
102
{BLKREFS
331
131
102
}
  0
ENDTAB
  0
ENDSEC
  0
SECTION
  2
BLOCKS
  0
BLOCK
  5
20
330
1F
100
AcDbEntity
  8
0
100
AcDbBlockBegin
  2
*Model_Space
 70
     0
 10
0.0
 20
0.0
 30
0.0
  3
*Model_Space
  1

  0
ENDBLK
  5
21
330
1F
100
AcDbEntity
  8
0
100
AcDbBlockEnd
  0
BLOCK
  5
1C
330
1B
100
AcDbEntity
 67
     1
  8
0
100
AcDbBlockBegin
  2
*Paper_Space
 70
     0
 10
0.0
 20
0.0
 30
0.0
  3
*Paper_Space
  1

  0
ENDBLK
  5
1D
330
1B
100
AcDbEntity
 67
     1
  8
0
100
AcDbBlockEnd
  0
BLOCK
  5
24
330
23
100
AcDbEntity
  8
0
100
AcDbBlockBegin
  2
*Paper_Space0
 70
     0
 10
0.0
 20
0.0
 30
0.0
  3
*Paper_Space0
  1

  0
ENDBLK
  5
25
330
23
100
AcDbEntity
  8
0
100
AcDbBlockEnd
  0
BLOCK
  5
83
330
82
100
AcDbEntity
  8
0
100
AcDbBlockBegin
  2
블럭10
 70
     2
 10
0.0
 20
0.0
 30
0.0
  3
블럭10
  1

  0
ELLIPSE
  5
85
330
82
100
AcDbEntity
  8
중심선
100
AcDbEllipse
 10
20.54032771741204
 20
12.0471743016438
 30
0.0
 11
6.600054785286829
 21
-1.261213355974178E-13
 31
0.0
210
0.0
220
0.0
230
1.0
 40
0.636358354079598
 41
0.9219305317359503
 42
6.513795318482858
  0
ELLIPSE
  5
86
330
82
100
AcDbEntity
  8
중심선
100
AcDbEllipse
 10
20.54032771746488
 20
12.04717430159265
 30
0.0
 11
3.960054785062283
 21
1.540847449632565E-10
 31
0.0
210
0.0
220
0.0
230
1.0
 40
0.3939339440162632
 41
1.131841032648279
 42
5.62031148352944
  0
LINE
  5
87
330
82
100
AcDbEntity
  8
중심선
100
AcDbLine
 10
2.268634060543552
 20
16.24717430164393
 30
0.0
 11
5.714909304380834
 21
16.24717430164393
 31
0.0
  0
LINE
  5
88
330
82
100
AcDbEntity
  8
중심선
100
AcDbLine
 10
5.245725140726316
 20
7.84717430164391
 30
0.0
 11
8.692000384563599
 21
7.84717430164391
 31
0.0
  0
LINE
  5
89
330
82
100
AcDbEntity
  8
중심선
100
AcDbLine
 10
15.74043728645272
 20
16.24717430164393
 30
0.0
 11
8.692000384563599
 21
7.84717430164391
 31
0.0
  0
LINE
  5
8A
330
82
100
AcDbEntity
  8
중심선
100
AcDbLine
 10
0.1404042013395286
 20
13.71084872107135
 30
0.0
 11
3.58671253028996
 21
13.71088815037384
 31
0.0
  0
LINE
  5
8B
330
82
100
AcDbEntity
  8
중심선
100
AcDbLine
 10
2.750260043222114
 20
10.84717430164391
 30
0.0
 11
6.196535287059397
 21
10.84717430164391
 31
0.0
  0
LINE
  5
8C
330
82
100
AcDbEntity
  8
중심선
100
AcDbLine
 10
12.29416204261559
 20
16.24717430164393
 30
0.0
 11
5.245725140726316
 21
7.84717430164391
 31
0.0
  0
LINE
  5
8D
330
82
100
AcDbEntity
  8
중심선
100
AcDbLine
 10
10.72767329541681
 20
16.24717430164393
 30
0.0
 11
6.196535287059397
 21
10.84717430164391
 31
0.0
  0
LINE
  5
8E
330
82
100
AcDbEntity
  8
중심선
100
AcDbLine
 10
7.28139805157953
 20
16.24717430164393
 30
0.0
 11
2.750260043222114
 21
10.84717430164391
 31
0.0
  0
LINE
  5
8F
330
82
100
AcDbEntity
  8
중심선
100
AcDbLine
 10
5.714909304380834
 20
16.24717430164393
 30
0.0
 11
3.58671253028996
 21
13.71088815037384
 31
0.0
  0
LINE
  5
90
330
82
100
AcDbEntity
  8
중심선
100
AcDbLine
 10
2.268634060543552
 20
16.24717430164393
 30
0.0
 11
0.1404042013395286
 21
13.71084872107135
 31
0.0
  0
LINE
  5
91
330
82
100
AcDbEntity
  8
중심선
100
AcDbLine
 10
7.28139805157953
 20
16.24717430164393
 30
0.0
 11
10.72767329541681
 21
16.24717430164393
 31
0.0
  0
LINE
  5
92
330
82
100
AcDbEntity
  8
중심선
100
AcDbLine
 10
12.29416204261559
 20
16.24717430164393
 30
0.0
 11
15.74043728645272
 21
16.24717430164393
 31
0.0
  0
LINE
  5
93
330
82
100
AcDbEntity
  8
중심선
100
AcDbLine
 10
19.22036997980202
 20
11.08717430171403
 30
0.0
 11
23.66174974927406
 21
11.08717430171406
 31
0.0
  0
LINE
  5
94
330
82
100
AcDbEntity
  8
중심선
100
AcDbLine
 10
19.22039502424796
 20
13.00717430171391
 30
0.0
 11
19.22036997980202
 21
11.08717430171403
 31
0.0
  0
LINE
  5
95
330
82
100
AcDbEntity
  8
중심선
100
AcDbLine
 10
19.22039502424796
 20
13.00717430171391
 30
0.0
 11
26.96566020931264
 21
13.00717430171391
 31
0.0
  0
LINE
  5
96
330
82
100
AcDbEntity
  8
중심선
100
AcDbLine
 10
22.22332737316547
 20
13.45928029700563
 30
0.0
 11
24.52862924686651
 21
15.39360700705356
 31
0.0
  0
ATTDEF
  5
98
330
82
100
AcDbEntity
  8
FORMAT
 62
     2
100
AcDbText
 10
-16.11926103943555
 20
2.075366912832191
 30
0.0
 40
4.233333333333333
  1
SEME7203026E [ 4 FLUTE ]
 41
0.75
  7
SLDTEXTSTYLE0
 11
-16.11926103943555
 21
-0.0412997538344756
 31
0.0
100
AcDbAttributeDefinition
  3

  2
AUTOATTR0
 70
     0
 74
     1
  0
ENDBLK
  5
84
330
82
100
AcDbEntity
  8
0
100
AcDbBlockEnd
  0
BLOCK
  5
FD
330
FC
100
AcDbEntity
  8
0
100
AcDbBlockBegin
  2
_D
 70
     0
 10
0.0
 20
0.0
 30
0.0
  3
_D
  1

  0
LINE
  5
FF
330
FC
100
AcDbEntity
  8
치수문자_일반주서
 62
     0
370
    -2
100
AcDbLine
 10
34.66057621135333
 20
-1.500000000000004
 30
0.0
 11
45.47004357297504
 21
-1.499999999999964
 31
0.0
  0
LINE
  5
100
330
FC
100
AcDbEntity
  8
치수문자_일반주서
 62
     0
370
    -2
100
AcDbLine
 10
34.66057621135333
 20
1.500000000000004
 30
0.0
 11
45.47004357297504
 21
1.500000000000044
 31
0.0
  0
LINE
  5
101
330
FC
100
AcDbEntity
  8
치수문자_일반주서
 62
     0
370
    -2
100
AcDbLine
 10
45.47004357297504
 20
-1.499999999999964
 30
0.0
 11
45.47004357297501
 21
14.53100000000004
 31
0.0
  0
LINE
  5
102
330
FC
100
AcDbEntity
  8
치수문자_일반주서
 62
     0
370
    -2
100
AcDbLine
 10
45.47004357297504
 20
-1.499999999999964
 30
0.0
 11
45.47004357297504
 21
1.500000000000044
 31
0.0
  0
LINE
  5
103
330
FC
100
AcDbEntity
  8
치수문자_일반주서
 62
     0
370
    -2
100
AcDbLine
 10
45.47004357297505
 20
-4.801999999999964
 30
0.0
 11
45.47004357297506
 21
-8.103999999999964
 31
0.0
  0
LINE
  5
104
330
FC
100
AcDbEntity
  8
치수문자_일반주서
 62
     0
370
    -2
100
AcDbLine
 10
45.47004357297503
 20
4.802000000000044
 30
0.0
 11
45.47004357297502
 21
8.104000000000044
 31
0.0
  0
SOLID
  5
105
330
FC
100
AcDbEntity
  8
치수문자_일반주서
 62
     0
100
AcDbTrace
 10
46.02037690630839
 20
-4.801999999999963
 30
0.0
 11
44.91971023964172
 21
-4.801999999999965
 31
0.0
 12
45.47004357297504
 22
-1.499999999999964
 32
0.0
 13
45.47004357297504
 23
-1.499999999999964
 33
0.0
  0
SOLID
  5
106
330
FC
100
AcDbEntity
  8
치수문자_일반주서
 62
     0
100
AcDbTrace
 10
44.9197102396417
 20
4.802000000000043
 30
0.0
 11
46.02037690630836
 21
4.802000000000045
 31
0.0
 12
45.47004357297504
 22
1.500000000000044
 32
0.0
 13
45.47004357297504
 23
1.500000000000044
 33
0.0
  0
MTEXT
  5
107
330
FC
100
AcDbEntity
  8
치수문자_일반주서
 62
     0
100
AcDbMText
 10
41.09504357297502
 20
11.46850000000003
 30
0.0
 40
3.5
 41
0.0
 71
     2
 72
     1
  1
\A1;%%c3
  7
SLDTEXTSTYLE0
 11
-2.368475785866994E-15
 21
1.0
 31
0.0
 73
     1
 44
1.0
  0
POINT
  5
160
330
FC
100
AcDbEntity
  8
Defpoints
 62
     0
100
AcDbPoint
 10
34.59807621135333
 20
-1.500000000000004
 30
0.0
  0
POINT
  5
161
330
FC
100
AcDbEntity
  8
Defpoints
 62
     0
100
AcDbPoint
 10
34.59807621135333
 20
1.500000000000004
 30
0.0
  0
POINT
  5
162
330
FC
100
AcDbEntity
  8
Defpoints
 62
     0
100
AcDbPoint
 10
45.47004357297504
 20
1.500000000000044
 30
0.0
  0
ENDBLK
  5
FE
330
FC
100
AcDbEntity
  8
0
100
AcDbBlockEnd
  0
BLOCK
  5
10B
330
10A
100
AcDbEntity
  8
0
100
AcDbBlockBegin
  2
_D_1
 70
     0
 10
0.0
 20
0.0
 30
0.0
  3
_D_1
  1

  0
LINE
  5
10D
330
10A
100
AcDbEntity
  8
치수문자_일반주서
 62
     0
370
    -2
100
AcDbLine
 10
-35.40192378864671
 20
2.562499999999994
 30
0.0
 11
-35.40192378864671
 21
20.38913260158165
 31
0.0
  0
LINE
  5
10E
330
10A
100
AcDbEntity
  8
치수문자_일반주서
 62
     0
370
    -2
100
AcDbLine
 10
34.5980762113533
 20
1.562500000000003
 30
0.0
 11
34.5980762113533
 21
20.38913260158165
 31
0.0
  0
LINE
  5
10F
330
10A
100
AcDbEntity
  8
치수문자_일반주서
 62
     0
370
    -2
100
AcDbLine
 10
-32.09992378864671
 20
20.38913260158165
 30
0.0
 11
31.2960762113533
 21
20.38913260158165
 31
0.0
  0
SOLID
  5
110
330
10A
100
AcDbEntity
  8
치수문자_일반주서
 62
     0
100
AcDbTrace
 10
-32.09992378864671
 20
20.93946593491498
 30
0.0
 11
-32.09992378864671
 21
19.83879926824831
 31
0.0
 12
-35.40192378864671
 22
20.38913260158165
 32
0.0
 13
-35.40192378864671
 23
20.38913260158165
 33
0.0
  0
SOLID
  5
111
330
10A
100
AcDbEntity
  8
치수문자_일반주서
 62
     0
100
AcDbTrace
 10
31.2960762113533
 20
19.83879926824831
 30
0.0
 11
31.2960762113533
 21
20.93946593491498
 31
0.0
 12
34.5980762113533
 22
20.38913260158165
 32
0.0
 13
34.5980762113533
 23
20.38913260158165
 33
0.0
  0
MTEXT
  5
112
330
10A
100
AcDbEntity
  8
치수문자_일반주서
 62
     0
100
AcDbMText
 10
-0.4019237886467053
 20
24.76413260158165
 30
0.0
 40
3.5
 41
0.0
 71
     2
 72
     1
  1
\A1;70
  7
SLDTEXTSTYLE0
 73
     1
 44
1.0
  0
POINT
  5
157
330
10A
100
AcDbEntity
  8
Defpoints
 62
     0
100
AcDbPoint
 10
-35.40192378864671
 20
2.499999999999994
 30
0.0
  0
POINT
  5
158
330
10A
100
AcDbEntity
  8
Defpoints
 62
     0
100
AcDbPoint
 10
34.5980762113533
 20
1.500000000000003
 30
0.0
  0
POINT
  5
159
330
10A
100
AcDbEntity
  8
Defpoints
 62
     0
100
AcDbPoint
 10
34.5980762113533
 20
20.38913260158165
 30
0.0
  0
ENDBLK
  5
10C
330
10A
100
AcDbEntity
  8
0
100
AcDbBlockEnd
  0
BLOCK
  5
116
330
115
100
AcDbEntity
  8
0
100
AcDbBlockBegin
  2
_D_2
 70
     0
 10
0.0
 20
0.0
 30
0.0
  3
_D_2
  1

  0
LINE
  5
118
330
115
100
AcDbEntity
  8
치수문자_일반주서
 62
     0
370
    -2
100
AcDbLine
 10
-34.96442378864671
 20
3.000000000000003
 30
0.0
 11
-46.00168928745299
 21
2.999999999999961
 31
0.0
  0
LINE
  5
119
330
115
100
AcDbEntity
  8
치수문자_일반주서
 62
     0
370
    -2
100
AcDbLine
 10
-34.96442378864671
 20
-3.000000000000003
 30
0.0
 11
-46.00168928745297
 21
-3.000000000000044
 31
0.0
  0
LINE
  5
11A
330
115
100
AcDbEntity
  8
치수문자_일반주서
 62
     0
370
    -2
100
AcDbLine
 10
-46.00168928745299
 20
2.999999999999961
 30
0.0
 11
-46.00168928745304
 21
15.72899999999996
 31
0.0
  0
LINE
  5
11B
330
115
100
AcDbEntity
  8
치수문자_일반주서
 62
     0
370
    -2
100
AcDbLine
 10
-46.00168928745299
 20
2.999999999999961
 30
0.0
 11
-46.00168928745297
 21
-3.000000000000044
 31
0.0
  0
LINE
  5
11C
330
115
100
AcDbEntity
  8
치수문자_일반주서
 62
     0
370
    -2
100
AcDbLine
 10
-46.001689287453
 20
6.301999999999961
 30
0.0
 11
-46.00168928745302
 21
9.60399999999996
 31
0.0
  0
LINE
  5
11D
330
115
100
AcDbEntity
  8
치수문자_일반주서
 62
     0
370
    -2
100
AcDbLine
 10
-46.00168928745295
 20
-6.302000000000044
 30
0.0
 11
-46.00168928745294
 21
-9.604000000000044
 31
0.0
  0
SOLID
  5
11E
330
115
100
AcDbEntity
  8
치수문자_일반주서
 62
     0
100
AcDbTrace
 10
-46.55202262078634
 20
6.301999999999959
 30
0.0
 11
-45.45135595411967
 21
6.301999999999962
 31
0.0
 12
-46.00168928745299
 22
2.999999999999961
 32
0.0
 13
-46.00168928745299
 23
2.999999999999961
 33
0.0
  0
SOLID
  5
11F
330
115
100
AcDbEntity
  8
치수문자_일반주서
 62
     0
100
AcDbTrace
 10
-45.45135595411962
 20
-6.302000000000042
 30
0.0
 11
-46.55202262078629
 21
-6.302000000000046
 31
0.0
 12
-46.00168928745297
 22
-3.000000000000044
 32
0.0
 13
-46.00168928745297
 23
-3.000000000000044
 33
0.0
  0
MTEXT
  5
120
330
115
100
AcDbEntity
  8
치수문자_일반주서
 62
     0
100
AcDbMText
 10
-50.37668928745303
 20
12.66649999999995
 30
0.0
 40
3.5
 41
0.0
 71
     2
 72
     1
  1
\A1;%%c6
  7
SLDTEXTSTYLE0
 11
-3.552713678800498E-15
 21
1.0
 31
0.0
 73
     1
 44
1.0
  0
POINT
  5
15D
330
115
100
AcDbEntity
  8
Defpoints
 62
     0
100
AcDbPoint
 10
-34.90192378864671
 20
3.000000000000003
 30
0.0
  0
POINT
  5
15E
330
115
100
AcDbEntity
  8
Defpoints
 62
     0
100
AcDbPoint
 10
-34.90192378864671
 20
-3.000000000000002
 30
0.0
  0
POINT
  5
15F
330
115
100
AcDbEntity
  8
Defpoints
 62
     0
100
AcDbPoint
 10
-46.00168928745297
 20
-3.000000000000044
 30
0.0
  0
ENDBLK
  5
117
330
115
100
AcDbEntity
  8
0
100
AcDbBlockEnd
  0
BLOCK
  5
123
330
122
100
AcDbEntity
  8
0
100
AcDbBlockBegin
  2
_D_3
 70
     0
 10
0.0
 20
0.0
 30
0.0
  3
_D_3
  1

  0
LINE
  5
125
330
122
100
AcDbEntity
  8
치수문자_일반주서
 62
     0
370
    -2
100
AcDbLine
 10
8.5980762113533
 20
1.466855589241036
 30
0.0
 11
8.598076211353302
 21
12.25027389182869
 31
0.0
  0
LINE
  5
126
330
122
100
AcDbEntity
  8
치수문자_일반주서
 62
     0
370
    -2
100
AcDbLine
 10
34.5980762113533
 20
1.562500000000003
 30
0.0
 11
34.5980762113533
 21
12.25027389182869
 31
0.0
  0
LINE
  5
127
330
122
100
AcDbEntity
  8
치수문자_일반주서
 62
     0
370
    -2
100
AcDbLine
 10
11.9000762113533
 20
12.25027389182869
 30
0.0
 11
31.2960762113533
 21
12.25027389182869
 31
0.0
  0
SOLID
  5
128
330
122
100
AcDbEntity
  8
치수문자_일반주서
 62
     0
100
AcDbTrace
 10
11.9000762113533
 20
12.80060722516202
 30
0.0
 11
11.9000762113533
 21
11.69994055849535
 31
0.0
 12
8.598076211353302
 22
12.25027389182869
 32
0.0
 13
8.598076211353302
 23
12.25027389182869
 33
0.0
  0
SOLID
  5
129
330
122
100
AcDbEntity
  8
치수문자_일반주서
 62
     0
100
AcDbTrace
 10
31.2960762113533
 20
11.69994055849535
 30
0.0
 11
31.2960762113533
 21
12.80060722516202
 31
0.0
 12
34.5980762113533
 22
12.25027389182869
 32
0.0
 13
34.5980762113533
 23
12.25027389182869
 33
0.0
  0
MTEXT
  5
12A
330
122
100
AcDbEntity
  8
치수문자_일반주서
 62
     0
100
AcDbMText
 10
21.5980762113533
 20
16.62527389182868
 30
0.0
 40
3.5
 41
0.0
 71
     2
 72
     1
  1
\A1;26
  7
SLDTEXTSTYLE0
 73
     1
 44
1.0
  0
POINT
  5
15A
330
122
100
AcDbEntity
  8
Defpoints
 62
     0
100
AcDbPoint
 10
8.5980762113533
 20
1.404355589241036
 30
0.0
  0
POINT
  5
15B
330
122
100
AcDbEntity
  8
Defpoints
 62
     0
100
AcDbPoint
 10
34.5980762113533
 20
1.500000000000003
 30
0.0
  0
POINT
  5
15C
330
122
100
AcDbEntity
  8
Defpoints
 62
     0
100
AcDbPoint
 10
34.5980762113533
 20
12.25027389182869
 30
0.0
  0
ENDBLK
  5
124
330
122
100
AcDbEntity
  8
0
100
AcDbBlockEnd
  0
BLOCK
  5
12C
330
12B
100
AcDbEntity
  8
0
100
AcDbBlockBegin
  2
SW_DOWELSYMBOL_0
 70
     0
 10
0.0
 20
0.0
 30
0.0
  3
SW_DOWELSYMBOL_0
  1

  0
CIRCLE
  5
12E
330
12B
100
AcDbEntity
  8
해칭선
 62
     0
100
AcDbCircle
 10
0.0
 20
0.0
 30
0.0
 40
3.0
  0
HATCH
  5
12F
330
12B
100
AcDbEntity
  8
0
  6
Continuous
 62
     0
370
    18
100
AcDbHatch
 10
0.0
 20
0.0
 30
0.0
210
0.0
220
0.0
230
1.0
  2
SOLID
 70
     1
 71
     0
 91
        1
 92
        0
 93
        3
 72
     2
 10
0.0
 20
0.0
 40
3.0
 50
0.0
 51
90.0
 73
     1
 72
     1
 10
0.0
 20
3.0
 11
0.0
 21
0.0
 72
     1
 10
0.0
 20
0.0
 11
3.0
 21
0.0
 97
        0
 75
     0
 76
     1
 98
        1
 10
0.0
 20
0.0
  0
HATCH
  5
130
330
12B
100
AcDbEntity
  8
0
  6
Continuous
 62
     0
370
    18
100
AcDbHatch
 10
0.0
 20
0.0
 30
0.0
210
0.0
220
0.0
230
1.0
  2
SOLID
 70
     1
 71
     0
 91
        1
 92
        0
 93
        3
 72
     2
 10
0.0
 20
0.0
 40
3.0
 50
180.0
 51
270.0000000000008
 73
     1
 72
     1
 10
0.0
 20
-2.999999999999999
 11
0.0
 21
0.0
 72
     1
 10
0.0
 20
0.0
 11
-3.0
 21
0.0
 97
        0
 75
     0
 76
     1
 98
        1
 10
0.0
 20
0.0
  0
ENDBLK
  5
12D
330
12B
100
AcDbEntity
  8
0
100
AcDbBlockEnd
  0
ENDSEC
  0
SECTION
  2
ENTITIES
  0
LINE
  5
99
330
1F
100
AcDbEntity
  8
0
  6
Continuous
 62
     4
370
    25
100
AcDbLine
 10
2.0
 20
2.999999999999998
 30
0.0
 11
-34.90192378864671
 21
2.999999999999996
 31
0.0
  0
LINE
  5
9A
330
1F
100
AcDbEntity
  8
0
  6
Continuous
 62
     4
370
    25
100
AcDbLine
 10
-34.90192378864671
 20
-3.0
 30
0.0
 11
1.999999999999996
 21
-2.999999999999998
 31
0.0
  0
LINE
  5
9B
330
1F
100
AcDbEntity
  8
0
  6
Continuous
 62
     4
370
    25
100
AcDbLine
 10
2.0
 20
-2.999999999999999
 30
0.0
 11
7.09823942354461
 21
-1.633930863640704
 31
0.0
  0
LINE
  5
9C
330
1F
100
AcDbEntity
  8
0
  6
Continuous
 62
     4
370
    25
100
AcDbLine
 10
7.09823942354461
 20
1.633930863640705
 30
0.0
 11
2.0
 21
2.999999999999999
 31
0.0
  0
LINE
  5
9D
330
1F
100
AcDbEntity
  8
0
  6
Continuous
 62
     4
370
    25
100
AcDbLine
 10
-34.90192378864671
 20
2.999999999999995
 30
0.0
 11
-35.40192378864671
 21
2.499999999999994
 31
0.0
  0
LINE
  5
9E
330
1F
100
AcDbEntity
  8
0
  6
Continuous
 62
     4
370
    25
100
AcDbLine
 10
-35.40192378864671
 20
-2.499999999999999
 30
0.0
 11
-34.90192378864671
 21
-2.999999999999999
 31
0.0
  0
LINE
  5
9F
330
1F
100
AcDbEntity
  8
0
  6
Continuous
 62
     1
370
    25
100
AcDbLine
 10
14.32738615605975
 20
0.252573158273696
 30
0.0
 11
14.40257622078487
 21
0.2136522862396515
 31
0.0
  0
SPLINE
  5
A0
330
1F
100
AcDbEntity
  8
0
  6
Continuous
 62
     1
370
    25
100
AcDbSpline
210
0.0
220
0.0
230
1.0
 70
     8
 71
     3
 72
     9
 73
     5
 74
     0
 42
0.000000001
 43
0.00000001
 40
0.0
 40
0.0
 40
0.0
 40
0.0
 40
0.3735249909273966
 40
1.0
 40
1.0
 40
1.0
 40
1.0
 10
18.22167822156232
 20
-0.302295004162685
 30
0.0
 10
18.18060644121622
 20
-0.2815184500465594
 30
0.0
 10
18.07064919245457
 20
-0.225895520869743
 30
0.0
 10
17.98456465000434
 20
-0.1708261911847364
 30
0.0
 10
17.93063483549183
 20
-0.1363266323706997
 30
0.0
  0
LINE
  5
A1
330
1F
100
AcDbEntity
  8
0
  6
Continuous
 62
     1
370
    25
100
AcDbLine
 10
34.28864384297438
 20
-0.1562093127589843
 30
0.0
 11
34.2548291135998
 21
-0.1363266323706989
 31
0.0
  0
SPLINE
  5
A2
330
1F
100
AcDbEntity
  8
0
  6
Continuous
 62
     1
370
    25
100
AcDbSpline
210
0.0
220
0.0
230
1.0
 70
     8
 71
     3
 72
     9
 73
     5
 74
     0
 42
0.000000001
 43
0.00000001
 40
0.0
 40
0.0
 40
0.0
 40
0.0
 40
0.5544004919506907
 40
1.0
 40
1.0
 40
1.0
 40
1.0
 10
34.5980762113533
 20
-0.3339678349114096
 30
0.0
 10
34.54135383786539
 20
-0.3023970835233021
 30
0.0
 10
34.43904084516166
 20
-0.2454513342924096
 30
0.0
 10
34.33500303845942
 20
-0.1837177621401553
 30
0.0
 10
34.28864384297438
 20
-0.1562093127589843
 30
0.0
  0
LINE
  5
A3
330
1F
100
AcDbEntity
  8
0
  6
Continuous
 62
     1
370
    25
100
AcDbLine
 10
30.65158043416774
 20
0.2525731582736827
 30
0.0
 11
30.72677049889283
 21
0.2136522862396525
 31
0.0
  0
LINE
  5
A4
330
1F
100
AcDbEntity
  8
0
  6
Continuous
 62
     1
370
    25
100
AcDbLine
 10
10.2524928768365
 20
0.2487980811016827
 30
0.0
 11
10.31787592198754
 21
0.214754668424854
 31
0.0
  0
LINE
  5
A5
330
1F
100
AcDbEntity
  8
0
  6
Continuous
 62
     1
370
    25
100
AcDbLine
 10
26.57668715494446
 20
0.2487980811016882
 30
0.0
 11
26.6420702000955
 21
0.214754668424856
 31
0.0
  0
LINE
  5
A6
330
1F
100
AcDbEntity
  8
0
  6
Continuous
 62
     1
370
    25
100
AcDbLine
 10
18.5822834450323
 20
0.1567759505671296
 30
0.0
 11
18.6171290310501
 21
0.1363266323413534
 31
0.0
  0
SPLINE
  5
A7
330
1F
100
AcDbEntity
  8
0
  6
Continuous
 62
     1
370
    25
100
AcDbSpline
210
0.0
220
0.0
230
1.0
 70
     8
 71
     3
 72
     9
 73
     5
 74
     0
 42
0.000000001
 43
0.00000001
 40
0.0
 40
0.0
 40
0.0
 40
0.0
 40
0.5551946474712461
 40
1.0
 40
1.0
 40
1.0
 40
1.0
 10
18.27388193328332
 20
0.3333115528179109
 30
0.0
 10
18.33067167762956
 20
0.3018799175610653
 30
0.0
 10
18.43295966726508
 20
0.2452661958690286
 30
0.0
 10
18.53631184374053
 20
0.1840190215371922
 30
0.0
 10
18.58228344503231
 20
0.1567759505671296
 30
0.0
  0
LINE
  5
A8
330
1F
100
AcDbEntity
  8
0
  6
Continuous
 62
     1
370
    25
100
AcDbLine
 10
22.21656120940874
 20
-0.2504379405925178
 30
0.0
 11
22.14518764570576
 21
-0.2136522862396358
 31
0.0
  0
LINE
  5
A9
330
1F
100
AcDbEntity
  8
0
  6
Continuous
 62
     1
370
    25
100
AcDbLine
 10
34.01702376959008
 20
-1.500000000000002
 30
0.0
 11
34.5980762113533
 21
-1.500000000000002
 31
0.0
  0
LINE
  5
AA
330
1F
100
AcDbEntity
  8
0
  6
Continuous
 62
     1
370
    25
100
AcDbLine
 10
17.69282949148213
 20
-1.500000000000002
 30
0.0
 11
18.8549954984331
 21
-1.500000000000002
 31
0.0
  0
LINE
  5
AB
330
1F
100
AcDbEntity
  8
0
  6
Continuous
 62
     1
370
    25
100
AcDbLine
 10
10.69109547576156
 20
1.500000000000003
 30
0.0
 11
9.531664183976824
 21
1.500000000000003
 31
0.0
  0
LINE
  5
AC
330
1F
100
AcDbEntity
  8
0
  6
Continuous
 62
     1
370
    25
100
AcDbLine
 10
27.01528975386949
 20
1.500000000000003
 30
0.0
 11
25.8558584620848
 21
1.500000000000003
 31
0.0
  0
LINE
  5
AD
330
1F
100
AcDbEntity
  8
0
  6
Continuous
 62
     1
370
    25
100
AcDbLine
 10
25.8558584620848
 20
-1.500000000000002
 30
0.0
 11
27.01528975386944
 21
-1.500000000000002
 31
0.0
  0
LINE
  5
AE
330
1F
100
AcDbEntity
  8
0
  6
Continuous
 62
     1
370
    25
100
AcDbLine
 10
9.531664183976842
 20
-1.500000000000002
 30
0.0
 11
10.69109547576149
 21
-1.500000000000002
 31
0.0
  0
LINE
  5
AF
330
1F
100
AcDbEntity
  8
0
  6
Continuous
 62
     1
370
    25
100
AcDbLine
 10
18.85499549843309
 20
1.500000000000003
 30
0.0
 11
17.69282949148214
 21
1.500000000000003
 31
0.0
  0
LINE
  5
B0
330
1F
100
AcDbEntity
  8
0
  6
Continuous
 62
     1
370
    25
100
AcDbLine
 10
34.5980762113533
 20
1.500000000000003
 30
0.0
 11
34.0170237695901
 21
1.500000000000003
 31
0.0
  0
LINE
  5
B1
330
1F
100
AcDbEntity
  8
0
  6
Continuous
 62
     1
370
    25
100
AcDbLine
 10
29.93630196495618
 20
-1.500000000000002
 30
0.0
 11
31.09681976097432
 21
-1.500000000000002
 31
0.0
  0
LINE
  5
B2
330
1F
100
AcDbEntity
  8
0
  6
Continuous
 62
     1
370
    25
100
AcDbLine
 10
13.61210768684824
 20
-1.500000000000002
 30
0.0
 11
14.77262548286634
 21
-1.500000000000002
 31
0.0
  0
LINE
  5
B3
330
1F
100
AcDbEntity
  8
0
  6
Continuous
 62
     1
370
    25
100
AcDbLine
 10
22.93567349084417
 20
1.500000000000003
 30
0.0
 11
21.77511388868363
 21
1.500000000000003
 31
0.0
  0
LINE
  5
B4
330
1F
100
AcDbEntity
  8
0
  6
Continuous
 62
     1
370
    25
100
AcDbLine
 10
21.77511388868367
 20
-1.500000000000002
 30
0.0
 11
22.93567349084416
 21
-1.500000000000002
 31
0.0
  0
LINE
  5
B5
330
1F
100
AcDbEntity
  8
0
  6
Continuous
 62
     1
370
    25
100
AcDbLine
 10
14.77262548286632
 20
1.500000000000003
 30
0.0
 11
13.61210768684824
 21
1.500000000000003
 31
0.0
  0
LINE
  5
B6
330
1F
100
AcDbEntity
  8
0
  6
Continuous
 62
     1
370
    25
100
AcDbLine
 10
31.0968197609743
 20
1.500000000000003
 30
0.0
 11
29.93630196495621
 21
1.500000000000003
 31
0.0
  0
LINE
  5
B7
330
1F
100
AcDbEntity
  8
0
  6
Continuous
 62
     4
370
    25
100
AcDbLine
 10
2.0
 20
3.0
 30
0.0
 11
2.0
 21
-3.0
 31
0.0
  0
LINE
  5
B8
330
1F
100
AcDbEntity
  8
0
  6
Continuous
 62
     4
370
    25
100
AcDbLine
 10
-34.90192378864671
 20
2.999999999999995
 30
0.0
 11
-34.90192378864671
 21
-2.999999999999999
 31
0.0
  0
SPLINE
  5
B9
330
1F
100
AcDbEntity
  8
0
  6
Continuous
 62
     4
370
    25
100
AcDbSpline
210
0.0
220
0.0
230
1.0
 70
     8
 71
     3
 72
     8
 73
     4
 74
     0
 42
0.000000001
 43
0.00000001
 40
0.0
 40
0.0
 40
0.0
 40
0.0
 40
1.0
 40
1.0
 40
1.0
 40
1.0
 10
7.5484448069528
 20
-1.092526658631293
 30
0.0
 10
7.564974563806578
 20
-1.096399042633549
 30
0.0
 10
7.581518302298971
 20
-1.100154068063306
 30
0.0
 10
7.598076211353304
 20
-1.103792162021049
 30
0.0
  0
SPLINE
  5
BA
330
1F
100
AcDbEntity
  8
0
  6
Continuous
 62
     4
370
    25
100
AcDbSpline
210
0.0
220
0.0
230
1.0
 70
     8
 71
     3
 72
    12
 73
     8
 74
     0
 42
0.000000001
 43
0.00000001
 40
0.0
 40
0.0
 40
0.0
 40
0.0
 40
0.2500000000000001
 40
0.2500000000000001
 40
0.5000000000000001
 40
0.5000000000000001
 40
1.0
 40
1.0
 40
1.0
 40
1.0
 10
7.09823942354461
 20
-1.339763011014772
 30
0.0
 10
7.098239423544614
 20
-1.308869271588813
 30
0.0
 10
7.11267285416905
 20
-1.273070846544092
 30
0.0
 10
7.166723717121991
 20
-1.203253713208351
 30
0.0
 10
7.206394607369976
 20
-1.16949253867627
 30
0.0
 10
7.342816808628109
 20
-1.091250824689953
 30
0.0
 10
7.459016101085501
 20
-1.071576423669801
 30
0.0
 10
7.5484448069528
 20
-1.092526658631293
 30
0.0
  0
LINE
  5
BB
330
1F
100
AcDbEntity
  8
0
  6
Continuous
 62
     4
370
    25
100
AcDbLine
 10
7.09823942354461
 20
-1.339763011014772
 30
0.0
 11
7.09823942354461
 21
-1.633930863640704
 31
0.0
  0
SPLINE
  5
BC
330
1F
100
AcDbEntity
  8
0
  6
Continuous
 62
     4
370
    25
100
AcDbSpline
210
0.0
220
0.0
230
1.0
 70
     8
 71
     3
 72
    10
 73
     6
 74
     0
 42
0.000000001
 43
0.00000001
 40
0.0
 40
0.0
 40
0.0
 40
0.0
 40
0.5
 40
0.5
 40
1.0
 40
1.0
 40
1.0
 40
1.0
 10
7.241161740688318
 20
-1.546777146535862
 30
0.0
 10
7.197912036229571
 20
-1.564414103084265
 30
0.0
 10
7.161640048169579
 20
-1.582398551951653
 30
0.0
 10
7.111689744530773
 20
-1.611472470441284
 30
0.0
 10
7.098239423544422
 20
-1.622384667965863
 30
0.0
 10
7.098239423544614
 20
-1.627115864219981
 30
0.0
  0
SPLINE
  5
BD
330
1F
100
AcDbEntity
  8
0
  6
Continuous
 62
     4
370
    25
100
AcDbSpline
210
0.0
220
0.0
230
1.0
 70
     8
 71
     3
 72
     8
 73
     4
 74
     0
 42
0.000000001
 43
0.00000001
 40
0.0
 40
0.0
 40
0.0
 40
0.0
 40
1.0
 40
1.0
 40
1.0
 40
1.0
 10
7.5980762113533
 20
-1.392840403264903
 30
0.0
 10
7.477160333285699
 20
-1.447086047047073
 30
0.0
 10
7.358672705721153
 20
-1.498856916555512
 30
0.0
 10
7.241161740688318
 20
-1.546777146535854
 30
0.0
  0
LINE
  5
BE
330
1F
100
AcDbEntity
  8
0
  6
Continuous
 62
     4
370
    25
100
AcDbLine
 10
7.09823942354461
 20
1.633930863640705
 30
0.0
 11
7.09823942354461
 21
1.627115864219982
 31
0.0
  0
SPLINE
  5
BF
330
1F
100
AcDbEntity
  8
0
  6
Continuous
 62
     4
370
    25
100
AcDbSpline
210
0.0
220
0.0
230
1.0
 70
     8
 71
     3
 72
    10
 73
     6
 74
     0
 42
0.000000001
 43
0.00000001
 40
0.0
 40
0.0
 40
0.0
 40
0.0
 40
0.5
 40
0.5
 40
1.0
 40
1.0
 40
1.0
 40
1.0
 10
7.241161740688318
 20
1.546777146535863
 30
0.0
 10
7.197912036229571
 20
1.564414103084266
 30
0.0
 10
7.161640048169579
 20
1.582398551951653
 30
0.0
 10
7.111689744530773
 20
1.611472470441285
 30
0.0
 10
7.098239423544422
 20
1.622384667965864
 30
0.0
 10
7.098239423544614
 20
1.627115864219981
 30
0.0
  0
SPLINE
  5
C0
330
1F
100
AcDbEntity
  8
0
  6
Continuous
 62
     4
370
    25
100
AcDbSpline
210
0.0
220
0.0
230
1.0
 70
     8
 71
     3
 72
     8
 73
     4
 74
     0
 42
0.000000001
 43
0.00000001
 40
0.0
 40
0.0
 40
0.0
 40
0.0
 40
1.0
 40
1.0
 40
1.0
 40
1.0
 10
7.5980762113533
 20
1.392840403264904
 30
0.0
 10
7.477160333285699
 20
1.447086047047074
 30
0.0
 10
7.358672705721153
 20
1.498856916555512
 30
0.0
 10
7.241161740688318
 20
1.546777146535855
 30
0.0
  0
LINE
  5
C1
330
1F
100
AcDbEntity
  8
0
  6
Continuous
 62
     4
370
    25
100
AcDbLine
 10
7.5980762113533
 20
1.392840403264592
 30
0.0
 11
7.5980762113533
 21
1.015698214560244
 31
0.0
  0
SPLINE
  5
C2
330
1F
100
AcDbEntity
  8
0
  6
Continuous
 62
     4
370
    25
100
AcDbSpline
210
0.0
220
0.0
230
1.0
 70
     8
 71
     3
 72
     8
 73
     4
 74
     0
 42
0.000000001
 43
0.00000001
 40
0.0
 40
0.0
 40
0.0
 40
0.0
 40
1.0
 40
1.0
 40
1.0
 40
1.0
 10
7.5484448069528
 20
1.04711911435443
 30
0.0
 10
7.564974563806578
 20
1.036677812291084
 30
0.0
 10
7.581518302298971
 20
1.026204009472032
 30
0.0
 10
7.5980762113533
 20
1.015698214560247
 30
0.0
  0
SPLINE
  5
C3
330
1F
100
AcDbEntity
  8
0
  6
Continuous
 62
     4
370
    25
100
AcDbSpline
210
0.0
220
0.0
230
1.0
 70
     8
 71
     3
 72
    12
 73
     8
 74
     0
 42
0.000000001
 43
0.00000001
 40
0.0
 40
0.0
 40
0.0
 40
0.0
 40
0.2499999999999999
 40
0.2499999999999999
 40
0.4999999999999998
 40
0.4999999999999998
 40
1.0
 40
1.0
 40
1.0
 40
1.0
 10
7.09823942354461
 20
0.9352888011059819
 30
0.0
 10
7.09823942354461
 20
0.9795428211539969
 30
0.0
 10
7.11267285416905
 20
1.019050325394917
 30
0.0
 10
7.166723717121991
 20
1.079049191994946
 30
0.0
 10
7.206394607369976
 20
1.099442631231462
 30
0.0
 10
7.342816808628109
 20
1.127616547413879
 30
0.0
 10
7.459016101085505
 20
1.103608277465205
 30
0.0
 10
7.548444806952803
 20
1.047119114354429
 30
0.0
  0
LINE
  5
C4
330
1F
100
AcDbEntity
  8
0
  6
Continuous
 62
     4
370
    25
100
AcDbLine
 10
7.09823942354461
 20
0.9352888011059819
 30
0.0
 11
7.09823942354461
 21
-0.1490772670843138
 31
0.0
  0
SPLINE
  5
C5
330
1F
100
AcDbEntity
  8
0
  6
Continuous
 62
     4
370
    25
100
AcDbSpline
210
0.0
220
0.0
230
1.0
 70
     8
 71
     3
 72
    10
 73
     6
 74
     0
 42
0.000000001
 43
0.00000001
 40
0.0
 40
0.0
 40
0.0
 40
0.0
 40
0.5
 40
0.5
 40
1.0
 40
1.0
 40
1.0
 40
1.0
 10
7.241161740688318
 20
-0.3918307466853955
 30
0.0
 10
7.197912036229571
 20
-0.3693999665331917
 30
0.0
 10
7.161640048169579
 20
-0.3353485418328221
 30
0.0
 10
7.111689744530773
 20
-0.251121924231727
 30
0.0
 10
7.098239423544422
 20
-0.200716290474403
 30
0.0
 10
7.098239423544614
 20
-0.1490772670843136
 30
0.0
  0
SPLINE
  5
C6
330
1F
100
AcDbEntity
  8
0
  6
Continuous
 62
     4
370
    25
100
AcDbSpline
210
0.0
220
0.0
230
1.0
 70
     8
 71
     3
 72
     8
 73
     4
 74
     0
 42
0.000000001
 43
0.00000001
 40
0.0
 40
0.0
 40
0.0
 40
0.0
 40
1.0
 40
1.0
 40
1.0
 40
1.0
 10
7.5980762113533
 20
-0.5567724948602247
 30
0.0
 10
7.477160333285699
 20
-0.5083567473344447
 30
0.0
 10
7.358672705721153
 20
-0.4527759636553503
 30
0.0
 10
7.241161740688318
 20
-0.391830746685393
 30
0.0
  0
LINE
  5
C7
330
1F
100
AcDbEntity
  8
0
  6
Continuous
 62
     4
370
    25
100
AcDbLine
 10
7.5980762113533
 20
-0.5567724948602248
 30
0.0
 11
7.598076211353304
 21
-1.103792162021047
 31
0.0
  0
LINE
  5
C8
330
1F
100
AcDbEntity
  8
0
  6
Continuous
 62
     4
370
    25
100
AcDbLine
 10
-35.40192378864671
 20
2.499999999999994
 30
0.0
 11
-35.40192378864671
 21
-2.499999999999999
 31
0.0
  0
SPLINE
  5
C9
330
1F
100
AcDbEntity
  8
0
  6
Continuous
 62
     4
370
    25
100
AcDbSpline
210
0.0
220
0.0
230
1.0
 70
     8
 71
     3
 72
    10
 73
     6
 74
     0
 42
0.000000001
 43
0.00000001
 40
0.0
 40
0.0
 40
0.0
 40
0.0
 40
0.5
 40
0.5
 40
1.0
 40
1.0
 40
1.0
 40
1.0
 10
8.5980762113533
 20
0.527053487767163
 30
0.0
 10
8.430617225551144
 20
0.6172680753863032
 30
0.0
 10
8.267268467856828
 20
0.7035031742444542
 30
0.0
 10
7.933904948609982
 20
0.8674320456392186
 30
0.0
 10
7.764847115367969
 20
0.9448887116646583
 30
0.0
 10
7.5980762113533
 20
1.015698214560244
 30
0.0
  0
SPLINE
  5
CA
330
1F
100
AcDbEntity
  8
0
  6
Continuous
 62
     4
370
    25
100
AcDbSpline
210
0.0
220
0.0
230
1.0
 70
    24
 71
     3
 72
    16
 73
    12
 74
     0
 42
0.000000001
 43
0.00000001
 40
0.0
 40
0.0
 40
0.0
 40
0.0
 40
0.125
 40
0.125
 40
0.2500000000000001
 40
0.2500000000000001
 40
0.5
 40
0.5
 40
0.75
 40
0.75
 40
1.0
 40
1.0
 40
1.0
 40
1.0
 10
8.5980762113533
 20
0.5270534877671821
 30
0.0
 10
8.5980762113533
 20
0.5016435080937548
 30
0.0
 10
8.5980762113533
 20
0.4759196138319308
 30
0.0
 10
8.5980762113533
 20
0.4131949198944078
 30
0.0
 10
8.5980762113533
 20
0.3765552471242991
 30
0.0
 10
8.5980762113533
 20
0.2472123473654444
 30
0.0
 10
8.5980762113533
 20
0.1340492457571782
 30
0.0
 10
8.5980762113533
 20
-0.1527345307703376
 30
0.0
 10
8.5980762113533
 20
-0.3276131676620191
 30
0.0
 10
8.5980762113533
 20
-0.6950387684279231
 30
0.0
 10
8.5980762113533
 20
-0.8850306834693316
 30
0.0
 10
8.5980762113533
 20
-1.038920922185324
 30
0.0
  0
SPLINE
  5
CB
330
1F
100
AcDbEntity
  8
0
  6
Continuous
 62
     4
370
    25
100
AcDbSpline
210
0.0
220
0.0
230
1.0
 70
     8
 71
     3
 72
    10
 73
     6
 74
     0
 42
0.000000001
 43
0.00000001
 40
0.0
 40
0.0
 40
0.0
 40
0.0
 40
0.5
 40
0.5
 40
1.0
 40
1.0
 40
1.0
 40
1.0
 10
8.598076211353298
 20
-1.038920922185323
 30
0.0
 10
8.430617225551144
 20
-0.9694165737610903
 30
0.0
 10
8.267268467856832
 20
-0.8940947270026848
 30
0.0
 10
7.933904948609996
 20
-0.7324107574466094
 30
0.0
 10
7.764847115367987
 20
-0.646124766022649
 30
0.0
 10
7.598076211353325
 20
-0.5567724948600561
 30
0.0
  0
SPLINE
  5
CC
330
1F
100
AcDbEntity
  8
0
  6
Continuous
 62
     4
370
    25
100
AcDbSpline
210
0.0
220
0.0
230
1.0
 70
     8
 71
     3
 72
    10
 73
     6
 74
     0
 42
0.000000001
 43
0.00000001
 40
0.0
 40
0.0
 40
0.0
 40
0.0
 40
0.5
 40
0.5
 40
1.0
 40
1.0
 40
1.0
 40
1.0
 10
8.598076211353298
 20
1.081962715367103
 30
0.0
 10
8.43061722555114
 20
1.148702096248906
 30
0.0
 10
8.267268467856825
 20
1.208242896970659
 30
0.0
 10
7.93390494860998
 20
1.312566478815661
 30
0.0
 10
7.764847115367969
 20
1.357122824409179
 30
0.0
 10
7.5980762113533
 20
1.392840403264592
 30
0.0
  0
LINE
  5
CD
330
1F
100
AcDbEntity
  8
0
  6
Continuous
 62
     4
370
    25
100
AcDbLine
 10
8.598076211353298
 20
1.081962715367103
 30
0.0
 11
8.598076211353304
 21
0.5270534877671813
 31
0.0
  0
SPLINE
  5
CE
330
1F
100
AcDbEntity
  8
0
  6
Continuous
 62
     4
370
    25
100
AcDbSpline
210
0.0
220
0.0
230
1.0
 70
     8
 71
     3
 72
    10
 73
     6
 74
     0
 42
0.000000001
 43
0.00000001
 40
0.0
 40
0.0
 40
0.0
 40
0.0
 40
0.5
 40
0.5
 40
1.0
 40
1.0
 40
1.0
 40
1.0
 10
8.5980762113533
 20
-1.404355589241002
 30
0.0
 10
8.430617225551144
 20
-1.370498129338099
 30
0.0
 10
8.267268467856828
 20
-1.328284443469487
 30
0.0
 10
7.933904948609982
 20
-1.227525121996786
 30
0.0
 10
7.764847115367969
 20
-1.168950339565321
 30
0.0
 10
7.5980762113533
 20
-1.103792162021047
 30
0.0
  0
LINE
  5
CF
330
1F
100
AcDbEntity
  8
0
  6
Continuous
 62
     4
370
    25
100
AcDbLine
 10
8.598076211353298
 20
-1.038920922185322
 30
0.0
 11
8.598076211353304
 21
-1.404355589241035
 31
0.0
  0
LINE
  5
D0
330
1F
100
AcDbEntity
  8
0
  6
Continuous
 62
     4
370
    25
100
AcDbLine
 10
8.071899612860966
 20
-1.267965119010783
 30
0.0
 11
7.598076211356434
 21
-1.39284040326392
 31
0.0
  0
SPLINE
  5
D1
330
1F
100
AcDbEntity
  8
0
  6
Continuous
 62
     4
370
    25
100
AcDbSpline
210
0.0
220
0.0
230
1.0
 70
     8
 71
     3
 72
     9
 73
     5
 74
     0
 42
0.000000001
 43
0.00000001
 40
0.0
 40
0.0
 40
0.0
 40
0.0
 40
0.0544337360341242
 40
1.0
 40
1.0
 40
1.0
 40
1.0
 10
8.071899612860966
 20
1.267965119010783
 30
0.0
 10
8.081462412976983
 20
1.271302474600422
 30
0.0
 10
8.25714023362151
 20
1.332612901420058
 30
0.0
 10
8.432377635732307
 20
1.369487866385118
 30
0.0
 10
8.5980762113533
 20
1.404355589241003
 30
0.0
  0
SPLINE
  5
D2
330
1F
100
AcDbEntity
  8
0
  6
Continuous
 62
     4
370
    25
100
AcDbSpline
210
0.0
220
0.0
230
1.0
 70
    24
 71
     3
 72
    10
 73
     6
 74
     0
 42
0.000000001
 43
0.00000001
 40
0.0
 40
0.0
 40
0.0
 40
0.0
 40
0.303126337414692
 40
0.6094739412897957
 40
1.0
 40
1.0
 40
1.0
 40
1.0
 10
8.5980762113533
 20
1.404355589241036
 30
0.0
 10
8.598076211353304
 20
1.373579807805245
 30
0.0
 10
8.598076211353304
 20
1.311701196504362
 30
0.0
 10
8.598076211353304
 20
1.217436045471405
 30
0.0
 10
8.598076211353304
 20
1.161464030480864
 30
0.0
 10
8.598076211353304
 20
1.130097469243304
 30
0.0
  0
SPLINE
  5
D3
330
1F
100
AcDbEntity
  8
0
  6
Continuous
 62
     1
370
    25
100
AcDbSpline
210
0.0
220
0.0
230
1.0
 70
     8
 71
     3
 72
    19
 73
    15
 74
     0
 42
0.000000001
 43
0.00000001
 40
0.0
 40
0.0
 40
0.0
 40
0.0
 40
0.078171954056995
 40
0.167481878822938
 40
0.2567906611088305
 40
0.3461003894127849
 40
0.4354131507150028
 40
0.5247310271319763
 40
0.6140560925873362
 40
0.7033904095107004
 40
0.7927360255757002
 40
0.8819631240458438
 40
0.9712064530121334
 40
1.0
 40
1.0
 40
1.0
 40
1.0
 10
28.47422777151856
 20
-1.261832815204168
 30
0.0
 10
28.22358551482644
 20
-1.331792469958468
 30
0.0
 10
27.68658939429178
 20
-1.481679658546737
 30
0.0
 10
26.86325169940492
 20
-1.522696610274761
 30
0.0
 10
26.00420469606606
 20
-1.413748210410471
 30
0.0
 10
25.14514701880696
 20
-1.14799125506422
 30
0.0
 10
24.28605427651151
 20
-0.7587293365170226
 30
0.0
 10
23.42690253121954
 20
-0.2870118640388427
 30
0.0
 10
22.56766782349658
 20
0.2159865318502448
 30
0.0
 10
21.70832641951474
 20
0.6947905879983572
 30
0.0
 10
20.84927730432674
 20
1.101130366783693
 30
0.0
 10
19.99049491357905
 20
1.37670484479073
 30
0.0
 10
19.32586219065913
 20
1.507535140498373
 30
0.0
 10
18.94733278082983
 20
1.487157864357693
 30
0.0
 10
18.85499549843308
 20
1.482187095237462
 30
0.0
  0
SPLINE
  5
D4
330
1F
100
AcDbEntity
  8
0
  6
Continuous
 62
     1
370
    25
100
AcDbSpline
210
0.0
220
0.0
230
1.0
 70
     8
 71
     3
 72
    12
 73
     8
 74
     0
 42
0.000000001
 43
0.00000001
 40
0.0
 40
0.0
 40
0.0
 40
0.0
 40
0.211694119017912
 40
0.4535504992370593
 40
0.6954037855549385
 40
0.9372596337437932
 40
1.0
 40
1.0
 40
1.0
 40
1.0
 10
12.15003349341061
 20
-1.261832815204168
 30
0.0
 10
11.89939093514268
 20
-1.331786071413043
 30
0.0
 10
11.36239416848781
 20
-1.481659551243196
 30
0.0
 10
10.53906185035109
 20
-1.522790581691353
 30
0.0
 10
9.679993882802501
 20
-1.413397383359566
 30
0.0
 10
9.033072410920765
 20
-1.214498717988029
 30
0.0
 10
8.672372707577063
 20
-1.068909264740742
 30
0.0
 10
8.5980762113533
 20
-1.038920922185607
 30
0.0
  0
SPLINE
  5
D5
330
1F
100
AcDbEntity
  8
0
  6
Continuous
 62
     4
370
    25
100
AcDbSpline
210
0.0
220
0.0
230
1.0
 70
    24
 71
     3
 72
    16
 73
    12
 74
     0
 42
0.000000001
 43
0.00000001
 40
0.0
 40
0.0
 40
0.0
 40
0.0
 40
0.1250000000000001
 40
0.1250000000000001
 40
0.2500000000000002
 40
0.2500000000000002
 40
0.5000000000000001
 40
0.5000000000000001
 40
0.75
 40
0.75
 40
1.0
 40
1.0
 40
1.0
 40
1.0
 10
8.5980762113533
 20
0.5270534877671815
 30
0.0
 10
8.5980762113533
 20
0.5016435080937502
 30
0.0
 10
8.5980762113533
 20
0.4759196138319224
 30
0.0
 10
8.5980762113533
 20
0.4131949198943865
 30
0.0
 10
8.5980762113533
 20
0.3765552471242696
 30
0.0
 10
8.5980762113533
 20
0.2472123473653831
 30
0.0
 10
8.5980762113533
 20
0.1340492457570852
 30
0.0
 10
8.5980762113533
 20
-0.15273453077051
 30
0.0
 10
8.5980762113533
 20
-0.3276131676622396
 30
0.0
 10
8.5980762113533
 20
-0.695038768428211
 30
0.0
 10
8.5980762113533
 20
-0.8850306834696349
 30
0.0
 10
8.5980762113533
 20
-1.038920922185607
 30
0.0
  0
SPLINE
  5
D6
330
1F
100
AcDbEntity
  8
0
  6
Continuous
 62
     1
370
    25
100
AcDbSpline
210
0.0
220
0.0
230
1.0
 70
     8
 71
     3
 72
    14
 73
    10
 74
     0
 42
0.000000001
 43
0.00000001
 40
0.0
 40
0.0
 40
0.0
 40
0.0
 40
0.1288068168186424
 40
0.2578334669282832
 40
0.3862997272202429
 40
0.5576078756845533
 40
0.7289225942041785
 40
0.9002478740714518
 40
1.0
 40
1.0
 40
1.0
 40
1.0
 10
8.5980762113533
 20
0.5270534877671637
 30
0.0
 10
8.81328510878191
 20
0.4075700262542729
 30
0.0
 10
9.244070198486881
 20
0.1683991820136594
 30
0.0
 10
9.890139973044375
 20
-0.2080101978332696
 30
0.0
 10
10.60589113385362
 20
-0.6107747283953988
 30
0.0
 10
11.39369973274777
 20
-1.004901642357406
 30
0.0
 10
12.25269825707783
 20
-1.318627412113147
 30
0.0
 10
12.99222148759617
 20
-1.489075227057436
 30
0.0
 10
13.445360001135
 20
-1.482506921147354
 30
0.0
 10
13.61210768684824
 20
-1.480089890202425
 30
0.0
  0
SPLINE
  5
D7
330
1F
100
AcDbEntity
  8
0
  6
Continuous
 62
     1
370
    25
100
AcDbSpline
210
0.0
220
0.0
230
1.0
 70
     8
 71
     3
 72
    20
 73
    16
 74
     0
 42
0.000000001
 43
0.00000001
 40
0.0
 40
0.0
 40
0.0
 40
0.0
 40
0.0553647794585452
 40
0.144688385695744
 40
0.2340006955747913
 40
0.3233037562648857
 40
0.4125996296875761
 40
0.4787863892524305
 40
0.5459222553353761
 40
0.6131727015216855
 40
0.680131064907695
 40
0.7694192035192594
 40
0.8587107665330769
 40
0.9480078342650364
 40
1.0
 40
1.0
 40
1.0
 40
1.0
 10
20.31616095242962
 20
1.252939119142725
 30
0.0
 10
20.49373946402185
 20
1.308903949349499
 30
0.0
 10
20.95781695927804
 20
1.455160486764546
 30
0.0
 10
21.70831976439894
 20
1.523393211893109
 30
0.0
 10
22.56768979493733
 20
1.458155510429061
 30
0.0
 10
23.42682131114427
 20
1.228931317789715
 30
0.0
 10
24.21222695681368
 20
0.8994178671670473
 30
0.0
 10
24.92518627518071
 20
0.5306184550306426
 30
0.0
 10
25.56829866119667
 20
0.1669809575265176
 30
0.0
 10
26.2143252163053
 20
-0.2076353670433397
 30
0.0
 10
26.93008873996912
 20
-0.6109127982146213
 30
0.0
 10
27.71789301272455
 20
-1.004860232658004
 30
0.0
 10
28.57689280614603
 20
-1.318638653503436
 30
0.0
 10
29.31641572973351
 20
-1.48907373473653
 30
0.0
 10
29.76955426956696
 20
-1.482506519717127
 30
0.0
 10
29.93630196495618
 20
-1.480089890202424
 30
0.0
  0
SPLINE
  5
D8
330
1F
100
AcDbEntity
  8
0
  6
Continuous
 62
     1
370
    25
100
AcDbSpline
210
0.0
220
0.0
230
1.0
 70
     8
 71
     3
 72
    16
 73
    12
 74
     0
 42
0.000000001
 43
0.00000001
 40
0.0
 40
0.0
 40
0.0
 40
0.0
 40
0.1134041414320145
 40
0.2267860733258593
 40
0.3401483099854162
 40
0.4534933967755183
 40
0.5668239062239268
 40
0.6801424340318998
 40
0.7934515950063519
 40
0.9067540189271313
 40
1.0
 40
1.0
 40
1.0
 40
1.0
 10
34.5980762113533
 20
-1.462748547532891
 30
0.0
 10
34.3114016649422
 20
-1.410565715304881
 30
0.0
 10
33.73810871565409
 20
-1.306210270551506
 30
0.0
 10
32.87829062024601
 20
-0.9654793205354627
 30
0.0
 10
32.01864888910767
 20
-0.5314790163219689
 30
0.0
 10
31.15916379301319
 20
-0.0367350850008886
 30
0.0
 10
30.29981106494216
 20
0.4608159057522552
 30
0.0
 10
29.44056732652549
 20
0.9098454362150674
 30
0.0
 10
28.58140886023058
 20
1.255538687214567
 30
0.0
 10
27.7729921713737
 20
1.469026402998412
 30
0.0
 10
27.2509602952978
 20
1.482174701945628
 30
0.0
 10
27.01528975386948
 20
1.488110482639796
 30
0.0
  0
SPLINE
  5
D9
330
1F
100
AcDbEntity
  8
0
  6
Continuous
 62
     1
370
    25
100
AcDbSpline
210
0.0
220
0.0
230
1.0
 70
     8
 71
     3
 72
    19
 73
    15
 74
     0
 42
0.000000001
 43
0.00000001
 40
0.0
 40
0.0
 40
0.0
 40
0.0
 40
0.0338296075657644
 40
0.1230229114397881
 40
0.2121696377741077
 40
0.3015128635964082
 40
0.3908385920702078
 40
0.4801488040404441
 40
0.5694455048228156
 40
0.6587307211328006
 40
0.748006497942661
 40
0.8372748952766759
 40
0.9265379849552553
 40
1.0
 40
1.0
 40
1.0
 40
1.0
 10
20.31616095242964
 20
-1.252939119142722
 30
0.0
 10
20.20762213469329
 20
-1.29044858754117
 30
0.0
 10
19.81291577174775
 20
-1.426853480798215
 30
0.0
 10
19.13216207470126
 20
-1.513340367181703
 30
0.0
 10
18.27325181273763
 20
-1.49100321710443
 30
0.0
 10
17.41391433429469
 20
-1.298603241182333
 30
0.0
 10
16.5540963697967
 20
-0.9675170659919178
 30
0.0
 10
15.69445460359034
 20
-0.5309331336032328
 30
0.0
 10
14.83496951689016
 20
-0.0368813241781537
 30
0.0
 10
13.97561678630242
 20
0.460855084136446
 30
0.0
 10
13.11637304856001
 20
0.9098349385330537
 30
0.0
 10
12.25721458208437
 20
1.255541504551611
 30
0.0
 10
11.44879789327336
 20
1.469025842119437
 30
0.0
 10
10.92676601719222
 20
1.482174527493693
 30
0.0
 10
10.69109547576155
 20
1.488110482639794
 30
0.0
  0
SPLINE
  5
DA
330
1F
100
AcDbEntity
  8
0
  6
Continuous
 62
     1
370
    25
100
AcDbSpline
210
0.0
220
0.0
230
1.0
 70
     8
 71
     3
 72
    20
 73
    16
 74
     0
 42
0.000000001
 43
0.00000001
 40
0.0
 40
0.0
 40
0.0
 40
0.0
 40
0.0106680250728721
 40
0.0999381813335742
 40
0.1892159115307408
 40
0.2785032744371637
 40
0.3678023134695624
 40
0.4571150534891462
 40
0.5464434976649132
 40
0.6357894522241483
 40
0.7251321019117816
 40
0.8144574392628757
 40
0.9037674475789385
 40
0.9930641343469663
 40
1.0
 40
1.0
 40
1.0
 40
1.0
 10
12.15003349341062
 20
1.261832815204171
 30
0.0
 10
12.18425701611441
 20
1.274593505069636
 30
0.0
 10
12.5048633696317
 20
1.394135794200477
 30
0.0
 10
13.11188611536153
 20
1.491213909618384
 30
0.0
 10
13.97113834613151
 20
1.515205194602784
 30
0.0
 10
14.83050275307376
 20
1.361987401778883
 30
0.0
 10
15.6900014338522
 20
1.064551002602696
 30
0.0
 10
16.54965918762626
 20
0.6507010050196479
 30
0.0
 10
17.40949420720264
 20
0.166579768189882
 30
0.0
 10
18.26947158642614
 20
-0.3359861037057522
 30
0.0
 10
19.12942778587572
 20
-0.8008628683576409
 30
0.0
 10
19.98922916911086
 20
-1.183523931170425
 30
0.0
 10
20.84885334008519
 20
-1.420487878049295
 30
0.0
 10
21.4441294921102
 20
-1.522665502682525
 30
0.0
 10
21.75286227960853
 20
-1.496078693308388
 30
0.0
 10
21.77511388868366
 20
-1.494162475424497
 30
0.0
  0
SPLINE
  5
DB
330
1F
100
AcDbEntity
  8
0
  6
Continuous
 62
     1
370
    25
100
AcDbSpline
210
0.0
220
0.0
230
1.0
 70
     8
 71
     3
 72
    16
 73
    12
 74
     0
 42
0.000000001
 43
0.00000001
 40
0.0
 40
0.0
 40
0.0
 40
0.0
 40
0.0167670741058274
 40
0.1570741426810803
 40
0.2973931153110304
 40
0.4377272277957178
 40
0.5780796917998445
 40
0.7184536898241753
 40
0.8588523702755436
 40
0.9992785720249242
 40
1.0
 40
1.0
 40
1.0
 40
1.0
 10
28.47422777151858
 20
1.261832815204172
 30
0.0
 10
28.5084512926704
 20
1.274593503330132
 30
0.0
 10
28.82905763164883
 20
1.394135776165275
 30
0.0
 10
29.43608112346832
 20
1.491214727827524
 30
0.0
 10
30.29533002992383
 20
1.515202286799851
 30
0.0
 10
31.15470668000757
 20
1.361998216532385
 30
0.0
 10
32.01415970398112
 20
1.064510643555544
 30
0.0
 10
32.87398787914978
 20
0.6508516604444451
 30
0.0
 10
33.73318671125614
 20
0.1660173616546899
 30
0.0
 10
34.30955333386375
 20
-0.1681014153636896
 30
0.0
 10
34.59660902408466
 20
-0.3313802758804379
 30
0.0
 10
34.5980762113533
 20
-0.3322148200945012
 30
0.0
  0
LINE
  5
DC
330
1F
100
AcDbEntity
  8
0
  6
Continuous
 62
     1
370
    25
100
AcDbLine
 10
34.5980762113533
 20
-0.5000000000000001
 30
0.0
 11
34.5980762113533
 21
-0.3333856900530311
 31
0.0
  0
SPLINE
  5
DD
330
1F
100
AcDbEntity
  8
0
  6
Continuous
 62
     1
370
    25
100
AcDbSpline
210
0.0
220
0.0
230
1.0
 70
    24
 71
     3
 72
    10
 73
     6
 74
     0
 42
0.000000001
 43
0.00000001
 40
0.0
 40
0.0
 40
0.0
 40
0.0
 40
0.5
 40
0.5
 40
1.0
 40
1.0
 40
1.0
 40
1.0
 10
34.5980762113533
 20
-0.5000000000000001
 30
0.0
 10
34.52274727136002
 20
-0.5527458916286441
 30
0.0
 10
34.42051794841747
 20
-0.6243276341790943
 30
0.0
 10
34.20162612327921
 20
-0.7775973401933789
 30
0.0
 10
34.08808910964737
 20
-0.8570968130042114
 30
0.0
 10
33.98017819404714
 20
-0.9326568495626046
 30
0.0
  0
SPLINE
  5
DE
330
1F
100
AcDbEntity
  8
0
  6
Continuous
 62
     1
370
    25
100
AcDbSpline
210
0.0
220
0.0
230
1.0
 70
     8
 71
     3
 72
     8
 73
     4
 74
     0
 42
0.000000001
 43
0.00000001
 40
0.0
 40
0.0
 40
0.0
 40
0.0
 40
1.0
 40
1.0
 40
1.0
 40
1.0
 10
34.5980762113533
 20
-1.404383063753673
 30
0.0
 10
34.37780991610113
 20
-1.277322519792202
 30
0.0
 10
34.17575580507327
 20
-1.111824184871087
 30
0.0
 10
33.98017819404716
 20
-0.9326568495626002
 30
0.0
  0
LINE
  5
DF
330
1F
100
AcDbEntity
  8
0
  6
Continuous
 62
     1
370
    25
100
AcDbLine
 10
34.5980762113533
 20
-1.462748547532895
 30
0.0
 11
34.5980762113533
 21
-1.404383063753673
 31
0.0
  0
SPLINE
  5
E0
330
1F
100
AcDbEntity
  8
0
  6
Continuous
 62
     1
370
    25
100
AcDbSpline
210
0.0
220
0.0
230
1.0
 70
     8
 71
     3
 72
    19
 73
    15
 74
     0
 42
0.000000001
 43
0.00000001
 40
0.0
 40
0.0
 40
0.0
 40
0.0
 40
0.0558282078708321
 40
0.145165818421902
 40
0.2344919392391689
 40
0.3238086162317647
 40
0.413117910367733
 40
0.5024218944166536
 40
0.5917226496520385
 40
0.6810222625246724
 40
0.7703228213182396
 40
0.8596264127986696
 40
0.9489351188686818
 40
0.9999999999999999
 40
0.9999999999999999
 40
0.9999999999999999
 40
0.9999999999999999
 10
32.55572577683536
 20
-1.253042270395575
 30
0.0
 10
32.37668625801716
 20
-1.309342041353043
 30
0.0
 10
31.91114349262442
 20
-1.455734029197533
 30
0.0
 10
31.15916449917996
 20
-1.523495049594496
 30
0.0
 10
30.2998108719204
 20
-1.457343222625566
 30
0.0
 10
29.4405673925561
 20
-1.227416385538451
 30
0.0
 10
28.58140878911168
 20
-0.8659761158869835
 30
0.0
 10
27.72231154565906
 20
-0.4102948657340145
 30
0.0
 10
26.86325155625544
 20
0.0898864555509163
 30
0.0
 10
26.00420470378645
 20
0.5798178994093502
 30
0.0
 10
25.14514713107857
 20
1.008884933766744
 30
0.0
 10
24.28605381967583
 20
1.321164068613007
 30
0.0
 10
23.54956152063987
 20
1.489878637904496
 30
0.0
 10
23.09942385691472
 20
1.482603951566273
 30
0.0
 10
22.93567349084416
 20
1.479957577696834
 30
0.0
  0
SPLINE
  5
E1
330
1F
100
AcDbEntity
  8
0
  6
Continuous
 62
     1
370
    25
100
AcDbSpline
210
0.0
220
0.0
230
1.0
 70
     8
 71
     3
 72
    17
 73
    13
 74
     0
 42
0.000000001
 43
0.00000001
 40
0.0
 40
0.0
 40
0.0
 40
0.0
 40
0.0703579312803082
 40
0.1829463467716646
 40
0.2955202822370242
 40
0.4080823160492127
 40
0.5206350455591666
 40
0.6331810829907996
 40
0.7457230512851715
 40
0.8582635799080403
 40
0.9708053006350903
 40
0.9999999999999999
 40
0.9999999999999999
 40
0.9999999999999999
 40
0.9999999999999999
 10
16.2315314987274
 20
-1.253042270395576
 30
0.0
 10
16.05249198015681
 20
-1.309342034558043
 30
0.0
 10
15.58694921540791
 20
-1.45573400473401
 30
0.0
 10
14.83497021489055
 20
-1.523495219226502
 30
0.0
 10
13.97561661663192
 20
-1.457342596411943
 30
0.0
 10
13.11637302936315
 20
-1.227418720446366
 30
0.0
 10
12.25721482849163
 20
-0.8659674033634625
 30
0.0
 10
11.39811608276777
 20
-0.4103273786342229
 30
0.0
 10
10.53906169962567
 20
0.0900077900385024
 30
0.0
 10
9.67999392463619
 20
0.5793650767506894
 30
0.0
 10
9.033072408739509
 20
0.9041213019503925
 30
0.0
 10
8.672372707204506
 20
1.051587751371091
 30
0.0
 10
8.5980762113533
 20
1.081962715367323
 30
0.0
  0
SPLINE
  5
E2
330
1F
100
AcDbEntity
  8
0
  6
Continuous
 62
     4
370
    25
100
AcDbSpline
210
0.0
220
0.0
230
1.0
 70
    24
 71
     3
 72
     9
 73
     5
 74
     0
 42
0.000000001
 43
0.00000001
 40
0.0
 40
0.0
 40
0.0
 40
0.0
 40
0.6091598158711086
 40
1.0
 40
1.0
 40
1.0
 40
1.0
 10
8.5980762113533
 20
1.404355589241035
 30
0.0
 10
8.5980762113533
 20
1.342712321722971
 30
0.0
 10
8.598076211353304
 20
1.241518405262946
 30
0.0
 10
8.598076211353304
 20
1.161407881213465
 30
0.0
 10
8.598076211353304
 20
1.130097469243304
 30
0.0
  0
SPLINE
  5
E3
330
1F
100
AcDbEntity
  8
0
  6
Continuous
 62
     1
370
    25
100
AcDbSpline
210
0.0
220
0.0
230
1.0
 70
     8
 71
     3
 72
    19
 73
    15
 74
     0
 42
0.000000001
 43
0.00000001
 40
0.0
 40
0.0
 40
0.0
 40
0.0
 40
0.0710199487893894
 40
0.1421611066067986
 40
0.212993283446828
 40
0.3074471037618689
 40
0.4019045465947511
 40
0.4963678126160921
 40
0.5908390931722457
 40
0.6853205668009231
 40
0.7798143957904553
 40
0.8743227227942337
 40
0.968847667511538
 40
0.9999999999999999
 40
0.9999999999999999
 40
0.9999999999999999
 40
0.9999999999999999
 10
8.5980762113533
 20
1.404355589241004
 30
0.0
 10
8.813285108609834
 20
1.439605675317302
 30
0.0
 10
9.244070197970364
 20
1.510166008435146
 30
0.0
 10
9.890139975110806
 20
1.50017548372494
 30
0.0
 10
10.6058911250572
 20
1.393492777404148
 30
0.0
 10
11.39369977800078
 20
1.151523334158966
 30
0.0
 10
12.25269808976632
 20
0.7632766745339351
 30
0.0
 10
13.11189141998232
 20
0.2921824410411071
 30
0.0
 10
13.97113690753616
 20
-0.2107798914891874
 30
0.0
 10
14.83050320211468
 20
-0.6901137536818063
 30
0.0
 10
15.69000107647551
 20
-1.097661006213438
 30
0.0
 10
16.54966016823045
 20
-1.374927044552223
 30
0.0
 10
17.2172829379431
 20
-1.50711791368332
 30
0.0
 10
17.59836783734377
 20
-1.48692224602782
 30
0.0
 10
17.69282949148213
 20
-1.481916232469772
 30
0.0
  0
SPLINE
  5
E4
330
1F
100
AcDbEntity
  8
0
  6
Continuous
 62
     1
370
    25
100
AcDbSpline
210
0.0
220
0.0
230
1.0
 70
     8
 71
     3
 72
    20
 73
    16
 74
     0
 42
0.000000001
 43
0.00000001
 40
0.0
 40
0.0
 40
0.0
 40
0.0
 40
0.0550180029609402
 40
0.1221305759975492
 40
0.1893576893835155
 40
0.2562928213084303
 40
0.3455499810577063
 40
0.4348105640211262
 40
0.5240766497928049
 40
0.6133503091555964
 40
0.7026336007884174
 40
0.7919285680148128
 40
0.8812372356036637
 40
0.9705616066326288
 40
1.0
 40
1.0
 40
1.0
 40
1.0
 10
24.39324199521584
 20
1.26292766702084
 30
0.0
 10
24.56956474842174
 20
1.314506003100311
 30
0.0
 10
24.96097116544125
 20
1.429001105709782
 30
0.0
 10
25.56828852454982
 20
1.504853199326607
 30
0.0
 10
26.21432789733905
 20
1.501579630167667
 30
0.0
 10
26.93008774424156
 20
1.392975584782917
 30
0.0
 10
27.71789335465071
 20
1.151678300874673
 30
0.0
 10
28.57689255584477
 20
0.7632351479314996
 30
0.0
 10
29.43608564771783
 20
0.2921935693666384
 30
0.0
 10
30.29533119914357
 20
-0.2107828737989436
 30
0.0
 10
31.15469747660424
 20
-0.6901129543027703
 30
0.0
 10
32.01419535555532
 20
-1.097661220913401
 30
0.0
 10
32.87385444607017
 20
-1.374926985292031
 30
0.0
 10
33.54147721606945
 20
-1.507117917745528
 30
0.0
 10
33.92256211545538
 20
-1.486922246834728
 30
0.0
 10
34.01702376959008
 20
-1.481916232469771
 30
0.0
  0
SPLINE
  5
E5
330
1F
100
AcDbEntity
  8
0
  6
Continuous
 62
     1
370
    25
100
AcDbSpline
210
0.0
220
0.0
230
1.0
 70
     8
 71
     3
 72
    12
 73
     8
 74
     0
 42
0.000000001
 43
0.00000001
 40
0.0
 40
0.0
 40
0.0
 40
0.0
 40
0.2456171855593016
 40
0.4911862684286231
 40
0.736712694231336
 40
0.9822019758644002
 40
1.0
 40
1.0
 40
1.0
 40
1.0
 10
34.5980762113533
 20
0.3322148200945034
 30
0.0
 10
34.3114016960396
 20
0.4897464965479082
 30
0.0
 10
33.73810880894018
 20
0.8047789977967721
 30
0.0
 10
32.8782902472139
 20
1.184756516122262
 30
0.0
 10
32.01865028762656
 20
1.421431834776377
 30
0.0
 10
31.42484584513456
 20
1.522963839392687
 30
0.0
 10
31.11759002374461
 20
1.496322181563232
 30
0.0
 10
31.0968197609743
 20
1.494521225502412
 30
0.0
  0
SPLINE
  5
E6
330
1F
100
AcDbEntity
  8
0
  6
Continuous
 62
     1
370
    25
100
AcDbSpline
210
0.0
220
0.0
230
1.0
 70
     8
 71
     3
 72
    20
 73
    16
 74
     0
 42
0.000000001
 43
0.00000001
 40
0.0
 40
0.0
 40
0.0
 40
0.0
 40
0.0111410062040782
 40
0.1004512108181764
 40
0.1897686038531713
 40
0.2790952475615317
 40
0.3684331894410076
 40
0.4576526239054891
 40
0.5468882874720263
 40
0.6360773513782499
 40
0.7254630080940103
 40
0.8148311591514272
 40
0.9041837863361817
 40
0.9935228959163366
 40
1.0
 40
1.0
 40
1.0
 40
1.0
 10
24.39324199521584
 20
-1.262927667020838
 30
0.0
 10
24.35751769511327
 20
-1.276204321203013
 30
0.0
 10
24.03541490339044
 20
-1.395911281578414
 30
0.0
 10
23.42690201669942
 20
-1.492267473124907
 30
0.0
 10
22.56766794048488
 20
-1.51445552563002
 30
0.0
 10
21.70832646616342
 20
-1.359608059360164
 30
0.0
 10
20.84927700083415
 20
-1.060924593531821
 30
0.0
 10
19.99049607924082
 20
-0.6465972835251669
 30
0.0
 10
19.13216315252368
 20
-0.1629688231003877
 30
0.0
 10
18.27325149835617
 20
0.338884660321529
 30
0.0
 10
17.41391451189239
 20
0.8030829464804976
 30
0.0
 10
16.55409597419999
 20
1.185212686078164
 30
0.0
 10
15.69445600807741
 20
1.421302777733567
 30
0.0
 10
15.10065156704518
 20
1.522965504130565
 30
0.0
 10
14.79339574563781
 20
1.496322286972663
 30
0.0
 10
14.77262548286632
 20
1.494521225502411
 30
0.0
  0
SPLINE
  5
E7
330
1F
100
AcDbEntity
  8
0
  6
Continuous
 62
     1
370
    25
100
AcDbSpline
210
0.0
220
0.0
230
1.0
 70
     8
 71
     3
 72
     9
 73
     5
 74
     0
 42
0.000000001
 43
0.00000001
 40
0.0
 40
0.0
 40
0.0
 40
0.0
 40
0.6917416397027155
 40
1.0
 40
1.0
 40
1.0
 40
1.0
 10
8.5980762113533
 20
-1.404355589241003
 30
0.0
 10
8.813295636827446
 20
-1.443735922212513
 30
0.0
 10
9.124422527448973
 20
-1.500665172544234
 30
0.0
 10
9.435707873590637
 20
-1.491419889720588
 30
0.0
 10
9.531664183976842
 20
-1.488569953996886
 30
0.0
  0
SPLINE
  5
E8
330
1F
100
AcDbEntity
  8
0
  6
Continuous
 62
     1
370
    25
100
AcDbSpline
210
0.0
220
0.0
230
1.0
 70
     8
 71
     3
 72
    20
 73
    16
 74
     0
 42
0.000000001
 43
0.00000001
 40
0.0
 40
0.0
 40
0.0
 40
0.0
 40
0.0330462621517971
 40
0.1223731549861814
 40
0.2117175578999361
 40
0.3010586559994837
 40
0.3903824420631506
 40
0.479690899358001
 40
0.5689860353361678
 40
0.6582698785566898
 40
0.7475444755362682
 40
0.836811887539252
 40
0.9029775512900358
 40
0.9700920190486388
 40
1.0
 40
1.0
 40
1.0
 40
1.0
 10
16.2315314987274
 20
1.253042270395578
 30
0.0
 10
16.33755836079163
 20
1.289805335566366
 30
0.0
 10
16.73018496299203
 20
1.425942132256012
 30
0.0
 10
17.40949532458755
 20
1.512951503866199
 30
0.0
 10
18.26947123426666
 20
1.491746896008426
 30
0.0
 10
19.12942807702685
 20
1.299970730103438
 30
0.0
 10
19.98922835682506
 20
0.9695514569524365
 30
0.0
 10
20.84885629742713
 20
0.5333710165527161
 30
0.0
 10
21.70832044814385
 20
0.0395875938667304
 30
0.0
 10
22.56768994410441
 20
-0.4586465900776259
 30
0.0
 10
23.4268200310292
 20
-0.9066044448873286
 30
0.0
 10
24.21223138847987
 20
-1.227883354964981
 30
0.0
 10
24.92517432321943
 20
-1.416158546638351
 30
0.0
 10
25.44863037286543
 20
-1.49956544909437
 30
0.0
 10
25.75990534849551
 20
-1.491160767396035
 30
0.0
 10
25.85585846208481
 20
-1.488569953996886
 30
0.0
  0
SPLINE
  5
E9
330
1F
100
AcDbEntity
  8
0
  6
Continuous
 62
     1
370
    25
100
AcDbSpline
210
0.0
220
0.0
230
1.0
 70
     8
 71
     3
 72
    11
 73
     7
 74
     0
 42
0.000000001
 43
0.00000001
 40
0.0
 40
0.0
 40
0.0
 40
0.0
 40
0.1557488846175078
 40
0.5767515342181194
 40
0.9978367098036357
 40
1.0
 40
1.0
 40
1.0
 40
1.0
 10
32.55572577683536
 20
1.253042270395578
 30
0.0
 10
32.66176125013112
 20
1.289814452142457
 30
0.0
 10
33.05441974046356
 20
1.425985008298567
 30
0.0
 10
33.73317237836473
 20
1.51240392655969
 30
0.0
 10
34.30955334619995
 20
1.499928092696552
 30
0.0
 10
34.59660902414738
 20
1.462937611761676
 30
0.0
 10
34.5980762113533
 20
1.462748547532896
 30
0.0
  0
LINE
  5
EA
330
1F
100
AcDbEntity
  8
0
  6
Continuous
 62
     1
370
    25
100
AcDbLine
 10
34.5980762113533
 20
0.8043077700777119
 30
0.0
 11
34.5980762113533
 21
1.462748547532896
 31
0.0
  0
SPLINE
  5
EB
330
1F
100
AcDbEntity
  8
0
  6
Continuous
 62
     1
370
    25
100
AcDbSpline
210
0.0
220
0.0
230
1.0
 70
     8
 71
     3
 72
    10
 73
     6
 74
     0
 42
0.000000001
 43
0.00000001
 40
0.0
 40
0.0
 40
0.0
 40
0.0
 40
0.315761985155684
 40
0.630278759505275
 40
1.0
 40
1.0
 40
1.0
 40
1.0
 10
34.5980762113533
 20
0.8043077700777119
 30
0.0
 10
34.55422576104628
 20
0.7566834501187064
 30
0.0
 10
34.46669778515763
 20
0.6616226172219124
 30
0.0
 10
34.28580955673426
 20
0.5886651279377492
 30
0.0
 10
34.15906216934123
 20
0.5973177184121635
 30
0.0
 10
34.09057547278275
 20
0.6019930600539475
 30
0.0
  0
LINE
  5
EC
330
1F
100
AcDbEntity
  8
0
  6
Continuous
 62
     1
370
    25
100
AcDbLine
 10
34.5980762113533
 20
-1.500000000000001
 30
0.0
 11
34.5980762113533
 21
-1.462748547532895
 31
0.0
  0
LINE
  5
ED
330
1F
100
AcDbEntity
  8
0
  6
Continuous
 62
     1
370
    25
100
AcDbLine
 10
34.5980762113533
 20
1.462748547532896
 30
0.0
 11
34.5980762113533
 21
1.500000000000006
 31
0.0
  0
LINE
  5
EE
330
1F
100
AcDbEntity
  8
0
  6
Continuous
 62
     1
370
    25
100
AcDbLine
 10
34.5980762113533
 20
-0.3322148200945012
 30
0.0
 11
34.5980762113533
 21
0.3322148200945033
 31
0.0
  0
LINE
  5
EF
330
1F
100
AcDbEntity
  8
0
  6
Continuous
 62
     1
370
    25
100
AcDbLine
 10
34.5980762113533
 20
0.3322148200945033
 30
0.0
 11
34.5980762113533
 21
0.8043077700777119
 31
0.0
  0
LINE
  5
F0
330
1F
100
AcDbEntity
  8
0
  6
Continuous
 62
     1
370
    25
100
AcDbLine
 10
34.5980762113533
 20
-0.4999999999999979
 30
0.0
 11
34.5980762113533
 21
-1.404383063753668
 31
0.0
  0
LINE
  5
F1
330
1F
100
AcDbEntity
  8
중심선
100
AcDbLine
 10
-38.40192378864671
 20
-0.0000000000000043
 30
0.0
 11
37.5980762113533
 21
0.000000000000005
 31
0.0
  0
CIRCLE
  5
F2
330
1F
100
AcDbEntity
  8
해칭선
100
AcDbCircle
 10
0.000336895374738
 20
-0.0000000000000041
 30
0.0
 40
3.0
  0
INSERT
  5
F3
330
1F
100
AcDbEntity
  8
0
  6
Continuous
 62
     7
100
AcDbBlockReference
 66
     1
  2
블럭10
 10
-11.44009924894178
 20
-52.04717430164393
 30
0.0
  0
ATTRIB
  5
F4
330
F3
100
AcDbEntity
  8
FORMAT
 62
     2
100
AcDbText
 10
-27.55936028837734
 20
-49.97180738881174
 30
0.0
 40
4.233333333333333
  1
SEME7203026E [ 4 FLUTE ]
 41
0.75
  7
SLDTEXTSTYLE0
 11
-27.55936028837734
 21
-52.08847405547841
 31
0.0
100
AcDbAttribute
  2
AUTOATTR0
 70
     0
 74
     1
  0
SEQEND
  5
F5
330
F3
100
AcDbEntity
  8
0
  6
Continuous
 62
     7
  0
HATCH
  5
F6
330
1F
100
AcDbEntity
  8
중심선
100
AcDbHatch
 10
0.0
 20
0.0
 30
0.0
210
0.0
220
0.0
230
1.0
  2
SOLID
 70
     1
 71
     0
 91
        1
 92
        0
 93
        4
 72
     1
 10
-5.725189944560949
 20
-35.8
 11
-9.171465188398232
 21
-35.8
 72
     1
 10
-9.171465188398232
 20
-35.8
 11
-11.29969504760225
 21
-38.33632558057259
 72
     1
 10
-11.29969504760225
 20
-38.33632558057259
 11
-7.853386718651823
 21
-38.3362861512701
 72
     1
 10
-7.853386718651823
 20
-38.3362861512701
 11
-5.725189944560949
 21
-35.8
 97
        0
 75
     0
 76
     1
 98
        1
 10
0.0
 20
0.0
  0
HATCH
  5
F7
330
1F
100
AcDbEntity
  8
중심선
100
AcDbHatch
 10
0.0
 20
0.0
 30
0.0
210
0.0
220
0.0
230
1.0
  2
SOLID
 70
     1
 71
     0
 91
        1
 92
        0
 93
        4
 72
     1
 10
-0.71242595352497
 20
-35.8
 11
-4.158701197362197
 21
-35.79999999999997
 72
     1
 10
-4.158701197362197
 20
-35.79999999999997
 11
-8.689839205719668
 21
-41.20000000000002
 72
     1
 10
-8.689839205719668
 20
-41.20000000000002
 11
-5.243563961882386
 21
-41.20000000000002
 72
     1
 10
-5.243563961882386
 20
-41.20000000000002
 11
-0.7124259535249697
 21
-35.8
 97
        0
 75
     0
 76
     1
 98
        1
 10
0.0
 20
0.0
  0
HATCH
  5
F8
330
1F
100
AcDbEntity
  8
중심선
100
AcDbHatch
 10
0.0
 20
0.0
 30
0.0
210
0.0
220
0.0
230
1.0
  2
SOLID
 70
     1
 71
     0
 91
        1
 92
        0
 93
        4
 72
     1
 10
4.300338037510926
 20
-35.79999999999997
 11
0.8540627936738101
 21
-35.79999999999997
 72
     1
 10
0.8540627936738099
 20
-35.79999999999997
 11
-6.194374108215467
 21
-44.20000000000002
 72
     1
 10
-6.194374108215467
 20
-44.20000000000002
 11
-2.748098864378185
 21
-44.20000000000002
 72
     1
 10
-2.748098864378185
 20
-44.20000000000002
 11
4.300338037510926
 21
-35.79999999999997
 97
        0
 75
     0
 76
     1
 98
        1
 10
0.0
 20
0.0
  0
HATCH
  5
F9
330
1F
100
AcDbEntity
  8
중심선
100
AcDbHatch
 10
0.0
 20
0.0
 30
0.0
210
0.0
220
0.0
230
1.0
  2
SOLID
 70
     1
 71
     0
 91
        1
 92
        0
 93
        6
 72
     3
 10
9.100228468523097
 20
-40.00000000005127
 11
3.960054785062284
 21
1.540850780301639E-10
 40
0.3939339440162633
 50
17.09539180608434
 51
320.0019657685075
 73
     0
 72
     1
 10
10.78322812422367
 20
-38.5878940046383
 11
13.08852999792473
 21
-36.65356729459038
 72
     3
 10
9.10022846847025
 20
-40.00000000000015
 11
6.600054785286829
 21
-1.249000902703301E-13
 40
0.6363583540795982
 50
39.99873849337408
 51
368.4976242363725
 73
     1
 72
     1
 10
15.52556096037086
 20
-39.03999999993002
 11
7.780295775306173
 21
-39.03999999993002
 72
     1
 10
7.780295775306173
 20
-39.03999999993002
 11
7.78027073086024
 21
-40.95999999992991
 72
     1
 10
7.78027073086024
 20
-40.95999999992991
 11
12.22165050033228
 21
-40.95999999992988
 97
        0
 75
     0
 76
     1
 98
        1
 10
0.0
 20
0.0
  0
DIMENSION
  5
FA
330
1F
100
AcDbEntity
  8
치수문자_일반주서
100
AcDbDimension
  2
_D
 10
45.47004357297504
 20
1.500000000000044
 30
0.0
 11
45.47004357297502
 21
11.46850000000004
 31
0.0
 70
   160
  1
%%c<>
 71
     2
 42
3.000000000000008
 52
-270.0
  3
SLDDIMSTYLE0
100
AcDbAlignedDimension
 13
34.59807621135333
 23
-1.500000000000004
 33
0.0
 14
34.59807621135333
 24
1.500000000000004
 34
0.0
 50
90.0000000000002
100
AcDbRotatedDimension
  0
DIMENSION
  5
108
330
1F
100
AcDbEntity
  8
치수문자_일반주서
100
AcDbDimension
  2
_D_1
 10
34.5980762113533
 20
20.38913260158165
 30
0.0
 11
-0.4019237886467053
 21
20.38913260158165
 31
0.0
 70
   160
  1
<>
 71
     2
 42
70.00000000000001
  3
SLDDIMSTYLE1
100
AcDbAlignedDimension
 13
-35.40192378864671
 23
2.499999999999994
 33
0.0
 14
34.5980762113533
 24
1.500000000000003
 34
0.0
 50
-0.0000000000000058
100
AcDbRotatedDimension
  0
DIMENSION
  5
113
330
1F
100
AcDbEntity
  8
치수문자_일반주서
100
AcDbDimension
  2
_D_2
 10
-46.00168928745297
 20
-3.000000000000044
 30
0.0
 11
-46.00168928745303
 21
12.66649999999996
 31
0.0
 70
   160
  1
%%c<>
 71
     2
 42
6.000000000000005
 52
-270.0
  3
SLDDIMSTYLE2
100
AcDbAlignedDimension
 13
-34.90192378864671
 23
3.000000000000003
 33
0.0
 14
-34.90192378864671
 24
-3.000000000000002
 34
0.0
 50
90.0000000000002
100
AcDbRotatedDimension
  0
DIMENSION
  5
121
330
1F
100
AcDbEntity
  8
치수문자_일반주서
100
AcDbDimension
  2
_D_3
 10
34.5980762113533
 20
12.25027389182869
 30
0.0
 11
21.5980762113533
 21
12.25027389182869
 31
0.0
 70
   160
  1
<>
 71
     2
 42
26.0
  3
SLDDIMSTYLE1
100
AcDbAlignedDimension
 13
8.5980762113533
 23
1.404355589241036
 33
0.0
 14
34.5980762113533
 24
1.500000000000003
 34
0.0
 50
0.0000000000000039
100
AcDbRotatedDimension
  0
INSERT
  5
131
330
1F
100
AcDbEntity
  8
해칭선
100
AcDbBlockReference
  2
SW_DOWELSYMBOL_0
 10
0.000336895374738
 20
-0.0000000000000041
 30
0.0
  0
ENDSEC
  0
SECTION
  2
OBJECTS
  0
DICTIONARY
  5
C
330
0
100
AcDbDictionary
281
     1
  3
ACAD_GROUP
350
D
  3
ACAD_IMAGE_VARS
350
155
  3
ACAD_LAYOUT
350
1A
  3
ACAD_MLINESTYLE
350
17
  3
ACAD_PLOTSETTINGS
350
19
  3
ACAD_PLOTSTYLENAME
350
E
  3
ACAD_SCALELIST
350
47
  3
APPDATA
350
153
  3
DWGPROPS
350
165
  0
DICTIONARY
  5
D
102
{ACAD_REACTORS
330
C
102
}
330
C
100
AcDbDictionary
281
     1
  0
RASTERVARIABLES
  5
155
102
{ACAD_REACTORS
330
C
102
}
330
C
100
AcDbRasterVariables
 90
        0
 70
     1
 71
     1
 72
     1
  0
DICTIONARY
  5
1A
102
{ACAD_REACTORS
330
C
102
}
330
C
100
AcDbDictionary
281
     1
  3
Layout1
350
1E
  3
Layout2
350
26
  3
Model
350
22
  0
DICTIONARY
  5
17
102
{ACAD_REACTORS
330
C
102
}
330
C
100
AcDbDictionary
281
     1
  3
Standard
350
18
  0
DICTIONARY
  5
19
102
{ACAD_REACTORS
330
C
102
}
330
C
100
AcDbDictionary
281
     1
  0
ACDBDICTIONARYWDFLT
  5
E
102
{ACAD_REACTORS
330
C
102
}
330
C
100
AcDbDictionary
281
     1
  3
Normal
350
F
100
AcDbDictionaryWithDefault
340
F
  0
DICTIONARY
  5
47
102
{ACAD_REACTORS
330
C
102
}
330
C
100
AcDbDictionary
281
     1
  3
A0
350
48
  3
A1
350
49
  3
A2
350
4A
  3
A3
350
4B
  3
A4
350
4C
  3
A5
350
4D
  3
A6
350
4E
  3
A7
350
4F
  3
A8
350
50
  3
A9
350
51
  3
B0
350
52
  3
B1
350
53
  3
B2
350
54
  3
B3
350
55
  3
B4
350
56
  3
B5
350
57
  3
B6
350
58
  3
B7
350
59
  3
B8
350
5A
  3
B9
350
5B
  3
C0
350
5C
  3
C1
350
5D
  3
C2
350
5E
  3
C3
350
5F
  3
C4
350
60
  3
C5
350
61
  3
C6
350
62
  3
C7
350
63
  3
C8
350
64
  3
C9
350
65
  3
D0
350
66
  3
D1
350
67
  3
D2
350
68
  0
DICTIONARY
  5
153
102
{ACAD_REACTORS
330
C
102
}
330
C
100
AcDbDictionary
281
     1
  0
XRECORD
  5
165
102
{ACAD_REACTORS
330
C
102
}
330
C
100
AcDbXrecord
280
     1
  1
DWGPROPS COOKIE
  2

  3

  4

  6

  7

  8
12014102
  9

300
=
301
=
302
=
303
=
304
=
305
=
306
=
307
=
308
=
309
=
 40
0.0
 41
2458260.19578603
 42
2458268.117702523
  1

 90
        0
  0
LAYOUT
  5
1E
102
{ACAD_REACTORS
330
1A
102
}
330
1A
100
AcDbPlotSettings
  1

  2
none_device
  4

  6

 40
0.0
 41
0.0
 42
0.0
 43
0.0
 44
0.0
 45
0.0
 46
0.0
 47
0.0
 48
0.0
 49
0.0
140
0.0
141
0.0
142
1.0
143
1.0
 70
   688
 72
     1
 73
     0
 74
     5
  7

 75
    16
147
1.0
148
0.0
149
0.0
100
AcDbLayout
  1
Layout1
 70
     1
 71
     1
 10
0.0
 20
0.0
 11
420.0
 21
297.0
 12
0.0
 22
0.0
 32
0.0
 14
1.000000000000000E+20
 24
1.000000000000000E+20
 34
1.000000000000000E+20
 15
-1.000000000000000E+20
 25
-1.000000000000000E+20
 35
-1.000000000000000E+20
146
0.0
 13
0.0
 23
0.0
 33
0.0
 16
1.0
 26
0.0
 36
0.0
 17
0.0
 27
1.0
 37
0.0
 76
     0
330
1B
  0
LAYOUT
  5
26
102
{ACAD_REACTORS
330
1A
102
}
330
1A
100
AcDbPlotSettings
  1

  2
none_device
  4

  6

 40
0.0
 41
0.0
 42
0.0
 43
0.0
 44
0.0
 45
0.0
 46
0.0
 47
0.0
 48
0.0
 49
0.0
140
0.0
141
0.0
142
1.0
143
1.0
 70
   688
 72
     1
 73
     0
 74
     5
  7

 75
    16
147
1.0
148
0.0
149
0.0
100
AcDbLayout
  1
Layout2
 70
     1
 71
     2
 10
0.0
 20
0.0
 11
0.0
 21
0.0
 12
0.0
 22
0.0
 32
0.0
 14
0.0
 24
0.0
 34
0.0
 15
0.0
 25
0.0
 35
0.0
146
0.0
 13
0.0
 23
0.0
 33
0.0
 16
1.0
 26
0.0
 36
0.0
 17
0.0
 27
1.0
 37
0.0
 76
     0
330
23
  0
LAYOUT
  5
22
102
{ACAD_REACTORS
330
1A
102
}
330
1A
100
AcDbPlotSettings
  1

  2
none_device
  4
ANSI_A_(11.00_x_8.50_Inches)
  6

 40
6.35
 41
19.05
 42
6.35000508
 43
19.05000254
 44
279.4
 45
215.9
 46
128.4076200411199
 47
122.9471696842158
 48
0.0
 49
0.0
140
0.0
141
0.0
142
0.103850072157585
143
1.0
 70
  1696
 72
     0
 73
     0
 74
     0
  7

 75
     0
147
0.0235690232323232
148
0.0
149
0.0
100
AcDbLayout
  1
Model
 70
     1
 71
     0
 10
0.0
 20
0.0
 11
420.0
 21
297.0
 12
0.0
 22
0.0
 32
0.0
 14
-50.37668928745303
 24
-49.97180738881174
 34
0.0
 15
46.02037690630839
 25
24.76413260158165
 35
0.0
146
0.0
 13
0.0
 23
0.0
 33
0.0
 16
1.0
 26
0.0
 36
0.0
 17
0.0
 27
1.0
 37
0.0
 76
     0
330
1F
331
29
  0
MLINESTYLE
  5
18
102
{ACAD_REACTORS
330
17
102
}
330
17
100
AcDbMlineStyle
  2
Standard
 70
     0
  3

 62
   256
 51
90.0
 52
90.0
 71
     2
 49
0.5
 62
   256
  6
BYLAYER
 49
-0.5
 62
   256
  6
BYLAYER
  0
ACDBPLACEHOLDER
  5
F
102
{ACAD_REACTORS
330
E
102
}
330
E
  0
SCALE
  5
48
102
{ACAD_REACTORS
330
47
102
}
330
47
100
AcDbScale
 70
     0
300
1:1
140
1.0
141
1.0
290
     1
  0
SCALE
  5
49
102
{ACAD_REACTORS
330
47
102
}
330
47
100
AcDbScale
 70
     0
300
1:2
140
1.0
141
2.0
290
     0
  0
SCALE
  5
4A
102
{ACAD_REACTORS
330
47
102
}
330
47
100
AcDbScale
 70
     0
300
1:4
140
1.0
141
4.0
290
     0
  0
SCALE
  5
4B
102
{ACAD_REACTORS
330
47
102
}
330
47
100
AcDbScale
 70
     0
300
1:5
140
1.0
141
5.0
290
     0
  0
SCALE
  5
4C
102
{ACAD_REACTORS
330
47
102
}
330
47
100
AcDbScale
 70
     0
300
1:8
140
1.0
141
8.0
290
     0
  0
SCALE
  5
4D
102
{ACAD_REACTORS
330
47
102
}
330
47
100
AcDbScale
 70
     0
300
1:10
140
1.0
141
10.0
290
     0
  0
SCALE
  5
4E
102
{ACAD_REACTORS
330
47
102
}
330
47
100
AcDbScale
 70
     0
300
1:16
140
1.0
141
16.0
290
     0
  0
SCALE
  5
4F
102
{ACAD_REACTORS
330
47
102
}
330
47
100
AcDbScale
 70
     0
300
1:20
140
1.0
141
20.0
290
     0
  0
SCALE
  5
50
102
{ACAD_REACTORS
330
47
102
}
330
47
100
AcDbScale
 70
     0
300
1:30
140
1.0
141
30.0
290
     0
  0
SCALE
  5
51
102
{ACAD_REACTORS
330
47
102
}
330
47
100
AcDbScale
 70
     0
300
1:40
140
1.0
141
40.0
290
     0
  0
SCALE
  5
52
102
{ACAD_REACTORS
330
47
102
}
330
47
100
AcDbScale
 70
     0
300
1:50
140
1.0
141
50.0
290
     0
  0
SCALE
  5
53
102
{ACAD_REACTORS
330
47
102
}
330
47
100
AcDbScale
 70
     0
300
1:100
140
1.0
141
100.0
290
     0
  0
SCALE
  5
54
102
{ACAD_REACTORS
330
47
102
}
330
47
100
AcDbScale
 70
     0
300
2:1
140
2.0
141
1.0
290
     0
  0
SCALE
  5
55
102
{ACAD_REACTORS
330
47
102
}
330
47
100
AcDbScale
 70
     0
300
4:1
140
4.0
141
1.0
290
     0
  0
SCALE
  5
56
102
{ACAD_REACTORS
330
47
102
}
330
47
100
AcDbScale
 70
     0
300
8:1
140
8.0
141
1.0
290
     0
  0
SCALE
  5
57
102
{ACAD_REACTORS
330
47
102
}
330
47
100
AcDbScale
 70
     0
300
10:1
140
10.0
141
1.0
290
     0
  0
SCALE
  5
58
102
{ACAD_REACTORS
330
47
102
}
330
47
100
AcDbScale
 70
     0
300
100:1
140
100.0
141
1.0
290
     0
  0
SCALE
  5
59
102
{ACAD_REACTORS
330
47
102
}
330
47
100
AcDbScale
 70
     0
300
1/128" = 1'-0"
140
0.0078125
141
12.0
290
     0
  0
SCALE
  5
5A
102
{ACAD_REACTORS
330
47
102
}
330
47
100
AcDbScale
 70
     0
300
1/64" = 1'-0"
140
0.015625
141
12.0
290
     0
  0
SCALE
  5
5B
102
{ACAD_REACTORS
330
47
102
}
330
47
100
AcDbScale
 70
     0
300
1/32" = 1'-0"
140
0.03125
141
12.0
290
     0
  0
SCALE
  5
5C
102
{ACAD_REACTORS
330
47
102
}
330
47
100
AcDbScale
 70
     0
300
1/16" = 1'-0"
140
0.0625
141
12.0
290
     0
  0
SCALE
  5
5D
102
{ACAD_REACTORS
330
47
102
}
330
47
100
AcDbScale
 70
     0
300
3/32" = 1'-0"
140
0.09375
141
12.0
290
     0
  0
SCALE
  5
5E
102
{ACAD_REACTORS
330
47
102
}
330
47
100
AcDbScale
 70
     0
300
1/8" = 1'-0"
140
0.125
141
12.0
290
     0
  0
SCALE
  5
5F
102
{ACAD_REACTORS
330
47
102
}
330
47
100
AcDbScale
 70
     0
300
3/16" = 1'-0"
140
0.1875
141
12.0
290
     0
  0
SCALE
  5
60
102
{ACAD_REACTORS
330
47
102
}
330
47
100
AcDbScale
 70
     0
300
1/4" = 1'-0"
140
0.25
141
12.0
290
     0
  0
SCALE
  5
61
102
{ACAD_REACTORS
330
47
102
}
330
47
100
AcDbScale
 70
     0
300
3/8" = 1'-0"
140
0.375
141
12.0
290
     0
  0
SCALE
  5
62
102
{ACAD_REACTORS
330
47
102
}
330
47
100
AcDbScale
 70
     0
300
1/2" = 1'-0"
140
0.5
141
12.0
290
     0
  0
SCALE
  5
63
102
{ACAD_REACTORS
330
47
102
}
330
47
100
AcDbScale
 70
     0
300
3/4" = 1'-0"
140
0.75
141
12.0
290
     0
  0
SCALE
  5
64
102
{ACAD_REACTORS
330
47
102
}
330
47
100
AcDbScale
 70
     0
300
1" = 1'-0"
140
1.0
141
12.0
290
     0
  0
SCALE
  5
65
102
{ACAD_REACTORS
330
47
102
}
330
47
100
AcDbScale
 70
     0
300
1-1/2" = 1'-0"
140
1.5
141
12.0
290
     0
  0
SCALE
  5
66
102
{ACAD_REACTORS
330
47
102
}
330
47
100
AcDbScale
 70
     0
300
3" = 1'-0"
140
3.0
141
12.0
290
     0
  0
SCALE
  5
67
102
{ACAD_REACTORS
330
47
102
}
330
47
100
AcDbScale
 70
     0
300
6" = 1'-0"
140
6.0
141
12.0
290
     0
  0
SCALE
  5
68
102
{ACAD_REACTORS
330
47
102
}
330
47
100
AcDbScale
 70
     0
300
1'-0" = 1'-0"
140
12.0
141
12.0
290
     0
  0
ENDSEC
  0
EOF
