  0
SECTION
  2
HEADER
  9
$ACADVER
  1
AC1015
  9
$ACADMAINTVER
 70
     6
  9
$DWGCODEPAGE
  3
ANSI_949
  9
$INSBASE
 10
0.0
 20
0.0
 30
0.0
  9
$EXTMIN
 10
-49.59614265510508
 20
-49.97180738881174
 30
0.0
  9
$EXTMAX
 10
51.58711273041259
 20
24.76413260158165
 30
0.0
  9
$LIMMIN
 10
0.0
 20
0.0
  9
$LIMMAX
 10
420.0
 20
297.0
  9
$ORTHOMODE
 70
     0
  9
$REGENMODE
 70
     1
  9
$FILLMODE
 70
     1
  9
$QTEXTMODE
 70
     0
  9
$MIRRTEXT
 70
     1
  9
$LTSCALE
 40
1.0
  9
$ATTMODE
 70
     1
  9
$TEXTSIZE
 40
3.5
  9
$TRACEWID
 40
1.0
  9
$TEXTSTYLE
  7
Standard
  9
$CLAYER
  8
0
  9
$CELTYPE
  6
ByLayer
  9
$CECOLOR
 62
   256
  9
$CELTSCALE
 40
1.0
  9
$DISPSILH
 70
     0
  9
$DIMSCALE
 40
1.0
  9
$DIMASZ
 40
3.302
  9
$DIMEXO
 40
1.0
  9
$DIMDLI
 40
3.75
  9
$DIMRND
 40
0.0
  9
$DIMDLE
 40
0.0
  9
$DIMEXE
 40
1.0
  9
$DIMTP
 40
0.0
  9
$DIMTM
 40
0.0
  9
$DIMTXT
 40
3.5
  9
$DIMCEN
 40
2.5
  9
$DIMTSZ
 40
0.0
  9
$DIMTOL
 70
     0
  9
$DIMLIM
 70
     0
  9
$DIMTIH
 70
     1
  9
$DIMTOH
 70
     1
  9
$DIMSE1
 70
     0
  9
$DIMSE2
 70
     0
  9
$DIMTAD
 70
     1
  9
$DIMZIN
 70
     0
  9
$DIMBLK
  1

  9
$DIMASO
 70
     1
  9
$DIMSHO
 70
     1
  9
$DIMPOST
  1

  9
$DIMAPOST
  1

  9
$DIMALT
 70
     0
  9
$DIMALTD
 70
     3
  9
$DIMALTF
 40
0.0393700787401575
  9
$DIMLFAC
 40
1.0
  9
$DIMTOFL
 70
     1
  9
$DIMTVP
 40
0.0
  9
$DIMTIX
 70
     0
  9
$DIMSOXD
 70
     0
  9
$DIMSAH
 70
     0
  9
$DIMBLK1
  1

  9
$DIMBLK2
  1

  9
$DIMSTYLE
  2
ISO-25
  9
$DIMCLRD
 70
     0
  9
$DIMCLRE
 70
     0
  9
$DIMCLRT
 70
     0
  9
$DIMTFAC
 40
1.0
  9
$DIMGAP
 40
1.524
  9
$DIMJUST
 70
     0
  9
$DIMSD1
 70
     0
  9
$DIMSD2
 70
     0
  9
$DIMTOLJ
 70
     0
  9
$DIMTZIN
 70
     0
  9
$DIMALTZ
 70
     0
  9
$DIMALTTZ
 70
     0
  9
$DIMUPT
 70
     0
  9
$DIMDEC
 70
     2
  9
$DIMTDEC
 70
     2
  9
$DIMALTU
 70
     2
  9
$DIMALTTD
 70
     3
  9
$DIMTXSTY
  7
Standard
  9
$DIMAUNIT
 70
     0
  9
$DIMADEC
 70
     2
  9
$DIMALTRND
 40
0.0
  9
$DIMAZIN
 70
     0
  9
$DIMDSEP
 70
    44
  9
$DIMATFIT
 70
     3
  9
$DIMFRAC
 70
     0
  9
$DIMLDRBLK
  1

  9
$DIMLUNIT
 70
     2
  9
$DIMLWD
 70
    -2
  9
$DIMLWE
 70
    -2
  9
$DIMTMOVE
 70
     0
  9
$LUNITS
 70
     2
  9
$LUPREC
 70
     2
  9
$SKETCHINC
 40
1.0
  9
$FILLETRAD
 40
10.0
  9
$AUNITS
 70
     0
  9
$AUPREC
 70
     2
  9
$MENU
  1
.
  9
$ELEVATION
 40
0.0
  9
$PELEVATION
 40
0.0
  9
$THICKNESS
 40
0.0
  9
$LIMCHECK
 70
     0
  9
$CHAMFERA
 40
0.0
  9
$CHAMFERB
 40
0.0
  9
$CHAMFERC
 40
0.0
  9
$CHAMFERD
 40
0.0
  9
$SKPOLY
 70
     0
  9
$TDCREATE
 40
2458260.572109144
  9
$TDUCREATE
 40
2458260.197109144
  9
$TDUPDATE
 40
2458268.497299687
  9
$TDUUPDATE
 40
2458268.122299687
  9
$TDINDWG
 40
0.0004034722
  9
$TDUSRTIMER
 40
2458268.121896261
  9
$USRTIMER
 70
     1
  9
$ANGBASE
 50
0.0
  9
$ANGDIR
 70
     0
  9
$PDMODE
 70
     0
  9
$PDSIZE
 40
-1.0
  9
$PLINEWID
 40
0.0
  9
$SPLFRAME
 70
     0
  9
$SPLINETYPE
 70
     6
  9
$SPLINESEGS
 70
     8
  9
$HANDSEED
  5
157
  9
$SURFTAB1
 70
     6
  9
$SURFTAB2
 70
     6
  9
$SURFTYPE
 70
     6
  9
$SURFU
 70
     6
  9
$SURFV
 70
     6
  9
$UCSBASE
  2

  9
$UCSNAME
  2

  9
$UCSORG
 10
0.0
 20
0.0
 30
0.0
  9
$UCSXDIR
 10
1.0
 20
0.0
 30
0.0
  9
$UCSYDIR
 10
0.0
 20
1.0
 30
0.0
  9
$UCSORTHOREF
  2

  9
$UCSORTHOVIEW
 70
     0
  9
$UCSORGTOP
 10
0.0
 20
0.0
 30
0.0
  9
$UCSORGBOTTOM
 10
0.0
 20
0.0
 30
0.0
  9
$UCSORGLEFT
 10
0.0
 20
0.0
 30
0.0
  9
$UCSORGRIGHT
 10
0.0
 20
0.0
 30
0.0
  9
$UCSORGFRONT
 10
0.0
 20
0.0
 30
0.0
  9
$UCSORGBACK
 10
0.0
 20
0.0
 30
0.0
  9
$PUCSBASE
  2

  9
$PUCSNAME
  2

  9
$PUCSORG
 10
0.0
 20
0.0
 30
0.0
  9
$PUCSXDIR
 10
1.0
 20
0.0
 30
0.0
  9
$PUCSYDIR
 10
0.0
 20
1.0
 30
0.0
  9
$PUCSORTHOREF
  2

  9
$PUCSORTHOVIEW
 70
     0
  9
$PUCSORGTOP
 10
0.0
 20
0.0
 30
0.0
  9
$PUCSORGBOTTOM
 10
0.0
 20
0.0
 30
0.0
  9
$PUCSORGLEFT
 10
0.0
 20
0.0
 30
0.0
  9
$PUCSORGRIGHT
 10
0.0
 20
0.0
 30
0.0
  9
$PUCSORGFRONT
 10
0.0
 20
0.0
 30
0.0
  9
$PUCSORGBACK
 10
0.0
 20
0.0
 30
0.0
  9
$USERI1
 70
     0
  9
$USERI2
 70
     0
  9
$USERI3
 70
     0
  9
$USERI4
 70
     0
  9
$USERI5
 70
     0
  9
$USERR1
 40
0.0
  9
$USERR2
 40
0.0
  9
$USERR3
 40
0.0
  9
$USERR4
 40
0.0
  9
$USERR5
 40
0.0
  9
$WORLDVIEW
 70
     1
  9
$SHADEDGE
 70
     3
  9
$SHADEDIF
 70
    70
  9
$TILEMODE
 70
     1
  9
$MAXACTVP
 70
    64
  9
$PINSBASE
 10
0.0
 20
0.0
 30
0.0
  9
$PLIMCHECK
 70
     0
  9
$PEXTMIN
 10
1.000000000000000E+20
 20
1.000000000000000E+20
 30
1.000000000000000E+20
  9
$PEXTMAX
 10
-1.000000000000000E+20
 20
-1.000000000000000E+20
 30
-1.000000000000000E+20
  9
$PLIMMIN
 10
0.0
 20
0.0
  9
$PLIMMAX
 10
0.0
 20
0.0
  9
$UNITMODE
 70
     0
  9
$VISRETAIN
 70
     1
  9
$PLINEGEN
 70
     0
  9
$PSLTSCALE
 70
     1
  9
$TREEDEPTH
 70
  3020
  9
$CMLSTYLE
  2
Standard
  9
$CMLJUST
 70
     0
  9
$CMLSCALE
 40
20.0
  9
$PROXYGRAPHICS
 70
     1
  9
$MEASUREMENT
 70
     1
  9
$CELWEIGHT
370
    -1
  9
$ENDCAPS
280
     0
  9
$JOINSTYLE
280
     0
  9
$LWDISPLAY
290
     1
  9
$INSUNITS
 70
     4
  9
$HYPERLINKBASE
  1

  9
$STYLESHEET
  1

  9
$XEDIT
290
     1
  9
$CEPSNTYPE
380
     0
  9
$PSTYLEMODE
290
     1
  9
$FINGERPRINTGUID
  2
{71BC7843-DD61-49CF-BC04-C27B056A3C89}
  9
$VERSIONGUID
  2
{FAEB1C32-E019-11D5-929B-00C0DF256EC4}
  9
$EXTNAMES
290
     1
  9
$PSVPSCALE
 40
0.0
  9
$OLESTARTUP
290
     0
  0
ENDSEC
  0
SECTION
  2
CLASSES
  0
CLASS
  1
ACDBDICTIONARYWDFLT
  2
AcDbDictionaryWithDefault
  3
ObjectDBX Classes
 90
        0
280
     0
281
     0
  0
CLASS
  1
VISUALSTYLE
  2
AcDbVisualStyle
  3
ObjectDBX Classes
 90
     4095
280
     0
281
     0
  0
CLASS
  1
MATERIAL
  2
AcDbMaterial
  3
ObjectDBX Classes
 90
     1153
280
     0
281
     0
  0
CLASS
  1
SCALE
  2
AcDbScale
  3
ObjectDBX Classes
 90
     1153
280
     0
281
     0
  0
CLASS
  1
TABLESTYLE
  2
AcDbTableStyle
  3
ObjectDBX Classes
 90
     4095
280
     0
281
     0
  0
CLASS
  1
MLEADERSTYLE
  2
AcDbMLeaderStyle
  3
ACDB_MLEADERSTYLE_CLASS
 90
     4095
280
     0
281
     0
  0
CLASS
  1
SUN
  2
AcDbSun
  3
SCENEOE
 90
     1153
280
     0
281
     0
  0
CLASS
  1
ACDBPLACEHOLDER
  2
AcDbPlaceHolder
  3
ObjectDBX Classes
 90
        0
280
     0
281
     0
  0
CLASS
  1
LAYOUT
  2
AcDbLayout
  3
ObjectDBX Classes
 90
        0
280
     0
281
     0
  0
CLASS
  1
RASTERVARIABLES
  2
AcDbRasterVariables
  3
ISM
 90
        0
280
     0
281
     0
  0
ENDSEC
  0
SECTION
  2
TABLES
  0
TABLE
  2
VPORT
  5
8
330
0
100
AcDbSymbolTable
 70
     1
  0
VPORT
  5
29
330
8
100
AcDbSymbolTableRecord
100
AcDbViewportTableRecord
  2
*Active
 70
     0
 10
0.0
 20
0.0
 11
1.0
 21
1.0
 12
0.9954850376537578
 22
-12.60383739361504
 13
0.0
 23
0.0
 14
10.0
 24
10.0
 15
10.0
 25
10.0
 16
0.0
 26
0.0
 36
1.0
 17
0.0
 27
0.0
 37
0.0
 40
76.23065879020126
 41
1.737726098191214
 42
50.0
 43
0.0
 44
0.0
 50
0.0
 51
0.0
 71
    16
 72
  2000
 73
     1
 74
     3
 75
     0
 76
     0
 77
     0
 78
     0
281
     0
 65
     1
110
0.0
120
0.0
130
0.0
111
1.0
121
0.0
131
0.0
112
0.0
122
1.0
132
0.0
 79
     0
146
0.0
  0
ENDTAB
  0
TABLE
  2
LTYPE
  5
5
330
0
100
AcDbSymbolTable
 70
     6
  0
LTYPE
  5
14
330
5
100
AcDbSymbolTableRecord
100
AcDbLinetypeTableRecord
  2
ByBlock
 70
     0
  3

 72
    65
 73
     0
 40
0.0
  0
LTYPE
  5
15
330
5
100
AcDbSymbolTableRecord
100
AcDbLinetypeTableRecord
  2
ByLayer
 70
     0
  3

 72
    65
 73
     0
 40
0.0
  0
LTYPE
  5
16
330
5
100
AcDbSymbolTableRecord
100
AcDbLinetypeTableRecord
  2
Continuous
 70
     0
  3
Solid line
 72
    65
 73
     0
 40
0.0
  0
LTYPE
  5
6E
330
5
100
AcDbSymbolTableRecord
100
AcDbLinetypeTableRecord
  2
HIDDEN
 70
     0
  3
Hidden __ __ __ __ __ __ __ __ __ __ __ __ __ __
 72
    65
 73
     2
 40
1.905
 49
1.27
 74
     0
 49
-0.635
 74
     0
  0
LTYPE
  5
6F
330
5
100
AcDbSymbolTableRecord
100
AcDbLinetypeTableRecord
  2
PHANTOM
 70
     0
  3
Phantom ______  __  __  ______  __  __  ______
 72
    65
 73
     6
 40
12.7
 49
6.35
 74
     0
 49
-1.27
 74
     0
 49
1.27
 74
     0
 49
-1.27
 74
     0
 49
1.27
 74
     0
 49
-1.27
 74
     0
  0
LTYPE
  5
70
330
5
100
AcDbSymbolTableRecord
100
AcDbLinetypeTableRecord
  2
CENTER
 70
     0
  3
Center ____ _ ____ _ ____ _ ____ _ ____ _ ____
 72
    65
 73
     4
 40
10.16
 49
6.35
 74
     0
 49
-1.27
 74
     0
 49
1.27
 74
     0
 49
-1.27
 74
     0
  0
LTYPE
  5
71
330
5
100
AcDbSymbolTableRecord
100
AcDbLinetypeTableRecord
  2
CENTERX2
 70
     0
  3
Center (2x) ________  __  ________  __  _____
 72
    65
 73
     4
 40
20.32
 49
12.7
 74
     0
 49
-2.54
 74
     0
 49
2.54
 74
     0
 49
-2.54
 74
     0
  0
LTYPE
  5
72
330
5
100
AcDbSymbolTableRecord
100
AcDbLinetypeTableRecord
  2
DOT2
 70
     0
  3
Dot (.5x) ........................................
 72
    65
 73
     2
 40
0.635
 49
0.0
 74
     0
 49
-0.635
 74
     0
  0
ENDTAB
  0
TABLE
  2
LAYER
  5
2
330
0
100
AcDbSymbolTable
 70
    17
  0
LAYER
  5
10
330
2
100
AcDbSymbolTableRecord
100
AcDbLayerTableRecord
  2
0
 70
     0
 62
     7
  6
Continuous
370
    -3
390
F
  0
LAYER
  5
73
330
2
100
AcDbSymbolTableRecord
100
AcDbLayerTableRecord
  2
FORMAT
 70
     0
 62
     2
  6
Continuous
370
    -3
390
F
  0
LAYER
  5
74
330
2
100
AcDbSymbolTableRecord
100
AcDbLayerTableRecord
  2
외형선
 70
     0
 62
   100
  6
Continuous
370
    35
390
F
  0
LAYER
  5
75
330
2
100
AcDbSymbolTableRecord
100
AcDbLayerTableRecord
  2
숨은선
 70
     0
 62
     2
  6
HIDDEN
370
    25
390
F
  0
LAYER
  5
76
330
2
100
AcDbSymbolTableRecord
100
AcDbLayerTableRecord
  2
중심선
 70
     0
 62
     1
  6
CENTERX2
370
    -3
390
F
  0
LAYER
  5
77
330
2
100
AcDbSymbolTableRecord
100
AcDbLayerTableRecord
  2
파단선
 70
     0
 62
     4
  6
Continuous
370
    -3
390
F
  0
LAYER
  5
78
330
2
100
AcDbSymbolTableRecord
100
AcDbLayerTableRecord
  2
해칭선
 70
     0
 62
   100
  6
Continuous
370
    -3
390
F
  0
LAYER
  5
79
330
2
100
AcDbSymbolTableRecord
100
AcDbLayerTableRecord
  2
가는실선
 70
     0
 62
     4
  6
Continuous
370
    -3
390
F
  0
LAYER
  5
7A
330
2
100
AcDbSymbolTableRecord
100
AcDbLayerTableRecord
  2
치수_보조선
 70
     0
 62
     4
  6
Continuous
370
    -3
390
F
  0
LAYER
  5
7B
330
2
100
AcDbSymbolTableRecord
100
AcDbLayerTableRecord
  2
치수문자_일반주서
 70
     0
 62
     7
  6
Continuous
370
    25
390
F
  0
LAYER
  5
7C
330
2
100
AcDbSymbolTableRecord
100
AcDbLayerTableRecord
  2
개별주서
 70
     0
 62
   100
  6
Continuous
370
    35
390
F
  0
LAYER
  5
7D
330
2
100
AcDbSymbolTableRecord
100
AcDbLayerTableRecord
  2
중간선
 70
     0
 62
     2
  6
Continuous
370
    25
390
F
  0
LAYER
  5
7E
330
2
100
AcDbSymbolTableRecord
100
AcDbLayerTableRecord
  2
윤곽선
 70
     0
 62
     3
  6
Continuous
370
    50
390
F
  0
LAYER
  5
7F
330
2
100
AcDbSymbolTableRecord
100
AcDbLayerTableRecord
  2
중심마크
 70
     0
 62
   100
  6
Continuous
370
    35
390
F
  0
LAYER
  5
80
330
2
100
AcDbSymbolTableRecord
100
AcDbLayerTableRecord
  2
가상선
 70
     0
 62
     4
  6
PHANTOM
370
    -3
390
F
  0
LAYER
  5
81
330
2
100
AcDbSymbolTableRecord
100
AcDbLayerTableRecord
  2
특수지정선
 70
     0
 62
     5
  6
CENTERX2
370
    70
390
F
  0
LAYER
  5
148
330
2
100
AcDbSymbolTableRecord
100
AcDbLayerTableRecord
  2
Defpoints
 70
     0
 62
     7
  6
Continuous
290
     0
370
    -3
390
F
  0
ENDTAB
  0
TABLE
  2
STYLE
  5
3
330
0
100
AcDbSymbolTable
 70
     2
  0
STYLE
  5
11
330
3
100
AcDbSymbolTableRecord
100
AcDbTextStyleTableRecord
  2
Standard
 70
     0
 40
0.0
 41
1.0
 50
0.0
 71
     0
 42
3.5
  3
txt
  4

  0
STYLE
  5
97
330
3
100
AcDbSymbolTableRecord
100
AcDbTextStyleTableRecord
  2
SLDTEXTSTYLE0
 70
     0
 40
0.0
 41
0.75
 50
0.0
 71
     0
 42
3.5
  3
TXT
  4

  0
ENDTAB
  0
TABLE
  2
VIEW
  5
6
330
0
100
AcDbSymbolTable
 70
     0
  0
ENDTAB
  0
TABLE
  2
UCS
  5
7
330
0
100
AcDbSymbolTable
 70
     0
  0
ENDTAB
  0
TABLE
  2
APPID
  5
9
330
0
100
AcDbSymbolTable
 70
     1
  0
APPID
  5
12
330
9
100
AcDbSymbolTableRecord
100
AcDbRegAppTableRecord
  2
ACAD
 70
     0
  0
ENDTAB
  0
TABLE
  2
DIMSTYLE
  5
A
330
0
100
AcDbSymbolTable
 70
     4
100
AcDbDimStyleTable
  0
DIMSTYLE
105
27
330
A
100
AcDbSymbolTableRecord
100
AcDbDimStyleTableRecord
  2
ISO-25
 70
     0
 41
2.5
 42
0.625
 43
3.75
 44
1.25
 73
     0
 74
     0
 77
     1
 78
     8
140
2.5
141
2.5
143
0.03937007874016
147
0.625
171
     3
172
     1
178
     0
271
     2
272
     2
274
     3
278
    44
283
     0
284
     8
340
11
  0
DIMSTYLE
105
ED
102
{ACAD_REACTORS
330
EC
102
}
330
A
100
AcDbSymbolTableRecord
100
AcDbDimStyleTableRecord
  2
SLDDIMSTYLE0
 70
     0
 41
3.302
 44
0.0
 45
0.000000001
 73
     0
 74
     0
 77
     1
 78
    12
 79
     3
140
3.5
147
0.875
172
     1
173
     1
178
     0
271
     1
272
     1
276
     2
284
    12
289
     0
340
97
  0
DIMSTYLE
105
FB
102
{ACAD_REACTORS
330
FA
330
113
102
}
330
A
100
AcDbSymbolTableRecord
100
AcDbDimStyleTableRecord
  2
SLDDIMSTYLE1
 70
     0
 41
3.302
 44
0.0
 45
0.000000001
 73
     0
 74
     0
 77
     1
 78
    12
 79
     3
140
3.5
147
0.875
173
     1
178
     0
271
     2
272
     2
276
     2
284
    12
340
97
  0
DIMSTYLE
105
106
102
{ACAD_REACTORS
330
105
102
}
330
A
100
AcDbSymbolTableRecord
100
AcDbDimStyleTableRecord
  2
SLDDIMSTYLE2
 70
     0
 41
3.302
 44
0.0
 45
0.000000001
 73
     0
 74
     0
 77
     1
 78
    12
 79
     3
140
3.5
147
0.875
172
     1
173
     1
178
     0
271
     2
272
     2
276
     2
284
    12
289
     0
340
97
  0
ENDTAB
  0
TABLE
  2
BLOCK_RECORD
  5
1
330
0
100
AcDbSymbolTable
 70
     7
  0
BLOCK_RECORD
  5
1F
330
1
100
AcDbSymbolTableRecord
100
AcDbBlockTableRecord
  2
*Model_Space
340
22
  0
BLOCK_RECORD
  5
1B
330
1
100
AcDbSymbolTableRecord
100
AcDbBlockTableRecord
  2
*Paper_Space
340
1E
  0
BLOCK_RECORD
  5
23
330
1
100
AcDbSymbolTableRecord
100
AcDbBlockTableRecord
  2
*Paper_Space0
340
26
  0
BLOCK_RECORD
  5
82
330
1
100
AcDbSymbolTableRecord
100
AcDbBlockTableRecord
  2
블럭10
340
0
102
{BLKREFS
331
E5
102
}
  0
BLOCK_RECORD
  5
EE
330
1
100
AcDbSymbolTableRecord
100
AcDbBlockTableRecord
  2
_D
340
0
  0
BLOCK_RECORD
  5
FC
330
1
100
AcDbSymbolTableRecord
100
AcDbBlockTableRecord
  2
_D_1
340
0
  0
BLOCK_RECORD
  5
107
330
1
100
AcDbSymbolTableRecord
100
AcDbBlockTableRecord
  2
_D_2
340
0
  0
BLOCK_RECORD
  5
114
330
1
100
AcDbSymbolTableRecord
100
AcDbBlockTableRecord
  2
_D_3
340
0
  0
BLOCK_RECORD
  5
11D
330
1
100
AcDbSymbolTableRecord
100
AcDbBlockTableRecord
  2
SW_DOWELSYMBOL_0
340
0
102
{BLKREFS
331
123
102
}
  0
ENDTAB
  0
ENDSEC
  0
SECTION
  2
BLOCKS
  0
BLOCK
  5
20
330
1F
100
AcDbEntity
  8
0
100
AcDbBlockBegin
  2
*Model_Space
 70
     0
 10
0.0
 20
0.0
 30
0.0
  3
*Model_Space
  1

  0
ENDBLK
  5
21
330
1F
100
AcDbEntity
  8
0
100
AcDbBlockEnd
  0
BLOCK
  5
1C
330
1B
100
AcDbEntity
 67
     1
  8
0
100
AcDbBlockBegin
  2
*Paper_Space
 70
     0
 10
0.0
 20
0.0
 30
0.0
  3
*Paper_Space
  1

  0
ENDBLK
  5
1D
330
1B
100
AcDbEntity
 67
     1
  8
0
100
AcDbBlockEnd
  0
BLOCK
  5
24
330
23
100
AcDbEntity
  8
0
100
AcDbBlockBegin
  2
*Paper_Space0
 70
     0
 10
0.0
 20
0.0
 30
0.0
  3
*Paper_Space0
  1

  0
ENDBLK
  5
25
330
23
100
AcDbEntity
  8
0
100
AcDbBlockEnd
  0
BLOCK
  5
83
330
82
100
AcDbEntity
  8
0
100
AcDbBlockBegin
  2
블럭10
 70
     2
 10
0.0
 20
0.0
 30
0.0
  3
블럭10
  1

  0
ELLIPSE
  5
85
330
82
100
AcDbEntity
  8
중심선
100
AcDbEllipse
 10
20.54032771741204
 20
12.0471743016438
 30
0.0
 11
6.600054785286829
 21
-1.261213355974178E-13
 31
0.0
210
0.0
220
0.0
230
1.0
 40
0.636358354079598
 41
0.9219305317359503
 42
6.513795318482858
  0
ELLIPSE
  5
86
330
82
100
AcDbEntity
  8
중심선
100
AcDbEllipse
 10
20.54032771746488
 20
12.04717430159265
 30
0.0
 11
3.960054785062283
 21
1.540847449632565E-10
 31
0.0
210
0.0
220
0.0
230
1.0
 40
0.3939339440162632
 41
1.131841032648279
 42
5.62031148352944
  0
LINE
  5
87
330
82
100
AcDbEntity
  8
중심선
100
AcDbLine
 10
2.268634060543552
 20
16.24717430164393
 30
0.0
 11
5.714909304380834
 21
16.24717430164393
 31
0.0
  0
LINE
  5
88
330
82
100
AcDbEntity
  8
중심선
100
AcDbLine
 10
5.245725140726316
 20
7.84717430164391
 30
0.0
 11
8.692000384563599
 21
7.84717430164391
 31
0.0
  0
LINE
  5
89
330
82
100
AcDbEntity
  8
중심선
100
AcDbLine
 10
15.74043728645272
 20
16.24717430164393
 30
0.0
 11
8.692000384563599
 21
7.84717430164391
 31
0.0
  0
LINE
  5
8A
330
82
100
AcDbEntity
  8
중심선
100
AcDbLine
 10
0.1404042013395286
 20
13.71084872107135
 30
0.0
 11
3.58671253028996
 21
13.71088815037384
 31
0.0
  0
LINE
  5
8B
330
82
100
AcDbEntity
  8
중심선
100
AcDbLine
 10
2.750260043222114
 20
10.84717430164391
 30
0.0
 11
6.196535287059397
 21
10.84717430164391
 31
0.0
  0
LINE
  5
8C
330
82
100
AcDbEntity
  8
중심선
100
AcDbLine
 10
12.29416204261559
 20
16.24717430164393
 30
0.0
 11
5.245725140726316
 21
7.84717430164391
 31
0.0
  0
LINE
  5
8D
330
82
100
AcDbEntity
  8
중심선
100
AcDbLine
 10
10.72767329541681
 20
16.24717430164393
 30
0.0
 11
6.196535287059397
 21
10.84717430164391
 31
0.0
  0
LINE
  5
8E
330
82
100
AcDbEntity
  8
중심선
100
AcDbLine
 10
7.28139805157953
 20
16.24717430164393
 30
0.0
 11
2.750260043222114
 21
10.84717430164391
 31
0.0
  0
LINE
  5
8F
330
82
100
AcDbEntity
  8
중심선
100
AcDbLine
 10
5.714909304380834
 20
16.24717430164393
 30
0.0
 11
3.58671253028996
 21
13.71088815037384
 31
0.0
  0
LINE
  5
90
330
82
100
AcDbEntity
  8
중심선
100
AcDbLine
 10
2.268634060543552
 20
16.24717430164393
 30
0.0
 11
0.1404042013395286
 21
13.71084872107135
 31
0.0
  0
LINE
  5
91
330
82
100
AcDbEntity
  8
중심선
100
AcDbLine
 10
7.28139805157953
 20
16.24717430164393
 30
0.0
 11
10.72767329541681
 21
16.24717430164393
 31
0.0
  0
LINE
  5
92
330
82
100
AcDbEntity
  8
중심선
100
AcDbLine
 10
12.29416204261559
 20
16.24717430164393
 30
0.0
 11
15.74043728645272
 21
16.24717430164393
 31
0.0
  0
LINE
  5
93
330
82
100
AcDbEntity
  8
중심선
100
AcDbLine
 10
19.22036997980202
 20
11.08717430171403
 30
0.0
 11
23.66174974927406
 21
11.08717430171406
 31
0.0
  0
LINE
  5
94
330
82
100
AcDbEntity
  8
중심선
100
AcDbLine
 10
19.22039502424796
 20
13.00717430171391
 30
0.0
 11
19.22036997980202
 21
11.08717430171403
 31
0.0
  0
LINE
  5
95
330
82
100
AcDbEntity
  8
중심선
100
AcDbLine
 10
19.22039502424796
 20
13.00717430171391
 30
0.0
 11
26.96566020931264
 21
13.00717430171391
 31
0.0
  0
LINE
  5
96
330
82
100
AcDbEntity
  8
중심선
100
AcDbLine
 10
22.22332737316547
 20
13.45928029700563
 30
0.0
 11
24.52862924686651
 21
15.39360700705356
 31
0.0
  0
ATTDEF
  5
98
330
82
100
AcDbEntity
  8
FORMAT
 62
     2
100
AcDbText
 10
-16.11926103943555
 20
2.075366912832191
 30
0.0
 40
4.233333333333333
  1
SEME7204030E [ 4 FLUTE ]
 41
0.75
  7
SLDTEXTSTYLE0
 11
-16.11926103943555
 21
-0.0412997538344756
 31
0.0
100
AcDbAttributeDefinition
  3

  2
AUTOATTR0
 70
     0
 74
     1
  0
ENDBLK
  5
84
330
82
100
AcDbEntity
  8
0
100
AcDbBlockEnd
  0
BLOCK
  5
EF
330
EE
100
AcDbEntity
  8
0
100
AcDbBlockBegin
  2
_D
 70
     0
 10
0.0
 20
0.0
 30
0.0
  3
_D
  1

  0
LINE
  5
F1
330
EE
100
AcDbEntity
  8
치수문자_일반주서
 62
     0
370
    -2
100
AcDbLine
 10
36.7945508075689
 20
-2.000000000000003
 30
0.0
 11
51.03677939707924
 21
-1.99999999999995
 31
0.0
  0
LINE
  5
F2
330
EE
100
AcDbEntity
  8
치수문자_일반주서
 62
     0
370
    -2
100
AcDbLine
 10
36.7945508075689
 20
2.000000000000003
 30
0.0
 11
51.03677939707923
 21
2.000000000000057
 31
0.0
  0
LINE
  5
F3
330
EE
100
AcDbEntity
  8
치수문자_일반주서
 62
     0
370
    -2
100
AcDbLine
 10
51.03677939707924
 20
-1.99999999999995
 30
0.0
 11
51.03677939707918
 21
14.72900000000006
 31
0.0
  0
LINE
  5
F4
330
EE
100
AcDbEntity
  8
치수문자_일반주서
 62
     0
370
    -2
100
AcDbLine
 10
51.03677939707924
 20
-1.99999999999995
 30
0.0
 11
51.03677939707923
 21
2.000000000000057
 31
0.0
  0
LINE
  5
F5
330
EE
100
AcDbEntity
  8
치수문자_일반주서
 62
     0
370
    -2
100
AcDbLine
 10
51.03677939707926
 20
-5.30199999999995
 30
0.0
 11
51.03677939707927
 21
-8.60399999999995
 31
0.0
  0
LINE
  5
F6
330
EE
100
AcDbEntity
  8
치수문자_일반주서
 62
     0
370
    -2
100
AcDbLine
 10
51.03677939707921
 20
5.302000000000056
 30
0.0
 11
51.0367793970792
 21
8.604000000000056
 31
0.0
  0
SOLID
  5
F7
330
EE
100
AcDbEntity
  8
치수문자_일반주서
 62
     0
100
AcDbTrace
 10
51.58711273041259
 20
-5.301999999999948
 30
0.0
 11
50.48644606374592
 21
-5.301999999999952
 31
0.0
 12
51.03677939707924
 22
-1.99999999999995
 32
0.0
 13
51.03677939707924
 23
-1.99999999999995
 33
0.0
  0
SOLID
  5
F8
330
EE
100
AcDbEntity
  8
치수문자_일반주서
 62
     0
100
AcDbTrace
 10
50.48644606374588
 20
5.302000000000055
 30
0.0
 11
51.58711273041255
 21
5.302000000000058
 31
0.0
 12
51.03677939707923
 22
2.000000000000057
 32
0.0
 13
51.03677939707923
 23
2.000000000000057
 33
0.0
  0
MTEXT
  5
F9
330
EE
100
AcDbEntity
  8
치수문자_일반주서
 62
     0
100
AcDbMText
 10
46.66177939707919
 20
11.66650000000004
 30
0.0
 40
3.5
 41
0.0
 71
     2
 72
     1
  1
\A1;%%c4
  7
SLDTEXTSTYLE0
 11
-3.552713678800495E-15
 21
1.0
 31
0.0
 73
     1
 44
1.0
  0
POINT
  5
152
330
EE
100
AcDbEntity
  8
Defpoints
 62
     0
100
AcDbPoint
 10
36.7320508075689
 20
-2.000000000000004
 30
0.0
  0
POINT
  5
153
330
EE
100
AcDbEntity
  8
Defpoints
 62
     0
100
AcDbPoint
 10
36.7320508075689
 20
2.000000000000003
 30
0.0
  0
POINT
  5
154
330
EE
100
AcDbEntity
  8
Defpoints
 62
     0
100
AcDbPoint
 10
51.03677939707922
 20
2.000000000000056
 30
0.0
  0
ENDBLK
  5
F0
330
EE
100
AcDbEntity
  8
0
100
AcDbBlockEnd
  0
BLOCK
  5
FD
330
FC
100
AcDbEntity
  8
0
100
AcDbBlockBegin
  2
_D_1
 70
     0
 10
0.0
 20
0.0
 30
0.0
  3
_D_1
  1

  0
LINE
  5
FF
330
FC
100
AcDbEntity
  8
치수문자_일반주서
 62
     0
370
    -2
100
AcDbLine
 10
-33.26794919243114
 20
2.562499999999995
 30
0.0
 11
-33.26794919243113
 21
20.38913260158165
 31
0.0
  0
LINE
  5
100
330
FC
100
AcDbEntity
  8
치수문자_일반주서
 62
     0
370
    -2
100
AcDbLine
 10
36.73205080756887
 20
2.062500000000007
 30
0.0
 11
36.73205080756887
 21
20.38913260158165
 31
0.0
  0
LINE
  5
101
330
FC
100
AcDbEntity
  8
치수문자_일반주서
 62
     0
370
    -2
100
AcDbLine
 10
-29.96594919243113
 20
20.38913260158165
 30
0.0
 11
33.43005080756887
 21
20.38913260158165
 31
0.0
  0
SOLID
  5
102
330
FC
100
AcDbEntity
  8
치수문자_일반주서
 62
     0
100
AcDbTrace
 10
-29.96594919243113
 20
20.93946593491498
 30
0.0
 11
-29.96594919243113
 21
19.83879926824831
 31
0.0
 12
-33.26794919243113
 22
20.38913260158165
 32
0.0
 13
-33.26794919243113
 23
20.38913260158165
 33
0.0
  0
SOLID
  5
103
330
FC
100
AcDbEntity
  8
치수문자_일반주서
 62
     0
100
AcDbTrace
 10
33.43005080756887
 20
19.83879926824831
 30
0.0
 11
33.43005080756887
 21
20.93946593491498
 31
0.0
 12
36.73205080756887
 22
20.38913260158165
 32
0.0
 13
36.73205080756887
 23
20.38913260158165
 33
0.0
  0
MTEXT
  5
104
330
FC
100
AcDbEntity
  8
치수문자_일반주서
 62
     0
100
AcDbMText
 10
1.732050807568864
 20
24.76413260158165
 30
0.0
 40
3.5
 41
0.0
 71
     2
 72
     1
  1
\A1;70
  7
SLDTEXTSTYLE0
 73
     1
 44
1.0
  0
POINT
  5
149
330
FC
100
AcDbEntity
  8
Defpoints
 62
     0
100
AcDbPoint
 10
-33.26794919243114
 20
2.499999999999995
 30
0.0
  0
POINT
  5
14A
330
FC
100
AcDbEntity
  8
Defpoints
 62
     0
100
AcDbPoint
 10
36.73205080756887
 20
2.000000000000007
 30
0.0
  0
POINT
  5
14B
330
FC
100
AcDbEntity
  8
Defpoints
 62
     0
100
AcDbPoint
 10
36.73205080756887
 20
20.38913260158165
 30
0.0
  0
ENDBLK
  5
FE
330
FC
100
AcDbEntity
  8
0
100
AcDbBlockEnd
  0
BLOCK
  5
108
330
107
100
AcDbEntity
  8
0
100
AcDbBlockBegin
  2
_D_2
 70
     0
 10
0.0
 20
0.0
 30
0.0
  3
_D_2
  1

  0
LINE
  5
10A
330
107
100
AcDbEntity
  8
치수문자_일반주서
 62
     0
370
    -2
100
AcDbLine
 10
-32.83044919243114
 20
3.000000000000003
 30
0.0
 11
-45.22114265510503
 21
2.999999999999957
 31
0.0
  0
LINE
  5
10B
330
107
100
AcDbEntity
  8
치수문자_일반주서
 62
     0
370
    -2
100
AcDbLine
 10
-32.83044919243114
 20
-3.000000000000003
 30
0.0
 11
-45.22114265510501
 21
-3.000000000000048
 31
0.0
  0
LINE
  5
10C
330
107
100
AcDbEntity
  8
치수문자_일반주서
 62
     0
370
    -2
100
AcDbLine
 10
-45.22114265510503
 20
2.999999999999957
 30
0.0
 11
-45.22114265510508
 21
15.72899999999996
 31
0.0
  0
LINE
  5
10D
330
107
100
AcDbEntity
  8
치수문자_일반주서
 62
     0
370
    -2
100
AcDbLine
 10
-45.22114265510503
 20
2.999999999999957
 30
0.0
 11
-45.22114265510501
 21
-3.000000000000048
 31
0.0
  0
LINE
  5
10E
330
107
100
AcDbEntity
  8
치수문자_일반주서
 62
     0
370
    -2
100
AcDbLine
 10
-45.22114265510505
 20
6.301999999999957
 30
0.0
 11
-45.22114265510506
 21
9.603999999999957
 31
0.0
  0
LINE
  5
10F
330
107
100
AcDbEntity
  8
치수문자_일반주서
 62
     0
370
    -2
100
AcDbLine
 10
-45.221142655105
 20
-6.302000000000048
 30
0.0
 11
-45.22114265510498
 21
-9.604000000000047
 31
0.0
  0
SOLID
  5
110
330
107
100
AcDbEntity
  8
치수문자_일반주서
 62
     0
100
AcDbTrace
 10
-45.77147598843838
 20
6.301999999999955
 30
0.0
 11
-44.67080932177171
 21
6.301999999999959
 31
0.0
 12
-45.22114265510503
 22
2.999999999999957
 32
0.0
 13
-45.22114265510503
 23
2.999999999999957
 33
0.0
  0
SOLID
  5
111
330
107
100
AcDbEntity
  8
치수문자_일반주서
 62
     0
100
AcDbTrace
 10
-44.67080932177166
 20
-6.302000000000046
 30
0.0
 11
-45.77147598843833
 21
-6.302000000000049
 31
0.0
 12
-45.22114265510501
 22
-3.000000000000048
 32
0.0
 13
-45.22114265510501
 23
-3.000000000000048
 33
0.0
  0
MTEXT
  5
112
330
107
100
AcDbEntity
  8
치수문자_일반주서
 62
     0
100
AcDbMText
 10
-49.59614265510507
 20
12.66649999999994
 30
0.0
 40
3.5
 41
0.0
 71
     2
 72
     1
  1
\A1;%%c6
  7
SLDTEXTSTYLE0
 11
-3.552713678800498E-15
 21
1.0
 31
0.0
 73
     1
 44
1.0
  0
POINT
  5
14F
330
107
100
AcDbEntity
  8
Defpoints
 62
     0
100
AcDbPoint
 10
-32.76794919243114
 20
3.000000000000003
 30
0.0
  0
POINT
  5
150
330
107
100
AcDbEntity
  8
Defpoints
 62
     0
100
AcDbPoint
 10
-32.76794919243114
 20
-3.000000000000002
 30
0.0
  0
POINT
  5
151
330
107
100
AcDbEntity
  8
Defpoints
 62
     0
100
AcDbPoint
 10
-45.22114265510502
 20
-3.000000000000049
 30
0.0
  0
ENDBLK
  5
109
330
107
100
AcDbEntity
  8
0
100
AcDbBlockEnd
  0
BLOCK
  5
115
330
114
100
AcDbEntity
  8
0
100
AcDbBlockBegin
  2
_D_3
 70
     0
 10
0.0
 20
0.0
 30
0.0
  3
_D_3
  1

  0
LINE
  5
117
330
114
100
AcDbEntity
  8
치수문자_일반주서
 62
     0
370
    -2
100
AcDbLine
 10
6.732050807568871
 20
1.776599974802592
 30
0.0
 11
6.732050807568871
 21
12.56001827739021
 31
0.0
  0
LINE
  5
118
330
114
100
AcDbEntity
  8
치수문자_일반주서
 62
     0
370
    -2
100
AcDbLine
 10
36.73205080756887
 20
2.062500000000007
 30
0.0
 11
36.73205080756887
 21
12.56001827739021
 31
0.0
  0
LINE
  5
119
330
114
100
AcDbEntity
  8
치수문자_일반주서
 62
     0
370
    -2
100
AcDbLine
 10
10.03405080756887
 20
12.56001827739021
 30
0.0
 11
33.43005080756887
 21
12.56001827739021
 31
0.0
  0
SOLID
  5
11A
330
114
100
AcDbEntity
  8
치수문자_일반주서
 62
     0
100
AcDbTrace
 10
10.03405080756887
 20
13.11035161072355
 30
0.0
 11
10.03405080756887
 21
12.00968494405688
 31
0.0
 12
6.732050807568871
 22
12.56001827739021
 32
0.0
 13
6.732050807568871
 23
12.56001827739021
 33
0.0
  0
SOLID
  5
11B
330
114
100
AcDbEntity
  8
치수문자_일반주서
 62
     0
100
AcDbTrace
 10
33.43005080756887
 20
12.00968494405688
 30
0.0
 11
33.43005080756887
 21
13.11035161072355
 31
0.0
 12
36.73205080756887
 22
12.56001827739021
 32
0.0
 13
36.73205080756887
 23
12.56001827739021
 33
0.0
  0
MTEXT
  5
11C
330
114
100
AcDbEntity
  8
치수문자_일반주서
 62
     0
100
AcDbMText
 10
21.73205080756889
 20
16.93501827739021
 30
0.0
 40
3.5
 41
0.0
 71
     2
 72
     1
  1
\A1;30
  7
SLDTEXTSTYLE0
 73
     1
 44
1.0
  0
POINT
  5
14C
330
114
100
AcDbEntity
  8
Defpoints
 62
     0
100
AcDbPoint
 10
6.732050807568871
 20
1.714099974802592
 30
0.0
  0
POINT
  5
14D
330
114
100
AcDbEntity
  8
Defpoints
 62
     0
100
AcDbPoint
 10
36.73205080756887
 20
2.000000000000007
 30
0.0
  0
POINT
  5
14E
330
114
100
AcDbEntity
  8
Defpoints
 62
     0
100
AcDbPoint
 10
36.73205080756887
 20
12.56001827739021
 30
0.0
  0
ENDBLK
  5
116
330
114
100
AcDbEntity
  8
0
100
AcDbBlockEnd
  0
BLOCK
  5
11E
330
11D
100
AcDbEntity
  8
0
100
AcDbBlockBegin
  2
SW_DOWELSYMBOL_0
 70
     0
 10
0.0
 20
0.0
 30
0.0
  3
SW_DOWELSYMBOL_0
  1

  0
CIRCLE
  5
120
330
11D
100
AcDbEntity
  8
해칭선
 62
     0
100
AcDbCircle
 10
0.0
 20
0.0
 30
0.0
 40
3.0
  0
HATCH
  5
121
330
11D
100
AcDbEntity
  8
0
  6
Continuous
 62
     0
370
    18
100
AcDbHatch
 10
0.0
 20
0.0
 30
0.0
210
0.0
220
0.0
230
1.0
  2
SOLID
 70
     1
 71
     0
 91
        1
 92
        0
 93
        3
 72
     2
 10
0.0
 20
0.0
 40
3.0
 50
0.0
 51
90.0
 73
     1
 72
     1
 10
0.0
 20
3.0
 11
0.0
 21
0.0
 72
     1
 10
0.0
 20
0.0
 11
3.0
 21
0.0
 97
        0
 75
     0
 76
     1
 98
        1
 10
0.0
 20
0.0
  0
HATCH
  5
122
330
11D
100
AcDbEntity
  8
0
  6
Continuous
 62
     0
370
    18
100
AcDbHatch
 10
0.0
 20
0.0
 30
0.0
210
0.0
220
0.0
230
1.0
  2
SOLID
 70
     1
 71
     0
 91
        1
 92
        0
 93
        3
 72
     2
 10
0.0
 20
0.0
 40
3.0
 50
180.0
 51
270.0000000000008
 73
     1
 72
     1
 10
0.0
 20
-3.0
 11
0.0
 21
0.0
 72
     1
 10
0.0
 20
0.0
 11
-3.0
 21
0.0
 97
        0
 75
     0
 76
     1
 98
        1
 10
0.0
 20
0.0
  0
ENDBLK
  5
11F
330
11D
100
AcDbEntity
  8
0
100
AcDbBlockEnd
  0
ENDSEC
  0
SECTION
  2
ENTITIES
  0
LINE
  5
99
330
1F
100
AcDbEntity
  8
0
  6
Continuous
 62
     4
370
    25
100
AcDbLine
 10
2.0
 20
2.999999999999998
 30
0.0
 11
-32.76794919243114
 21
2.999999999999996
 31
0.0
  0
LINE
  5
9A
330
1F
100
AcDbEntity
  8
0
  6
Continuous
 62
     4
370
    25
100
AcDbLine
 10
-32.76794919243114
 20
-3.0
 30
0.0
 11
2.0
 21
-2.999999999999998
 31
0.0
  0
LINE
  5
9B
330
1F
100
AcDbEntity
  8
0
  6
Continuous
 62
     4
370
    25
100
AcDbLine
 10
2.0
 20
-2.999999999999999
 30
0.0
 11
5.23195447948827
 21
-2.134000407246966
 31
0.0
  0
LINE
  5
9C
330
1F
100
AcDbEntity
  8
0
  6
Continuous
 62
     4
370
    25
100
AcDbLine
 10
5.23195447948827
 20
2.134000407246966
 30
0.0
 11
2.0
 21
3.0
 31
0.0
  0
LINE
  5
9D
330
1F
100
AcDbEntity
  8
0
  6
Continuous
 62
     4
370
    25
100
AcDbLine
 10
-32.76794919243114
 20
2.999999999999995
 30
0.0
 11
-33.26794919243114
 21
2.499999999999995
 31
0.0
  0
LINE
  5
9E
330
1F
100
AcDbEntity
  8
0
  6
Continuous
 62
     4
370
    25
100
AcDbLine
 10
-33.26794919243114
 20
-2.499999999999999
 30
0.0
 11
-32.76794919243114
 21
-2.999999999999999
 31
0.0
  0
LINE
  5
9F
330
1F
100
AcDbEntity
  8
0
  6
Continuous
 62
     1
370
    25
100
AcDbLine
 10
9.31955001396555
 20
-0.3238224274636824
 30
0.0
 11
9.24902467455436
 21
-0.2858227574260557
 31
0.0
  0
LINE
  5
A0
330
1F
100
AcDbEntity
  8
0
  6
Continuous
 62
     1
370
    25
100
AcDbLine
 10
31.08514238477618
 20
-0.3238224274636846
 30
0.0
 11
31.01461704536498
 21
-0.285822757426053
 31
0.0
  0
LINE
  5
A1
330
1F
100
AcDbEntity
  8
0
  6
Continuous
 62
     1
370
    25
100
AcDbLine
 10
26.0976279225657
 20
0.3007613262615563
 30
0.0
 11
26.12529029166424
 21
0.2858227574263805
 31
0.0
  0
LINE
  5
A2
330
1F
100
AcDbEntity
  8
0
  6
Continuous
 62
     1
370
    25
100
AcDbLine
 10
19.63524895612167
 20
-2.000000000000002
 30
0.0
 11
21.18089088884796
 21
-2.000000000000002
 31
0.0
  0
LINE
  5
A3
330
1F
100
AcDbEntity
  8
0
  6
Continuous
 62
     1
370
    25
100
AcDbLine
 10
10.29787382718102
 20
2.000000000000003
 30
0.0
 11
8.751997914951204
 21
2.000000000000003
 31
0.0
  0
LINE
  5
A4
330
1F
100
AcDbEntity
  8
0
  6
Continuous
 62
     1
370
    25
100
AcDbLine
 10
32.06346619799162
 20
2.000000000000003
 30
0.0
 11
30.51759028576182
 21
2.000000000000003
 31
0.0
  0
LINE
  5
A5
330
1F
100
AcDbEntity
  8
0
  6
Continuous
 62
     1
370
    25
100
AcDbLine
 10
25.0745469523756
 20
-2.000000000000002
 30
0.0
 11
26.62364169299458
 21
-2.000000000000002
 31
0.0
  0
LINE
  5
A6
330
1F
100
AcDbEntity
  8
0
  6
Continuous
 62
     1
370
    25
100
AcDbLine
 10
15.74031894357168
 20
2.000000000000003
 30
0.0
 11
14.19150135922664
 21
2.000000000000003
 31
0.0
  0
LINE
  5
A7
330
1F
100
AcDbEntity
  8
0
  6
Continuous
 62
     1
370
    25
100
AcDbLine
 10
36.73205080756887
 20
2.000000000000003
 30
0.0
 11
35.95729148544055
 21
2.000000000000003
 31
0.0
  0
LINE
  5
A8
330
1F
100
AcDbEntity
  8
0
  6
Continuous
 62
     1
370
    25
100
AcDbLine
 10
35.95729148544052
 20
-2.000000000000002
 30
0.0
 11
36.73205080756887
 21
-2.000000000000002
 31
0.0
  0
LINE
  5
A9
330
1F
100
AcDbEntity
  8
0
  6
Continuous
 62
     1
370
    25
100
AcDbLine
 10
14.19150135922667
 20
-2.000000000000002
 30
0.0
 11
15.74031894357167
 21
-2.000000000000002
 31
0.0
  0
LINE
  5
AA
330
1F
100
AcDbEntity
  8
0
  6
Continuous
 62
     1
370
    25
100
AcDbLine
 10
26.62364169299461
 20
2.000000000000003
 30
0.0
 11
25.07454695237562
 21
2.000000000000003
 31
0.0
  0
LINE
  5
AB
330
1F
100
AcDbEntity
  8
0
  6
Continuous
 62
     1
370
    25
100
AcDbLine
 10
30.51759028576181
 20
-2.000000000000002
 30
0.0
 11
32.06346619799157
 21
-2.000000000000002
 31
0.0
  0
LINE
  5
AC
330
1F
100
AcDbEntity
  8
0
  6
Continuous
 62
     1
370
    25
100
AcDbLine
 10
8.751997914951183
 20
-2.000000000000002
 30
0.0
 11
10.29787382718099
 21
-2.000000000000002
 31
0.0
  0
LINE
  5
AD
330
1F
100
AcDbEntity
  8
0
  6
Continuous
 62
     1
370
    25
100
AcDbLine
 10
21.18089088884797
 20
2.000000000000003
 30
0.0
 11
19.63524895612167
 21
2.000000000000003
 31
0.0
  0
LINE
  5
AE
330
1F
100
AcDbEntity
  8
0
  6
Continuous
 62
     4
370
    25
100
AcDbLine
 10
2.0
 20
3.0
 30
0.0
 11
2.0
 21
-3.0
 31
0.0
  0
LINE
  5
AF
330
1F
100
AcDbEntity
  8
0
  6
Continuous
 62
     4
370
    25
100
AcDbLine
 10
-32.76794919243114
 20
2.999999999999995
 30
0.0
 11
-32.76794919243114
 21
-2.999999999999999
 31
0.0
  0
SPLINE
  5
B0
330
1F
100
AcDbEntity
  8
0
  6
Continuous
 62
     4
370
    25
100
AcDbSpline
210
0.0
220
0.0
230
1.0
 70
     8
 71
     3
 72
    10
 73
     6
 74
     0
 42
0.000000001
 43
0.00000001
 40
0.0
 40
0.0
 40
0.0
 40
0.0
 40
0.5
 40
0.5
 40
1.0
 40
1.0
 40
1.0
 40
1.0
 10
5.426488933650226
 20
2.052195329449002
 30
0.0
 10
5.367557753592453
 20
2.073502998560848
 30
0.0
 10
5.318031520653641
 20
2.094159818942217
 30
0.0
 10
5.250019020300543
 20
2.12426177066806
 30
0.0
 10
5.231954479488263
 20
2.133377722033025
 30
0.0
 10
5.23195447948827
 20
2.133933134595746
 30
0.0
  0
SPLINE
  5
B1
330
1F
100
AcDbEntity
  8
0
  6
Continuous
 62
     4
370
    25
100
AcDbSpline
210
0.0
220
0.0
230
1.0
 70
     8
 71
     3
 72
     8
 73
     4
 74
     0
 42
0.000000001
 43
0.00000001
 40
0.0
 40
0.0
 40
0.0
 40
0.0
 40
1.0
 40
1.0
 40
1.0
 40
1.0
 10
5.732050807568867
 20
1.936581014726115
 30
0.0
 10
5.629222403388488
 20
1.977037544896276
 30
0.0
 10
5.527415174219919
 20
2.015703561656398
 30
0.0
 10
5.426488933651238
 20
2.052195329454638
 30
0.0
  0
LINE
  5
B2
330
1F
100
AcDbEntity
  8
0
  6
Continuous
 62
     4
370
    25
100
AcDbLine
 10
5.732050807568863
 20
1.936581014726116
 30
0.0
 11
5.732050807568867
 21
1.520265203127779
 31
0.0
  0
SPLINE
  5
B3
330
1F
100
AcDbEntity
  8
0
  6
Continuous
 62
     4
370
    25
100
AcDbSpline
210
0.0
220
0.0
230
1.0
 70
     8
 71
     3
 72
    12
 73
     8
 74
     0
 42
0.000000001
 43
0.00000001
 40
0.0
 40
0.0
 40
0.0
 40
0.0
 40
0.2499999999999998
 40
0.2499999999999998
 40
0.4999999999999996
 40
0.4999999999999996
 40
1.0
 40
1.0
 40
1.0
 40
1.0
 10
5.23195447948827
 20
1.349660311679643
 30
0.0
 10
5.23195447948827
 20
1.398021529743812
 30
0.0
 10
5.246136639468527
 20
1.441481861278569
 30
0.0
 10
5.30073595176587
 20
1.509943236437126
 30
0.0
 10
5.340987970869423
 20
1.53504001814128
 30
0.0
 10
5.488198211090054
 20
1.578889961352175
 30
0.0
 10
5.616072942773177
 20
1.565928853906873
 30
0.0
 10
5.732050807568867
 20
1.520265203127776
 30
0.0
  0
LINE
  5
B4
330
1F
100
AcDbEntity
  8
0
  6
Continuous
 62
     4
370
    25
100
AcDbLine
 10
5.23195447948827
 20
1.349660311679643
 30
0.0
 11
5.23195447948827
 21
-0.0169444741608841
 31
0.0
  0
SPLINE
  5
B5
330
1F
100
AcDbEntity
  8
0
  6
Continuous
 62
     4
370
    25
100
AcDbSpline
210
0.0
220
0.0
230
1.0
 70
     8
 71
     3
 72
    10
 73
     6
 74
     0
 42
0.000000001
 43
0.00000001
 40
0.0
 40
0.0
 40
0.0
 40
0.0
 40
0.5
 40
0.5
 40
1.0
 40
1.0
 40
1.0
 40
1.0
 10
5.426488933650226
 20
-0.3502828631202463
 30
0.0
 10
5.367557753592449
 20
-0.3192978427650907
 30
0.0
 10
5.318031520653641
 20
-0.2721385233061806
 30
0.0
 10
5.250019020300543
 20
-0.1560375535838787
 30
0.0
 10
5.231954479488263
 20
-0.086891364203697
 30
0.0
 10
5.23195447948827
 20
-0.0169444741609172
 30
0.0
  0
SPLINE
  5
B6
330
1F
100
AcDbEntity
  8
0
  6
Continuous
 62
     4
370
    25
100
AcDbSpline
210
0.0
220
0.0
230
1.0
 70
     8
 71
     3
 72
     8
 73
     4
 74
     0
 42
0.000000001
 43
0.00000001
 40
0.0
 40
0.0
 40
0.0
 40
0.0
 40
1.0
 40
1.0
 40
1.0
 40
1.0
 10
5.732050807568867
 20
-0.4996538535850249
 30
0.0
 10
5.629222403388488
 20
-0.4531381060044971
 30
0.0
 10
5.527415174219915
 20
-0.4033481778731708
 30
0.0
 10
5.426488933651235
 20
-0.3502828631223038
 30
0.0
  0
LINE
  5
B7
330
1F
100
AcDbEntity
  8
0
  6
Continuous
 62
     4
370
    25
100
AcDbLine
 10
5.732050807568867
 20
-0.4996538535848371
 30
0.0
 11
5.732050807568867
 21
-1.299535960317719
 31
0.0
  0
SPLINE
  5
B8
330
1F
100
AcDbEntity
  8
0
  6
Continuous
 62
     4
370
    25
100
AcDbSpline
210
0.0
220
0.0
230
1.0
 70
     8
 71
     3
 72
    12
 73
     8
 74
     0
 42
0.000000001
 43
0.00000001
 40
0.0
 40
0.0
 40
0.0
 40
0.0
 40
0.25
 40
0.25
 40
0.5
 40
0.5
 40
1.0
 40
1.0
 40
1.0
 40
1.0
 10
5.23195447948827
 20
-1.652989649455518
 30
0.0
 10
5.23195447948827
 20
-1.613502882755441
 30
0.0
 10
5.246136639468527
 20
-1.569354800868457
 30
0.0
 10
5.30073595176587
 20
-1.482801711644866
 30
0.0
 10
5.340987970869423
 20
-1.440516293511174
 30
0.0
 10
5.488198211090054
 20
-1.333415666598421
 30
0.0
 10
5.616072942773177
 20
-1.293942803125149
 30
0.0
 10
5.732050807568867
 20
-1.299535960317722
 30
0.0
  0
LINE
  5
B9
330
1F
100
AcDbEntity
  8
0
  6
Continuous
 62
     4
370
    25
100
AcDbLine
 10
5.23195447948827
 20
-1.652989649455518
 30
0.0
 11
5.23195447948827
 21
-2.133933134595746
 31
0.0
  0
SPLINE
  5
BA
330
1F
100
AcDbEntity
  8
0
  6
Continuous
 62
     4
370
    25
100
AcDbSpline
210
0.0
220
0.0
230
1.0
 70
     8
 71
     3
 72
    10
 73
     6
 74
     0
 42
0.000000001
 43
0.00000001
 40
0.0
 40
0.0
 40
0.0
 40
0.0
 40
0.5
 40
0.5
 40
1.0
 40
1.0
 40
1.0
 40
1.0
 10
5.426488933650218
 20
-2.052195329449007
 30
0.0
 10
5.367557753592446
 20
-2.073502998560854
 30
0.0
 10
5.318031520653638
 20
-2.094159818942215
 30
0.0
 10
5.250019020300543
 20
-2.124261770668059
 30
0.0
 10
5.231954479488263
 20
-2.133377722033023
 30
0.0
 10
5.23195447948827
 20
-2.133933134595746
 30
0.0
  0
SPLINE
  5
BB
330
1F
100
AcDbEntity
  8
0
  6
Continuous
 62
     4
370
    25
100
AcDbSpline
210
0.0
220
0.0
230
1.0
 70
     8
 71
     3
 72
     8
 73
     4
 74
     0
 42
0.000000001
 43
0.00000001
 40
0.0
 40
0.0
 40
0.0
 40
0.0
 40
1.0
 40
1.0
 40
1.0
 40
1.0
 10
5.732050807568867
 20
-1.936581014726111
 30
0.0
 10
5.629222403388485
 20
-1.977037544896273
 30
0.0
 10
5.527415174219912
 20
-2.015703561656396
 30
0.0
 10
5.426488933651227
 20
-2.052195329454638
 30
0.0
  0
LINE
  5
BC
330
1F
100
AcDbEntity
  8
0
  6
Continuous
 62
     4
370
    25
100
AcDbLine
 10
-33.26794919243114
 20
2.499999999999995
 30
0.0
 11
-33.26794919243114
 21
-2.499999999999999
 31
0.0
  0
SPLINE
  5
BD
330
1F
100
AcDbEntity
  8
0
  6
Continuous
 62
     4
370
    25
100
AcDbSpline
210
0.0
220
0.0
230
1.0
 70
     8
 71
     3
 72
     8
 73
     4
 74
     0
 42
0.000000001
 43
0.00000001
 40
0.0
 40
0.0
 40
0.0
 40
0.0
 40
1.0
 40
1.0
 40
1.0
 40
1.0
 10
5.732050807568867
 20
1.520265203127779
 30
0.0
 10
5.766451965526875
 20
1.514446323592128
 30
0.0
 10
5.799061284901595
 20
1.505746653782257
 30
0.0
 10
5.8298746725508
 20
1.49396123979466
 30
0.0
  0
SPLINE
  5
BE
330
1F
100
AcDbEntity
  8
0
  6
Continuous
 62
     4
370
    25
100
AcDbSpline
210
0.0
220
0.0
230
1.0
 70
    24
 71
     3
 72
    16
 73
    12
 74
     0
 42
0.000000001
 43
0.00000001
 40
0.0
 40
0.0
 40
0.0
 40
0.0
 40
0.1249999999999998
 40
0.1249999999999998
 40
0.2499999999999998
 40
0.2499999999999998
 40
0.4999999999999999
 40
0.4999999999999999
 40
0.75
 40
0.75
 40
1.0
 40
1.0
 40
1.0
 40
1.0
 10
6.732050807568865
 20
1.100827625314936
 30
0.0
 10
6.732050807568865
 20
1.054104899031384
 30
0.0
 10
6.732050807568865
 20
1.008936219199425
 30
0.0
 10
6.732050807568865
 20
0.9028200065957608
 30
0.0
 10
6.732050807568865
 20
0.8427164649231647
 30
0.0
 10
6.732050807568865
 20
0.6378627852466473
 30
0.0
 10
6.732050807568865
 20
0.4669533632933752
 30
0.0
 10
6.732050807568865
 20
0.0607771677215437
 30
0.0
 10
6.732050807568865
 20
-0.1756033136718397
 30
0.0
 10
6.732050807568865
 20
-0.6409729152391437
 30
0.0
 10
6.732050807568865
 20
-0.8659159360077567
 30
0.0
 10
6.732050807568865
 20
-1.030466533362977
 30
0.0
  0
SPLINE
  5
BF
330
1F
100
AcDbEntity
  8
0
  6
Continuous
 62
     4
370
    25
100
AcDbSpline
210
0.0
220
0.0
230
1.0
 70
     8
 71
     3
 72
     8
 73
     4
 74
     0
 42
0.000000001
 43
0.00000001
 40
0.0
 40
0.0
 40
0.0
 40
0.0
 40
1.0
 40
1.0
 40
1.0
 40
1.0
 10
6.732050807568865
 20
-1.030466533362977
 30
0.0
 10
6.3965819591641
 20
-0.8651165518351911
 30
0.0
 10
6.067623123086228
 20
-0.6864845844433356
 30
0.0
 10
5.732050807568867
 20
-0.499653853584837
 30
0.0
  0
SPLINE
  5
C0
330
1F
100
AcDbEntity
  8
0
  6
Continuous
 62
     4
370
    25
100
AcDbSpline
210
0.0
220
0.0
230
1.0
 70
     8
 71
     3
 72
     8
 73
     4
 74
     0
 42
0.000000001
 43
0.00000001
 40
0.0
 40
0.0
 40
0.0
 40
0.0
 40
1.0
 40
1.0
 40
1.0
 40
1.0
 10
6.732050807568865
 20
1.100827625314884
 30
0.0
 10
6.429189467614111
 20
1.246246216833329
 30
0.0
 10
6.132591013958968
 20
1.378179182822623
 30
0.0
 10
5.829874672547137
 20
1.493961239796057
 30
0.0
  0
LINE
  5
C1
330
1F
100
AcDbEntity
  8
0
  6
Continuous
 62
     4
370
    25
100
AcDbLine
 10
6.732050807568865
 20
-1.030466533362977
 30
0.0
 11
6.732050807568867
 21
-1.66978397984404
 31
0.0
  0
SPLINE
  5
C2
330
1F
100
AcDbEntity
  8
0
  6
Continuous
 62
     4
370
    25
100
AcDbSpline
210
0.0
220
0.0
230
1.0
 70
     8
 71
     3
 72
     8
 73
     4
 74
     0
 42
0.000000001
 43
0.00000001
 40
0.0
 40
0.0
 40
0.0
 40
0.0
 40
1.0
 40
1.0
 40
1.0
 40
1.0
 10
6.732050807568865
 20
-1.669783979843983
 30
0.0
 10
6.429189467614111
 20
-1.573914810711793
 30
0.0
 10
6.132591013958968
 20
-1.459777353527181
 30
0.0
 10
5.829874672547137
 20
-1.32969162364326
 30
0.0
  0
SPLINE
  5
C3
330
1F
100
AcDbEntity
  8
0
  6
Continuous
 62
     4
370
    25
100
AcDbSpline
210
0.0
220
0.0
230
1.0
 70
     8
 71
     3
 72
     8
 73
     4
 74
     0
 42
0.000000001
 43
0.00000001
 40
0.0
 40
0.0
 40
0.0
 40
0.0
 40
1.0
 40
1.0
 40
1.0
 40
1.0
 10
5.732050807568867
 20
-1.299535960317719
 30
0.0
 10
5.766451965526875
 20
-1.306343190243915
 30
0.0
 10
5.799061284901595
 20
-1.316450243929937
 30
0.0
 10
5.8298746725508
 20
-1.329691623644838
 30
0.0
  0
SPLINE
  5
C4
330
1F
100
AcDbEntity
  8
0
  6
Continuous
 62
     4
370
    25
100
AcDbSpline
210
0.0
220
0.0
230
1.0
 70
     8
 71
     3
 72
     8
 73
     4
 74
     0
 42
0.000000001
 43
0.00000001
 40
0.0
 40
0.0
 40
0.0
 40
0.0
 40
1.0
 40
1.0
 40
1.0
 40
1.0
 10
6.732050807568865
 20
1.714099974802221
 30
0.0
 10
6.39658195916411
 20
1.813503524630886
 30
0.0
 10
6.067623123086245
 20
1.888377147223257
 30
0.0
 10
5.732050807568895
 20
1.936581014725668
 30
0.0
  0
LINE
  5
C5
330
1F
100
AcDbEntity
  8
0
  6
Continuous
 62
     4
370
    25
100
AcDbLine
 10
6.732050807568865
 20
1.714099974802221
 30
0.0
 11
6.732050807568867
 21
1.100827625314931
 31
0.0
  0
SPLINE
  5
C6
330
1F
100
AcDbEntity
  8
0
  6
Continuous
 62
     4
370
    25
100
AcDbSpline
210
0.0
220
0.0
230
1.0
 70
     8
 71
     3
 72
     8
 73
     4
 74
     0
 42
0.000000001
 43
0.00000001
 40
0.0
 40
0.0
 40
0.0
 40
0.0
 40
1.0
 40
1.0
 40
1.0
 40
1.0
 10
6.732050807568865
 20
-1.714099974802213
 30
0.0
 10
6.3965819591641
 20
-1.813503524630882
 30
0.0
 10
6.067623123086228
 20
-1.888377147223256
 30
0.0
 10
5.732050807568867
 20
-1.936581014725668
 30
0.0
  0
SPLINE
  5
C7
330
1F
100
AcDbEntity
  8
0
  6
Continuous
 62
     1
370
    25
100
AcDbSpline
210
0.0
220
0.0
230
1.0
 70
     8
 71
     3
 72
    21
 73
    17
 74
     0
 42
0.000000001
 43
0.00000001
 40
0.0
 40
0.0
 40
0.0
 40
0.0
 40
0.0176176396657626
 40
0.0943549538226807
 40
0.1710809001160808
 40
0.2478046729590115
 40
0.3245354760928219
 40
0.4012824830981196
 40
0.4780547981800985
 40
0.5548614175832767
 40
0.63169801785486
 40
0.7085024930636026
 40
0.7852731613622735
 40
0.862019026005737
 40
0.9387491960836601
 40
1.0
 40
1.0
 40
1.0
 40
1.0
 10
34.00370738583705
 20
-1.682739228999988
 30
0.0
 10
33.9284045848467
 20
-1.709378925848746
 30
0.0
 10
33.5251046851461
 20
-1.852053393808236
 30
0.0
 10
32.7939130402496
 20
-1.975382714006607
 30
0.0
 10
31.81011460741469
 20
-2.023471589973215
 30
0.0
 10
30.82635475274742
 20
-1.898464294549998
 30
0.0
 10
29.84248534956236
 20
-1.624138112564725
 30
0.0
 10
28.85836756349052
 20
-1.218764206067629
 30
0.0
 10
27.87385944106533
 20
-0.7157794866005895
 30
0.0
 10
26.88888524427272
 20
-0.1552631447383809
 30
0.0
 10
25.90364579755922
 20
0.4176516683058405
 30
0.0
 10
24.91869508261751
 20
0.956855175158255
 30
0.0
 10
23.93421180848765
 20
1.420501900753316
 30
0.0
 10
22.9501116307252
 20
1.76535109241807
 30
0.0
 10
22.03238223162686
 20
1.971705726478638
 30
0.0
 10
21.4426690540582
 20
1.982332882851305
 30
0.0
 10
21.18089088884797
 20
1.987050358401213
 30
0.0
  0
SPLINE
  5
C8
330
1F
100
AcDbEntity
  8
0
  6
Continuous
 62
     1
370
    25
100
AcDbSpline
210
0.0
220
0.0
230
1.0
 70
     8
 71
     3
 72
    14
 73
    10
 74
     0
 42
0.000000001
 43
0.00000001
 40
0.0
 40
0.0
 40
0.0
 40
0.0
 40
0.0410266703247543
 40
0.2197269133341073
 40
0.398400683694587
 40
0.5770693926826259
 40
0.7557544732977204
 40
0.9344772883032391
 40
1.0
 40
1.0
 40
1.0
 40
1.0
 10
12.23811501502643
 20
-1.682739228999991
 30
0.0
 10
12.16281221289173
 20
-1.709378871947416
 30
0.0
 10
11.75951230706231
 20
-1.852053051227049
 30
0.0
 10
11.02832082959996
 20
-1.975390257915549
 30
0.0
 10
10.04452166118798
 20
-2.023444486700353
 30
0.0
 10
9.060764523494022
 20
-1.89856516626787
 30
0.0
 10
8.076884986407226
 20
-1.623761656819265
 30
0.0
 10
7.300671689398469
 20
-1.305420171547977
 30
0.0
 10
6.852326476557516
 20
-1.088625200816928
 30
0.0
 10
6.732050807568871
 20
-1.030466533363283
 30
0.0
  0
SPLINE
  5
C9
330
1F
100
AcDbEntity
  8
0
  6
Continuous
 62
     4
370
    25
100
AcDbSpline
210
0.0
220
0.0
230
1.0
 70
    24
 71
     3
 72
    16
 73
    12
 74
     0
 42
0.000000001
 43
0.00000001
 40
0.0
 40
0.0
 40
0.0
 40
0.0
 40
0.125
 40
0.125
 40
0.2499999999999999
 40
0.2499999999999999
 40
0.5
 40
0.5
 40
0.75
 40
0.75
 40
1.0
 40
1.0
 40
1.0
 40
1.0
 10
6.732050807568865
 20
1.100827625314936
 30
0.0
 10
6.732050807568865
 20
1.054104899031377
 30
0.0
 10
6.732050807568865
 20
1.008936219199412
 30
0.0
 10
6.732050807568865
 20
0.9028200065957261
 30
0.0
 10
6.732050807568865
 20
0.842716464923118
 30
0.0
 10
6.732050807568865
 20
0.6378627852465539
 30
0.0
 10
6.732050807568865
 20
0.4669533632932369
 30
0.0
 10
6.732050807568865
 20
0.0607771677213058
 30
0.0
 10
6.732050807568865
 20
-0.1756033136721342
 30
0.0
 10
6.732050807568865
 20
-0.6409729152394973
 30
0.0
 10
6.732050807568865
 20
-0.8659159360081077
 30
0.0
 10
6.732050807568865
 20
-1.030466533363282
 30
0.0
  0
SPLINE
  5
CA
330
1F
100
AcDbEntity
  8
0
  6
Continuous
 62
     1
370
    25
100
AcDbSpline
210
0.0
220
0.0
230
1.0
 70
     8
 71
     3
 72
    16
 73
    12
 74
     0
 42
0.000000001
 43
0.00000001
 40
0.0
 40
0.0
 40
0.0
 40
0.0
 40
0.1088478664650021
 40
0.21801753561445
 40
0.3269870251231949
 40
0.4588768513162592
 40
0.5907537135736585
 40
0.7226334306363397
 40
0.8545318089923907
 40
0.9864645751228978
 40
1.0
 40
1.0
 40
1.0
 40
1.0
 10
6.73205080756892
 20
1.100827625314857
 30
0.0
 10
7.002558912603921
 20
0.9643899133012854
 30
0.0
 10
7.54437486489388
 20
0.6911111187404662
 30
0.0
 10
8.357909461315685
 20
0.2286131574527267
 30
0.0
 10
9.227959073333054
 20
-0.276323086838586
 30
0.0
 10
10.15488359353133
 20
-0.7990518429092958
 30
0.0
 10
11.13861641079625
 20
-1.288217680095023
 30
0.0
 10
12.12241169241555
 20
-1.678624551281519
 30
0.0
 10
13.10637188247557
 20
-1.918006377133259
 30
0.0
 10
13.79607717482817
 20
-2.020918411484313
 30
0.0
 10
14.15784027351654
 20
-1.995013161706358
 30
0.0
 10
14.19150135922667
 20
-1.992602747719196
 30
0.0
  0
SPLINE
  5
CB
330
1F
100
AcDbEntity
  8
0
  6
Continuous
 62
     1
370
    25
100
AcDbSpline
210
0.0
220
0.0
230
1.0
 70
     8
 71
     3
 72
    22
 73
    18
 74
     0
 42
0.000000001
 43
0.00000001
 40
0.0
 40
0.0
 40
0.0
 40
0.0
 40
0.0627492349679537
 40
0.1394818935372435
 40
0.2093153420270545
 40
0.2791050335744428
 40
0.3487983335617555
 40
0.4184881884519674
 40
0.4817828434863396
 40
0.5452646256602931
 40
0.6086300040707676
 40
0.685323478389967
 40
0.7620094142257544
 40
0.8386970101208647
 40
0.9153954574930384
 40
0.9921139012362229
 40
1.0
 40
1.0
 40
1.0
 40
1.0
 10
23.12912289471083
 20
1.682177025141163
 30
0.0
 10
23.39745261103129
 20
1.760115407346963
 30
0.0
 10
23.99390828007335
 20
1.93336043790146
 30
0.0
 10
24.88902192064223
 20
2.019534252102997
 30
0.0
 10
25.81444910569533
 20
1.977145919181408
 30
0.0
 10
26.70963932315766
 20
1.801642994702219
 30
0.0
 10
27.60386499743187
 20
1.50744812821738
 30
0.0
 10
28.47037013646064
 20
1.125216746623685
 30
0.0
 10
29.30995210694433
 20
0.6883779914483138
 30
0.0
 10
30.12350585496025
 20
0.2293414488397779
 30
0.0
 10
30.99355011997487
 20
-0.2765689719433442
 30
0.0
 10
31.9204763106088
 20
-0.7989583590831432
 30
0.0
 10
32.90420882325629
 20
-1.288324881524351
 30
0.0
 10
33.8880035503238
 20
-1.678289195833141
 30
0.0
 10
34.87196626378645
 20
-1.919240916783838
 30
0.0
 10
35.56173027934642
 20
-2.018070431020377
 30
0.0
 10
35.92356445429967
 20
-1.995598816044018
 30
0.0
 10
35.95729148544053
 20
-1.993504207766093
 30
0.0
  0
SPLINE
  5
CC
330
1F
100
AcDbEntity
  8
0
  6
Continuous
 62
     1
370
    25
100
AcDbSpline
210
0.0
220
0.0
230
1.0
 70
     8
 71
     3
 72
    12
 73
     8
 74
     0
 42
0.000000001
 43
0.00000001
 40
0.0
 40
0.0
 40
0.0
 40
0.0
 40
0.2110171285497537
 40
0.4219284993950292
 40
0.6327586463388555
 40
0.8435324488856067
 40
1.0
 40
1.0
 40
1.0
 40
1.0
 10
36.73205080756887
 20
0.4429530934592987
 30
0.0
 10
36.40361132787253
 20
0.6241874636717608
 30
0.0
 10
35.74689697599617
 20
0.986565372934789
 30
0.0
 10
34.76216479080305
 20
1.442890932601709
 30
0.0
 10
33.77787887429437
 20
1.780595569775773
 30
0.0
 10
32.87836415680371
 20
1.976445952728439
 30
0.0
 10
32.30693176991671
 20
1.98217110813788
 30
0.0
 10
32.06346619799161
 20
1.984610378763952
 30
0.0
  0
SPLINE
  5
CD
330
1F
100
AcDbEntity
  8
0
  6
Continuous
 62
     1
370
    25
100
AcDbSpline
210
0.0
220
0.0
230
1.0
 70
     8
 71
     3
 72
    22
 73
    18
 74
     0
 42
0.000000001
 43
0.00000001
 40
0.0
 40
0.0
 40
0.0
 40
0.0
 40
0.0139555070445351
 40
0.09063051692025
 40
0.1672990132112863
 40
0.2439701935617653
 40
0.3206532440962789
 40
0.3973573000593551
 40
0.4740914069172439
 40
0.5282300593790058
 40
0.582097088262642
 40
0.6361874773221567
 40
0.7129581511880777
 40
0.7896903490767399
 40
0.8663929966929139
 40
0.9430751455118493
 40
0.9999999999999999
 40
0.9999999999999999
 40
0.9999999999999999
 40
0.9999999999999999
 10
23.12912289471083
 20
-1.682177025141161
 30
0.0
 10
23.06943213863709
 20
-1.703607927438819
 30
0.0
 10
22.68178559444056
 20
-1.842785511392301
 30
0.0
 10
21.96625487210794
 20
-1.96788959041576
 30
0.0
 10
20.98249285934562
 20
-2.025709777073514
 30
0.0
 10
19.99869124368352
 20
-1.909444317183162
 30
0.0
 10
19.01471604450828
 20
-1.643133452383136
 30
0.0
 10
18.03037991911066
 20
-1.244375157586084
 30
0.0
 10
17.14253557044884
 20
-0.7942611637846533
 30
0.0
 10
16.35193746555556
 20
-0.3547910294334732
 30
0.0
 10
15.65962739350301
 20
0.0475264951024351
 30
0.0
 10
14.86946838258425
 20
0.5015952425582912
 30
0.0
 10
13.98129221158155
 20
0.9850045738695996
 30
0.0
 10
12.9965757399724
 20
1.443309037103004
 30
0.0
 10
12.01228560975177
 20
1.780483016879342
 30
0.0
 10
11.11277194366425
 20
1.976465809180772
 30
0.0
 10
10.54133944621324
 20
1.982177040613806
 30
0.0
 10
10.29787382718101
 20
1.984610378763951
 30
0.0
  0
SPLINE
  5
CE
330
1F
100
AcDbEntity
  8
0
  6
Continuous
 62
     1
370
    25
100
AcDbSpline
210
0.0
220
0.0
230
1.0
 70
     8
 71
     3
 72
    21
 73
    17
 74
     0
 42
0.000000001
 43
0.00000001
 40
0.0
 40
0.0
 40
0.0
 40
0.0
 40
0.0676384453699712
 40
0.1443144572978793
 40
0.2210195089207182
 40
0.2977625309892001
 40
0.3745101808461983
 40
0.4512190214796161
 40
0.5278978211130729
 40
0.6045556222344208
 40
0.6812015570802269
 40
0.7578448087503701
 40
0.8344945718604654
 40
0.9111600130894746
 40
0.9878502319814817
 40
0.9999999999999999
 40
0.9999999999999999
 40
0.9999999999999999
 40
0.9999999999999999
 10
12.23811501502643
 20
1.682739228999992
 30
0.0
 10
12.52750391658522
 20
1.764813825975093
 30
0.0
 10
13.14494865600893
 20
1.939929484763761
 30
0.0
 10
14.0906319604264
 20
2.024051794554435
 30
0.0
 10
15.07533574278335
 20
1.962158764122824
 30
0.0
 10
16.06047040228272
 20
1.739384656200773
 30
0.0
 10
17.0456422618296
 20
1.378022982811939
 30
0.0
 10
18.03040195620568
 20
0.9058055783956646
 30
0.0
 10
19.01471017728776
 20
0.3610627840608727
 30
0.0
 10
19.99869268531597
 20
-0.212525399118412
 30
0.0
 10
20.98249295830734
 20
-0.7692888183185964
 30
0.0
 10
21.96625303477695
 20
-1.263404297715046
 30
0.0
 10
22.95010855330766
 20
-1.659822090700958
 30
0.0
 10
23.93422331176204
 20
-1.90977369787896
 30
0.0
 10
24.64236204476794
 20
-2.015377680410034
 30
0.0
 10
25.02255211020347
 20
-1.993433965656293
 30
0.0
 10
25.0745469523756
 20
-1.990432940408608
 30
0.0
  0
SPLINE
  5
CF
330
1F
100
AcDbEntity
  8
0
  6
Continuous
 62
     1
370
    25
100
AcDbSpline
210
0.0
220
0.0
230
1.0
 70
     8
 71
     3
 72
    10
 73
     6
 74
     0
 42
0.000000001
 43
0.00000001
 40
0.0
 40
0.0
 40
0.0
 40
0.0
 40
0.3182264946767532
 40
0.6789730844031318
 40
1.0
 40
1.0
 40
1.0
 40
1.0
 10
34.00370738583705
 20
1.682739228999992
 30
0.0
 10
34.29309702637018
 20
1.764355130421408
 30
0.0
 10
34.91054334248123
 20
1.938492109118702
 30
0.0
 10
35.81996732959714
 20
2.027174970803929
 30
0.0
 10
36.44006514462762
 20
1.974931362027663
 30
0.0
 10
36.73205080756887
 20
1.950331396710527
 30
0.0
  0
LINE
  5
D0
330
1F
100
AcDbEntity
  8
0
  6
Continuous
 62
     1
370
    25
100
AcDbLine
 10
36.73205080756887
 20
1.428017363720412
 30
0.0
 11
36.73205080756887
 21
1.950331396710527
 31
0.0
  0
SPLINE
  5
D1
330
1F
100
AcDbEntity
  8
0
  6
Continuous
 62
     1
370
    25
100
AcDbSpline
210
0.0
220
0.0
230
1.0
 70
     8
 71
     3
 72
    11
 73
     7
 74
     0
 42
0.000000001
 43
0.00000001
 40
0.0
 40
0.0
 40
0.0
 40
0.0
 40
0.2488245552823257
 40
0.4984040682995218
 40
0.7371804553576988
 40
1.0
 40
1.0
 40
1.0
 40
1.0
 10
36.73205080756887
 20
1.428017363720412
 30
0.0
 10
36.69952643368321
 20
1.339766816895993
 30
0.0
 10
36.63437900381997
 20
1.162997962563908
 30
0.0
 10
36.45323561119812
 20
0.9725575485555881
 30
0.0
 10
36.23181240640225
 20
0.8563807933354987
 30
0.0
 10
36.07267110511665
 20
0.8468580344696247
 30
0.0
 10
35.98928636912832
 20
0.841868426319529
 30
0.0
  0
SPLINE
  5
D2
330
1F
100
AcDbEntity
  8
0
  6
Continuous
 62
     1
370
    25
100
AcDbSpline
210
0.0
220
0.0
230
1.0
 70
     8
 71
     3
 72
    21
 73
    17
 74
     0
 42
0.000000001
 43
0.00000001
 40
0.0
 40
0.0
 40
0.0
 40
0.0
 40
0.0528107571827736
 40
0.1296914214032691
 40
0.2066020953949901
 40
0.2834806133539562
 40
0.360325291811565
 40
0.4371451427021975
 40
0.5139492838970672
 40
0.5907469005374812
 40
0.6675472057576649
 40
0.7443594011529145
 40
0.8211926373527731
 40
0.8980559750573068
 40
0.9522858044960392
 40
1.0
 40
1.0
 40
1.0
 40
1.0
 10
28.55054683199634
 20
-1.683475599048784
 30
0.0
 10
28.32503180863091
 20
-1.751921214070753
 30
0.0
 10
27.77121729264451
 20
-1.920008353406744
 30
0.0
 10
26.88888354257687
 20
-2.017911595267793
 30
0.0
 10
25.90364625288188
 20
-1.984494988515701
 30
0.0
 10
24.91869496261618
 20
-1.786712791149322
 30
0.0
 10
23.93421183345585
 20
-1.446990783298653
 30
0.0
 10
22.95011165077998
 20
-0.9908978197584989
 30
0.0
 10
21.96625211921778
 20
-0.4554802365330264
 30
0.0
 10
20.98249352361358
 20
0.1164483681293889
 30
0.0
 10
19.99869133949208
 20
0.6791038537544298
 30
0.0
 10
19.01471499658581
 20
1.187107644539383
 30
0.0
 10
18.03038401688328
 20
1.600829925386131
 30
0.0
 10
17.14252213028232
 20
1.855198587922491
 30
0.0
 10
16.37864434545342
 20
1.98207260530028
 30
0.0
 10
15.9438305377202
 20
1.991509551959968
 30
0.0
 10
15.74031894357167
 20
1.995926449547972
 30
0.0
  0
LINE
  5
D3
330
1F
100
AcDbEntity
  8
0
  6
Continuous
 62
     1
370
    25
100
AcDbLine
 10
6.808407785675196
 20
-1.689545387542446
 30
0.0
 11
6.732050807568871
 21
-1.714099974802584
 31
0.0
  0
SPLINE
  5
D4
330
1F
100
AcDbEntity
  8
0
  6
Continuous
 62
     1
370
    25
100
AcDbSpline
210
0.0
220
0.0
230
1.0
 70
     8
 71
     3
 72
    10
 73
     6
 74
     0
 42
0.000000001
 43
0.00000001
 40
0.0
 40
0.0
 40
0.0
 40
0.0
 40
0.4019428984792761
 40
0.8050741188607196
 40
1.0
 40
1.0
 40
1.0
 40
1.0
 10
6.732050807568924
 20
-1.669783979844002
 30
0.0
 10
7.002556676359551
 20
-1.74584989289028
 30
0.0
 10
7.544368149549437
 20
-1.898206603638899
 30
0.0
 10
8.218149567939918
 20
-1.997087952747765
 30
0.0
 10
8.62077081208593
 20
-1.988931260493322
 30
0.0
 10
8.751997914951179
 20
-1.986272734374601
 30
0.0
  0
SPLINE
  5
D5
330
1F
100
AcDbEntity
  8
0
  6
Continuous
 62
     1
370
    25
100
AcDbSpline
210
0.0
220
0.0
230
1.0
 70
     8
 71
     3
 72
    22
 73
    18
 74
     0
 42
0.000000001
 43
0.00000001
 40
0.0
 40
0.0
 40
0.0
 40
0.0
 40
0.0267689970392414
 40
0.1034764190497413
 40
0.1801628347098858
 40
0.2568373796650892
 40
0.3335092404430641
 40
0.410187615091557
 40
0.4868816737112337
 40
0.5636005192428222
 40
0.6334213966569687
 40
0.7031985250056033
 40
0.7728792791460993
 40
0.842556588809664
 40
0.9058398498499719
 40
0.969310204344149
 40
0.9999999999999999
 40
0.9999999999999999
 40
0.9999999999999999
 40
0.9999999999999999
 10
17.6870060901908
 20
1.676817201978566
 30
0.0
 10
17.8015115814155
 20
1.716139800806549
 30
0.0
 10
18.24413624068435
 20
1.868142571343093
 30
0.0
 10
19.01470605918832
 20
1.989010135529855
 30
0.0
 10
19.99869376643489
 20
2.017431343160441
 30
0.0
 10
20.98249275076529
 20
1.875099516546312
 30
0.0
 10
21.96625278394589
 20
1.584839868899257
 30
0.0
 10
22.95010976441471
 20
1.166832550181959
 30
0.0
 10
23.93421871654451
 20
0.6554555139892636
 30
0.0
 10
24.88902121753759
 20
0.1081458513841563
 30
0.0
 10
25.8144492449678
 20
-0.4278238198838508
 30
0.0
 10
26.70963944173896
 20
-0.9184857775141786
 30
0.0
 10
27.60386438506317
 20
-1.347883218018993
 30
0.0
 10
28.47037237752746
 20
-1.679125780501163
 30
0.0
 10
29.30994457359619
 20
-1.89373463096866
 30
0.0
 10
29.98374364497642
 20
-1.997566431991981
 30
0.0
 10
30.38636360230981
 20
-1.989048877126117
 30
0.0
 10
30.5175902857618
 20
-1.986272734374599
 30
0.0
  0
SPLINE
  5
D6
330
1F
100
AcDbEntity
  8
0
  6
Continuous
 62
     1
370
    25
100
AcDbSpline
210
0.0
220
0.0
230
1.0
 70
     8
 71
     3
 72
    18
 73
    14
 74
     0
 42
0.000000001
 43
0.00000001
 40
0.0
 40
0.0
 40
0.0
 40
0.0
 40
0.0974571617817849
 40
0.1948654799185735
 40
0.2922362852195157
 40
0.3895810681541268
 40
0.4869114304353864
 40
0.5842390355955962
 40
0.6815755590004328
 40
0.7789326377552965
 40
0.876321820959711
 40
0.9737545207601592
 40
0.9999999999999999
 40
0.9999999999999999
 40
0.9999999999999999
 40
0.9999999999999999
 10
36.73205080756887
 20
-1.950331396710042
 30
0.0
 10
36.403611321531
 20
-1.893105441852466
 30
0.0
 10
35.74689695697474
 20
-1.778682212679334
 30
0.0
 10
34.76216486683204
 20
-1.422383506571931
 30
0.0
 10
33.77787858933566
 20
-0.9632809022441451
 30
0.0
 10
32.79390994806327
 20
-0.423955955361019
 30
0.0
 10
31.81011543102734
 20
0.1484610507190844
 30
0.0
 10
30.82635455016291
 20
0.709421243631017
 30
0.0
 10
29.84248533622124
 20
1.212575586733327
 30
0.0
 10
28.85836781958788
 20
1.621855196009093
 30
0.0
 10
27.87385842946329
 20
1.888742448199849
 30
0.0
 10
27.12890431704252
 20
2.010885651076245
 30
0.0
 10
26.71209244094354
 20
1.988825305324402
 30
0.0
 10
26.6236416929946
 20
1.984143927000864
 30
0.0
  0
SPLINE
  5
D7
330
1F
100
AcDbEntity
  8
0
  6
Continuous
 62
     1
370
    25
100
AcDbSpline
210
0.0
220
0.0
230
1.0
 70
     8
 71
     3
 72
    20
 73
    16
 74
     0
 42
0.000000001
 43
0.00000001
 40
0.0
 40
0.0
 40
0.0
 40
0.0
 40
0.0585240593094145
 40
0.1219350921726638
 40
0.1850279802196726
 40
0.2483824835601722
 40
0.3383017464543504
 40
0.4281759435526977
 40
0.5180155292742439
 40
0.6078311053493314
 40
0.6976333761475555
 40
0.787433103076371
 40
0.877241058461346
 40
0.9670679793270429
 40
1.0
 40
1.0
 40
1.0
 40
1.0
 10
17.68700609019083
 20
-1.676817201978565
 30
0.0
 10
17.47328424456074
 20
-1.743542717801196
 30
0.0
 10
17.02799399549519
 20
-1.882565574693016
 30
0.0
 10
16.35193418404104
 20
-1.979817320953913
 30
0.0
 10
15.6596282639177
 20
-2.013380413317305
 30
0.0
 10
14.86946804168128
 20
-1.95629693905224
 30
0.0
 10
13.98129229383901
 20
-1.771683266830441
 30
0.0
 10
12.99657579782017
 20
-1.424257108000514
 30
0.0
 10
12.01228529631819
 20
-0.9627812516982159
 30
0.0
 10
11.02831796566715
 20
-0.4240817748079686
 30
0.0
 10
10.04452242860828
 20
0.1484648181616436
 30
0.0
 10
9.06076431744874
 20
0.7095319823574799
 30
0.0
 10
8.07688504311978
 20
1.212128775969564
 30
0.0
 10
7.300671685003137
 20
1.536631765838398
 30
0.0
 10
6.85232647562781
 20
1.676561593361684
 30
0.0
 10
6.732050807568871
 20
1.714099974802592
 30
0.0
  0
SPLINE
  5
D8
330
1F
100
AcDbEntity
  8
0
  6
Continuous
 62
     1
370
    25
100
AcDbSpline
210
0.0
220
0.0
230
1.0
 70
     8
 71
     3
 72
    21
 73
    17
 74
     0
 42
0.000000001
 43
0.00000001
 40
0.0
 40
0.0
 40
0.0
 40
0.0
 40
0.0573499132590898
 40
0.1208423190606419
 40
0.1842183016186343
 40
0.2609246105319884
 40
0.3376233797003709
 40
0.414323809205886
 40
0.4910350920044507
 40
0.5677663745204039
 40
0.6445267176640539
 40
0.7213250586236913
 40
0.7981280307077071
 40
0.8748921655931792
 40
0.9516262378241509
 40
1.0
 40
1.0
 40
1.0
 40
1.0
 10
6.808407785675221
 20
1.689545387542448
 30
0.0
 10
7.05347039767785
 20
1.759162659362194
 30
0.0
 10
7.569843181289037
 20
1.90585359741762
 30
0.0
 10
8.357911605103205
 20
2.003927667450507
 30
0.0
 10
9.227958341932737
 20
2.004097580922587
 30
0.0
 10
10.15488390679692
 20
1.862942439860445
 30
0.0
 10
11.1386159533286
 20
1.564518309856256
 30
0.0
 10
12.12241320916933
 20
1.140442024022122
 30
0.0
 10
13.10636627147237
 20
0.6249402069832553
 30
0.0
 10
14.09063157157266
 20
0.0592849197260403
 30
0.0
 10
15.0753358662346
 20
-0.5113483358980762
 30
0.0
 10
16.06047029755568
 20
-1.040446810763775
 30
0.0
 10
17.04564255719355
 20
-1.487838302508474
 30
0.0
 10
18.03040088023738
 20
-1.809284780615677
 30
0.0
 10
18.89354397795326
 20
-1.985520404042376
 30
0.0
 10
19.42843128251636
 20
-1.98242876157123
 30
0.0
 10
19.63524895612167
 20
-1.981233357795432
 30
0.0
  0
SPLINE
  5
D9
330
1F
100
AcDbEntity
  8
0
  6
Continuous
 62
     1
370
    25
100
AcDbSpline
210
0.0
220
0.0
230
1.0
 70
     8
 71
     3
 72
    16
 73
    12
 74
     0
 42
0.000000001
 43
0.00000001
 40
0.0
 40
0.0
 40
0.0
 40
0.0
 40
0.0927749127568717
 40
0.1923117565161276
 40
0.2916660839246823
 40
0.4119183217989493
 40
0.5321587396388715
 40
0.652401760384065
 40
0.7726617958024455
 40
0.8929531847145198
 40
1.0
 40
1.0
 40
1.0
 40
1.0
 10
28.55054683199637
 20
1.683475599048788
 30
0.0
 10
28.80342514248239
 20
1.755411438832185
 30
0.0
 10
29.32761288493647
 20
1.904526186495296
 30
0.0
 10
30.12350329252683
 20
2.004023956945167
 30
0.0
 10
30.99355095007345
 20
2.004067421641833
 30
0.0
 10
31.92047615685561
 20
1.862943048666261
 30
0.0
 10
32.9042085478042
 20
1.564547919046505
 30
0.0
 10
33.88800480599718
 20
1.140322967471196
 30
0.0
 10
34.87196151529604
 20
0.6253869409339271
 30
0.0
 10
35.81996701180622
 20
0.0785251388112114
 30
0.0
 10
36.44006504289307
 20
-0.2760120501926042
 30
0.0
 10
36.73205080756887
 20
-0.4429530934593351
 30
0.0
  0
LINE
  5
DA
330
1F
100
AcDbEntity
  8
0
  6
Continuous
 62
     1
370
    25
100
AcDbLine
 10
36.73205080756887
 20
-0.5000000000000029
 30
0.0
 11
36.73205080756887
 21
-0.4450151339268195
 31
0.0
  0
SPLINE
  5
DB
330
1F
100
AcDbEntity
  8
0
  6
Continuous
 62
     1
370
    25
100
AcDbSpline
210
0.0
220
0.0
230
1.0
 70
    24
 71
     3
 72
    12
 73
     8
 74
     0
 42
0.000000001
 43
0.00000001
 40
0.0
 40
0.0
 40
0.0
 40
0.0
 40
0.2499999999999986
 40
0.2499999999999986
 40
0.4999999999999971
 40
0.4999999999999971
 40
1.0
 40
1.0
 40
1.0
 40
1.0
 10
36.73205080756887
 20
-0.5000000000000027
 30
0.0
 10
36.70272378227621
 20
-0.5205350041831883
 30
0.0
 10
36.65967197027495
 20
-0.5506802074800594
 30
0.0
 10
36.54496027032936
 20
-0.6310022045028211
 30
0.0
 10
36.47454100370157
 20
-0.6803103058307733
 30
0.0
 10
36.23951662439411
 20
-0.8448761478849247
 30
0.0
 10
36.05516950957547
 20
-0.973957387328168
 30
0.0
 10
35.88112755632612
 20
-1.095822874958105
 30
0.0
  0
SPLINE
  5
DC
330
1F
100
AcDbEntity
  8
0
  6
Continuous
 62
     1
370
    25
100
AcDbSpline
210
0.0
220
0.0
230
1.0
 70
     8
 71
     3
 72
     8
 73
     4
 74
     0
 42
0.000000001
 43
0.00000001
 40
0.0
 40
0.0
 40
0.0
 40
0.0
 40
1.0
 40
1.0
 40
1.0
 40
1.0
 10
36.73205080756887
 20
-1.718789664692073
 30
0.0
 10
36.43159910321511
 20
-1.547826766026007
 30
0.0
 10
36.15144192325821
 20
-1.332566820248718
 30
0.0
 10
35.88112755632609
 20
-1.095822874958112
 30
0.0
  0
LINE
  5
DD
330
1F
100
AcDbEntity
  8
0
  6
Continuous
 62
     1
370
    25
100
AcDbLine
 10
36.73205080756887
 20
-1.950331396710527
 30
0.0
 11
36.73205080756887
 21
-1.718789664692073
 31
0.0
  0
LINE
  5
DE
330
1F
100
AcDbEntity
  8
0
  6
Continuous
 62
     1
370
    25
100
AcDbLine
 10
36.73205080756887
 20
-0.4429530934593351
 30
0.0
 11
36.73205080756887
 21
0.442953093459337
 31
0.0
  0
LINE
  5
DF
330
1F
100
AcDbEntity
  8
0
  6
Continuous
 62
     1
370
    25
100
AcDbLine
 10
36.73205080756887
 20
1.950331396710527
 30
0.0
 11
36.73205080756887
 21
2.000000000000007
 31
0.0
  0
LINE
  5
E0
330
1F
100
AcDbEntity
  8
0
  6
Continuous
 62
     1
370
    25
100
AcDbLine
 10
36.73205080756887
 20
-2.000000000000001
 30
0.0
 11
36.73205080756887
 21
-1.950331396710527
 31
0.0
  0
LINE
  5
E1
330
1F
100
AcDbEntity
  8
0
  6
Continuous
 62
     1
370
    25
100
AcDbLine
 10
36.73205080756887
 20
0.4436031597791962
 30
0.0
 11
36.73205080756887
 21
1.428017363720412
 31
0.0
  0
LINE
  5
E2
330
1F
100
AcDbEntity
  8
0
  6
Continuous
 62
     1
370
    25
100
AcDbLine
 10
36.73205080756887
 20
-0.4999999999999976
 30
0.0
 11
36.73205080756887
 21
-1.718789664692072
 31
0.0
  0
LINE
  5
E3
330
1F
100
AcDbEntity
  8
중심선
100
AcDbLine
 10
-36.26794919243113
 20
-0.0000000000000043
 30
0.0
 11
39.73205080756888
 21
0.000000000000005
 31
0.0
  0
CIRCLE
  5
E4
330
1F
100
AcDbEntity
  8
해칭선
100
AcDbCircle
 10
0.0000773551028319
 20
-0.0000000000000043
 30
0.0
 40
2.999999999999999
  0
INSERT
  5
E5
330
1F
100
AcDbEntity
  8
0
  6
Continuous
 62
     7
100
AcDbBlockReference
 66
     1
  2
블럭10
 10
-7.440099248941779
 20
-52.04717430164393
 30
0.0
  0
ATTRIB
  5
E6
330
E5
100
AcDbEntity
  8
FORMAT
 62
     2
100
AcDbText
 10
-23.55936028837733
 20
-49.97180738881174
 30
0.0
 40
4.233333333333333
  1
SEME7204030E [ 4 FLUTE ]
 41
0.75
  7
SLDTEXTSTYLE0
 11
-23.55936028837733
 21
-52.08847405547841
 31
0.0
100
AcDbAttribute
  2
AUTOATTR0
 70
     0
 74
     1
  0
SEQEND
  5
E7
330
E5
100
AcDbEntity
  8
0
  6
Continuous
 62
     7
  0
HATCH
  5
E8
330
1F
100
AcDbEntity
  8
중심선
100
AcDbHatch
 10
0.0
 20
0.0
 30
0.0
210
0.0
220
0.0
230
1.0
  2
SOLID
 70
     1
 71
     0
 91
        1
 92
        0
 93
        4
 72
     1
 10
-1.725189944560945
 20
-35.8
 11
-5.171465188398228
 21
-35.8
 72
     1
 10
-5.171465188398228
 20
-35.8
 11
-7.299695047602251
 21
-38.33632558057259
 72
     1
 10
-7.299695047602251
 20
-38.33632558057259
 11
-3.853386718651819
 21
-38.3362861512701
 72
     1
 10
-3.853386718651819
 20
-38.3362861512701
 11
-1.725189944560945
 21
-35.8
 97
        0
 75
     0
 76
     1
 98
        1
 10
0.0
 20
0.0
  0
HATCH
  5
E9
330
1F
100
AcDbEntity
  8
중심선
100
AcDbHatch
 10
0.0
 20
0.0
 30
0.0
210
0.0
220
0.0
230
1.0
  2
SOLID
 70
     1
 71
     0
 91
        1
 92
        0
 93
        4
 72
     1
 10
3.287574046475034
 20
-35.8
 11
-0.158701197362249
 21
-35.79999999999997
 72
     1
 10
-0.1587011973622487
 20
-35.79999999999997
 11
-4.689839205719665
 21
-41.20000000000002
 72
     1
 10
-4.689839205719665
 20
-41.20000000000002
 11
-1.243563961882383
 21
-41.20000000000002
 72
     1
 10
-1.243563961882382
 20
-41.20000000000002
 11
3.287574046475034
 21
-35.8
 97
        0
 75
     0
 76
     1
 98
        1
 10
0.0
 20
0.0
  0
HATCH
  5
EA
330
1F
100
AcDbEntity
  8
중심선
100
AcDbHatch
 10
0.0
 20
0.0
 30
0.0
210
0.0
220
0.0
230
1.0
  2
SOLID
 70
     1
 71
     0
 91
        1
 92
        0
 93
        4
 72
     1
 10
8.30033803751093
 20
-35.79999999999997
 11
4.854062793673814
 21
-35.79999999999997
 72
     1
 10
4.854062793673814
 20
-35.79999999999997
 11
-2.194374108215463
 21
-44.20000000000002
 72
     1
 10
-2.194374108215463
 20
-44.20000000000002
 11
1.251901135621819
 21
-44.20000000000002
 72
     1
 10
1.251901135621819
 20
-44.20000000000002
 11
8.30033803751093
 21
-35.79999999999997
 97
        0
 75
     0
 76
     1
 98
        1
 10
0.0
 20
0.0
  0
HATCH
  5
EB
330
1F
100
AcDbEntity
  8
중심선
100
AcDbHatch
 10
0.0
 20
0.0
 30
0.0
210
0.0
220
0.0
230
1.0
  2
SOLID
 70
     1
 71
     0
 91
        1
 92
        0
 93
        6
 72
     3
 10
13.1002284685231
 20
-40.00000000005127
 11
3.960054785062284
 21
1.540850780301639E-10
 40
0.3939339440162633
 50
17.09539180608433
 51
320.0019657685081
 73
     0
 72
     1
 10
14.78322812422367
 20
-38.58789400463833
 11
17.08852999792473
 21
-36.65356729459038
 72
     3
 10
13.10022846847025
 20
-40.00000000000015
 11
6.600054785286829
 21
-1.249000902703301E-13
 40
0.6363583540795982
 50
39.99873849337408
 51
368.4976242363725
 73
     1
 72
     1
 10
19.52556096037086
 20
-39.03999999993002
 11
11.78029577530618
 21
-39.03999999993002
 72
     1
 10
11.78029577530618
 20
-39.03999999993002
 11
11.78027073086024
 21
-40.95999999992991
 72
     1
 10
11.78027073086024
 20
-40.95999999992991
 11
16.22165050033228
 21
-40.95999999992988
 97
        0
 75
     0
 76
     1
 98
        1
 10
0.0
 20
0.0
  0
DIMENSION
  5
EC
330
1F
100
AcDbEntity
  8
치수문자_일반주서
100
AcDbDimension
  2
_D
 10
51.03677939707923
 20
2.000000000000057
 30
0.0
 11
51.03677939707919
 21
11.66650000000006
 31
0.0
 70
   160
  1
%%c<>
 71
     2
 42
4.000000000000006
 52
-270.0
  3
SLDDIMSTYLE0
100
AcDbAlignedDimension
 13
36.7320508075689
 23
-2.000000000000004
 33
0.0
 14
36.7320508075689
 24
2.000000000000003
 34
0.0
 50
90.0000000000002
100
AcDbRotatedDimension
  0
DIMENSION
  5
FA
330
1F
100
AcDbEntity
  8
치수문자_일반주서
100
AcDbDimension
  2
_D_1
 10
36.73205080756887
 20
20.38913260158165
 30
0.0
 11
1.732050807568864
 21
20.38913260158165
 31
0.0
 70
   160
  1
<>
 71
     2
 42
70.0
  3
SLDDIMSTYLE1
100
AcDbAlignedDimension
 13
-33.26794919243114
 23
2.499999999999995
 33
0.0
 14
36.73205080756887
 24
2.000000000000007
 34
0.0
 50
-0.0000000000000058
100
AcDbRotatedDimension
  0
DIMENSION
  5
105
330
1F
100
AcDbEntity
  8
치수문자_일반주서
100
AcDbDimension
  2
_D_2
 10
-45.22114265510501
 20
-3.000000000000048
 30
0.0
 11
-45.22114265510507
 21
12.66649999999996
 31
0.0
 70
   160
  1
%%c<>
 71
     2
 42
6.000000000000005
 52
-270.0
  3
SLDDIMSTYLE2
100
AcDbAlignedDimension
 13
-32.76794919243114
 23
3.000000000000003
 33
0.0
 14
-32.76794919243114
 24
-3.000000000000002
 34
0.0
 50
90.0000000000002
100
AcDbRotatedDimension
  0
DIMENSION
  5
113
330
1F
100
AcDbEntity
  8
치수문자_일반주서
100
AcDbDimension
  2
_D_3
 10
36.73205080756887
 20
12.56001827739021
 30
0.0
 11
21.73205080756889
 21
12.56001827739021
 31
0.0
 70
   160
  1
<>
 71
     2
 42
30.0
  3
SLDDIMSTYLE1
100
AcDbAlignedDimension
 13
6.732050807568871
 23
1.714099974802592
 33
0.0
 14
36.73205080756887
 24
2.000000000000007
 34
0.0
 50
-0.0000000000001221
100
AcDbRotatedDimension
  0
INSERT
  5
123
330
1F
100
AcDbEntity
  8
해칭선
100
AcDbBlockReference
  2
SW_DOWELSYMBOL_0
 10
0.0000773551028319
 20
-0.0000000000000043
 30
0.0
  0
ENDSEC
  0
SECTION
  2
OBJECTS
  0
DICTIONARY
  5
C
330
0
100
AcDbDictionary
281
     1
  3
ACAD_GROUP
350
D
  3
ACAD_IMAGE_VARS
350
147
  3
ACAD_LAYOUT
350
1A
  3
ACAD_MLINESTYLE
350
17
  3
ACAD_PLOTSETTINGS
350
19
  3
ACAD_PLOTSTYLENAME
350
E
  3
ACAD_SCALELIST
350
47
  3
APPDATA
350
145
  3
DWGPROPS
350
156
  0
DICTIONARY
  5
D
102
{ACAD_REACTORS
330
C
102
}
330
C
100
AcDbDictionary
281
     1
  0
RASTERVARIABLES
  5
147
102
{ACAD_REACTORS
330
C
102
}
330
C
100
AcDbRasterVariables
 90
        0
 70
     1
 71
     1
 72
     1
  0
DICTIONARY
  5
1A
102
{ACAD_REACTORS
330
C
102
}
330
C
100
AcDbDictionary
281
     1
  3
Layout1
350
1E
  3
Layout2
350
26
  3
Model
350
22
  0
DICTIONARY
  5
17
102
{ACAD_REACTORS
330
C
102
}
330
C
100
AcDbDictionary
281
     1
  3
Standard
350
18
  0
DICTIONARY
  5
19
102
{ACAD_REACTORS
330
C
102
}
330
C
100
AcDbDictionary
281
     1
  0
ACDBDICTIONARYWDFLT
  5
E
102
{ACAD_REACTORS
330
C
102
}
330
C
100
AcDbDictionary
281
     1
  3
Normal
350
F
100
AcDbDictionaryWithDefault
340
F
  0
DICTIONARY
  5
47
102
{ACAD_REACTORS
330
C
102
}
330
C
100
AcDbDictionary
281
     1
  3
A0
350
48
  3
A1
350
49
  3
A2
350
4A
  3
A3
350
4B
  3
A4
350
4C
  3
A5
350
4D
  3
A6
350
4E
  3
A7
350
4F
  3
A8
350
50
  3
A9
350
51
  3
B0
350
52
  3
B1
350
53
  3
B2
350
54
  3
B3
350
55
  3
B4
350
56
  3
B5
350
57
  3
B6
350
58
  3
B7
350
59
  3
B8
350
5A
  3
B9
350
5B
  3
C0
350
5C
  3
C1
350
5D
  3
C2
350
5E
  3
C3
350
5F
  3
C4
350
60
  3
C5
350
61
  3
C6
350
62
  3
C7
350
63
  3
C8
350
64
  3
C9
350
65
  3
D0
350
66
  3
D1
350
67
  3
D2
350
68
  0
DICTIONARY
  5
145
102
{ACAD_REACTORS
330
C
102
}
330
C
100
AcDbDictionary
281
     1
  0
XRECORD
  5
156
102
{ACAD_REACTORS
330
C
102
}
330
C
100
AcDbXrecord
280
     1
  1
DWGPROPS COOKIE
  2

  3

  4

  6

  7

  8
12014102
  9

300
=
301
=
302
=
303
=
304
=
305
=
306
=
307
=
308
=
309
=
 40
0.0
 41
2458260.197109144
 42
2458268.122299687
  1

 90
        0
  0
LAYOUT
  5
1E
102
{ACAD_REACTORS
330
1A
102
}
330
1A
100
AcDbPlotSettings
  1

  2
none_device
  4

  6

 40
0.0
 41
0.0
 42
0.0
 43
0.0
 44
0.0
 45
0.0
 46
0.0
 47
0.0
 48
0.0
 49
0.0
140
0.0
141
0.0
142
1.0
143
1.0
 70
   688
 72
     1
 73
     0
 74
     5
  7

 75
    16
147
1.0
148
0.0
149
0.0
100
AcDbLayout
  1
Layout1
 70
     1
 71
     1
 10
0.0
 20
0.0
 11
420.0
 21
297.0
 12
0.0
 22
0.0
 32
0.0
 14
1.000000000000000E+20
 24
1.000000000000000E+20
 34
1.000000000000000E+20
 15
-1.000000000000000E+20
 25
-1.000000000000000E+20
 35
-1.000000000000000E+20
146
0.0
 13
0.0
 23
0.0
 33
0.0
 16
1.0
 26
0.0
 36
0.0
 17
0.0
 27
1.0
 37
0.0
 76
     0
330
1B
  0
LAYOUT
  5
26
102
{ACAD_REACTORS
330
1A
102
}
330
1A
100
AcDbPlotSettings
  1

  2
none_device
  4

  6

 40
0.0
 41
0.0
 42
0.0
 43
0.0
 44
0.0
 45
0.0
 46
0.0
 47
0.0
 48
0.0
 49
0.0
140
0.0
141
0.0
142
1.0
143
1.0
 70
   688
 72
     1
 73
     0
 74
     5
  7

 75
    16
147
1.0
148
0.0
149
0.0
100
AcDbLayout
  1
Layout2
 70
     1
 71
     2
 10
0.0
 20
0.0
 11
0.0
 21
0.0
 12
0.0
 22
0.0
 32
0.0
 14
0.0
 24
0.0
 34
0.0
 15
0.0
 25
0.0
 35
0.0
146
0.0
 13
0.0
 23
0.0
 33
0.0
 16
1.0
 26
0.0
 36
0.0
 17
0.0
 27
1.0
 37
0.0
 76
     0
330
23
  0
LAYOUT
  5
22
102
{ACAD_REACTORS
330
1A
102
}
330
1A
100
AcDbPlotSettings
  1

  2
none_device
  4
ANSI_A_(11.00_x_8.50_Inches)
  6

 40
6.35
 41
19.05
 42
6.35000508
 43
19.05000254
 44
279.4
 45
215.9
 46
117.8564527099092
 47
122.9471696842158
 48
0.0
 49
0.0
140
0.0
141
0.0
142
0.103850072157585
143
1.0
 70
  1696
 72
     0
 73
     0
 74
     0
  7

 75
     0
147
0.0235690232323232
148
0.0
149
0.0
100
AcDbLayout
  1
Model
 70
     1
 71
     0
 10
0.0
 20
0.0
 11
420.0
 21
297.0
 12
0.0
 22
0.0
 32
0.0
 14
-49.59614265510508
 24
-49.97180738881174
 34
0.0
 15
51.58711273041259
 25
24.76413260158165
 35
0.0
146
0.0
 13
0.0
 23
0.0
 33
0.0
 16
1.0
 26
0.0
 36
0.0
 17
0.0
 27
1.0
 37
0.0
 76
     0
330
1F
331
29
  0
MLINESTYLE
  5
18
102
{ACAD_REACTORS
330
17
102
}
330
17
100
AcDbMlineStyle
  2
Standard
 70
     0
  3

 62
   256
 51
90.0
 52
90.0
 71
     2
 49
0.5
 62
   256
  6
BYLAYER
 49
-0.5
 62
   256
  6
BYLAYER
  0
ACDBPLACEHOLDER
  5
F
102
{ACAD_REACTORS
330
E
102
}
330
E
  0
SCALE
  5
48
102
{ACAD_REACTORS
330
47
102
}
330
47
100
AcDbScale
 70
     0
300
1:1
140
1.0
141
1.0
290
     1
  0
SCALE
  5
49
102
{ACAD_REACTORS
330
47
102
}
330
47
100
AcDbScale
 70
     0
300
1:2
140
1.0
141
2.0
290
     0
  0
SCALE
  5
4A
102
{ACAD_REACTORS
330
47
102
}
330
47
100
AcDbScale
 70
     0
300
1:4
140
1.0
141
4.0
290
     0
  0
SCALE
  5
4B
102
{ACAD_REACTORS
330
47
102
}
330
47
100
AcDbScale
 70
     0
300
1:5
140
1.0
141
5.0
290
     0
  0
SCALE
  5
4C
102
{ACAD_REACTORS
330
47
102
}
330
47
100
AcDbScale
 70
     0
300
1:8
140
1.0
141
8.0
290
     0
  0
SCALE
  5
4D
102
{ACAD_REACTORS
330
47
102
}
330
47
100
AcDbScale
 70
     0
300
1:10
140
1.0
141
10.0
290
     0
  0
SCALE
  5
4E
102
{ACAD_REACTORS
330
47
102
}
330
47
100
AcDbScale
 70
     0
300
1:16
140
1.0
141
16.0
290
     0
  0
SCALE
  5
4F
102
{ACAD_REACTORS
330
47
102
}
330
47
100
AcDbScale
 70
     0
300
1:20
140
1.0
141
20.0
290
     0
  0
SCALE
  5
50
102
{ACAD_REACTORS
330
47
102
}
330
47
100
AcDbScale
 70
     0
300
1:30
140
1.0
141
30.0
290
     0
  0
SCALE
  5
51
102
{ACAD_REACTORS
330
47
102
}
330
47
100
AcDbScale
 70
     0
300
1:40
140
1.0
141
40.0
290
     0
  0
SCALE
  5
52
102
{ACAD_REACTORS
330
47
102
}
330
47
100
AcDbScale
 70
     0
300
1:50
140
1.0
141
50.0
290
     0
  0
SCALE
  5
53
102
{ACAD_REACTORS
330
47
102
}
330
47
100
AcDbScale
 70
     0
300
1:100
140
1.0
141
100.0
290
     0
  0
SCALE
  5
54
102
{ACAD_REACTORS
330
47
102
}
330
47
100
AcDbScale
 70
     0
300
2:1
140
2.0
141
1.0
290
     0
  0
SCALE
  5
55
102
{ACAD_REACTORS
330
47
102
}
330
47
100
AcDbScale
 70
     0
300
4:1
140
4.0
141
1.0
290
     0
  0
SCALE
  5
56
102
{ACAD_REACTORS
330
47
102
}
330
47
100
AcDbScale
 70
     0
300
8:1
140
8.0
141
1.0
290
     0
  0
SCALE
  5
57
102
{ACAD_REACTORS
330
47
102
}
330
47
100
AcDbScale
 70
     0
300
10:1
140
10.0
141
1.0
290
     0
  0
SCALE
  5
58
102
{ACAD_REACTORS
330
47
102
}
330
47
100
AcDbScale
 70
     0
300
100:1
140
100.0
141
1.0
290
     0
  0
SCALE
  5
59
102
{ACAD_REACTORS
330
47
102
}
330
47
100
AcDbScale
 70
     0
300
1/128" = 1'-0"
140
0.0078125
141
12.0
290
     0
  0
SCALE
  5
5A
102
{ACAD_REACTORS
330
47
102
}
330
47
100
AcDbScale
 70
     0
300
1/64" = 1'-0"
140
0.015625
141
12.0
290
     0
  0
SCALE
  5
5B
102
{ACAD_REACTORS
330
47
102
}
330
47
100
AcDbScale
 70
     0
300
1/32" = 1'-0"
140
0.03125
141
12.0
290
     0
  0
SCALE
  5
5C
102
{ACAD_REACTORS
330
47
102
}
330
47
100
AcDbScale
 70
     0
300
1/16" = 1'-0"
140
0.0625
141
12.0
290
     0
  0
SCALE
  5
5D
102
{ACAD_REACTORS
330
47
102
}
330
47
100
AcDbScale
 70
     0
300
3/32" = 1'-0"
140
0.09375
141
12.0
290
     0
  0
SCALE
  5
5E
102
{ACAD_REACTORS
330
47
102
}
330
47
100
AcDbScale
 70
     0
300
1/8" = 1'-0"
140
0.125
141
12.0
290
     0
  0
SCALE
  5
5F
102
{ACAD_REACTORS
330
47
102
}
330
47
100
AcDbScale
 70
     0
300
3/16" = 1'-0"
140
0.1875
141
12.0
290
     0
  0
SCALE
  5
60
102
{ACAD_REACTORS
330
47
102
}
330
47
100
AcDbScale
 70
     0
300
1/4" = 1'-0"
140
0.25
141
12.0
290
     0
  0
SCALE
  5
61
102
{ACAD_REACTORS
330
47
102
}
330
47
100
AcDbScale
 70
     0
300
3/8" = 1'-0"
140
0.375
141
12.0
290
     0
  0
SCALE
  5
62
102
{ACAD_REACTORS
330
47
102
}
330
47
100
AcDbScale
 70
     0
300
1/2" = 1'-0"
140
0.5
141
12.0
290
     0
  0
SCALE
  5
63
102
{ACAD_REACTORS
330
47
102
}
330
47
100
AcDbScale
 70
     0
300
3/4" = 1'-0"
140
0.75
141
12.0
290
     0
  0
SCALE
  5
64
102
{ACAD_REACTORS
330
47
102
}
330
47
100
AcDbScale
 70
     0
300
1" = 1'-0"
140
1.0
141
12.0
290
     0
  0
SCALE
  5
65
102
{ACAD_REACTORS
330
47
102
}
330
47
100
AcDbScale
 70
     0
300
1-1/2" = 1'-0"
140
1.5
141
12.0
290
     0
  0
SCALE
  5
66
102
{ACAD_REACTORS
330
47
102
}
330
47
100
AcDbScale
 70
     0
300
3" = 1'-0"
140
3.0
141
12.0
290
     0
  0
SCALE
  5
67
102
{ACAD_REACTORS
330
47
102
}
330
47
100
AcDbScale
 70
     0
300
6" = 1'-0"
140
6.0
141
12.0
290
     0
  0
SCALE
  5
68
102
{ACAD_REACTORS
330
47
102
}
330
47
100
AcDbScale
 70
     0
300
1'-0" = 1'-0"
140
12.0
141
12.0
290
     0
  0
ENDSEC
  0
EOF
