  0
SECTION
  2
HEADER
  9
$ACADVER
  1
AC1015
  9
$ACADMAINTVER
 70
     6
  9
$DWGCODEPAGE
  3
ANSI_949
  9
$INSBASE
 10
0.0
 20
0.0
 30
0.0
  9
$EXTMIN
 10
-64.07256166469648
 20
-49.97180738881174
 30
0.0
  9
$EXTMAX
 10
51.44158330171288
 20
24.76413260158164
 30
0.0
  9
$LIMMIN
 10
0.0
 20
0.0
  9
$LIMMAX
 10
420.0
 20
297.0
  9
$ORTHOMODE
 70
     0
  9
$REGENMODE
 70
     1
  9
$FILLMODE
 70
     1
  9
$QTEXTMODE
 70
     0
  9
$MIRRTEXT
 70
     1
  9
$LTSCALE
 40
1.0
  9
$ATTMODE
 70
     1
  9
$TEXTSIZE
 40
3.5
  9
$TRACEWID
 40
1.0
  9
$TEXTSTYLE
  7
Standard
  9
$CLAYER
  8
0
  9
$CELTYPE
  6
ByLayer
  9
$CECOLOR
 62
   256
  9
$CELTSCALE
 40
1.0
  9
$DISPSILH
 70
     0
  9
$DIMSCALE
 40
1.0
  9
$DIMASZ
 40
3.302
  9
$DIMEXO
 40
1.0
  9
$DIMDLI
 40
3.75
  9
$DIMRND
 40
0.0
  9
$DIMDLE
 40
0.0
  9
$DIMEXE
 40
1.0
  9
$DIMTP
 40
0.0
  9
$DIMTM
 40
0.0
  9
$DIMTXT
 40
3.5
  9
$DIMCEN
 40
2.5
  9
$DIMTSZ
 40
0.0
  9
$DIMTOL
 70
     0
  9
$DIMLIM
 70
     0
  9
$DIMTIH
 70
     1
  9
$DIMTOH
 70
     1
  9
$DIMSE1
 70
     0
  9
$DIMSE2
 70
     0
  9
$DIMTAD
 70
     1
  9
$DIMZIN
 70
     0
  9
$DIMBLK
  1

  9
$DIMASO
 70
     1
  9
$DIMSHO
 70
     1
  9
$DIMPOST
  1

  9
$DIMAPOST
  1

  9
$DIMALT
 70
     0
  9
$DIMALTD
 70
     3
  9
$DIMALTF
 40
0.0393700787401575
  9
$DIMLFAC
 40
1.0
  9
$DIMTOFL
 70
     1
  9
$DIMTVP
 40
0.0
  9
$DIMTIX
 70
     0
  9
$DIMSOXD
 70
     0
  9
$DIMSAH
 70
     0
  9
$DIMBLK1
  1

  9
$DIMBLK2
  1

  9
$DIMSTYLE
  2
ISO-25
  9
$DIMCLRD
 70
     0
  9
$DIMCLRE
 70
     0
  9
$DIMCLRT
 70
     0
  9
$DIMTFAC
 40
1.0
  9
$DIMGAP
 40
1.524
  9
$DIMJUST
 70
     0
  9
$DIMSD1
 70
     0
  9
$DIMSD2
 70
     0
  9
$DIMTOLJ
 70
     0
  9
$DIMTZIN
 70
     0
  9
$DIMALTZ
 70
     0
  9
$DIMALTTZ
 70
     0
  9
$DIMUPT
 70
     0
  9
$DIMDEC
 70
     2
  9
$DIMTDEC
 70
     2
  9
$DIMALTU
 70
     2
  9
$DIMALTTD
 70
     3
  9
$DIMTXSTY
  7
Standard
  9
$DIMAUNIT
 70
     0
  9
$DIMADEC
 70
     2
  9
$DIMALTRND
 40
0.0
  9
$DIMAZIN
 70
     0
  9
$DIMDSEP
 70
    44
  9
$DIMATFIT
 70
     3
  9
$DIMFRAC
 70
     0
  9
$DIMLDRBLK
  1

  9
$DIMLUNIT
 70
     2
  9
$DIMLWD
 70
    -2
  9
$DIMLWE
 70
    -2
  9
$DIMTMOVE
 70
     0
  9
$LUNITS
 70
     2
  9
$LUPREC
 70
     2
  9
$SKETCHINC
 40
1.0
  9
$FILLETRAD
 40
10.0
  9
$AUNITS
 70
     0
  9
$AUPREC
 70
     2
  9
$MENU
  1
.
  9
$ELEVATION
 40
0.0
  9
$PELEVATION
 40
0.0
  9
$THICKNESS
 40
0.0
  9
$LIMCHECK
 70
     0
  9
$CHAMFERA
 40
0.0
  9
$CHAMFERB
 40
0.0
  9
$CHAMFERC
 40
0.0
  9
$CHAMFERD
 40
0.0
  9
$SKPOLY
 70
     0
  9
$TDCREATE
 40
2458260.573054526
  9
$TDUCREATE
 40
2458260.198054526
  9
$TDUPDATE
 40
2458268.499610509
  9
$TDUUPDATE
 40
2458268.124610509
  9
$TDINDWG
 40
0.0004600116
  9
$TDUSRTIMER
 40
2458268.124150544
  9
$USRTIMER
 70
     1
  9
$ANGBASE
 50
0.0
  9
$ANGDIR
 70
     0
  9
$PDMODE
 70
     0
  9
$PDSIZE
 40
-1.0
  9
$PLINEWID
 40
0.0
  9
$SPLFRAME
 70
     0
  9
$SPLINETYPE
 70
     6
  9
$SPLINESEGS
 70
     8
  9
$HANDSEED
  5
160
  9
$SURFTAB1
 70
     6
  9
$SURFTAB2
 70
     6
  9
$SURFTYPE
 70
     6
  9
$SURFU
 70
     6
  9
$SURFV
 70
     6
  9
$UCSBASE
  2

  9
$UCSNAME
  2

  9
$UCSORG
 10
0.0
 20
0.0
 30
0.0
  9
$UCSXDIR
 10
1.0
 20
0.0
 30
0.0
  9
$UCSYDIR
 10
0.0
 20
1.0
 30
0.0
  9
$UCSORTHOREF
  2

  9
$UCSORTHOVIEW
 70
     0
  9
$UCSORGTOP
 10
0.0
 20
0.0
 30
0.0
  9
$UCSORGBOTTOM
 10
0.0
 20
0.0
 30
0.0
  9
$UCSORGLEFT
 10
0.0
 20
0.0
 30
0.0
  9
$UCSORGRIGHT
 10
0.0
 20
0.0
 30
0.0
  9
$UCSORGFRONT
 10
0.0
 20
0.0
 30
0.0
  9
$UCSORGBACK
 10
0.0
 20
0.0
 30
0.0
  9
$PUCSBASE
  2

  9
$PUCSNAME
  2

  9
$PUCSORG
 10
0.0
 20
0.0
 30
0.0
  9
$PUCSXDIR
 10
1.0
 20
0.0
 30
0.0
  9
$PUCSYDIR
 10
0.0
 20
1.0
 30
0.0
  9
$PUCSORTHOREF
  2

  9
$PUCSORTHOVIEW
 70
     0
  9
$PUCSORGTOP
 10
0.0
 20
0.0
 30
0.0
  9
$PUCSORGBOTTOM
 10
0.0
 20
0.0
 30
0.0
  9
$PUCSORGLEFT
 10
0.0
 20
0.0
 30
0.0
  9
$PUCSORGRIGHT
 10
0.0
 20
0.0
 30
0.0
  9
$PUCSORGFRONT
 10
0.0
 20
0.0
 30
0.0
  9
$PUCSORGBACK
 10
0.0
 20
0.0
 30
0.0
  9
$USERI1
 70
     0
  9
$USERI2
 70
     0
  9
$USERI3
 70
     0
  9
$USERI4
 70
     0
  9
$USERI5
 70
     0
  9
$USERR1
 40
0.0
  9
$USERR2
 40
0.0
  9
$USERR3
 40
0.0
  9
$USERR4
 40
0.0
  9
$USERR5
 40
0.0
  9
$WORLDVIEW
 70
     1
  9
$SHADEDGE
 70
     3
  9
$SHADEDIF
 70
    70
  9
$TILEMODE
 70
     1
  9
$MAXACTVP
 70
    64
  9
$PINSBASE
 10
0.0
 20
0.0
 30
0.0
  9
$PLIMCHECK
 70
     0
  9
$PEXTMIN
 10
1.000000000000000E+20
 20
1.000000000000000E+20
 30
1.000000000000000E+20
  9
$PEXTMAX
 10
-1.000000000000000E+20
 20
-1.000000000000000E+20
 30
-1.000000000000000E+20
  9
$PLIMMIN
 10
0.0
 20
0.0
  9
$PLIMMAX
 10
0.0
 20
0.0
  9
$UNITMODE
 70
     0
  9
$VISRETAIN
 70
     1
  9
$PLINEGEN
 70
     0
  9
$PSLTSCALE
 70
     1
  9
$TREEDEPTH
 70
  3020
  9
$CMLSTYLE
  2
Standard
  9
$CMLJUST
 70
     0
  9
$CMLSCALE
 40
20.0
  9
$PROXYGRAPHICS
 70
     1
  9
$MEASUREMENT
 70
     1
  9
$CELWEIGHT
370
    -1
  9
$ENDCAPS
280
     0
  9
$JOINSTYLE
280
     0
  9
$LWDISPLAY
290
     1
  9
$INSUNITS
 70
     4
  9
$HYPERLINKBASE
  1

  9
$STYLESHEET
  1

  9
$XEDIT
290
     1
  9
$CEPSNTYPE
380
     0
  9
$PSTYLEMODE
290
     1
  9
$FINGERPRINTGUID
  2
{451ACE77-37A0-4800-915F-95CFBB6F1334}
  9
$VERSIONGUID
  2
{FAEB1C32-E019-11D5-929B-00C0DF256EC4}
  9
$EXTNAMES
290
     1
  9
$PSVPSCALE
 40
0.0
  9
$OLESTARTUP
290
     0
  0
ENDSEC
  0
SECTION
  2
CLASSES
  0
CLASS
  1
ACDBDICTIONARYWDFLT
  2
AcDbDictionaryWithDefault
  3
ObjectDBX Classes
 90
        0
280
     0
281
     0
  0
CLASS
  1
VISUALSTYLE
  2
AcDbVisualStyle
  3
ObjectDBX Classes
 90
     4095
280
     0
281
     0
  0
CLASS
  1
MATERIAL
  2
AcDbMaterial
  3
ObjectDBX Classes
 90
     1153
280
     0
281
     0
  0
CLASS
  1
SCALE
  2
AcDbScale
  3
ObjectDBX Classes
 90
     1153
280
     0
281
     0
  0
CLASS
  1
TABLESTYLE
  2
AcDbTableStyle
  3
ObjectDBX Classes
 90
     4095
280
     0
281
     0
  0
CLASS
  1
MLEADERSTYLE
  2
AcDbMLeaderStyle
  3
ACDB_MLEADERSTYLE_CLASS
 90
     4095
280
     0
281
     0
  0
CLASS
  1
SUN
  2
AcDbSun
  3
SCENEOE
 90
     1153
280
     0
281
     0
  0
CLASS
  1
ACDBPLACEHOLDER
  2
AcDbPlaceHolder
  3
ObjectDBX Classes
 90
        0
280
     0
281
     0
  0
CLASS
  1
LAYOUT
  2
AcDbLayout
  3
ObjectDBX Classes
 90
        0
280
     0
281
     0
  0
CLASS
  1
RASTERVARIABLES
  2
AcDbRasterVariables
  3
ISM
 90
        0
280
     0
281
     0
  0
ENDSEC
  0
SECTION
  2
TABLES
  0
TABLE
  2
VPORT
  5
8
330
0
100
AcDbSymbolTable
 70
     1
  0
VPORT
  5
29
330
8
100
AcDbSymbolTableRecord
100
AcDbViewportTableRecord
  2
*Active
 70
     0
 10
0.0
 20
0.0
 11
1.0
 21
1.0
 12
-6.315489181491799
 22
-12.60383739361505
 13
0.0
 23
0.0
 14
10.0
 24
10.0
 15
10.0
 25
10.0
 16
0.0
 26
0.0
 36
1.0
 17
0.0
 27
0.0
 37
0.0
 40
76.23065879020125
 41
1.737726098191214
 42
50.0
 43
0.0
 44
0.0
 50
0.0
 51
0.0
 71
    16
 72
  2000
 73
     1
 74
     3
 75
     0
 76
     0
 77
     0
 78
     0
281
     0
 65
     1
110
0.0
120
0.0
130
0.0
111
1.0
121
0.0
131
0.0
112
0.0
122
1.0
132
0.0
 79
     0
146
0.0
  0
ENDTAB
  0
TABLE
  2
LTYPE
  5
5
330
0
100
AcDbSymbolTable
 70
     6
  0
LTYPE
  5
14
330
5
100
AcDbSymbolTableRecord
100
AcDbLinetypeTableRecord
  2
ByBlock
 70
     0
  3

 72
    65
 73
     0
 40
0.0
  0
LTYPE
  5
15
330
5
100
AcDbSymbolTableRecord
100
AcDbLinetypeTableRecord
  2
ByLayer
 70
     0
  3

 72
    65
 73
     0
 40
0.0
  0
LTYPE
  5
16
330
5
100
AcDbSymbolTableRecord
100
AcDbLinetypeTableRecord
  2
Continuous
 70
     0
  3
Solid line
 72
    65
 73
     0
 40
0.0
  0
LTYPE
  5
6E
330
5
100
AcDbSymbolTableRecord
100
AcDbLinetypeTableRecord
  2
HIDDEN
 70
     0
  3
Hidden __ __ __ __ __ __ __ __ __ __ __ __ __ __
 72
    65
 73
     2
 40
1.905
 49
1.27
 74
     0
 49
-0.635
 74
     0
  0
LTYPE
  5
6F
330
5
100
AcDbSymbolTableRecord
100
AcDbLinetypeTableRecord
  2
PHANTOM
 70
     0
  3
Phantom ______  __  __  ______  __  __  ______
 72
    65
 73
     6
 40
12.7
 49
6.35
 74
     0
 49
-1.27
 74
     0
 49
1.27
 74
     0
 49
-1.27
 74
     0
 49
1.27
 74
     0
 49
-1.27
 74
     0
  0
LTYPE
  5
70
330
5
100
AcDbSymbolTableRecord
100
AcDbLinetypeTableRecord
  2
CENTER
 70
     0
  3
Center ____ _ ____ _ ____ _ ____ _ ____ _ ____
 72
    65
 73
     4
 40
10.16
 49
6.35
 74
     0
 49
-1.27
 74
     0
 49
1.27
 74
     0
 49
-1.27
 74
     0
  0
LTYPE
  5
71
330
5
100
AcDbSymbolTableRecord
100
AcDbLinetypeTableRecord
  2
CENTERX2
 70
     0
  3
Center (2x) ________  __  ________  __  _____
 72
    65
 73
     4
 40
20.32
 49
12.7
 74
     0
 49
-2.54
 74
     0
 49
2.54
 74
     0
 49
-2.54
 74
     0
  0
LTYPE
  5
72
330
5
100
AcDbSymbolTableRecord
100
AcDbLinetypeTableRecord
  2
DOT2
 70
     0
  3
Dot (.5x) ........................................
 72
    65
 73
     2
 40
0.635
 49
0.0
 74
     0
 49
-0.635
 74
     0
  0
ENDTAB
  0
TABLE
  2
LAYER
  5
2
330
0
100
AcDbSymbolTable
 70
    17
  0
LAYER
  5
10
330
2
100
AcDbSymbolTableRecord
100
AcDbLayerTableRecord
  2
0
 70
     0
 62
     7
  6
Continuous
370
    -3
390
F
  0
LAYER
  5
73
330
2
100
AcDbSymbolTableRecord
100
AcDbLayerTableRecord
  2
FORMAT
 70
     0
 62
     2
  6
Continuous
370
    -3
390
F
  0
LAYER
  5
74
330
2
100
AcDbSymbolTableRecord
100
AcDbLayerTableRecord
  2
외형선
 70
     0
 62
   100
  6
Continuous
370
    35
390
F
  0
LAYER
  5
75
330
2
100
AcDbSymbolTableRecord
100
AcDbLayerTableRecord
  2
숨은선
 70
     0
 62
     2
  6
HIDDEN
370
    25
390
F
  0
LAYER
  5
76
330
2
100
AcDbSymbolTableRecord
100
AcDbLayerTableRecord
  2
중심선
 70
     0
 62
     1
  6
CENTERX2
370
    -3
390
F
  0
LAYER
  5
77
330
2
100
AcDbSymbolTableRecord
100
AcDbLayerTableRecord
  2
파단선
 70
     0
 62
     4
  6
Continuous
370
    -3
390
F
  0
LAYER
  5
78
330
2
100
AcDbSymbolTableRecord
100
AcDbLayerTableRecord
  2
해칭선
 70
     0
 62
   100
  6
Continuous
370
    -3
390
F
  0
LAYER
  5
79
330
2
100
AcDbSymbolTableRecord
100
AcDbLayerTableRecord
  2
가는실선
 70
     0
 62
     4
  6
Continuous
370
    -3
390
F
  0
LAYER
  5
7A
330
2
100
AcDbSymbolTableRecord
100
AcDbLayerTableRecord
  2
치수_보조선
 70
     0
 62
     4
  6
Continuous
370
    -3
390
F
  0
LAYER
  5
7B
330
2
100
AcDbSymbolTableRecord
100
AcDbLayerTableRecord
  2
치수문자_일반주서
 70
     0
 62
     7
  6
Continuous
370
    25
390
F
  0
LAYER
  5
7C
330
2
100
AcDbSymbolTableRecord
100
AcDbLayerTableRecord
  2
개별주서
 70
     0
 62
   100
  6
Continuous
370
    35
390
F
  0
LAYER
  5
7D
330
2
100
AcDbSymbolTableRecord
100
AcDbLayerTableRecord
  2
중간선
 70
     0
 62
     2
  6
Continuous
370
    25
390
F
  0
LAYER
  5
7E
330
2
100
AcDbSymbolTableRecord
100
AcDbLayerTableRecord
  2
윤곽선
 70
     0
 62
     3
  6
Continuous
370
    50
390
F
  0
LAYER
  5
7F
330
2
100
AcDbSymbolTableRecord
100
AcDbLayerTableRecord
  2
중심마크
 70
     0
 62
   100
  6
Continuous
370
    35
390
F
  0
LAYER
  5
80
330
2
100
AcDbSymbolTableRecord
100
AcDbLayerTableRecord
  2
가상선
 70
     0
 62
     4
  6
PHANTOM
370
    -3
390
F
  0
LAYER
  5
81
330
2
100
AcDbSymbolTableRecord
100
AcDbLayerTableRecord
  2
특수지정선
 70
     0
 62
     5
  6
CENTERX2
370
    70
390
F
  0
LAYER
  5
150
330
2
100
AcDbSymbolTableRecord
100
AcDbLayerTableRecord
  2
Defpoints
 70
     0
 62
     7
  6
Continuous
290
     0
370
    -3
390
F
  0
ENDTAB
  0
TABLE
  2
STYLE
  5
3
330
0
100
AcDbSymbolTable
 70
     2
  0
STYLE
  5
11
330
3
100
AcDbSymbolTableRecord
100
AcDbTextStyleTableRecord
  2
Standard
 70
     0
 40
0.0
 41
1.0
 50
0.0
 71
     0
 42
3.5
  3
txt
  4

  0
STYLE
  5
97
330
3
100
AcDbSymbolTableRecord
100
AcDbTextStyleTableRecord
  2
SLDTEXTSTYLE0
 70
     0
 40
0.0
 41
0.75
 50
0.0
 71
     0
 42
3.5
  3
TXT
  4

  0
ENDTAB
  0
TABLE
  2
VIEW
  5
6
330
0
100
AcDbSymbolTable
 70
     0
  0
ENDTAB
  0
TABLE
  2
UCS
  5
7
330
0
100
AcDbSymbolTable
 70
     0
  0
ENDTAB
  0
TABLE
  2
APPID
  5
9
330
0
100
AcDbSymbolTable
 70
     1
  0
APPID
  5
12
330
9
100
AcDbSymbolTableRecord
100
AcDbRegAppTableRecord
  2
ACAD
 70
     0
  0
ENDTAB
  0
TABLE
  2
DIMSTYLE
  5
A
330
0
100
AcDbSymbolTable
 70
     4
100
AcDbDimStyleTable
  0
DIMSTYLE
105
27
330
A
100
AcDbSymbolTableRecord
100
AcDbDimStyleTableRecord
  2
ISO-25
 70
     0
 41
2.5
 42
0.625
 43
3.75
 44
1.25
 73
     0
 74
     0
 77
     1
 78
     8
140
2.5
141
2.5
143
0.03937007874016
147
0.625
171
     3
172
     1
178
     0
271
     2
272
     2
274
     3
278
    44
283
     0
284
     8
340
11
  0
DIMSTYLE
105
F5
102
{ACAD_REACTORS
330
F4
102
}
330
A
100
AcDbSymbolTableRecord
100
AcDbDimStyleTableRecord
  2
SLDDIMSTYLE0
 70
     0
 41
3.302
 44
0.0
 45
0.000000001
 73
     0
 74
     0
 77
     1
 78
    12
 79
     3
140
3.5
147
0.875
172
     1
173
     1
178
     0
271
     1
272
     1
276
     2
284
    12
289
     0
340
97
  0
DIMSTYLE
105
103
102
{ACAD_REACTORS
330
102
330
11B
102
}
330
A
100
AcDbSymbolTableRecord
100
AcDbDimStyleTableRecord
  2
SLDDIMSTYLE1
 70
     0
 41
3.302
 44
0.0
 45
0.000000001
 73
     0
 74
     0
 77
     1
 78
    12
 79
     3
140
3.5
147
0.875
173
     1
178
     0
271
     2
272
     2
276
     2
284
    12
340
97
  0
DIMSTYLE
105
10E
102
{ACAD_REACTORS
330
10D
102
}
330
A
100
AcDbSymbolTableRecord
100
AcDbDimStyleTableRecord
  2
SLDDIMSTYLE2
 70
     0
 41
3.302
 44
0.0
 45
0.000000001
 73
     0
 74
     0
 77
     1
 78
    12
 79
     3
140
3.5
147
0.875
172
     1
173
     1
178
     0
271
     2
272
     2
276
     2
284
    12
289
     0
340
97
  0
ENDTAB
  0
TABLE
  2
BLOCK_RECORD
  5
1
330
0
100
AcDbSymbolTable
 70
     7
  0
BLOCK_RECORD
  5
1F
330
1
100
AcDbSymbolTableRecord
100
AcDbBlockTableRecord
  2
*Model_Space
340
22
  0
BLOCK_RECORD
  5
1B
330
1
100
AcDbSymbolTableRecord
100
AcDbBlockTableRecord
  2
*Paper_Space
340
1E
  0
BLOCK_RECORD
  5
23
330
1
100
AcDbSymbolTableRecord
100
AcDbBlockTableRecord
  2
*Paper_Space0
340
26
  0
BLOCK_RECORD
  5
82
330
1
100
AcDbSymbolTableRecord
100
AcDbBlockTableRecord
  2
블럭10
340
0
102
{BLKREFS
331
ED
102
}
  0
BLOCK_RECORD
  5
F6
330
1
100
AcDbSymbolTableRecord
100
AcDbBlockTableRecord
  2
_D
340
0
  0
BLOCK_RECORD
  5
104
330
1
100
AcDbSymbolTableRecord
100
AcDbBlockTableRecord
  2
_D_1
340
0
  0
BLOCK_RECORD
  5
10F
330
1
100
AcDbSymbolTableRecord
100
AcDbBlockTableRecord
  2
_D_2
340
0
  0
BLOCK_RECORD
  5
11C
330
1
100
AcDbSymbolTableRecord
100
AcDbBlockTableRecord
  2
_D_3
340
0
  0
BLOCK_RECORD
  5
125
330
1
100
AcDbSymbolTableRecord
100
AcDbBlockTableRecord
  2
SW_DOWELSYMBOL_0
340
0
102
{BLKREFS
331
12B
102
}
  0
ENDTAB
  0
ENDSEC
  0
SECTION
  2
BLOCKS
  0
BLOCK
  5
20
330
1F
100
AcDbEntity
  8
0
100
AcDbBlockBegin
  2
*Model_Space
 70
     0
 10
0.0
 20
0.0
 30
0.0
  3
*Model_Space
  1

  0
ENDBLK
  5
21
330
1F
100
AcDbEntity
  8
0
100
AcDbBlockEnd
  0
BLOCK
  5
1C
330
1B
100
AcDbEntity
 67
     1
  8
0
100
AcDbBlockBegin
  2
*Paper_Space
 70
     0
 10
0.0
 20
0.0
 30
0.0
  3
*Paper_Space
  1

  0
ENDBLK
  5
1D
330
1B
100
AcDbEntity
 67
     1
  8
0
100
AcDbBlockEnd
  0
BLOCK
  5
24
330
23
100
AcDbEntity
  8
0
100
AcDbBlockBegin
  2
*Paper_Space0
 70
     0
 10
0.0
 20
0.0
 30
0.0
  3
*Paper_Space0
  1

  0
ENDBLK
  5
25
330
23
100
AcDbEntity
  8
0
100
AcDbBlockEnd
  0
BLOCK
  5
83
330
82
100
AcDbEntity
  8
0
100
AcDbBlockBegin
  2
블럭10
 70
     2
 10
0.0
 20
0.0
 30
0.0
  3
블럭10
  1

  0
ELLIPSE
  5
85
330
82
100
AcDbEntity
  8
중심선
100
AcDbEllipse
 10
20.54032771741204
 20
12.0471743016438
 30
0.0
 11
6.600054785286829
 21
-1.261213355974178E-13
 31
0.0
210
0.0
220
0.0
230
1.0
 40
0.636358354079598
 41
0.9219305317359503
 42
6.513795318482858
  0
ELLIPSE
  5
86
330
82
100
AcDbEntity
  8
중심선
100
AcDbEllipse
 10
20.54032771746488
 20
12.04717430159265
 30
0.0
 11
3.960054785062283
 21
1.540847449632565E-10
 31
0.0
210
0.0
220
0.0
230
1.0
 40
0.3939339440162632
 41
1.131841032648279
 42
5.62031148352944
  0
LINE
  5
87
330
82
100
AcDbEntity
  8
중심선
100
AcDbLine
 10
2.268634060543552
 20
16.24717430164393
 30
0.0
 11
5.714909304380834
 21
16.24717430164393
 31
0.0
  0
LINE
  5
88
330
82
100
AcDbEntity
  8
중심선
100
AcDbLine
 10
5.245725140726316
 20
7.84717430164391
 30
0.0
 11
8.692000384563599
 21
7.84717430164391
 31
0.0
  0
LINE
  5
89
330
82
100
AcDbEntity
  8
중심선
100
AcDbLine
 10
15.74043728645272
 20
16.24717430164393
 30
0.0
 11
8.692000384563599
 21
7.84717430164391
 31
0.0
  0
LINE
  5
8A
330
82
100
AcDbEntity
  8
중심선
100
AcDbLine
 10
0.1404042013395286
 20
13.71084872107135
 30
0.0
 11
3.58671253028996
 21
13.71088815037384
 31
0.0
  0
LINE
  5
8B
330
82
100
AcDbEntity
  8
중심선
100
AcDbLine
 10
2.750260043222114
 20
10.84717430164391
 30
0.0
 11
6.196535287059397
 21
10.84717430164391
 31
0.0
  0
LINE
  5
8C
330
82
100
AcDbEntity
  8
중심선
100
AcDbLine
 10
12.29416204261559
 20
16.24717430164393
 30
0.0
 11
5.245725140726316
 21
7.84717430164391
 31
0.0
  0
LINE
  5
8D
330
82
100
AcDbEntity
  8
중심선
100
AcDbLine
 10
10.72767329541681
 20
16.24717430164393
 30
0.0
 11
6.196535287059397
 21
10.84717430164391
 31
0.0
  0
LINE
  5
8E
330
82
100
AcDbEntity
  8
중심선
100
AcDbLine
 10
7.28139805157953
 20
16.24717430164393
 30
0.0
 11
2.750260043222114
 21
10.84717430164391
 31
0.0
  0
LINE
  5
8F
330
82
100
AcDbEntity
  8
중심선
100
AcDbLine
 10
5.714909304380834
 20
16.24717430164393
 30
0.0
 11
3.58671253028996
 21
13.71088815037384
 31
0.0
  0
LINE
  5
90
330
82
100
AcDbEntity
  8
중심선
100
AcDbLine
 10
2.268634060543552
 20
16.24717430164393
 30
0.0
 11
0.1404042013395286
 21
13.71084872107135
 31
0.0
  0
LINE
  5
91
330
82
100
AcDbEntity
  8
중심선
100
AcDbLine
 10
7.28139805157953
 20
16.24717430164393
 30
0.0
 11
10.72767329541681
 21
16.24717430164393
 31
0.0
  0
LINE
  5
92
330
82
100
AcDbEntity
  8
중심선
100
AcDbLine
 10
12.29416204261559
 20
16.24717430164393
 30
0.0
 11
15.74043728645272
 21
16.24717430164393
 31
0.0
  0
LINE
  5
93
330
82
100
AcDbEntity
  8
중심선
100
AcDbLine
 10
19.22036997980202
 20
11.08717430171403
 30
0.0
 11
23.66174974927406
 21
11.08717430171406
 31
0.0
  0
LINE
  5
94
330
82
100
AcDbEntity
  8
중심선
100
AcDbLine
 10
19.22039502424796
 20
13.00717430171391
 30
0.0
 11
19.22036997980202
 21
11.08717430171403
 31
0.0
  0
LINE
  5
95
330
82
100
AcDbEntity
  8
중심선
100
AcDbLine
 10
19.22039502424796
 20
13.00717430171391
 30
0.0
 11
26.96566020931264
 21
13.00717430171391
 31
0.0
  0
LINE
  5
96
330
82
100
AcDbEntity
  8
중심선
100
AcDbLine
 10
22.22332737316547
 20
13.45928029700563
 30
0.0
 11
24.52862924686651
 21
15.39360700705356
 31
0.0
  0
ATTDEF
  5
98
330
82
100
AcDbEntity
  8
FORMAT
 62
     2
100
AcDbText
 10
-16.11926103943555
 20
2.075366912832191
 30
0.0
 40
4.233333333333333
  1
SEME7205035E [ 4 FLUTE ]
 41
0.75
  7
SLDTEXTSTYLE0
 11
-16.11926103943555
 21
-0.0412997538344756
 31
0.0
100
AcDbAttributeDefinition
  3

  2
AUTOATTR0
 70
     0
 74
     1
  0
ENDBLK
  5
84
330
82
100
AcDbEntity
  8
0
100
AcDbBlockEnd
  0
BLOCK
  5
F7
330
F6
100
AcDbEntity
  8
0
100
AcDbBlockBegin
  2
_D
 70
     0
 10
0.0
 20
0.0
 30
0.0
  3
_D
  1

  0
LINE
  5
F9
330
F6
100
AcDbEntity
  8
치수문자_일반주서
 62
     0
370
    -2
100
AcDbLine
 10
39.92852540378448
 20
-2.50000000000001
 30
0.0
 11
50.89124996837954
 21
-2.49999999999997
 31
0.0
  0
LINE
  5
FA
330
F6
100
AcDbEntity
  8
치수문자_일반주서
 62
     0
370
    -2
100
AcDbLine
 10
39.92852540378448
 20
2.500000000000009
 30
0.0
 11
50.89124996837953
 21
2.50000000000005
 31
0.0
  0
LINE
  5
FB
330
F6
100
AcDbEntity
  8
치수문자_일반주서
 62
     0
370
    -2
100
AcDbLine
 10
50.89124996837954
 20
-2.49999999999997
 30
0.0
 11
50.89124996837949
 21
15.22900000000005
 31
0.0
  0
LINE
  5
FC
330
F6
100
AcDbEntity
  8
치수문자_일반주서
 62
     0
370
    -2
100
AcDbLine
 10
50.89124996837954
 20
-2.49999999999997
 30
0.0
 11
50.89124996837953
 21
2.50000000000005
 31
0.0
  0
LINE
  5
FD
330
F6
100
AcDbEntity
  8
치수문자_일반주서
 62
     0
370
    -2
100
AcDbLine
 10
50.89124996837955
 20
-5.801999999999969
 30
0.0
 11
50.89124996837955
 21
-9.103999999999969
 31
0.0
  0
LINE
  5
FE
330
F6
100
AcDbEntity
  8
치수문자_일반주서
 62
     0
370
    -2
100
AcDbLine
 10
50.89124996837952
 20
5.802000000000049
 30
0.0
 11
50.89124996837951
 21
9.104000000000049
 31
0.0
  0
SOLID
  5
FF
330
F6
100
AcDbEntity
  8
치수문자_일반주서
 62
     0
100
AcDbTrace
 10
51.44158330171288
 20
-5.801999999999968
 30
0.0
 11
50.34091663504621
 21
-5.801999999999971
 31
0.0
 12
50.89124996837954
 22
-2.49999999999997
 32
0.0
 13
50.89124996837954
 23
-2.49999999999997
 33
0.0
  0
SOLID
  5
100
330
F6
100
AcDbEntity
  8
치수문자_일반주서
 62
     0
100
AcDbTrace
 10
50.34091663504618
 20
5.802000000000048
 30
0.0
 11
51.44158330171285
 21
5.802000000000051
 31
0.0
 12
50.89124996837953
 22
2.50000000000005
 32
0.0
 13
50.89124996837953
 23
2.50000000000005
 33
0.0
  0
MTEXT
  5
101
330
F6
100
AcDbEntity
  8
치수문자_일반주서
 62
     0
100
AcDbMText
 10
46.5162499683795
 20
12.16650000000004
 30
0.0
 40
3.5
 41
0.0
 71
     2
 72
     1
  1
\A1;%%c5
  7
SLDTEXTSTYLE0
 11
-2.842170943040389E-15
 21
1.0
 31
0.0
 73
     1
 44
1.0
  0
POINT
  5
15A
330
F6
100
AcDbEntity
  8
Defpoints
 62
     0
100
AcDbPoint
 10
39.86602540378448
 20
-2.500000000000011
 30
0.0
  0
POINT
  5
15B
330
F6
100
AcDbEntity
  8
Defpoints
 62
     0
100
AcDbPoint
 10
39.86602540378448
 20
2.500000000000009
 30
0.0
  0
POINT
  5
15C
330
F6
100
AcDbEntity
  8
Defpoints
 62
     0
100
AcDbPoint
 10
50.89124996837953
 20
2.50000000000005
 30
0.0
  0
ENDBLK
  5
F8
330
F6
100
AcDbEntity
  8
0
100
AcDbBlockEnd
  0
BLOCK
  5
105
330
104
100
AcDbEntity
  8
0
100
AcDbBlockBegin
  2
_D_1
 70
     0
 10
0.0
 20
0.0
 30
0.0
  3
_D_1
  1

  0
LINE
  5
107
330
104
100
AcDbEntity
  8
치수문자_일반주서
 62
     0
370
    -2
100
AcDbLine
 10
-50.13397459621556
 20
2.562499999999992
 30
0.0
 11
-50.13397459621556
 21
20.38913260158164
 31
0.0
  0
LINE
  5
108
330
104
100
AcDbEntity
  8
치수문자_일반주서
 62
     0
370
    -2
100
AcDbLine
 10
39.86602540378444
 20
2.562500000000007
 30
0.0
 11
39.86602540378444
 21
20.38913260158164
 31
0.0
  0
LINE
  5
109
330
104
100
AcDbEntity
  8
치수문자_일반주서
 62
     0
370
    -2
100
AcDbLine
 10
-46.83197459621556
 20
20.38913260158164
 30
0.0
 11
36.56402540378444
 21
20.38913260158164
 31
0.0
  0
SOLID
  5
10A
330
104
100
AcDbEntity
  8
치수문자_일반주서
 62
     0
100
AcDbTrace
 10
-46.83197459621556
 20
20.93946593491498
 30
0.0
 11
-46.83197459621556
 21
19.83879926824831
 31
0.0
 12
-50.13397459621556
 22
20.38913260158164
 32
0.0
 13
-50.13397459621556
 23
20.38913260158164
 33
0.0
  0
SOLID
  5
10B
330
104
100
AcDbEntity
  8
치수문자_일반주서
 62
     0
100
AcDbTrace
 10
36.56402540378444
 20
19.83879926824831
 30
0.0
 11
36.56402540378444
 21
20.93946593491498
 31
0.0
 12
39.86602540378444
 22
20.38913260158164
 32
0.0
 13
39.86602540378444
 23
20.38913260158164
 33
0.0
  0
MTEXT
  5
10C
330
104
100
AcDbEntity
  8
치수문자_일반주서
 62
     0
100
AcDbMText
 10
-5.133974596215559
 20
24.76413260158164
 30
0.0
 40
3.5
 41
0.0
 71
     2
 72
     1
  1
\A1;90
  7
SLDTEXTSTYLE0
 73
     1
 44
1.0
  0
POINT
  5
151
330
104
100
AcDbEntity
  8
Defpoints
 62
     0
100
AcDbPoint
 10
-50.13397459621556
 20
2.499999999999992
 30
0.0
  0
POINT
  5
152
330
104
100
AcDbEntity
  8
Defpoints
 62
     0
100
AcDbPoint
 10
39.86602540378444
 20
2.500000000000007
 30
0.0
  0
POINT
  5
153
330
104
100
AcDbEntity
  8
Defpoints
 62
     0
100
AcDbPoint
 10
39.86602540378444
 20
20.38913260158164
 30
0.0
  0
ENDBLK
  5
106
330
104
100
AcDbEntity
  8
0
100
AcDbBlockEnd
  0
BLOCK
  5
110
330
10F
100
AcDbEntity
  8
0
100
AcDbBlockBegin
  2
_D_2
 70
     0
 10
0.0
 20
0.0
 30
0.0
  3
_D_2
  1

  0
LINE
  5
112
330
10F
100
AcDbEntity
  8
치수문자_일반주서
 62
     0
370
    -2
100
AcDbLine
 10
-49.69647459621556
 20
3.000000000000002
 30
0.0
 11
-59.69756166469644
 21
2.999999999999966
 31
0.0
  0
LINE
  5
113
330
10F
100
AcDbEntity
  8
치수문자_일반주서
 62
     0
370
    -2
100
AcDbLine
 10
-49.69647459621556
 20
-3.000000000000003
 30
0.0
 11
-59.69756166469642
 21
-3.000000000000041
 31
0.0
  0
LINE
  5
114
330
10F
100
AcDbEntity
  8
치수문자_일반주서
 62
     0
370
    -2
100
AcDbLine
 10
-59.69756166469644
 20
2.999999999999966
 30
0.0
 11
-59.69756166469649
 21
15.72899999999997
 31
0.0
  0
LINE
  5
115
330
10F
100
AcDbEntity
  8
치수문자_일반주서
 62
     0
370
    -2
100
AcDbLine
 10
-59.69756166469644
 20
2.999999999999966
 30
0.0
 11
-59.69756166469642
 21
-3.000000000000041
 31
0.0
  0
LINE
  5
116
330
10F
100
AcDbEntity
  8
치수문자_일반주서
 62
     0
370
    -2
100
AcDbLine
 10
-59.69756166469646
 20
6.301999999999966
 30
0.0
 11
-59.69756166469647
 21
9.603999999999965
 31
0.0
  0
LINE
  5
117
330
10F
100
AcDbEntity
  8
치수문자_일반주서
 62
     0
370
    -2
100
AcDbLine
 10
-59.69756166469641
 20
-6.30200000000004
 30
0.0
 11
-59.69756166469639
 21
-9.60400000000004
 31
0.0
  0
SOLID
  5
118
330
10F
100
AcDbEntity
  8
치수문자_일반주서
 62
     0
100
AcDbTrace
 10
-60.24789499802979
 20
6.301999999999964
 30
0.0
 11
-59.14722833136312
 21
6.301999999999968
 31
0.0
 12
-59.69756166469644
 22
2.999999999999966
 32
0.0
 13
-59.69756166469644
 23
2.999999999999966
 33
0.0
  0
SOLID
  5
119
330
10F
100
AcDbEntity
  8
치수문자_일반주서
 62
     0
100
AcDbTrace
 10
-59.14722833136307
 20
-6.302000000000039
 30
0.0
 11
-60.24789499802974
 21
-6.302000000000042
 31
0.0
 12
-59.69756166469642
 22
-3.000000000000041
 32
0.0
 13
-59.69756166469642
 23
-3.000000000000041
 33
0.0
  0
MTEXT
  5
11A
330
10F
100
AcDbEntity
  8
치수문자_일반주서
 62
     0
100
AcDbMText
 10
-64.07256166469648
 20
12.66649999999995
 30
0.0
 40
3.5
 41
0.0
 71
     2
 72
     1
  1
\A1;%%c6
  7
SLDTEXTSTYLE0
 11
-3.552713678800498E-15
 21
1.0
 31
0.0
 73
     1
 44
1.0
  0
POINT
  5
157
330
10F
100
AcDbEntity
  8
Defpoints
 62
     0
100
AcDbPoint
 10
-49.63397459621556
 20
3.000000000000003
 30
0.0
  0
POINT
  5
158
330
10F
100
AcDbEntity
  8
Defpoints
 62
     0
100
AcDbPoint
 10
-49.63397459621556
 20
-3.000000000000003
 30
0.0
  0
POINT
  5
159
330
10F
100
AcDbEntity
  8
Defpoints
 62
     0
100
AcDbPoint
 10
-59.69756166469644
 20
-3.00000000000004
 30
0.0
  0
ENDBLK
  5
111
330
10F
100
AcDbEntity
  8
0
100
AcDbBlockEnd
  0
BLOCK
  5
11D
330
11C
100
AcDbEntity
  8
0
100
AcDbBlockBegin
  2
_D_3
 70
     0
 10
0.0
 20
0.0
 30
0.0
  3
_D_3
  1

  0
LINE
  5
11F
330
11C
100
AcDbEntity
  8
치수문자_일반주서
 62
     0
370
    -2
100
AcDbLine
 10
4.866025403784437
 20
2.562458583947274
 30
0.0
 11
4.866025403784441
 21
13.34587688653492
 31
0.0
  0
LINE
  5
120
330
11C
100
AcDbEntity
  8
치수문자_일반주서
 62
     0
370
    -2
100
AcDbLine
 10
39.86602540378444
 20
2.562500000000007
 30
0.0
 11
39.86602540378445
 21
13.34587688653492
 31
0.0
  0
LINE
  5
121
330
11C
100
AcDbEntity
  8
치수문자_일반주서
 62
     0
370
    -2
100
AcDbLine
 10
8.16802540378444
 20
13.34587688653492
 30
0.0
 11
36.56402540378445
 21
13.34587688653492
 31
0.0
  0
SOLID
  5
122
330
11C
100
AcDbEntity
  8
치수문자_일반주서
 62
     0
100
AcDbTrace
 10
8.16802540378444
 20
13.89621021986826
 30
0.0
 11
8.16802540378444
 21
12.79554355320159
 31
0.0
 12
4.866025403784441
 22
13.34587688653492
 32
0.0
 13
4.866025403784441
 23
13.34587688653492
 33
0.0
  0
SOLID
  5
123
330
11C
100
AcDbEntity
  8
치수문자_일반주서
 62
     0
100
AcDbTrace
 10
36.56402540378445
 20
12.79554355320159
 30
0.0
 11
36.56402540378445
 21
13.89621021986826
 31
0.0
 12
39.86602540378445
 22
13.34587688653492
 32
0.0
 13
39.86602540378445
 23
13.34587688653492
 33
0.0
  0
MTEXT
  5
124
330
11C
100
AcDbEntity
  8
치수문자_일반주서
 62
     0
100
AcDbMText
 10
22.36602540378444
 20
17.72087688653492
 30
0.0
 40
3.5
 41
0.0
 71
     2
 72
     1
  1
\A1;35
  7
SLDTEXTSTYLE0
 73
     1
 44
1.0
  0
POINT
  5
154
330
11C
100
AcDbEntity
  8
Defpoints
 62
     0
100
AcDbPoint
 10
4.866025403784437
 20
2.499958583947274
 30
0.0
  0
POINT
  5
155
330
11C
100
AcDbEntity
  8
Defpoints
 62
     0
100
AcDbPoint
 10
39.86602540378444
 20
2.500000000000007
 30
0.0
  0
POINT
  5
156
330
11C
100
AcDbEntity
  8
Defpoints
 62
     0
100
AcDbPoint
 10
39.86602540378444
 20
13.34587688653492
 30
0.0
  0
ENDBLK
  5
11E
330
11C
100
AcDbEntity
  8
0
100
AcDbBlockEnd
  0
BLOCK
  5
126
330
125
100
AcDbEntity
  8
0
100
AcDbBlockBegin
  2
SW_DOWELSYMBOL_0
 70
     0
 10
0.0
 20
0.0
 30
0.0
  3
SW_DOWELSYMBOL_0
  1

  0
CIRCLE
  5
128
330
125
100
AcDbEntity
  8
해칭선
 62
     0
100
AcDbCircle
 10
0.0
 20
0.0
 30
0.0
 40
3.000000000000003
  0
HATCH
  5
129
330
125
100
AcDbEntity
  8
0
  6
Continuous
 62
     0
370
    18
100
AcDbHatch
 10
0.0
 20
0.0
 30
0.0
210
0.0
220
0.0
230
1.0
  2
SOLID
 70
     1
 71
     0
 91
        1
 92
        0
 93
        3
 72
     2
 10
0.0
 20
0.0
 40
3.000000000000003
 50
0.0
 51
90.0
 73
     1
 72
     1
 10
0.0
 20
3.000000000000003
 11
0.0
 21
0.0
 72
     1
 10
0.0
 20
0.0
 11
3.000000000000003
 21
0.0
 97
        0
 75
     0
 76
     1
 98
        1
 10
0.0
 20
0.0
  0
HATCH
  5
12A
330
125
100
AcDbEntity
  8
0
  6
Continuous
 62
     0
370
    18
100
AcDbHatch
 10
0.0
 20
0.0
 30
0.0
210
0.0
220
0.0
230
1.0
  2
SOLID
 70
     1
 71
     0
 91
        1
 92
        0
 93
        3
 72
     2
 10
0.0
 20
0.0
 40
3.000000000000003
 50
180.0
 51
270.0000000000008
 73
     1
 72
     1
 10
0.0
 20
-3.000000000000003
 11
0.0
 21
0.0
 72
     1
 10
0.0
 20
0.0
 11
-3.000000000000003
 21
0.0
 97
        0
 75
     0
 76
     1
 98
        1
 10
0.0
 20
0.0
  0
ENDBLK
  5
127
330
125
100
AcDbEntity
  8
0
100
AcDbBlockEnd
  0
ENDSEC
  0
SECTION
  2
ENTITIES
  0
LINE
  5
99
330
1F
100
AcDbEntity
  8
0
  6
Continuous
 62
     4
370
    25
100
AcDbLine
 10
2.0
 20
2.999999999999998
 30
0.0
 11
-49.63397459621556
 21
2.999999999999994
 31
0.0
  0
LINE
  5
9A
330
1F
100
AcDbEntity
  8
0
  6
Continuous
 62
     4
370
    25
100
AcDbLine
 10
-49.63397459621556
 20
-3.000000000000001
 30
0.0
 11
2.000000000000004
 21
-2.999999999999998
 31
0.0
  0
LINE
  5
9B
330
1F
100
AcDbEntity
  8
0
  6
Continuous
 62
     4
370
    25
100
AcDbLine
 10
2.0
 20
-2.999999999999999
 30
0.0
 11
3.36601150026388
 21
-2.633978321652666
 31
0.0
  0
LINE
  5
9C
330
1F
100
AcDbEntity
  8
0
  6
Continuous
 62
     4
370
    25
100
AcDbLine
 10
3.36601150026388
 20
2.633978321652666
 30
0.0
 11
2.0
 21
2.999999999999999
 31
0.0
  0
LINE
  5
9D
330
1F
100
AcDbEntity
  8
0
  6
Continuous
 62
     4
370
    25
100
AcDbLine
 10
-49.63397459621556
 20
2.999999999999993
 30
0.0
 11
-50.13397459621556
 21
2.499999999999992
 31
0.0
  0
LINE
  5
9E
330
1F
100
AcDbEntity
  8
0
  6
Continuous
 62
     4
370
    25
100
AcDbLine
 10
-50.13397459621556
 20
-2.5
 30
0.0
 11
-49.63397459621556
 21
-3.0
 31
0.0
  0
LINE
  5
9F
330
1F
100
AcDbEntity
  8
0
  6
Continuous
 62
     1
370
    25
100
AcDbLine
 10
38.89918873642806
 20
-2.500000000000003
 30
0.0
 11
39.86602540378444
 21
-2.500000000000003
 31
0.0
  0
LINE
  5
A0
330
1F
100
AcDbEntity
  8
0
  6
Continuous
 62
     1
370
    25
100
AcDbLine
 10
11.69219827291481
 20
-2.500000000000003
 30
0.0
 11
13.62675802577897
 21
-2.500000000000003
 31
0.0
  0
LINE
  5
A1
330
1F
100
AcDbEntity
  8
0
  6
Continuous
 62
     1
370
    25
100
AcDbLine
 10
27.23069438167612
 20
2.500000000000003
 30
0.0
 11
25.29489798070963
 21
2.500000000000003
 31
0.0
  0
LINE
  5
A2
330
1F
100
AcDbEntity
  8
0
  6
Continuous
 62
     4
370
    25
100
AcDbLine
 10
5.5631275125484
 20
-0.384922821421433
 30
0.0
 11
5.510113516041182
 21
-0.3571215138632124
 31
0.0
  0
LINE
  5
A3
330
1F
100
AcDbEntity
  8
0
  6
Continuous
 62
     1
370
    25
100
AcDbLine
 10
32.77011797606167
 20
-0.3849228214214295
 30
0.0
 11
32.71710397955444
 21
-0.3571215138632091
 31
0.0
  0
LINE
  5
A4
330
1F
100
AcDbEntity
  8
0
  6
Continuous
 62
     1
370
    25
100
AcDbLine
 10
26.55498330535623
 20
0.3858114080430002
 30
0.0
 11
26.60788217551257
 21
0.3572728337550923
 31
0.0
  0
LINE
  5
A5
330
1F
100
AcDbEntity
  8
0
  6
Continuous
 62
     1
370
    25
100
AcDbLine
 10
12.62449887352485
 20
0.5723246937465926
 30
0.0
 11
12.65903494027116
 21
0.5555199646315335
 31
0.0
  0
LINE
  5
A6
330
1F
100
AcDbEntity
  8
0
  6
Continuous
 62
     1
370
    25
100
AcDbLine
 10
13.00773468296491
 20
0.3554762845342629
 30
0.0
 11
13.03436291115047
 21
0.3401633879844718
 31
0.0
  0
SPLINE
  5
A7
330
1F
100
AcDbEntity
  8
0
  6
Continuous
 62
     1
370
    25
100
AcDbSpline
210
0.0
220
0.0
230
1.0
 70
     8
 71
     3
 72
     9
 73
     5
 74
     0
 42
0.000000001
 43
0.00000001
 40
0.0
 40
0.0
 40
0.0
 40
0.0
 40
0.5392665698142407
 40
1.0
 40
1.0
 40
1.0
 40
1.0
 10
12.65903494027117
 20
0.5555199646315335
 30
0.0
 10
12.72119402117268
 20
0.5199779500400155
 30
0.0
 10
12.83645998494811
 20
0.4540698879033969
 30
0.0
 10
12.95371252020023
 20
0.386573929139315
 30
0.0
 10
13.00773468296491
 20
0.355476284534263
 30
0.0
  0
LINE
  5
A8
330
1F
100
AcDbEntity
  8
0
  6
Continuous
 62
     1
370
    25
100
AcDbLine
 10
19.14779426356387
 20
-0.3753005616814714
 30
0.0
 11
19.1136087477978
 21
-0.357121513863208
 31
0.0
  0
LINE
  5
A9
330
1F
100
AcDbEntity
  8
0
  6
Continuous
 62
     1
370
    25
100
AcDbLine
 10
39.81129769255895
 20
0.5821496433667213
 30
0.0
 11
39.86602540378443
 21
0.5555199646315335
 31
0.0
  0
LINE
  5
AA
330
1F
100
AcDbEntity
  8
0
  6
Continuous
 62
     1
370
    25
100
AcDbLine
 10
32.09777283052754
 20
-2.500000000000003
 30
0.0
 11
34.03142338750555
 21
-2.500000000000003
 31
0.0
  0
LINE
  5
AB
330
1F
100
AcDbEntity
  8
0
  6
Continuous
 62
     1
370
    25
100
AcDbLine
 10
4.866000403782449
 20
-2.500000000000003
 30
0.0
 11
6.824432923992299
 21
-2.500000000000003
 31
0.0
  0
LINE
  5
AC
330
1F
100
AcDbEntity
  8
0
  6
Continuous
 62
     1
370
    25
100
AcDbLine
 10
20.42648160426395
 20
2.500000000000003
 30
0.0
 11
18.49295213054157
 21
2.500000000000003
 31
0.0
  0
LINE
  5
AD
330
1F
100
AcDbEntity
  8
0
  6
Continuous
 62
     1
370
    25
100
AcDbLine
 10
18.49295213054161
 20
-2.500000000000003
 30
0.0
 11
20.42648160426395
 21
-2.500000000000003
 31
0.0
  0
LINE
  5
AE
330
1F
100
AcDbEntity
  8
0
  6
Continuous
 62
     1
370
    25
100
AcDbLine
 10
6.824432923992273
 20
2.500000000000003
 30
0.0
 11
4.866000403782449
 21
2.500000000000003
 31
0.0
  0
LINE
  5
AF
330
1F
100
AcDbEntity
  8
0
  6
Continuous
 62
     1
370
    25
100
AcDbLine
 10
34.03142338750556
 20
2.500000000000003
 30
0.0
 11
32.09777283052757
 21
2.500000000000003
 31
0.0
  0
LINE
  5
B0
330
1F
100
AcDbEntity
  8
0
  6
Continuous
 62
     1
370
    25
100
AcDbLine
 10
25.29489798070962
 20
-2.500000000000003
 30
0.0
 11
27.23069438167605
 21
-2.500000000000003
 31
0.0
  0
LINE
  5
B1
330
1F
100
AcDbEntity
  8
0
  6
Continuous
 62
     1
370
    25
100
AcDbLine
 10
13.62675802577897
 20
2.500000000000003
 30
0.0
 11
11.69219827291485
 21
2.500000000000003
 31
0.0
  0
LINE
  5
B2
330
1F
100
AcDbEntity
  8
0
  6
Continuous
 62
     1
370
    25
100
AcDbLine
 10
39.86602540378444
 20
2.500000000000003
 30
0.0
 11
38.89918873642809
 21
2.500000000000003
 31
0.0
  0
LINE
  5
B3
330
1F
100
AcDbEntity
  8
0
  6
Continuous
 62
     4
370
    25
100
AcDbLine
 10
2.0
 20
2.999999999999999
 30
0.0
 11
2.0
 21
-3.0
 31
0.0
  0
LINE
  5
B4
330
1F
100
AcDbEntity
  8
0
  6
Continuous
 62
     4
370
    25
100
AcDbLine
 10
-49.63397459621556
 20
2.999999999999993
 30
0.0
 11
-49.63397459621556
 21
-3.0
 31
0.0
  0
SPLINE
  5
B5
330
1F
100
AcDbEntity
  8
0
  6
Continuous
 62
     4
370
    25
100
AcDbSpline
210
0.0
220
0.0
230
1.0
 70
     8
 71
     3
 72
    14
 73
    10
 74
     0
 42
0.000000001
 43
0.00000001
 40
0.0
 40
0.0
 40
0.0
 40
0.0
 40
0.25
 40
0.25
 40
0.5
 40
0.5
 40
0.75
 40
0.75
 40
1.0
 40
1.0
 40
1.0
 40
1.0
 10
3.36601150026388
 20
2.633592646952652
 30
0.0
 10
3.36601150026388
 20
2.632445272581378
 30
0.0
 10
3.378751220617518
 20
2.625229079114912
 30
0.0
 10
3.429398336681317
 20
2.600658727072744
 30
0.0
 10
3.467465524351192
 20
2.583298706663409
 30
0.0
 10
3.561026897158293
 20
2.544778260740463
 30
0.0
 10
3.616915507513827
 20
2.523507407285797
 30
0.0
 10
3.737532855378227
 20
2.482912123255881
 30
0.0
 10
3.801326648122517
 20
2.463877168302711
 30
0.0
 10
3.866025403784434
 20
2.447303983553707
 30
0.0
  0
LINE
  5
B6
330
1F
100
AcDbEntity
  8
0
  6
Continuous
 62
     4
370
    25
100
AcDbLine
 10
3.36601150026388
 20
2.633978321652666
 30
0.0
 11
3.36601150026388
 21
2.067578359230829
 31
0.0
  0
SPLINE
  5
B7
330
1F
100
AcDbEntity
  8
0
  6
Continuous
 62
     4
370
    25
100
AcDbSpline
210
0.0
220
0.0
230
1.0
 70
     8
 71
     3
 72
    10
 73
     6
 74
     0
 42
0.000000001
 43
0.00000001
 40
0.0
 40
0.0
 40
0.0
 40
0.0
 40
0.5
 40
0.5
 40
1.0
 40
1.0
 40
1.0
 40
1.0
 10
3.612306573223806
 20
1.728991713539664
 30
0.0
 10
3.537615615359201
 20
1.773653358570935
 30
0.0
 10
3.474776835900576
 20
1.830541633152049
 30
0.0
 10
3.388655460291298
 20
1.950349575523325
 30
0.0
 10
3.366011500263893
 20
2.012981818679911
 30
0.0
 10
3.366011500263884
 20
2.06757835923079
 30
0.0
  0
SPLINE
  5
B8
330
1F
100
AcDbEntity
  8
0
  6
Continuous
 62
     4
370
    25
100
AcDbSpline
210
0.0
220
0.0
230
1.0
 70
     8
 71
     3
 72
     8
 73
     4
 74
     0
 42
0.000000001
 43
0.00000001
 40
0.0
 40
0.0
 40
0.0
 40
0.0
 40
1.0
 40
1.0
 40
1.0
 40
1.0
 10
3.866025403784434
 20
1.578465842375355
 30
0.0
 10
3.78099461261656
 20
1.6284773241383
 30
0.0
 10
3.696437142733023
 20
1.678685629120297
 30
0.0
 10
3.612306573223705
 20
1.728991713539709
 30
0.0
  0
LINE
  5
B9
330
1F
100
AcDbEntity
  8
0
  6
Continuous
 62
     4
370
    25
100
AcDbLine
 10
3.866025403784434
 20
1.578465842375047
 30
0.0
 11
3.866025403784434
 21
0.5105910419133506
 31
0.0
  0
SPLINE
  5
BA
330
1F
100
AcDbEntity
  8
0
  6
Continuous
 62
     4
370
    25
100
AcDbSpline
210
0.0
220
0.0
230
1.0
 70
     8
 71
     3
 72
    14
 73
    10
 74
     0
 42
0.000000001
 43
0.00000001
 40
0.0
 40
0.0
 40
0.0
 40
0.0
 40
0.25
 40
0.25
 40
0.5
 40
0.5
 40
0.75
 40
0.75
 40
1.0
 40
1.0
 40
1.0
 40
1.0
 10
3.36601150026388
 20
0.0450729281622171
 30
0.0
 10
3.36601150026388
 20
0.1121135405806946
 30
0.0
 10
3.378751220617515
 20
0.1781860980157431
 30
0.0
 10
3.429398336681317
 20
0.2982253140144673
 30
0.0
 10
3.467465524351192
 20
0.3521082043155842
 30
0.0
 10
3.561026897158293
 20
0.4375402169754857
 30
0.0
 10
3.616915507513831
 20
0.4697285387393074
 30
0.0
 10
3.737532855378227
 20
0.5089354626757073
 30
0.0
 10
3.801326648122517
 20
0.5160363534104846
 30
0.0
 10
3.866025403784434
 20
0.510591041913353
 30
0.0
  0
LINE
  5
BB
330
1F
100
AcDbEntity
  8
0
  6
Continuous
 62
     4
370
    25
100
AcDbLine
 10
3.36601150026388
 20
0.0450729281622171
 30
0.0
 11
3.36601150026388
 21
-1.631858304932619
 31
0.0
  0
SPLINE
  5
BC
330
1F
100
AcDbEntity
  8
0
  6
Continuous
 62
     4
370
    25
100
AcDbSpline
210
0.0
220
0.0
230
1.0
 70
     8
 71
     3
 72
    10
 73
     6
 74
     0
 42
0.000000001
 43
0.00000001
 40
0.0
 40
0.0
 40
0.0
 40
0.0
 40
0.5
 40
0.5
 40
1.0
 40
1.0
 40
1.0
 40
1.0
 10
3.612306573223806
 20
-1.898717520939876
 30
0.0
 10
3.537615615359256
 20
-1.885115932278037
 30
0.0
 10
3.47477683590067
 20
-1.854681991671472
 30
0.0
 10
3.388655460291401
 20
-1.762843195852986
 30
0.0
 10
3.36601150026388
 20
-1.701032586419299
 30
0.0
 10
3.36601150026388
 20
-1.631858304932619
 30
0.0
  0
SPLINE
  5
BD
330
1F
100
AcDbEntity
  8
0
  6
Continuous
 62
     4
370
    25
100
AcDbSpline
210
0.0
220
0.0
230
1.0
 70
     8
 71
     3
 72
     8
 73
     4
 74
     0
 42
0.000000001
 43
0.00000001
 40
0.0
 40
0.0
 40
0.0
 40
0.0
 40
1.0
 40
1.0
 40
1.0
 40
1.0
 10
3.866025403784434
 20
-1.938671087228115
 30
0.0
 10
3.780994612616563
 20
-1.927332605795564
 30
0.0
 10
3.696437142733023
 20
-1.914038109041371
 30
0.0
 10
3.612306573223705
 20
-1.898717520939835
 30
0.0
  0
LINE
  5
BE
330
1F
100
AcDbEntity
  8
0
  6
Continuous
 62
     4
370
    25
100
AcDbLine
 10
3.866025403784434
 20
-1.938671087227599
 30
0.0
 11
3.866025403784434
 21
-2.447303983553712
 31
0.0
  0
SPLINE
  5
BF
330
1F
100
AcDbEntity
  8
0
  6
Continuous
 62
     4
370
    25
100
AcDbSpline
210
0.0
220
0.0
230
1.0
 70
     8
 71
     3
 72
    14
 73
    10
 74
     0
 42
0.000000001
 43
0.00000001
 40
0.0
 40
0.0
 40
0.0
 40
0.0
 40
0.25
 40
0.25
 40
0.5
 40
0.5
 40
0.75
 40
0.75
 40
1.0
 40
1.0
 40
1.0
 40
1.0
 10
3.36601150026388
 20
-2.633592646952652
 30
0.0
 10
3.36601150026388
 20
-2.632445272581379
 30
0.0
 10
3.378751220617518
 20
-2.625229079114913
 30
0.0
 10
3.429398336681317
 20
-2.600658727072747
 30
0.0
 10
3.467465524351192
 20
-2.583298706663412
 30
0.0
 10
3.561026897158293
 20
-2.544778260740466
 30
0.0
 10
3.616915507513831
 20
-2.523507407285801
 30
0.0
 10
3.737532855378227
 20
-2.482912123255885
 30
0.0
 10
3.801326648122517
 20
-2.463877168302715
 30
0.0
 10
3.866025403784434
 20
-2.447303983553711
 30
0.0
  0
LINE
  5
C0
330
1F
100
AcDbEntity
  8
0
  6
Continuous
 62
     4
370
    25
100
AcDbLine
 10
3.36601150026388
 20
-2.633592646952652
 30
0.0
 11
3.36601150026388
 21
-2.633978321652666
 31
0.0
  0
LINE
  5
C1
330
1F
100
AcDbEntity
  8
0
  6
Continuous
 62
     4
370
    25
100
AcDbLine
 10
-50.13397459621556
 20
2.499999999999992
 30
0.0
 11
-50.13397459621556
 21
-2.5
 31
0.0
  0
SPLINE
  5
C2
330
1F
100
AcDbEntity
  8
0
  6
Continuous
 62
     4
370
    25
100
AcDbSpline
210
0.0
220
0.0
230
1.0
 70
     8
 71
     3
 72
     8
 73
     4
 74
     0
 42
0.000000001
 43
0.00000001
 40
0.0
 40
0.0
 40
0.0
 40
0.0
 40
1.0
 40
1.0
 40
1.0
 40
1.0
 10
3.866025403784434
 20
0.5105910419133507
 30
0.0
 10
3.953480050301451
 20
0.5105886463991305
 30
0.0
 10
4.039046266139476
 20
0.4881761356470204
 30
0.0
 10
4.114721502967845
 20
0.4450354078916939
 30
0.0
  0
SPLINE
  5
C3
330
1F
100
AcDbEntity
  8
0
  6
Continuous
 62
     4
370
    25
100
AcDbSpline
210
0.0
220
0.0
230
1.0
 70
    24
 71
     3
 72
    18
 73
    14
 74
     0
 42
0.000000001
 43
0.00000001
 40
0.0
 40
0.0
 40
0.0
 40
0.0
 40
0.1249999999999998
 40
0.1249999999999998
 40
0.2499999999999994
 40
0.2499999999999994
 40
0.4999999999999996
 40
0.4999999999999996
 40
0.7499999999999999
 40
0.7499999999999999
 40
0.875
 40
0.875
 40
1.0
 40
1.0
 40
1.0
 40
1.0
 10
4.866025403784434
 20
0.0143902285866407
 30
0.0
 10
4.866025403784434
 20
0.001324825379004
 30
0.0
 10
4.866025403784434
 20
-0.0160544893860068
 30
0.0
 10
4.866025403784434
 20
-0.0662688887039931
 30
0.0
 10
4.866025403784437
 20
-0.0992689321461535
 30
0.0
 10
4.866025403784434
 20
-0.2300251846896779
 30
0.0
 10
4.866025403784437
 20
-0.3606327205673912
 30
0.0
 10
4.866025403784437
 20
-0.7441364391364884
 30
0.0
 10
4.866025403784434
 20
-1.000016286166783
 30
0.0
 10
4.866025403784437
 20
-1.448924348148129
 30
0.0
 10
4.866025403784434
 20
-1.608387084373997
 30
0.0
 10
4.866025403784434
 20
-1.930815265599761
 30
0.0
 10
4.866025403784437
 20
-2.093563961509428
 30
0.0
 10
4.866025403784437
 20
-2.248487445682123
 30
0.0
  0
SPLINE
  5
C4
330
1F
100
AcDbEntity
  8
0
  6
Continuous
 62
     4
370
    25
100
AcDbSpline
210
0.0
220
0.0
230
1.0
 70
     8
 71
     3
 72
    10
 73
     6
 74
     0
 42
0.000000001
 43
0.00000001
 40
0.0
 40
0.0
 40
0.0
 40
0.0
 40
0.5
 40
0.5
 40
1.0
 40
1.0
 40
1.0
 40
1.0
 10
4.866025403784432
 20
-2.24848744568212
 30
0.0
 10
4.698921499864813
 20
-2.206389553163241
 30
0.0
 10
4.530997582205746
 20
-2.159201627317601
 30
0.0
 10
4.196865030649834
 20
-2.055590757555081
 30
0.0
 10
4.031981928729412
 20
-1.99933660899001
 30
0.0
 10
3.866025403784434
 20
-1.938671087227599
 30
0.0
  0
SPLINE
  5
C5
330
1F
100
AcDbEntity
  8
0
  6
Continuous
 62
     4
370
    25
100
AcDbSpline
210
0.0
220
0.0
230
1.0
 70
     8
 71
     3
 72
     8
 73
     4
 74
     0
 42
0.000000001
 43
0.00000001
 40
0.0
 40
0.0
 40
0.0
 40
0.0
 40
1.0
 40
1.0
 40
1.0
 40
1.0
 10
4.866025403782807
 20
0.0143902285836612
 30
0.0
 10
4.615550963430854
 20
0.1587388055060328
 30
0.0
 10
4.363241220866641
 20
0.303359980882221
 30
0.0
 10
4.114721502967845
 20
0.445035407891692
 30
0.0
  0
SPLINE
  5
C6
330
1F
100
AcDbEntity
  8
0
  6
Continuous
 62
     4
370
    25
100
AcDbSpline
210
0.0
220
0.0
230
1.0
 70
     8
 71
     3
 72
    10
 73
     6
 74
     0
 42
0.000000001
 43
0.00000001
 40
0.0
 40
0.0
 40
0.0
 40
0.0
 40
0.5
 40
0.5
 40
1.0
 40
1.0
 40
1.0
 40
1.0
 10
4.866025403784432
 20
1.092842260624518
 30
0.0
 10
4.698921499864809
 20
1.179457306755954
 30
0.0
 10
4.530997582205746
 20
1.263772661446728
 30
0.0
 10
4.196865030649834
 20
1.426120487436195
 30
0.0
 10
4.031981928729412
 20
1.503956473926884
 30
0.0
 10
3.866025403784434
 20
1.578465842375047
 30
0.0
  0
LINE
  5
C7
330
1F
100
AcDbEntity
  8
0
  6
Continuous
 62
     4
370
    25
100
AcDbLine
 10
4.866025403784432
 20
1.092842260624518
 30
0.0
 11
4.866025403784437
 21
0.0143902285866385
 31
0.0
  0
SPLINE
  5
C8
330
1F
100
AcDbEntity
  8
0
  6
Continuous
 62
     4
370
    25
100
AcDbSpline
210
0.0
220
0.0
230
1.0
 70
     8
 71
     3
 72
     8
 73
     4
 74
     0
 42
0.000000001
 43
0.00000001
 40
0.0
 40
0.0
 40
0.0
 40
0.0
 40
1.0
 40
1.0
 40
1.0
 40
1.0
 10
4.866025403782807
 20
2.499958583921197
 30
0.0
 10
4.615550963430854
 20
2.499127686549138
 30
0.0
 10
4.363241220866641
 20
2.485699403491282
 30
0.0
 10
4.114721502967845
 20
2.460069813180644
 30
0.0
  0
SPLINE
  5
C9
330
1F
100
AcDbEntity
  8
0
  6
Continuous
 62
     4
370
    25
100
AcDbSpline
210
0.0
220
0.0
230
1.0
 70
    24
 71
     3
 72
    14
 73
    10
 74
     0
 42
0.000000001
 43
0.00000001
 40
0.0
 40
0.0
 40
0.0
 40
0.0
 40
0.1362342184733834
 40
0.2757631798505301
 40
0.424331736953344
 40
0.5772087922768881
 40
0.7257773493797018
 40
0.8786544047032453
 40
1.0
 40
1.0
 40
1.0
 40
1.0
 10
4.866025403784437
 20
2.499958583947274
 30
0.0
 10
4.866025403784437
 20
2.412609616229553
 30
0.0
 10
4.866025403784437
 20
2.235799198374025
 30
0.0
 10
4.866025403784437
 20
1.978097838116917
 30
0.0
 10
4.866025403784437
 20
1.730411034008223
 30
0.0
 10
4.866025403784437
 20
1.506417657006872
 30
0.0
 10
4.866025403784437
 20
1.317444762834436
 30
0.0
 10
4.866025403784437
 20
1.175030444707778
 30
0.0
 10
4.866025403784437
 20
1.118054532405242
 30
0.0
 10
4.866025403784437
 20
1.092842260624308
 30
0.0
  0
SPLINE
  5
CA
330
1F
100
AcDbEntity
  8
0
  6
Continuous
 62
     4
370
    25
100
AcDbSpline
210
0.0
220
0.0
230
1.0
 70
     8
 71
     3
 72
     8
 73
     4
 74
     0
 42
0.000000001
 43
0.00000001
 40
0.0
 40
0.0
 40
0.0
 40
0.0
 40
1.0
 40
1.0
 40
1.0
 40
1.0
 10
3.866025403784434
 20
2.447303983553708
 30
0.0
 10
3.953480050301451
 20
2.44730448333964
 30
0.0
 10
4.039046266139476
 20
2.452265501583284
 30
0.0
 10
4.114721502967845
 20
2.460069813180651
 30
0.0
  0
SPLINE
  5
CB
330
1F
100
AcDbEntity
  8
0
  6
Continuous
 62
     4
370
    25
100
AcDbSpline
210
0.0
220
0.0
230
1.0
 70
     8
 71
     3
 72
     8
 73
     4
 74
     0
 42
0.000000001
 43
0.00000001
 40
0.0
 40
0.0
 40
0.0
 40
0.0
 40
1.0
 40
1.0
 40
1.0
 40
1.0
 10
4.866025403782807
 20
-2.499958583921196
 30
0.0
 10
4.615550963430854
 20
-2.499127686549138
 30
0.0
 10
4.363241220866641
 20
-2.485699403491284
 30
0.0
 10
4.114721502967845
 20
-2.460069813180647
 30
0.0
  0
SPLINE
  5
CC
330
1F
100
AcDbEntity
  8
0
  6
Continuous
 62
     4
370
    25
100
AcDbSpline
210
0.0
220
0.0
230
1.0
 70
     8
 71
     3
 72
     8
 73
     4
 74
     0
 42
0.000000001
 43
0.00000001
 40
0.0
 40
0.0
 40
0.0
 40
0.0
 40
1.0
 40
1.0
 40
1.0
 40
1.0
 10
3.866025403784434
 20
-2.447303983553712
 30
0.0
 10
3.953480050301454
 20
-2.447304483339643
 30
0.0
 10
4.039046266139476
 20
-2.452265501583288
 30
0.0
 10
4.114721502967848
 20
-2.460069813180654
 30
0.0
  0
LINE
  5
CD
330
1F
100
AcDbEntity
  8
0
  6
Continuous
 62
     4
370
    25
100
AcDbLine
 10
4.866025403784432
 20
-2.24848744568212
 30
0.0
 11
4.866025403784437
 21
-2.499958583947274
 31
0.0
  0
SPLINE
  5
CE
330
1F
100
AcDbEntity
  8
0
  6
Continuous
 62
     1
370
    25
100
AcDbSpline
210
0.0
220
0.0
230
1.0
 70
     8
 71
     3
 72
    13
 73
     9
 74
     0
 42
0.000000001
 43
0.00000001
 40
0.0
 40
0.0
 40
0.0
 40
0.0
 40
0.1862080687708109
 40
0.3724129116018553
 40
0.5586141342020936
 40
0.744811343375032
 40
0.9310041471362428
 40
1.0
 40
1.0
 40
1.0
 40
1.0
 10
4.86602540378245
 20
0.0143902285838673
 30
0.0
 10
5.289725555296753
 20
-0.2303801479622701
 30
0.0
 10
6.137118517981962
 20
-0.7199166605589715
 30
0.0
 10
7.408190590384974
 20
-1.392043873800877
 30
0.0
 10
8.679233411839247
 20
-1.948694038724027
 30
0.0
 10
9.950242849819263
 20
-2.324800210270956
 30
0.0
 10
10.9545616707971
 20
-2.505753999389454
 30
0.0
 10
11.53520784006871
 20
-2.481493743857752
 30
0.0
 10
11.69219827291481
 20
-2.474934451437626
 30
0.0
  0
SPLINE
  5
CF
330
1F
100
AcDbEntity
  8
0
  6
Continuous
 62
     1
370
    25
100
AcDbSpline
210
0.0
220
0.0
230
1.0
 70
     8
 71
     3
 72
    22
 73
    18
 74
     0
 42
0.000000001
 43
0.00000001
 40
0.0
 40
0.0
 40
0.0
 40
0.0
 40
0.064516853186014
 40
0.1356806715061814
 40
0.2068495910410324
 40
0.2779984645170582
 40
0.3491305236001055
 40
0.4202494115041936
 40
0.4913588022377879
 40
0.5327756049036454
 40
0.5744088179586548
 40
0.6536573300524604
 40
0.7329044692147478
 40
0.8121500676387272
 40
0.8913939579834378
 40
0.9706359734237641
 40
1.0
 40
1.0
 40
1.0
 40
1.0
 10
22.86180706118918
 20
2.109210319818745
 30
0.0
 10
23.20669356670305
 20
2.206222534091709
 30
0.0
 10
23.93199913184938
 20
2.410241820942337
 30
0.0
 10
25.03783493588975
 20
2.522392888480715
 30
0.0
 10
26.17915409353989
 20
2.477265783240702
 30
0.0
 10
27.32019840532082
 20
2.257644459530234
 30
0.0
 10
28.46098313311196
 20
1.88326156993192
 30
0.0
 10
29.60130754420297
 20
1.378567956725548
 30
0.0
 10
30.58344937159858
 20
0.8628656125436689
 30
0.0
 10
31.40625575937515
 20
0.3978639242642624
 30
0.0
 10
32.27420422821636
 20
-0.1008977968956255
 30
0.0
 10
33.34408246039591
 20
-0.7202157206972043
 30
0.0
 10
34.61518816098316
 20
-1.391963732108186
 30
0.0
 10
35.88622196742454
 20
-1.948715553111379
 30
0.0
 10
37.1572338381643
 20
-2.324794292105302
 30
0.0
 10
38.1615520931333
 20
-2.505754463714572
 30
0.0
 10
38.7421982948183
 20
-2.481493842679583
 30
0.0
 10
38.89918873642807
 20
-2.474934451437623
 30
0.0
  0
SPLINE
  5
D0
330
1F
100
AcDbEntity
  8
0
  6
Continuous
 62
     1
370
    25
100
AcDbSpline
210
0.0
220
0.0
230
1.0
 70
     8
 71
     3
 72
    19
 73
    15
 74
     0
 42
0.000000001
 43
0.00000001
 40
0.0
 40
0.0
 40
0.0
 40
0.0
 40
0.0903215152835069
 40
0.1806176886309865
 40
0.2708931009696842
 40
0.3611523816163645
 40
0.4514001976186682
 40
0.5416412429090319
 40
0.6318802273245705
 40
0.7221218655474949
 40
0.8123708660212885
 40
0.9026319198980945
 40
0.9929096900724782
 40
1.0
 40
1.0
 40
1.0
 40
1.0
 10
39.86602540378444
 20
-2.437914245888153
 30
0.0
 10
39.48555893613545
 20
-2.372913428868717
 30
0.0
 10
38.72473275011918
 20
-2.242930032417441
 30
0.0
 10
37.58371827179462
 20
-1.848085942378975
 30
0.0
 10
36.44301292701709
 20
-1.337841412084213
 30
0.0
 10
35.30255345064121
 20
-0.7321154141211744
 30
0.0
 10
34.16226732769856
 20
-0.0767621578876912
 30
0.0
 10
33.02208388497977
 20
0.5840027074307212
 30
0.0
 10
31.88193176797153
 20
1.204774635155885
 30
0.0
 10
30.74173899054428
 20
1.74115206052448
 30
0.0
 10
29.60143631274678
 20
2.162384814335721
 30
0.0
 10
28.46094473453208
 20
2.416040336602994
 30
0.0
 10
27.67068397211812
 20
2.52398054600276
 30
0.0
 10
27.26055950366621
 20
2.495802973787738
 30
0.0
 10
27.23069438167612
 20
2.493751092721576
 30
0.0
  0
SPLINE
  5
D1
330
1F
100
AcDbEntity
  8
0
  6
Continuous
 62
     1
370
    25
100
AcDbSpline
210
0.0
220
0.0
230
1.0
 70
     8
 71
     3
 72
    17
 73
    13
 74
     0
 42
0.000000001
 43
0.00000001
 40
0.0
 40
0.0
 40
0.0
 40
0.0
 40
0.0733084069852835
 40
0.1878135917446059
 40
0.3023185126844245
 40
0.4044864330993279
 40
0.5066256877761172
 40
0.6087414584680961
 40
0.7108389816647688
 40
0.8129235365352283
 40
0.9150004326595247
 40
1.0
 40
1.0
 40
1.0
 40
1.0
 10
16.03654703584076
 20
-2.100708762366056
 30
0.0
 10
15.76354205003204
 20
-2.185218170451289
 30
0.0
 10
15.06411276139377
 20
-2.401728337857936
 30
0.0
 10
13.93827505082533
 20
-2.52529046605478
 30
0.0
 10
12.70497392664932
 20
-2.476720424542924
 30
0.0
 10
11.51774325371402
 20
-2.235044238979515
 30
0.0
 10
10.37672695327813
 20
-1.850183216049066
 30
0.0
 10
9.236024915983315
 20
-1.337335352803897
 30
0.0
 10
8.095554034131267
 20
-0.7320430110534247
 30
0.0
 10
6.955310218733658
 20
-0.0775575890208262
 30
0.0
 10
5.87855170313356
 20
0.5500513750912691
 30
0.0
 10
5.182349841151479
 20
0.9232683724353606
 30
0.0
 10
4.866025403784437
 20
1.092842260624309
 30
0.0
  0
LINE
  5
D2
330
1F
100
AcDbEntity
  8
0
  6
Continuous
 62
     1
370
    25
100
AcDbLine
 10
39.86602540378444
 20
-2.500000000000007
 30
0.0
 11
39.86602540378444
 21
-2.437914245888158
 31
0.0
  0
SPLINE
  5
D3
330
1F
100
AcDbEntity
  8
0
  6
Continuous
 62
     1
370
    25
100
AcDbSpline
210
0.0
220
0.0
230
1.0
 70
     8
 71
     3
 72
    22
 73
    18
 74
     0
 42
0.000000001
 43
0.00000001
 40
0.0
 40
0.0
 40
0.0
 40
0.0
 40
0.0033768245429215
 40
0.074343566471603
 40
0.1453012942750562
 40
0.2162536985775522
 40
0.2872044825084829
 40
0.3581573530067175
 40
0.4291160121058994
 40
0.5000841482442824
 40
0.5710654276424796
 40
0.6420634857919363
 40
0.7130815475082889
 40
0.7840945188230789
 40
0.855088015615161
 40
0.926065644898454
 40
1.0
 40
1.0
 40
1.0
 40
1.0
 10
36.49721983592499
 20
-2.102084659636915
 30
0.0
 10
36.4791305486634
 20
-2.10874998965056
 30
0.0
 10
36.08088002872575
 20
-2.255492705662645
 30
0.0
 10
35.30255656468951
 20
-2.410951647517794
 30
0.0
 10
34.16226648798995
 20
-2.530532838892701
 30
0.0
 10
33.02208413017616
 20
-2.460005350604495
 30
0.0
 10
31.88193162684509
 20
-2.223980900317897
 30
0.0
 10
30.7417393098717
 20
-1.833443778077686
 30
0.0
 10
29.60143517640856
 20
-1.316732217765856
 30
0.0
 10
28.46094896145776
 20
-0.7090748716179743
 30
0.0
 10
27.32020743030333
 20
-0.0524972605291146
 30
0.0
 10
26.17915217579878
 20
0.6078612968057036
 30
0.0
 10
25.03783357758303
 20
1.225918835464974
 30
0.0
 10
23.89657556443859
 20
1.76053309171833
 30
0.0
 10
22.75558089100215
 20
2.169503365425563
 30
0.0
 10
21.59908916248067
 20
2.44809181160807
 30
0.0
 10
20.82263163266936
 20
2.477707054501169
 30
0.0
 10
20.42648160426394
 20
2.492816804697275
 30
0.0
  0
SPLINE
  5
D4
330
1F
100
AcDbEntity
  8
0
  6
Continuous
 62
     1
370
    25
100
AcDbSpline
210
0.0
220
0.0
230
1.0
 70
     8
 71
     3
 72
    12
 73
     8
 74
     0
 42
0.000000001
 43
0.00000001
 40
0.0
 40
0.0
 40
0.0
 40
0.0
 40
0.0122643833656111
 40
0.2700104753401581
 40
0.527723828661541
 40
0.7854178474111226
 40
1.0
 40
1.0
 40
1.0
 40
1.0
 10
9.29022937241173
 20
-2.102084659636919
 30
0.0
 10
9.27214008857747
 20
-2.108749813998217
 30
0.0
 10
8.873889644095518
 20
-2.255488662879584
 30
0.0
 10
8.095556587190982
 20
-2.411439242592106
 30
0.0
 10
6.955309533843076
 20
-2.528815472136381
 30
0.0
 10
5.878551841368081
 20
-2.469867617224982
 30
0.0
 10
5.182349884337476
 20
-2.317649064745332
 30
0.0
 10
4.866025403784437
 20
-2.248487445681477
 30
0.0
  0
SPLINE
  5
D5
330
1F
100
AcDbEntity
  8
0
  6
Continuous
 62
     4
370
    25
100
AcDbSpline
210
0.0
220
0.0
230
1.0
 70
    24
 71
     3
 72
    18
 73
    14
 74
     0
 42
0.000000001
 43
0.00000001
 40
0.0
 40
0.0
 40
0.0
 40
0.0
 40
0.1249999999999998
 40
0.1249999999999998
 40
0.2499999999999996
 40
0.2499999999999996
 40
0.4999999999999997
 40
0.4999999999999997
 40
0.7499999999999998
 40
0.7499999999999998
 40
0.8749999999999999
 40
0.8749999999999999
 40
1.0
 40
1.0
 40
1.0
 40
1.0
 10
4.866025403784434
 20
0.0143902285866374
 30
0.0
 10
4.866025403784434
 20
0.0013248253790022
 30
0.0
 10
4.866025403784434
 20
-0.0160544893860051
 30
0.0
 10
4.866025403784434
 20
-0.0662688887039789
 30
0.0
 10
4.866025403784434
 20
-0.0992689321461301
 30
0.0
 10
4.866025403784434
 20
-0.2300251846896123
 30
0.0
 10
4.866025403784437
 20
-0.3606327205672771
 30
0.0
 10
4.866025403784437
 20
-0.7441364391362256
 30
0.0
 10
4.866025403784437
 20
-1.000016286166417
 30
0.0
 10
4.866025403784434
 20
-1.448924348147621
 30
0.0
 10
4.866025403784437
 20
-1.608387084373446
 30
0.0
 10
4.866025403784437
 20
-1.930815265599144
 30
0.0
 10
4.866025403784437
 20
-2.093563961508789
 30
0.0
 10
4.866025403784437
 20
-2.248487445681476
 30
0.0
  0
SPLINE
  5
D6
330
1F
100
AcDbEntity
  8
0
  6
Continuous
 62
     1
370
    25
100
AcDbSpline
210
0.0
220
0.0
230
1.0
 70
     8
 71
     3
 72
    13
 73
     9
 74
     0
 42
0.000000001
 43
0.00000001
 40
0.0
 40
0.0
 40
0.0
 40
0.0
 40
0.195605220418355
 40
0.3911555589520685
 40
0.5866609363080809
 40
0.7821313779883255
 40
0.9775769912067883
 40
0.9999999999999999
 40
0.9999999999999999
 40
0.9999999999999999
 40
0.9999999999999999
 10
39.86602540378444
 20
0.5536913668241707
 30
0.0
 10
39.48555893128319
 20
0.7641329387867755
 30
0.0
 10
38.72473273556379
 20
1.184957038121807
 30
0.0
 10
37.58371832999159
 20
1.723091007271149
 30
0.0
 10
36.44301270884879
 20
2.149638701856403
 30
0.0
 10
35.30255426493719
 20
2.409819311757969
 30
0.0
 10
34.49871901577339
 20
2.521731834903339
 30
0.0
 10
34.07502945878897
 20
2.494074308436052
 30
0.0
 10
34.03142338750557
 20
2.491227799593024
 30
0.0
  0
SPLINE
  5
D7
330
1F
100
AcDbEntity
  8
0
  6
Continuous
 62
     1
370
    25
100
AcDbSpline
210
0.0
220
0.0
230
1.0
 70
     8
 71
     3
 72
    22
 73
    18
 74
     0
 42
0.000000001
 43
0.00000001
 40
0.0
 40
0.0
 40
0.0
 40
0.0
 40
0.0066277209964265
 40
0.0777590387725168
 40
0.1575396001875871
 40
0.2373173942055403
 40
0.3170920963991186
 40
0.3968633837952678
 40
0.4766309350241424
 40
0.5563944304664932
 40
0.6361577421340582
 40
0.7073271871814374
 40
0.7784766638799927
 40
0.849609781802137
 40
0.9207301886491297
 40
0.9918415618525286
 40
0.9999999999999999
 40
0.9999999999999999
 40
0.9999999999999999
 40
0.9999999999999999
 10
22.86180706118918
 20
-2.109210319818743
 30
0.0
 10
22.82637824993044
 20
-2.122034899035759
 30
0.0
 10
22.41071345205836
 20
-2.27249792442788
 30
0.0
 10
21.56870883802936
 20
-2.434856279139558
 30
0.0
 10
20.33527323149593
 20
-2.538987723828385
 30
0.0
 10
19.05577127397779
 20
-2.409733967427437
 30
0.0
 10
17.77629164259857
 20
-2.076200539590524
 30
0.0
 10
16.4968876903017
 20
-1.561472379938713
 30
0.0
 10
15.21755280714214
 20
-0.9117292712754247
 30
0.0
 10
13.93827474645937
 20
-0.1829080936600323
 30
0.0
 10
12.70497405160699
 20
0.5351339499456214
 30
0.0
 10
11.51774304935874
 20
1.183210227641812
 30
0.0
 10
10.37672765822113
 20
1.723559014493614
 30
0.0
 10
9.236022301326026
 20
2.149512876887691
 30
0.0
 10
8.095563785661767
 20
2.409854733274985
 30
0.0
 10
7.291728552592568
 20
2.521731087936736
 30
0.0
 10
6.868038995306691
 20
2.494074238732255
 30
0.0
 10
6.824432923992276
 20
2.491227799593022
 30
0.0
  0
SPLINE
  5
D8
330
1F
100
AcDbEntity
  8
0
  6
Continuous
 62
     1
370
    25
100
AcDbSpline
210
0.0
220
0.0
230
1.0
 70
     8
 71
     3
 72
    22
 73
    18
 74
     0
 42
0.000000001
 43
0.00000001
 40
0.0
 40
0.0
 40
0.0
 40
0.0
 40
0.0412331995603986
 40
0.120634389353161
 40
0.2000335338818386
 40
0.2713103960535213
 40
0.3425735995273114
 40
0.4138268222775282
 40
0.4850737656701108
 40
0.5563181458163357
 40
0.6275636848528893
 40
0.6988141021918062
 40
0.7700731057840359
 40
0.8413443834402898
 40
0.9126315942523284
 40
0.9839383601569943
 40
0.9999999999999999
 40
0.9999999999999999
 40
0.9999999999999999
 40
0.9999999999999999
 10
9.29022937241173
 20
2.102084659636919
 30
0.0
 10
9.510237523700924
 20
2.173080476937798
 30
0.0
 10
10.15390692763871
 20
2.380790214674125
 30
0.0
 10
11.22120291570357
 20
2.515346457020898
 30
0.0
 10
12.44887392534367
 20
2.495346957681952
 30
0.0
 10
13.63284689282519
 20
2.27910930420561
 30
0.0
 10
14.77337256353719
 20
1.915674072257119
 30
0.0
 10
15.91369268048195
 20
1.419548829550754
 30
0.0
 10
17.0538960114752
 20
0.8256872272154203
 30
0.0
 10
18.19404914119985
 20
0.1748252845265388
 30
0.0
 10
19.3342247614229
 20
-0.4880141507512812
 30
0.0
 10
20.47449404236011
 20
-1.117490043728328
 30
0.0
 10
21.61492780493767
 20
-1.6688830347326
 30
0.0
 10
22.75559840586366
 20
-2.109019339941637
 30
0.0
 10
23.89656997521784
 20
-2.389341159872739
 30
0.0
 10
24.74305755080623
 20
-2.514649709601093
 30
0.0
 10
25.20920274403734
 20
-2.489519006129376
 30
0.0
 10
25.29489798070962
 20
-2.484899025889267
 30
0.0
  0
SPLINE
  5
D9
330
1F
100
AcDbEntity
  8
0
  6
Continuous
 62
     1
370
    25
100
AcDbSpline
210
0.0
220
0.0
230
1.0
 70
     8
 71
     3
 72
    11
 73
     7
 74
     0
 42
0.000000001
 43
0.00000001
 40
0.0
 40
0.0
 40
0.0
 40
0.0
 40
0.1984026718907347
 40
0.5804590821169582
 40
0.9625056511020574
 40
1.0
 40
1.0
 40
1.0
 40
1.0
 10
36.49721983592499
 20
2.102084659636919
 30
0.0
 10
36.71723712472084
 20
2.173105567547566
 30
0.0
 10
37.36093326191114
 20
2.380888711917873
 30
0.0
 10
38.42788450755196
 20
2.51449832867429
 30
0.0
 10
39.31781661536197
 20
2.502787796285196
 30
0.0
 10
39.7821606186864
 20
2.448131395163497
 30
0.0
 10
39.82365901688118
 20
2.443246755582921
 30
0.0
  0
SPLINE
  5
DA
330
1F
100
AcDbEntity
  8
0
  6
Continuous
 62
     1
370
    25
100
AcDbSpline
210
0.0
220
0.0
230
1.0
 70
     8
 71
     3
 72
    13
 73
     9
 74
     0
 42
0.000000001
 43
0.00000001
 40
0.0
 40
0.0
 40
0.0
 40
0.0
 40
0.1386756861549518
 40
0.2817313386957559
 40
0.4659993616812628
 40
0.6509668390755338
 40
0.8236573356673749
 40
1.0
 40
1.0
 40
1.0
 40
1.0
 10
39.82365901688118
 20
2.443246755582921
 30
0.0
 10
39.82559825879142
 20
2.34939537137596
 30
0.0
 10
39.82953799209705
 20
2.158728378161786
 30
0.0
 10
39.77985735263766
 20
1.847313988755957
 30
0.0
 10
39.65595585462336
 20
1.528830840828648
 30
0.0
 10
39.43383494108867
 20
1.271746009363372
 30
0.0
 10
39.1595236191223
 20
1.117550281873165
 30
0.0
 10
38.96562184358266
 20
1.100804328223868
 30
0.0
 10
38.86765649373763
 20
1.092343739334589
 30
0.0
  0
LINE
  5
DB
330
1F
100
AcDbEntity
  8
0
  6
Continuous
 62
     1
370
    25
100
AcDbLine
 10
39.86602540378444
 20
0.5556562099385243
 30
0.0
 11
39.86602540378444
 21
0.5653176926618394
 31
0.0
  0
SPLINE
  5
DC
330
1F
100
AcDbEntity
  8
0
  6
Continuous
 62
     4
370
    25
100
AcDbSpline
210
0.0
220
0.0
230
1.0
 70
    24
 71
     3
 72
    14
 73
    10
 74
     0
 42
0.000000001
 43
0.00000001
 40
0.0
 40
0.0
 40
0.0
 40
0.0
 40
0.1362342184733794
 40
0.2757631798505232
 40
0.4243317369533384
 40
0.5772087922768842
 40
0.7257773493796996
 40
0.8786544047032455
 40
1.0
 40
1.0
 40
1.0
 40
1.0
 10
4.866025403784437
 20
2.499958583947254
 30
0.0
 10
4.866025403784437
 20
2.412609616229537
 30
0.0
 10
4.866025403784437
 20
2.235799198374016
 30
0.0
 10
4.866025403784437
 20
1.978097838116914
 30
0.0
 10
4.866025403784437
 20
1.730411034008223
 30
0.0
 10
4.866025403784437
 20
1.506417657006872
 30
0.0
 10
4.866025403784437
 20
1.317444762834435
 30
0.0
 10
4.866025403784437
 20
1.175030444707777
 30
0.0
 10
4.866025403784437
 20
1.118054532405242
 30
0.0
 10
4.866025403784437
 20
1.092842260624308
 30
0.0
  0
SPLINE
  5
DD
330
1F
100
AcDbEntity
  8
0
  6
Continuous
 62
     1
370
    25
100
AcDbSpline
210
0.0
220
0.0
230
1.0
 70
     8
 71
     3
 72
    19
 73
    15
 74
     0
 42
0.000000001
 43
0.00000001
 40
0.0
 40
0.0
 40
0.0
 40
0.0
 40
0.0932688664420219
 40
0.1865361170585471
 40
0.2798015543550277
 40
0.373064981385158
 40
0.4663262018097382
 40
0.5595850199551443
 40
0.643303754794199
 40
0.7270064467145239
 40
0.8106974157064698
 40
0.8943810092351767
 40
0.9780615920850235
 40
1.0
 40
1.0
 40
1.0
 40
1.0
 10
4.86602540378245
 20
2.499958583921196
 30
0.0
 10
5.2897255320886
 20
2.480490260355423
 30
0.0
 10
6.137118448357906
 20
2.441553950500558
 30
0.0
 10
7.408190868873318
 20
2.116983404259252
 30
0.0
 10
8.679232367539534
 20
1.626674642473874
 30
0.0
 10
9.950246748408327
 20
0.9931058936766844
 30
0.0
 10
11.22120334176123
 20
0.2756972156411531
 30
0.0
 10
12.44887382640773
 20
-0.4403219699264897
 30
0.0
 10
13.63284691058487
 20
-1.095711520145901
 30
0.0
 10
14.77337258713702
 20
-1.650695966602132
 30
0.0
 10
15.91369256834777
 20
-2.09535605379991
 30
0.0
 10
17.05389643637074
 20
-2.382024805433371
 30
0.0
 10
17.91363309614717
 20
-2.512177902284154
 30
0.0
 10
18.39331590856628
 20
-2.4882398664913
 30
0.0
 10
18.49295213054161
 20
-2.48326763195181
 30
0.0
  0
SPLINE
  5
DE
330
1F
100
AcDbEntity
  8
0
  6
Continuous
 62
     1
370
    25
100
AcDbSpline
210
0.0
220
0.0
230
1.0
 70
     8
 71
     3
 72
    17
 73
    13
 74
     0
 42
0.000000001
 43
0.00000001
 40
0.0
 40
0.0
 40
0.0
 40
0.0
 40
0.106030820973476
 40
0.1714126843617804
 40
0.2371361799763455
 40
0.3622403661504014
 40
0.4873423849717121
 40
0.612441971535217
 40
0.7375388616712281
 40
0.8626327920243873
 40
0.9877235001320904
 40
1.0
 40
1.0
 40
1.0
 40
1.0
 10
29.66471109517512
 20
2.11156013930317
 30
0.0
 10
30.02386525807223
 20
2.211529013051936
 30
0.0
 10
30.60448491749469
 20
2.373141767198078
 30
0.0
 10
31.40625786106364
 20
2.477254184500578
 30
0.0
 10
32.27420327288924
 20
2.519941844927283
 30
0.0
 10
33.34408118026762
 20
2.431758069702211
 30
0.0
 10
34.61519417558832
 20
2.119609655762056
 30
0.0
 10
35.88619918978448
 20
1.625965263387841
 30
0.0
 10
37.15731893146656
 20
0.9933172336003203
 30
0.0
 10
38.42789057862898
 20
0.2755612155729706
 30
0.0
 10
39.31781650718521
 20
-0.2425609929056718
 30
0.0
 10
39.78216060981177
 20
-0.5061117469902469
 30
0.0
 10
39.82365901688118
 20
-0.5296652634763734
 30
0.0
  0
SPLINE
  5
DF
330
1F
100
AcDbEntity
  8
0
  6
Continuous
 62
     1
370
    25
100
AcDbSpline
210
0.0
220
0.0
230
1.0
 70
     8
 71
     3
 72
     8
 73
     4
 74
     0
 42
0.000000001
 43
0.00000001
 40
0.0
 40
0.0
 40
0.0
 40
0.0
 40
1.0
 40
1.0
 40
1.0
 40
1.0
 10
39.86602540378444
 20
-2.053197595406612
 30
0.0
 10
39.48157408017018
 20
-1.835364993727224
 30
0.0
 10
39.12130465450345
 20
-1.564241810314315
 30
0.0
 10
38.77393564529772
 20
-1.264689481294032
 30
0.0
  0
LINE
  5
E0
330
1F
100
AcDbEntity
  8
0
  6
Continuous
 62
     1
370
    25
100
AcDbLine
 10
39.86602540378444
 20
-2.437914245888158
 30
0.0
 11
39.86602540378444
 21
-2.053197595406614
 31
0.0
  0
LINE
  5
E1
330
1F
100
AcDbEntity
  8
0
  6
Continuous
 62
     1
370
    25
100
AcDbLine
 10
39.82365901688119
 20
-0.5296652634763745
 30
0.0
 11
39.82129623944923
 21
-0.5313196980453404
 31
0.0
  0
SPLINE
  5
E2
330
1F
100
AcDbEntity
  8
0
  6
Continuous
 62
     1
370
    25
100
AcDbSpline
210
0.0
220
0.0
230
1.0
 70
    24
 71
     3
 72
    12
 73
     8
 74
     0
 42
0.000000001
 43
0.00000001
 40
0.0
 40
0.0
 40
0.0
 40
0.0
 40
0.2343720861406643
 40
0.4741572501593734
 40
0.6980269792225082
 40
0.9425204944721157
 40
0.9999999999999999
 40
0.9999999999999999
 40
0.9999999999999999
 40
0.9999999999999999
 10
39.7732461681309
 20
-0.5649647201939494
 30
0.0
 10
39.73528410892636
 20
-0.5915460402149234
 30
0.0
 10
39.65848321552987
 20
-0.6453226047123992
 30
0.0
 10
39.43283399315116
 20
-0.8033238912131124
 30
0.0
 10
39.15356239602008
 20
-0.9988719687321801
 30
0.0
 10
38.92716038765657
 20
-1.157400361654117
 30
0.0
 10
38.79843758027074
 20
-1.247533041725195
 30
0.0
 10
38.77393564529771
 20
-1.264689481294033
 30
0.0
  0
SPLINE
  5
E3
330
1F
100
AcDbEntity
  8
0
  6
Continuous
 62
     1
370
    25
100
AcDbSpline
210
0.0
220
0.0
230
1.0
 70
     8
 71
     3
 72
    22
 73
    18
 74
     0
 42
0.000000001
 43
0.00000001
 40
0.0
 40
0.0
 40
0.0
 40
0.0
 40
0.0039431456028591
 40
0.0750629508318111
 40
0.1461959274096097
 40
0.2173457185972668
 40
0.2885155561023127
 40
0.3596802923268774
 40
0.4308255124088846
 40
0.5019548310709596
 40
0.5817331502888733
 40
0.6615087021874464
 40
0.7412811623485388
 40
0.8210502078081736
 40
0.9008155172055371
 40
0.9805767709303627
 40
0.9999999999999999
 40
0.9999999999999999
 40
0.9999999999999999
 40
0.9999999999999999
 10
29.66471109517509
 20
-2.111560139303168
 30
0.0
 10
29.64363439465188
 20
-2.119247164289773
 30
0.0
 10
29.24241174288799
 20
-2.265579771991105
 30
0.0
 10
28.46094713589489
 20
-2.417907368972941
 30
0.0
 10
27.32020791622474
 20
-2.531149760212271
 30
0.0
 10
26.17915205823311
 20
-2.454265139450428
 30
0.0
 10
25.03783356170938
 20
-2.212187094488513
 30
0.0
 10
23.89657574546546
 20
-1.816341877181128
 30
0.0
 10
22.7555801830514
 20
-1.295449126933526
 30
0.0
 10
21.5687002355808
 20
-0.6603917930261508
 30
0.0
 10
20.33527565100363
 20
0.0536687991738553
 30
0.0
 10
19.05577061134334
 20
0.7901556498998807
 30
0.0
 10
17.77629187375052
 20
1.456892480110695
 30
0.0
 10
16.49688742830448
 20
2.001997152122936
 30
0.0
 10
15.21755362393585
 20
2.356142858817178
 30
0.0
 10
14.2608504960519
 20
2.516872597880251
 30
0.0
 10
13.73059717002918
 20
2.486004250450936
 30
0.0
 10
13.62675802577897
 20
2.479959323197918
 30
0.0
  0
SPLINE
  5
E4
330
1F
100
AcDbEntity
  8
0
  6
Continuous
 62
     1
370
    25
100
AcDbSpline
210
0.0
220
0.0
230
1.0
 70
     8
 71
     3
 72
    23
 73
    19
 74
     0
 42
0.000000001
 43
0.00000001
 40
0.0
 40
0.0
 40
0.0
 40
0.0
 40
0.0633444662276265
 40
0.1343338051179546
 40
0.2053242987500057
 40
0.2763196532210305
 40
0.3473235632082234
 40
0.4183397033206387
 40
0.489371719551188
 40
0.5604232208708729
 40
0.6314798153540556
 40
0.7025163954168672
 40
0.7735361876246548
 40
0.844542829441397
 40
0.9155399890769156
 40
0.9568914241001311
 40
0.9984589279545781
 40
1.0
 40
1.0
 40
1.0
 40
1.0
 10
16.03654703584073
 20
2.100708762366058
 30
0.0
 10
16.37566804552991
 20
2.197700166589613
 30
0.0
 10
17.09483766428218
 20
2.403388605833281
 30
0.0
 10
18.19404890651492
 20
2.520736906527757
 30
0.0
 10
19.33422482977345
 20
2.482144698445615
 30
0.0
 10
20.47449400365583
 20
2.268717523350733
 30
0.0
 10
21.61492789141148
 20
1.899755512645897
 30
0.0
 10
22.75559809859438
 20
1.399447181070117
 30
0.0
 10
23.89657111820654
 20
0.8025920932418633
 30
0.0
 10
25.03783414810054
 20
0.1503475471228447
 30
0.0
 10
26.17915434082266
 20
-0.5122699853385738
 30
0.0
 10
27.32019820384641
 20
-1.139454582238122
 30
0.0
 10
28.46098369163619
 20
-1.688478213597528
 30
0.0
 10
29.60130551203152
 20
-2.119003698888748
 30
0.0
 10
30.58345560449342
 20
-2.37012611194739
 30
0.0
 10
31.40624296333745
 20
-2.470106172766093
 30
0.0
 10
31.85867844631024
 20
-2.51782500945823
 30
0.0
 10
32.08952054436874
 20
-2.498642745075318
 30
0.0
 10
32.09777283052754
 20
-2.497957005618809
 30
0.0
  0
LINE
  5
E5
330
1F
100
AcDbEntity
  8
0
  6
Continuous
 62
     1
370
    25
100
AcDbLine
 10
39.86602540378444
 20
-0.5000000000000064
 30
0.0
 11
39.86602540378444
 21
0.5536913668241715
 31
0.0
  0
LINE
  5
E6
330
1F
100
AcDbEntity
  8
0
  6
Continuous
 62
     1
370
    25
100
AcDbLine
 10
39.86602540378444
 20
-0.5000000000000057
 30
0.0
 11
39.82365901688118
 21
-0.5296652634763804
 31
0.0
  0
ELLIPSE
  5
E7
330
1F
100
AcDbEntity
  8
0
  6
Continuous
 62
     1
370
    25
100
AcDbEllipse
 10
40.58009940715549
 20
0.0
 30
0.0
 11
3.570370016855286
 21
0.0
 31
0.0
210
0.0
220
0.0
230
1.0
 40
0.7002075382097108
 41
1.772154247585226
 42
1.784280345110195
  0
LINE
  5
E8
330
1F
100
AcDbEntity
  8
0
  6
Continuous
 62
     1
370
    25
100
AcDbLine
 10
39.86602540378444
 20
2.449489742783185
 30
0.0
 11
39.86602540378444
 21
2.500000000000007
 31
0.0
  0
LINE
  5
E9
330
1F
100
AcDbEntity
  8
0
  6
Continuous
 62
     1
370
    25
100
AcDbLine
 10
39.86602540378444
 20
0.5653176926618394
 30
0.0
 11
39.86602540378444
 21
2.449489742783185
 31
0.0
  0
LINE
  5
EA
330
1F
100
AcDbEntity
  8
0
  6
Continuous
 62
     1
370
    25
100
AcDbLine
 10
39.86602540378444
 20
-0.4999999999999979
 30
0.0
 11
39.86602540378444
 21
-2.053197595406609
 31
0.0
  0
LINE
  5
EB
330
1F
100
AcDbEntity
  8
중심선
100
AcDbLine
 10
-53.13397459621555
 20
-0.0000000000000048
 30
0.0
 11
42.86602540378445
 21
0.000000000000007
 31
0.0
  0
CIRCLE
  5
EC
330
1F
100
AcDbEntity
  8
해칭선
100
AcDbCircle
 10
0.0001597796628738
 20
-0.0000000000000043
 30
0.0
 40
3.000000000000003
  0
INSERT
  5
ED
330
1F
100
AcDbEntity
  8
0
  6
Continuous
 62
     7
100
AcDbBlockReference
 66
     1
  2
블럭10
 10
-12.44009924894178
 20
-52.04717430164393
 30
0.0
  0
ATTRIB
  5
EE
330
ED
100
AcDbEntity
  8
FORMAT
 62
     2
100
AcDbText
 10
-28.55936028837733
 20
-49.97180738881174
 30
0.0
 40
4.233333333333333
  1
SEME7205035E [ 4 FLUTE ]
 41
0.75
  7
SLDTEXTSTYLE0
 11
-28.55936028837733
 21
-52.08847405547841
 31
0.0
100
AcDbAttribute
  2
AUTOATTR0
 70
     0
 74
     1
  0
SEQEND
  5
EF
330
ED
100
AcDbEntity
  8
0
  6
Continuous
 62
     7
  0
HATCH
  5
F0
330
1F
100
AcDbEntity
  8
중심선
100
AcDbHatch
 10
0.0
 20
0.0
 30
0.0
210
0.0
220
0.0
230
1.0
  2
SOLID
 70
     1
 71
     0
 91
        1
 92
        0
 93
        4
 72
     1
 10
-6.725189944560922
 20
-35.8
 11
-10.17146518839821
 21
-35.8
 72
     1
 10
-10.17146518839821
 20
-35.8
 11
-12.29969504760223
 21
-38.33632558057262
 72
     1
 10
-12.29969504760223
 20
-38.33632558057262
 11
-8.853386718651796
 21
-38.33628615127013
 72
     1
 10
-8.853386718651796
 20
-38.33628615127013
 11
-6.725189944560922
 21
-35.8
 97
        0
 75
     0
 76
     1
 98
        1
 10
0.0
 20
0.0
  0
HATCH
  5
F1
330
1F
100
AcDbEntity
  8
중심선
100
AcDbHatch
 10
0.0
 20
0.0
 30
0.0
210
0.0
220
0.0
230
1.0
  2
SOLID
 70
     1
 71
     0
 91
        1
 92
        0
 93
        4
 72
     1
 10
-1.712425953524915
 20
-35.79999999999997
 11
-5.158701197362225
 21
-35.8
 72
     1
 10
-5.158701197362225
 20
-35.8
 11
-9.689839205719641
 21
-41.20000000000002
 72
     1
 10
-9.689839205719641
 20
-41.20000000000002
 11
-6.243563961882359
 21
-41.20000000000002
 72
     1
 10
-6.243563961882359
 20
-41.20000000000002
 11
-1.712425953524916
 21
-35.79999999999997
 97
        0
 75
     0
 76
     1
 98
        1
 10
0.0
 20
0.0
  0
HATCH
  5
F2
330
1F
100
AcDbEntity
  8
중심선
100
AcDbHatch
 10
0.0
 20
0.0
 30
0.0
210
0.0
220
0.0
230
1.0
  2
SOLID
 70
     1
 71
     0
 91
        1
 92
        0
 93
        4
 72
     1
 10
3.300338037510953
 20
-35.79999999999997
 11
-0.1459372063261632
 21
-35.8
 72
     1
 10
-0.1459372063261632
 20
-35.8
 11
-7.19437410821544
 21
-44.20000000000002
 72
     1
 10
-7.19437410821544
 20
-44.20000000000002
 11
-3.748098864378158
 21
-44.20000000000002
 72
     1
 10
-3.748098864378158
 20
-44.20000000000002
 11
3.300338037510952
 21
-35.79999999999997
 97
        0
 75
     0
 76
     1
 98
        1
 10
0.0
 20
0.0
  0
HATCH
  5
F3
330
1F
100
AcDbEntity
  8
중심선
100
AcDbHatch
 10
0.0
 20
0.0
 30
0.0
210
0.0
220
0.0
230
1.0
  2
SOLID
 70
     1
 71
     0
 91
        1
 92
        0
 93
        6
 72
     3
 10
8.100228468523124
 20
-40.00000000005127
 11
3.960054785062284
 21
1.540850780301639E-10
 40
0.3939339440162633
 50
17.09539180608434
 51
320.0019657685079
 73
     0
 72
     1
 10
9.783228124223719
 20
-38.5878940046383
 11
12.08852999792476
 21
-36.65356729459038
 72
     3
 10
8.100228468470277
 20
-40.00000000000015
 11
6.600054785286829
 21
-1.249000902703301E-13
 40
0.6363583540795982
 50
39.99873849337408
 51
368.4976242363725
 73
     1
 72
     1
 10
14.52556096037089
 20
-39.03999999993002
 11
6.7802957753062
 21
-39.03999999993002
 72
     1
 10
6.7802957753062
 20
-39.03999999993002
 11
6.780270730860266
 21
-40.95999999992991
 72
     1
 10
6.780270730860266
 20
-40.95999999992991
 11
11.2216505003323
 21
-40.95999999992988
 97
        0
 75
     0
 76
     1
 98
        1
 10
0.0
 20
0.0
  0
DIMENSION
  5
F4
330
1F
100
AcDbEntity
  8
치수문자_일반주서
100
AcDbDimension
  2
_D
 10
50.89124996837953
 20
2.50000000000005
 30
0.0
 11
50.8912499683795
 21
12.16650000000005
 31
0.0
 70
   160
  1
%%c<>
 71
     2
 42
5.00000000000002
 52
-270.0
  3
SLDDIMSTYLE0
100
AcDbAlignedDimension
 13
39.86602540378448
 23
-2.500000000000011
 33
0.0
 14
39.86602540378448
 24
2.500000000000009
 34
0.0
 50
90.0000000000002
100
AcDbRotatedDimension
  0
DIMENSION
  5
102
330
1F
100
AcDbEntity
  8
치수문자_일반주서
100
AcDbDimension
  2
_D_1
 10
39.86602540378444
 20
20.38913260158164
 30
0.0
 11
-5.133974596215559
 21
20.38913260158164
 31
0.0
 70
   160
  1
<>
 71
     2
 42
90.0
  3
SLDDIMSTYLE1
100
AcDbAlignedDimension
 13
-50.13397459621556
 23
2.499999999999992
 33
0.0
 14
39.86602540378444
 24
2.500000000000007
 34
0.0
 50
-0.0000000000000045
100
AcDbRotatedDimension
  0
DIMENSION
  5
10D
330
1F
100
AcDbEntity
  8
치수문자_일반주서
100
AcDbDimension
  2
_D_2
 10
-59.69756166469642
 20
-3.000000000000041
 30
0.0
 11
-59.69756166469648
 21
12.66649999999997
 31
0.0
 70
   160
  1
%%c<>
 71
     2
 42
6.000000000000005
 52
-270.0
  3
SLDDIMSTYLE2
100
AcDbAlignedDimension
 13
-49.63397459621556
 23
3.000000000000003
 33
0.0
 14
-49.63397459621556
 24
-3.000000000000003
 34
0.0
 50
90.0000000000002
100
AcDbRotatedDimension
  0
DIMENSION
  5
11B
330
1F
100
AcDbEntity
  8
치수문자_일반주서
100
AcDbDimension
  2
_D_3
 10
39.86602540378445
 20
13.34587688653492
 30
0.0
 11
22.36602540378444
 21
13.34587688653492
 31
0.0
 70
   160
  1
<>
 71
     2
 42
35.0
  3
SLDDIMSTYLE1
100
AcDbAlignedDimension
 13
4.866025403784437
 23
2.499958583947274
 33
0.0
 14
39.86602540378444
 24
2.500000000000007
 34
0.0
 50
-0.0000000000000029
100
AcDbRotatedDimension
  0
INSERT
  5
12B
330
1F
100
AcDbEntity
  8
해칭선
100
AcDbBlockReference
  2
SW_DOWELSYMBOL_0
 10
0.0001597796628738
 20
-0.0000000000000043
 30
0.0
  0
ENDSEC
  0
SECTION
  2
OBJECTS
  0
DICTIONARY
  5
C
330
0
100
AcDbDictionary
281
     1
  3
ACAD_GROUP
350
D
  3
ACAD_IMAGE_VARS
350
14F
  3
ACAD_LAYOUT
350
1A
  3
ACAD_MLINESTYLE
350
17
  3
ACAD_PLOTSETTINGS
350
19
  3
ACAD_PLOTSTYLENAME
350
E
  3
ACAD_SCALELIST
350
47
  3
APPDATA
350
14D
  3
DWGPROPS
350
15F
  0
DICTIONARY
  5
D
102
{ACAD_REACTORS
330
C
102
}
330
C
100
AcDbDictionary
281
     1
  0
RASTERVARIABLES
  5
14F
102
{ACAD_REACTORS
330
C
102
}
330
C
100
AcDbRasterVariables
 90
        0
 70
     1
 71
     1
 72
     1
  0
DICTIONARY
  5
1A
102
{ACAD_REACTORS
330
C
102
}
330
C
100
AcDbDictionary
281
     1
  3
Layout1
350
1E
  3
Layout2
350
26
  3
Model
350
22
  0
DICTIONARY
  5
17
102
{ACAD_REACTORS
330
C
102
}
330
C
100
AcDbDictionary
281
     1
  3
Standard
350
18
  0
DICTIONARY
  5
19
102
{ACAD_REACTORS
330
C
102
}
330
C
100
AcDbDictionary
281
     1
  0
ACDBDICTIONARYWDFLT
  5
E
102
{ACAD_REACTORS
330
C
102
}
330
C
100
AcDbDictionary
281
     1
  3
Normal
350
F
100
AcDbDictionaryWithDefault
340
F
  0
DICTIONARY
  5
47
102
{ACAD_REACTORS
330
C
102
}
330
C
100
AcDbDictionary
281
     1
  3
A0
350
48
  3
A1
350
49
  3
A2
350
4A
  3
A3
350
4B
  3
A4
350
4C
  3
A5
350
4D
  3
A6
350
4E
  3
A7
350
4F
  3
A8
350
50
  3
A9
350
51
  3
B0
350
52
  3
B1
350
53
  3
B2
350
54
  3
B3
350
55
  3
B4
350
56
  3
B5
350
57
  3
B6
350
58
  3
B7
350
59
  3
B8
350
5A
  3
B9
350
5B
  3
C0
350
5C
  3
C1
350
5D
  3
C2
350
5E
  3
C3
350
5F
  3
C4
350
60
  3
C5
350
61
  3
C6
350
62
  3
C7
350
63
  3
C8
350
64
  3
C9
350
65
  3
D0
350
66
  3
D1
350
67
  3
D2
350
68
  0
DICTIONARY
  5
14D
102
{ACAD_REACTORS
330
C
102
}
330
C
100
AcDbDictionary
281
     1
  0
XRECORD
  5
15F
102
{ACAD_REACTORS
330
C
102
}
330
C
100
AcDbXrecord
280
     1
  1
DWGPROPS COOKIE
  2

  3

  4

  6

  7

  8
12014102
  9

300
=
301
=
302
=
303
=
304
=
305
=
306
=
307
=
308
=
309
=
 40
0.0
 41
2458260.198054526
 42
2458268.124610509
  1

 90
        0
  0
LAYOUT
  5
1E
102
{ACAD_REACTORS
330
1A
102
}
330
1A
100
AcDbPlotSettings
  1

  2
none_device
  4

  6

 40
0.0
 41
0.0
 42
0.0
 43
0.0
 44
0.0
 45
0.0
 46
0.0
 47
0.0
 48
0.0
 49
0.0
140
0.0
141
0.0
142
1.0
143
1.0
 70
   688
 72
     1
 73
     0
 74
     5
  7

 75
    16
147
1.0
148
0.0
149
0.0
100
AcDbLayout
  1
Layout1
 70
     1
 71
     1
 10
0.0
 20
0.0
 11
420.0
 21
297.0
 12
0.0
 22
0.0
 32
0.0
 14
1.000000000000000E+20
 24
1.000000000000000E+20
 34
1.000000000000000E+20
 15
-1.000000000000000E+20
 25
-1.000000000000000E+20
 35
-1.000000000000000E+20
146
0.0
 13
0.0
 23
0.0
 33
0.0
 16
1.0
 26
0.0
 36
0.0
 17
0.0
 27
1.0
 37
0.0
 76
     0
330
1B
  0
LAYOUT
  5
26
102
{ACAD_REACTORS
330
1A
102
}
330
1A
100
AcDbPlotSettings
  1

  2
none_device
  4

  6

 40
0.0
 41
0.0
 42
0.0
 43
0.0
 44
0.0
 45
0.0
 46
0.0
 47
0.0
 48
0.0
 49
0.0
140
0.0
141
0.0
142
1.0
143
1.0
 70
   688
 72
     1
 73
     0
 74
     5
  7

 75
    16
147
1.0
148
0.0
149
0.0
100
AcDbLayout
  1
Layout2
 70
     1
 71
     2
 10
0.0
 20
0.0
 11
0.0
 21
0.0
 12
0.0
 22
0.0
 32
0.0
 14
0.0
 24
0.0
 34
0.0
 15
0.0
 25
0.0
 35
0.0
146
0.0
 13
0.0
 23
0.0
 33
0.0
 16
1.0
 26
0.0
 36
0.0
 17
0.0
 27
1.0
 37
0.0
 76
     0
330
23
  0
LAYOUT
  5
22
102
{ACAD_REACTORS
330
1A
102
}
330
1A
100
AcDbPlotSettings
  1

  2
none_device
  4
ANSI_A_(11.00_x_8.50_Inches)
  6

 40
6.35
 41
19.05
 42
6.35000508
 43
19.05000254
 44
279.4
 45
215.9
 46
131.4145510005845
 47
117.493632602635
 48
0.0
 49
0.0
140
0.0
141
0.0
142
0.0872157908483446
143
1.0
 70
  1696
 72
     0
 73
     0
 74
     0
  7

 75
     0
147
0.0235690232323232
148
0.0
149
0.0
100
AcDbLayout
  1
Model
 70
     1
 71
     0
 10
0.0
 20
0.0
 11
420.0
 21
297.0
 12
0.0
 22
0.0
 32
0.0
 14
-64.07256166469648
 24
-49.97180738881174
 34
0.0
 15
51.44158330171288
 25
24.76413260158164
 35
0.0
146
0.0
 13
0.0
 23
0.0
 33
0.0
 16
1.0
 26
0.0
 36
0.0
 17
0.0
 27
1.0
 37
0.0
 76
     0
330
1F
331
29
  0
MLINESTYLE
  5
18
102
{ACAD_REACTORS
330
17
102
}
330
17
100
AcDbMlineStyle
  2
Standard
 70
     0
  3

 62
   256
 51
90.0
 52
90.0
 71
     2
 49
0.5
 62
   256
  6
BYLAYER
 49
-0.5
 62
   256
  6
BYLAYER
  0
ACDBPLACEHOLDER
  5
F
102
{ACAD_REACTORS
330
E
102
}
330
E
  0
SCALE
  5
48
102
{ACAD_REACTORS
330
47
102
}
330
47
100
AcDbScale
 70
     0
300
1:1
140
1.0
141
1.0
290
     1
  0
SCALE
  5
49
102
{ACAD_REACTORS
330
47
102
}
330
47
100
AcDbScale
 70
     0
300
1:2
140
1.0
141
2.0
290
     0
  0
SCALE
  5
4A
102
{ACAD_REACTORS
330
47
102
}
330
47
100
AcDbScale
 70
     0
300
1:4
140
1.0
141
4.0
290
     0
  0
SCALE
  5
4B
102
{ACAD_REACTORS
330
47
102
}
330
47
100
AcDbScale
 70
     0
300
1:5
140
1.0
141
5.0
290
     0
  0
SCALE
  5
4C
102
{ACAD_REACTORS
330
47
102
}
330
47
100
AcDbScale
 70
     0
300
1:8
140
1.0
141
8.0
290
     0
  0
SCALE
  5
4D
102
{ACAD_REACTORS
330
47
102
}
330
47
100
AcDbScale
 70
     0
300
1:10
140
1.0
141
10.0
290
     0
  0
SCALE
  5
4E
102
{ACAD_REACTORS
330
47
102
}
330
47
100
AcDbScale
 70
     0
300
1:16
140
1.0
141
16.0
290
     0
  0
SCALE
  5
4F
102
{ACAD_REACTORS
330
47
102
}
330
47
100
AcDbScale
 70
     0
300
1:20
140
1.0
141
20.0
290
     0
  0
SCALE
  5
50
102
{ACAD_REACTORS
330
47
102
}
330
47
100
AcDbScale
 70
     0
300
1:30
140
1.0
141
30.0
290
     0
  0
SCALE
  5
51
102
{ACAD_REACTORS
330
47
102
}
330
47
100
AcDbScale
 70
     0
300
1:40
140
1.0
141
40.0
290
     0
  0
SCALE
  5
52
102
{ACAD_REACTORS
330
47
102
}
330
47
100
AcDbScale
 70
     0
300
1:50
140
1.0
141
50.0
290
     0
  0
SCALE
  5
53
102
{ACAD_REACTORS
330
47
102
}
330
47
100
AcDbScale
 70
     0
300
1:100
140
1.0
141
100.0
290
     0
  0
SCALE
  5
54
102
{ACAD_REACTORS
330
47
102
}
330
47
100
AcDbScale
 70
     0
300
2:1
140
2.0
141
1.0
290
     0
  0
SCALE
  5
55
102
{ACAD_REACTORS
330
47
102
}
330
47
100
AcDbScale
 70
     0
300
4:1
140
4.0
141
1.0
290
     0
  0
SCALE
  5
56
102
{ACAD_REACTORS
330
47
102
}
330
47
100
AcDbScale
 70
     0
300
8:1
140
8.0
141
1.0
290
     0
  0
SCALE
  5
57
102
{ACAD_REACTORS
330
47
102
}
330
47
100
AcDbScale
 70
     0
300
10:1
140
10.0
141
1.0
290
     0
  0
SCALE
  5
58
102
{ACAD_REACTORS
330
47
102
}
330
47
100
AcDbScale
 70
     0
300
100:1
140
100.0
141
1.0
290
     0
  0
SCALE
  5
59
102
{ACAD_REACTORS
330
47
102
}
330
47
100
AcDbScale
 70
     0
300
1/128" = 1'-0"
140
0.0078125
141
12.0
290
     0
  0
SCALE
  5
5A
102
{ACAD_REACTORS
330
47
102
}
330
47
100
AcDbScale
 70
     0
300
1/64" = 1'-0"
140
0.015625
141
12.0
290
     0
  0
SCALE
  5
5B
102
{ACAD_REACTORS
330
47
102
}
330
47
100
AcDbScale
 70
     0
300
1/32" = 1'-0"
140
0.03125
141
12.0
290
     0
  0
SCALE
  5
5C
102
{ACAD_REACTORS
330
47
102
}
330
47
100
AcDbScale
 70
     0
300
1/16" = 1'-0"
140
0.0625
141
12.0
290
     0
  0
SCALE
  5
5D
102
{ACAD_REACTORS
330
47
102
}
330
47
100
AcDbScale
 70
     0
300
3/32" = 1'-0"
140
0.09375
141
12.0
290
     0
  0
SCALE
  5
5E
102
{ACAD_REACTORS
330
47
102
}
330
47
100
AcDbScale
 70
     0
300
1/8" = 1'-0"
140
0.125
141
12.0
290
     0
  0
SCALE
  5
5F
102
{ACAD_REACTORS
330
47
102
}
330
47
100
AcDbScale
 70
     0
300
3/16" = 1'-0"
140
0.1875
141
12.0
290
     0
  0
SCALE
  5
60
102
{ACAD_REACTORS
330
47
102
}
330
47
100
AcDbScale
 70
     0
300
1/4" = 1'-0"
140
0.25
141
12.0
290
     0
  0
SCALE
  5
61
102
{ACAD_REACTORS
330
47
102
}
330
47
100
AcDbScale
 70
     0
300
3/8" = 1'-0"
140
0.375
141
12.0
290
     0
  0
SCALE
  5
62
102
{ACAD_REACTORS
330
47
102
}
330
47
100
AcDbScale
 70
     0
300
1/2" = 1'-0"
140
0.5
141
12.0
290
     0
  0
SCALE
  5
63
102
{ACAD_REACTORS
330
47
102
}
330
47
100
AcDbScale
 70
     0
300
3/4" = 1'-0"
140
0.75
141
12.0
290
     0
  0
SCALE
  5
64
102
{ACAD_REACTORS
330
47
102
}
330
47
100
AcDbScale
 70
     0
300
1" = 1'-0"
140
1.0
141
12.0
290
     0
  0
SCALE
  5
65
102
{ACAD_REACTORS
330
47
102
}
330
47
100
AcDbScale
 70
     0
300
1-1/2" = 1'-0"
140
1.5
141
12.0
290
     0
  0
SCALE
  5
66
102
{ACAD_REACTORS
330
47
102
}
330
47
100
AcDbScale
 70
     0
300
3" = 1'-0"
140
3.0
141
12.0
290
     0
  0
SCALE
  5
67
102
{ACAD_REACTORS
330
47
102
}
330
47
100
AcDbScale
 70
     0
300
6" = 1'-0"
140
6.0
141
12.0
290
     0
  0
SCALE
  5
68
102
{ACAD_REACTORS
330
47
102
}
330
47
100
AcDbScale
 70
     0
300
1'-0" = 1'-0"
140
12.0
141
12.0
290
     0
  0
ENDSEC
  0
EOF
