  0
SECTION
  2
HEADER
  9
$ACADVER
  1
AC1015
  9
$ACADMAINTVER
 70
     6
  9
$DWGCODEPAGE
  3
ANSI_949
  9
$INSBASE
 10
0.0
 20
0.0
 30
0.0
  9
$EXTMIN
 10
-52.79472776059811
 20
-49.97180738881174
 30
0.0
  9
$EXTMAX
 10
61.67313544437454
 20
24.76413260158164
 30
0.0
  9
$LIMMIN
 10
0.0
 20
0.0
  9
$LIMMAX
 10
420.0
 20
297.0
  9
$ORTHOMODE
 70
     0
  9
$REGENMODE
 70
     1
  9
$FILLMODE
 70
     1
  9
$QTEXTMODE
 70
     0
  9
$MIRRTEXT
 70
     1
  9
$LTSCALE
 40
1.0
  9
$ATTMODE
 70
     1
  9
$TEXTSIZE
 40
3.5
  9
$TRACEWID
 40
1.0
  9
$TEXTSTYLE
  7
Standard
  9
$CLAYER
  8
0
  9
$CELTYPE
  6
ByLayer
  9
$CECOLOR
 62
   256
  9
$CELTSCALE
 40
1.0
  9
$DISPSILH
 70
     0
  9
$DIMSCALE
 40
1.0
  9
$DIMASZ
 40
3.302
  9
$DIMEXO
 40
1.0
  9
$DIMDLI
 40
3.75
  9
$DIMRND
 40
0.0
  9
$DIMDLE
 40
0.0
  9
$DIMEXE
 40
1.0
  9
$DIMTP
 40
0.0
  9
$DIMTM
 40
0.0
  9
$DIMTXT
 40
3.5
  9
$DIMCEN
 40
2.5
  9
$DIMTSZ
 40
0.0
  9
$DIMTOL
 70
     0
  9
$DIMLIM
 70
     0
  9
$DIMTIH
 70
     1
  9
$DIMTOH
 70
     1
  9
$DIMSE1
 70
     0
  9
$DIMSE2
 70
     0
  9
$DIMTAD
 70
     1
  9
$DIMZIN
 70
     0
  9
$DIMBLK
  1

  9
$DIMASO
 70
     1
  9
$DIMSHO
 70
     1
  9
$DIMPOST
  1

  9
$DIMAPOST
  1

  9
$DIMALT
 70
     0
  9
$DIMALTD
 70
     3
  9
$DIMALTF
 40
0.0393700787401575
  9
$DIMLFAC
 40
1.0
  9
$DIMTOFL
 70
     1
  9
$DIMTVP
 40
0.0
  9
$DIMTIX
 70
     0
  9
$DIMSOXD
 70
     0
  9
$DIMSAH
 70
     0
  9
$DIMBLK1
  1

  9
$DIMBLK2
  1

  9
$DIMSTYLE
  2
ISO-25
  9
$DIMCLRD
 70
     0
  9
$DIMCLRE
 70
     0
  9
$DIMCLRT
 70
     0
  9
$DIMTFAC
 40
1.0
  9
$DIMGAP
 40
1.524
  9
$DIMJUST
 70
     0
  9
$DIMSD1
 70
     0
  9
$DIMSD2
 70
     0
  9
$DIMTOLJ
 70
     0
  9
$DIMTZIN
 70
     0
  9
$DIMALTZ
 70
     0
  9
$DIMALTTZ
 70
     0
  9
$DIMUPT
 70
     0
  9
$DIMDEC
 70
     2
  9
$DIMTDEC
 70
     2
  9
$DIMALTU
 70
     2
  9
$DIMALTTD
 70
     3
  9
$DIMTXSTY
  7
Standard
  9
$DIMAUNIT
 70
     0
  9
$DIMADEC
 70
     2
  9
$DIMALTRND
 40
0.0
  9
$DIMAZIN
 70
     0
  9
$DIMDSEP
 70
    44
  9
$DIMATFIT
 70
     3
  9
$DIMFRAC
 70
     0
  9
$DIMLDRBLK
  1

  9
$DIMLUNIT
 70
     2
  9
$DIMLWD
 70
    -2
  9
$DIMLWE
 70
    -2
  9
$DIMTMOVE
 70
     0
  9
$LUNITS
 70
     2
  9
$LUPREC
 70
     2
  9
$SKETCHINC
 40
1.0
  9
$FILLETRAD
 40
10.0
  9
$AUNITS
 70
     0
  9
$AUPREC
 70
     2
  9
$MENU
  1
.
  9
$ELEVATION
 40
0.0
  9
$PELEVATION
 40
0.0
  9
$THICKNESS
 40
0.0
  9
$LIMCHECK
 70
     0
  9
$CHAMFERA
 40
0.0
  9
$CHAMFERB
 40
0.0
  9
$CHAMFERC
 40
0.0
  9
$CHAMFERD
 40
0.0
  9
$SKPOLY
 70
     0
  9
$TDCREATE
 40
2458260.575323032
  9
$TDUCREATE
 40
2458260.200323032
  9
$TDUPDATE
 40
2458268.508245081
  9
$TDUUPDATE
 40
2458268.133245081
  9
$TDINDWG
 40
0.0004527546
  9
$TDUSRTIMER
 40
2458268.132792349
  9
$USRTIMER
 70
     1
  9
$ANGBASE
 50
0.0
  9
$ANGDIR
 70
     0
  9
$PDMODE
 70
     0
  9
$PDSIZE
 40
-1.0
  9
$PLINEWID
 40
0.0
  9
$SPLFRAME
 70
     0
  9
$SPLINETYPE
 70
     6
  9
$SPLINESEGS
 70
     8
  9
$HANDSEED
  5
14C
  9
$SURFTAB1
 70
     6
  9
$SURFTAB2
 70
     6
  9
$SURFTYPE
 70
     6
  9
$SURFU
 70
     6
  9
$SURFV
 70
     6
  9
$UCSBASE
  2

  9
$UCSNAME
  2

  9
$UCSORG
 10
0.0
 20
0.0
 30
0.0
  9
$UCSXDIR
 10
1.0
 20
0.0
 30
0.0
  9
$UCSYDIR
 10
0.0
 20
1.0
 30
0.0
  9
$UCSORTHOREF
  2

  9
$UCSORTHOVIEW
 70
     0
  9
$UCSORGTOP
 10
0.0
 20
0.0
 30
0.0
  9
$UCSORGBOTTOM
 10
0.0
 20
0.0
 30
0.0
  9
$UCSORGLEFT
 10
0.0
 20
0.0
 30
0.0
  9
$UCSORGRIGHT
 10
0.0
 20
0.0
 30
0.0
  9
$UCSORGFRONT
 10
0.0
 20
0.0
 30
0.0
  9
$UCSORGBACK
 10
0.0
 20
0.0
 30
0.0
  9
$PUCSBASE
  2

  9
$PUCSNAME
  2

  9
$PUCSORG
 10
0.0
 20
0.0
 30
0.0
  9
$PUCSXDIR
 10
1.0
 20
0.0
 30
0.0
  9
$PUCSYDIR
 10
0.0
 20
1.0
 30
0.0
  9
$PUCSORTHOREF
  2

  9
$PUCSORTHOVIEW
 70
     0
  9
$PUCSORGTOP
 10
0.0
 20
0.0
 30
0.0
  9
$PUCSORGBOTTOM
 10
0.0
 20
0.0
 30
0.0
  9
$PUCSORGLEFT
 10
0.0
 20
0.0
 30
0.0
  9
$PUCSORGRIGHT
 10
0.0
 20
0.0
 30
0.0
  9
$PUCSORGFRONT
 10
0.0
 20
0.0
 30
0.0
  9
$PUCSORGBACK
 10
0.0
 20
0.0
 30
0.0
  9
$USERI1
 70
     0
  9
$USERI2
 70
     0
  9
$USERI3
 70
     0
  9
$USERI4
 70
     0
  9
$USERI5
 70
     0
  9
$USERR1
 40
0.0
  9
$USERR2
 40
0.0
  9
$USERR3
 40
0.0
  9
$USERR4
 40
0.0
  9
$USERR5
 40
0.0
  9
$WORLDVIEW
 70
     1
  9
$SHADEDGE
 70
     3
  9
$SHADEDIF
 70
    70
  9
$TILEMODE
 70
     1
  9
$MAXACTVP
 70
    64
  9
$PINSBASE
 10
0.0
 20
0.0
 30
0.0
  9
$PLIMCHECK
 70
     0
  9
$PEXTMIN
 10
1.000000000000000E+20
 20
1.000000000000000E+20
 30
1.000000000000000E+20
  9
$PEXTMAX
 10
-1.000000000000000E+20
 20
-1.000000000000000E+20
 30
-1.000000000000000E+20
  9
$PLIMMIN
 10
0.0
 20
0.0
  9
$PLIMMAX
 10
0.0
 20
0.0
  9
$UNITMODE
 70
     0
  9
$VISRETAIN
 70
     1
  9
$PLINEGEN
 70
     0
  9
$PSLTSCALE
 70
     1
  9
$TREEDEPTH
 70
  3020
  9
$CMLSTYLE
  2
Standard
  9
$CMLJUST
 70
     0
  9
$CMLSCALE
 40
20.0
  9
$PROXYGRAPHICS
 70
     1
  9
$MEASUREMENT
 70
     1
  9
$CELWEIGHT
370
    -1
  9
$ENDCAPS
280
     0
  9
$JOINSTYLE
280
     0
  9
$LWDISPLAY
290
     1
  9
$INSUNITS
 70
     4
  9
$HYPERLINKBASE
  1

  9
$STYLESHEET
  1

  9
$XEDIT
290
     1
  9
$CEPSNTYPE
380
     0
  9
$PSTYLEMODE
290
     1
  9
$FINGERPRINTGUID
  2
{700A309B-199B-4460-A0BA-C222F08D07FE}
  9
$VERSIONGUID
  2
{FAEB1C32-E019-11D5-929B-00C0DF256EC4}
  9
$EXTNAMES
290
     1
  9
$PSVPSCALE
 40
0.0
  9
$OLESTARTUP
290
     0
  0
ENDSEC
  0
SECTION
  2
CLASSES
  0
CLASS
  1
ACDBDICTIONARYWDFLT
  2
AcDbDictionaryWithDefault
  3
ObjectDBX Classes
 90
        0
280
     0
281
     0
  0
CLASS
  1
VISUALSTYLE
  2
AcDbVisualStyle
  3
ObjectDBX Classes
 90
     4095
280
     0
281
     0
  0
CLASS
  1
MATERIAL
  2
AcDbMaterial
  3
ObjectDBX Classes
 90
     1153
280
     0
281
     0
  0
CLASS
  1
SCALE
  2
AcDbScale
  3
ObjectDBX Classes
 90
     1153
280
     0
281
     0
  0
CLASS
  1
TABLESTYLE
  2
AcDbTableStyle
  3
ObjectDBX Classes
 90
     4095
280
     0
281
     0
  0
CLASS
  1
MLEADERSTYLE
  2
AcDbMLeaderStyle
  3
ACDB_MLEADERSTYLE_CLASS
 90
     4095
280
     0
281
     0
  0
CLASS
  1
SUN
  2
AcDbSun
  3
SCENEOE
 90
     1153
280
     0
281
     0
  0
CLASS
  1
ACDBPLACEHOLDER
  2
AcDbPlaceHolder
  3
ObjectDBX Classes
 90
        0
280
     0
281
     0
  0
CLASS
  1
LAYOUT
  2
AcDbLayout
  3
ObjectDBX Classes
 90
        0
280
     0
281
     0
  0
CLASS
  1
RASTERVARIABLES
  2
AcDbRasterVariables
  3
ISM
 90
        0
280
     0
281
     0
  0
ENDSEC
  0
SECTION
  2
TABLES
  0
TABLE
  2
VPORT
  5
8
330
0
100
AcDbSymbolTable
 70
     1
  0
VPORT
  5
29
330
8
100
AcDbSymbolTableRecord
100
AcDbViewportTableRecord
  2
*Active
 70
     0
 10
0.0
 20
0.0
 11
1.0
 21
1.0
 12
4.439203841888215
 22
-12.60383739361505
 13
0.0
 23
0.0
 14
10.0
 24
10.0
 15
10.0
 25
10.0
 16
0.0
 26
0.0
 36
1.0
 17
0.0
 27
0.0
 37
0.0
 40
76.23065879020125
 41
1.737726098191214
 42
50.0
 43
0.0
 44
0.0
 50
0.0
 51
0.0
 71
    16
 72
  2000
 73
     1
 74
     3
 75
     0
 76
     0
 77
     0
 78
     0
281
     0
 65
     1
110
0.0
120
0.0
130
0.0
111
1.0
121
0.0
131
0.0
112
0.0
122
1.0
132
0.0
 79
     0
146
0.0
  0
ENDTAB
  0
TABLE
  2
LTYPE
  5
5
330
0
100
AcDbSymbolTable
 70
     6
  0
LTYPE
  5
14
330
5
100
AcDbSymbolTableRecord
100
AcDbLinetypeTableRecord
  2
ByBlock
 70
     0
  3

 72
    65
 73
     0
 40
0.0
  0
LTYPE
  5
15
330
5
100
AcDbSymbolTableRecord
100
AcDbLinetypeTableRecord
  2
ByLayer
 70
     0
  3

 72
    65
 73
     0
 40
0.0
  0
LTYPE
  5
16
330
5
100
AcDbSymbolTableRecord
100
AcDbLinetypeTableRecord
  2
Continuous
 70
     0
  3
Solid line
 72
    65
 73
     0
 40
0.0
  0
LTYPE
  5
6E
330
5
100
AcDbSymbolTableRecord
100
AcDbLinetypeTableRecord
  2
HIDDEN
 70
     0
  3
Hidden __ __ __ __ __ __ __ __ __ __ __ __ __ __
 72
    65
 73
     2
 40
1.905
 49
1.27
 74
     0
 49
-0.635
 74
     0
  0
LTYPE
  5
6F
330
5
100
AcDbSymbolTableRecord
100
AcDbLinetypeTableRecord
  2
PHANTOM
 70
     0
  3
Phantom ______  __  __  ______  __  __  ______
 72
    65
 73
     6
 40
12.7
 49
6.35
 74
     0
 49
-1.27
 74
     0
 49
1.27
 74
     0
 49
-1.27
 74
     0
 49
1.27
 74
     0
 49
-1.27
 74
     0
  0
LTYPE
  5
70
330
5
100
AcDbSymbolTableRecord
100
AcDbLinetypeTableRecord
  2
CENTER
 70
     0
  3
Center ____ _ ____ _ ____ _ ____ _ ____ _ ____
 72
    65
 73
     4
 40
10.16
 49
6.35
 74
     0
 49
-1.27
 74
     0
 49
1.27
 74
     0
 49
-1.27
 74
     0
  0
LTYPE
  5
71
330
5
100
AcDbSymbolTableRecord
100
AcDbLinetypeTableRecord
  2
CENTERX2
 70
     0
  3
Center (2x) ________  __  ________  __  _____
 72
    65
 73
     4
 40
20.32
 49
12.7
 74
     0
 49
-2.54
 74
     0
 49
2.54
 74
     0
 49
-2.54
 74
     0
  0
LTYPE
  5
72
330
5
100
AcDbSymbolTableRecord
100
AcDbLinetypeTableRecord
  2
DOT2
 70
     0
  3
Dot (.5x) ........................................
 72
    65
 73
     2
 40
0.635
 49
0.0
 74
     0
 49
-0.635
 74
     0
  0
ENDTAB
  0
TABLE
  2
LAYER
  5
2
330
0
100
AcDbSymbolTable
 70
    17
  0
LAYER
  5
10
330
2
100
AcDbSymbolTableRecord
100
AcDbLayerTableRecord
  2
0
 70
     0
 62
     7
  6
Continuous
370
    -3
390
F
  0
LAYER
  5
73
330
2
100
AcDbSymbolTableRecord
100
AcDbLayerTableRecord
  2
FORMAT
 70
     0
 62
     2
  6
Continuous
370
    -3
390
F
  0
LAYER
  5
74
330
2
100
AcDbSymbolTableRecord
100
AcDbLayerTableRecord
  2
외형선
 70
     0
 62
   100
  6
Continuous
370
    35
390
F
  0
LAYER
  5
75
330
2
100
AcDbSymbolTableRecord
100
AcDbLayerTableRecord
  2
숨은선
 70
     0
 62
     2
  6
HIDDEN
370
    25
390
F
  0
LAYER
  5
76
330
2
100
AcDbSymbolTableRecord
100
AcDbLayerTableRecord
  2
중심선
 70
     0
 62
     1
  6
CENTERX2
370
    -3
390
F
  0
LAYER
  5
77
330
2
100
AcDbSymbolTableRecord
100
AcDbLayerTableRecord
  2
파단선
 70
     0
 62
     4
  6
Continuous
370
    -3
390
F
  0
LAYER
  5
78
330
2
100
AcDbSymbolTableRecord
100
AcDbLayerTableRecord
  2
해칭선
 70
     0
 62
   100
  6
Continuous
370
    -3
390
F
  0
LAYER
  5
79
330
2
100
AcDbSymbolTableRecord
100
AcDbLayerTableRecord
  2
가는실선
 70
     0
 62
     4
  6
Continuous
370
    -3
390
F
  0
LAYER
  5
7A
330
2
100
AcDbSymbolTableRecord
100
AcDbLayerTableRecord
  2
치수_보조선
 70
     0
 62
     4
  6
Continuous
370
    -3
390
F
  0
LAYER
  5
7B
330
2
100
AcDbSymbolTableRecord
100
AcDbLayerTableRecord
  2
치수문자_일반주서
 70
     0
 62
     7
  6
Continuous
370
    25
390
F
  0
LAYER
  5
7C
330
2
100
AcDbSymbolTableRecord
100
AcDbLayerTableRecord
  2
개별주서
 70
     0
 62
   100
  6
Continuous
370
    35
390
F
  0
LAYER
  5
7D
330
2
100
AcDbSymbolTableRecord
100
AcDbLayerTableRecord
  2
중간선
 70
     0
 62
     2
  6
Continuous
370
    25
390
F
  0
LAYER
  5
7E
330
2
100
AcDbSymbolTableRecord
100
AcDbLayerTableRecord
  2
윤곽선
 70
     0
 62
     3
  6
Continuous
370
    50
390
F
  0
LAYER
  5
7F
330
2
100
AcDbSymbolTableRecord
100
AcDbLayerTableRecord
  2
중심마크
 70
     0
 62
   100
  6
Continuous
370
    35
390
F
  0
LAYER
  5
80
330
2
100
AcDbSymbolTableRecord
100
AcDbLayerTableRecord
  2
가상선
 70
     0
 62
     4
  6
PHANTOM
370
    -3
390
F
  0
LAYER
  5
81
330
2
100
AcDbSymbolTableRecord
100
AcDbLayerTableRecord
  2
특수지정선
 70
     0
 62
     5
  6
CENTERX2
370
    70
390
F
  0
LAYER
  5
13D
330
2
100
AcDbSymbolTableRecord
100
AcDbLayerTableRecord
  2
Defpoints
 70
     0
 62
     7
  6
Continuous
290
     0
370
    -3
390
F
  0
ENDTAB
  0
TABLE
  2
STYLE
  5
3
330
0
100
AcDbSymbolTable
 70
     2
  0
STYLE
  5
11
330
3
100
AcDbSymbolTableRecord
100
AcDbTextStyleTableRecord
  2
Standard
 70
     0
 40
0.0
 41
1.0
 50
0.0
 71
     0
 42
3.5
  3
txt
  4

  0
STYLE
  5
97
330
3
100
AcDbSymbolTableRecord
100
AcDbTextStyleTableRecord
  2
SLDTEXTSTYLE0
 70
     0
 40
0.0
 41
0.75
 50
0.0
 71
     0
 42
3.5
  3
TXT
  4

  0
ENDTAB
  0
TABLE
  2
VIEW
  5
6
330
0
100
AcDbSymbolTable
 70
     0
  0
ENDTAB
  0
TABLE
  2
UCS
  5
7
330
0
100
AcDbSymbolTable
 70
     0
  0
ENDTAB
  0
TABLE
  2
APPID
  5
9
330
0
100
AcDbSymbolTable
 70
     1
  0
APPID
  5
12
330
9
100
AcDbSymbolTableRecord
100
AcDbRegAppTableRecord
  2
ACAD
 70
     0
  0
ENDTAB
  0
TABLE
  2
DIMSTYLE
  5
A
330
0
100
AcDbSymbolTable
 70
     4
100
AcDbDimStyleTable
  0
DIMSTYLE
105
27
330
A
100
AcDbSymbolTableRecord
100
AcDbDimStyleTableRecord
  2
ISO-25
 70
     0
 41
2.5
 42
0.625
 43
3.75
 44
1.25
 73
     0
 74
     0
 77
     1
 78
     8
140
2.5
141
2.5
143
0.03937007874016
147
0.625
171
     3
172
     1
178
     0
271
     2
272
     2
274
     3
278
    44
283
     0
284
     8
340
11
  0
DIMSTYLE
105
E2
102
{ACAD_REACTORS
330
E1
102
}
330
A
100
AcDbSymbolTableRecord
100
AcDbDimStyleTableRecord
  2
SLDDIMSTYLE0
 70
     0
 41
3.302
 44
0.0
 45
0.000000001
 73
     0
 74
     0
 77
     1
 78
    12
 79
     3
140
3.5
147
0.875
172
     1
173
     1
178
     0
271
     1
272
     1
276
     2
284
    12
289
     0
340
97
  0
DIMSTYLE
105
F0
102
{ACAD_REACTORS
330
EF
330
108
102
}
330
A
100
AcDbSymbolTableRecord
100
AcDbDimStyleTableRecord
  2
SLDDIMSTYLE1
 70
     0
 41
3.302
 44
0.0
 45
0.000000001
 73
     0
 74
     0
 77
     1
 78
    12
 79
     3
140
3.5
147
0.875
173
     1
178
     0
271
     2
272
     2
276
     2
284
    12
340
97
  0
DIMSTYLE
105
FB
102
{ACAD_REACTORS
330
FA
102
}
330
A
100
AcDbSymbolTableRecord
100
AcDbDimStyleTableRecord
  2
SLDDIMSTYLE2
 70
     0
 41
3.302
 44
0.0
 45
0.000000001
 73
     0
 74
     0
 77
     1
 78
    12
 79
     3
140
3.5
147
0.875
172
     1
173
     1
178
     0
271
     2
272
     2
276
     2
284
    12
289
     0
340
97
  0
ENDTAB
  0
TABLE
  2
BLOCK_RECORD
  5
1
330
0
100
AcDbSymbolTable
 70
     7
  0
BLOCK_RECORD
  5
1F
330
1
100
AcDbSymbolTableRecord
100
AcDbBlockTableRecord
  2
*Model_Space
340
22
  0
BLOCK_RECORD
  5
1B
330
1
100
AcDbSymbolTableRecord
100
AcDbBlockTableRecord
  2
*Paper_Space
340
1E
  0
BLOCK_RECORD
  5
23
330
1
100
AcDbSymbolTableRecord
100
AcDbBlockTableRecord
  2
*Paper_Space0
340
26
  0
BLOCK_RECORD
  5
82
330
1
100
AcDbSymbolTableRecord
100
AcDbBlockTableRecord
  2
블럭10
340
0
102
{BLKREFS
331
DA
102
}
  0
BLOCK_RECORD
  5
E3
330
1
100
AcDbSymbolTableRecord
100
AcDbBlockTableRecord
  2
_D
340
0
  0
BLOCK_RECORD
  5
F1
330
1
100
AcDbSymbolTableRecord
100
AcDbBlockTableRecord
  2
_D_1
340
0
  0
BLOCK_RECORD
  5
FC
330
1
100
AcDbSymbolTableRecord
100
AcDbBlockTableRecord
  2
_D_2
340
0
  0
BLOCK_RECORD
  5
109
330
1
100
AcDbSymbolTableRecord
100
AcDbBlockTableRecord
  2
_D_3
340
0
  0
BLOCK_RECORD
  5
112
330
1
100
AcDbSymbolTableRecord
100
AcDbBlockTableRecord
  2
SW_DOWELSYMBOL_0
340
0
102
{BLKREFS
331
118
102
}
  0
ENDTAB
  0
ENDSEC
  0
SECTION
  2
BLOCKS
  0
BLOCK
  5
20
330
1F
100
AcDbEntity
  8
0
100
AcDbBlockBegin
  2
*Model_Space
 70
     0
 10
0.0
 20
0.0
 30
0.0
  3
*Model_Space
  1

  0
ENDBLK
  5
21
330
1F
100
AcDbEntity
  8
0
100
AcDbBlockEnd
  0
BLOCK
  5
1C
330
1B
100
AcDbEntity
 67
     1
  8
0
100
AcDbBlockBegin
  2
*Paper_Space
 70
     0
 10
0.0
 20
0.0
 30
0.0
  3
*Paper_Space
  1

  0
ENDBLK
  5
1D
330
1B
100
AcDbEntity
 67
     1
  8
0
100
AcDbBlockEnd
  0
BLOCK
  5
24
330
23
100
AcDbEntity
  8
0
100
AcDbBlockBegin
  2
*Paper_Space0
 70
     0
 10
0.0
 20
0.0
 30
0.0
  3
*Paper_Space0
  1

  0
ENDBLK
  5
25
330
23
100
AcDbEntity
  8
0
100
AcDbBlockEnd
  0
BLOCK
  5
83
330
82
100
AcDbEntity
  8
0
100
AcDbBlockBegin
  2
블럭10
 70
     2
 10
0.0
 20
0.0
 30
0.0
  3
블럭10
  1

  0
ELLIPSE
  5
85
330
82
100
AcDbEntity
  8
중심선
100
AcDbEllipse
 10
20.54032771741204
 20
12.0471743016438
 30
0.0
 11
6.600054785286829
 21
-1.261213355974178E-13
 31
0.0
210
0.0
220
0.0
230
1.0
 40
0.636358354079598
 41
0.9219305317359503
 42
6.513795318482858
  0
ELLIPSE
  5
86
330
82
100
AcDbEntity
  8
중심선
100
AcDbEllipse
 10
20.54032771746488
 20
12.04717430159265
 30
0.0
 11
3.960054785062283
 21
1.540847449632565E-10
 31
0.0
210
0.0
220
0.0
230
1.0
 40
0.3939339440162632
 41
1.131841032648279
 42
5.62031148352944
  0
LINE
  5
87
330
82
100
AcDbEntity
  8
중심선
100
AcDbLine
 10
2.268634060543552
 20
16.24717430164393
 30
0.0
 11
5.714909304380834
 21
16.24717430164393
 31
0.0
  0
LINE
  5
88
330
82
100
AcDbEntity
  8
중심선
100
AcDbLine
 10
5.245725140726316
 20
7.84717430164391
 30
0.0
 11
8.692000384563599
 21
7.84717430164391
 31
0.0
  0
LINE
  5
89
330
82
100
AcDbEntity
  8
중심선
100
AcDbLine
 10
15.74043728645272
 20
16.24717430164393
 30
0.0
 11
8.692000384563599
 21
7.84717430164391
 31
0.0
  0
LINE
  5
8A
330
82
100
AcDbEntity
  8
중심선
100
AcDbLine
 10
0.1404042013395286
 20
13.71084872107135
 30
0.0
 11
3.58671253028996
 21
13.71088815037384
 31
0.0
  0
LINE
  5
8B
330
82
100
AcDbEntity
  8
중심선
100
AcDbLine
 10
2.750260043222114
 20
10.84717430164391
 30
0.0
 11
6.196535287059397
 21
10.84717430164391
 31
0.0
  0
LINE
  5
8C
330
82
100
AcDbEntity
  8
중심선
100
AcDbLine
 10
12.29416204261559
 20
16.24717430164393
 30
0.0
 11
5.245725140726316
 21
7.84717430164391
 31
0.0
  0
LINE
  5
8D
330
82
100
AcDbEntity
  8
중심선
100
AcDbLine
 10
10.72767329541681
 20
16.24717430164393
 30
0.0
 11
6.196535287059397
 21
10.84717430164391
 31
0.0
  0
LINE
  5
8E
330
82
100
AcDbEntity
  8
중심선
100
AcDbLine
 10
7.28139805157953
 20
16.24717430164393
 30
0.0
 11
2.750260043222114
 21
10.84717430164391
 31
0.0
  0
LINE
  5
8F
330
82
100
AcDbEntity
  8
중심선
100
AcDbLine
 10
5.714909304380834
 20
16.24717430164393
 30
0.0
 11
3.58671253028996
 21
13.71088815037384
 31
0.0
  0
LINE
  5
90
330
82
100
AcDbEntity
  8
중심선
100
AcDbLine
 10
2.268634060543552
 20
16.24717430164393
 30
0.0
 11
0.1404042013395286
 21
13.71084872107135
 31
0.0
  0
LINE
  5
91
330
82
100
AcDbEntity
  8
중심선
100
AcDbLine
 10
7.28139805157953
 20
16.24717430164393
 30
0.0
 11
10.72767329541681
 21
16.24717430164393
 31
0.0
  0
LINE
  5
92
330
82
100
AcDbEntity
  8
중심선
100
AcDbLine
 10
12.29416204261559
 20
16.24717430164393
 30
0.0
 11
15.74043728645272
 21
16.24717430164393
 31
0.0
  0
LINE
  5
93
330
82
100
AcDbEntity
  8
중심선
100
AcDbLine
 10
19.22036997980202
 20
11.08717430171403
 30
0.0
 11
23.66174974927406
 21
11.08717430171406
 31
0.0
  0
LINE
  5
94
330
82
100
AcDbEntity
  8
중심선
100
AcDbLine
 10
19.22039502424796
 20
13.00717430171391
 30
0.0
 11
19.22036997980202
 21
11.08717430171403
 31
0.0
  0
LINE
  5
95
330
82
100
AcDbEntity
  8
중심선
100
AcDbLine
 10
19.22039502424796
 20
13.00717430171391
 30
0.0
 11
26.96566020931264
 21
13.00717430171391
 31
0.0
  0
LINE
  5
96
330
82
100
AcDbEntity
  8
중심선
100
AcDbLine
 10
22.22332737316547
 20
13.45928029700563
 30
0.0
 11
24.52862924686651
 21
15.39360700705356
 31
0.0
  0
ATTDEF
  5
98
330
82
100
AcDbEntity
  8
FORMAT
 62
     2
100
AcDbText
 10
-16.11926103943555
 20
2.075366912832191
 30
0.0
 40
4.233333333333333
  1
SEME7206040E [ 4 FLUTE ]
 41
0.75
  7
SLDTEXTSTYLE0
 11
-16.11926103943555
 21
-0.0412997538344756
 31
0.0
100
AcDbAttributeDefinition
  3

  2
AUTOATTR0
 70
     0
 74
     1
  0
ENDBLK
  5
84
330
82
100
AcDbEntity
  8
0
100
AcDbBlockEnd
  0
BLOCK
  5
E4
330
E3
100
AcDbEntity
  8
0
100
AcDbBlockBegin
  2
_D
 70
     0
 10
0.0
 20
0.0
 30
0.0
  3
_D
  1

  0
LINE
  5
E6
330
E3
100
AcDbEntity
  8
치수문자_일반주서
 62
     0
370
    -2
100
AcDbLine
 10
50.06250000000004
 20
-3.000000000000005
 30
0.0
 11
61.1228021110412
 21
-2.999999999999964
 31
0.0
  0
LINE
  5
E7
330
E3
100
AcDbEntity
  8
치수문자_일반주서
 62
     0
370
    -2
100
AcDbLine
 10
50.06250000000004
 20
2.999999999999997
 30
0.0
 11
61.12280211104117
 21
3.000000000000037
 31
0.0
  0
LINE
  5
E8
330
E3
100
AcDbEntity
  8
치수문자_일반주서
 62
     0
370
    -2
100
AcDbLine
 10
61.1228021110412
 20
-2.999999999999964
 30
0.0
 11
61.12280211104112
 21
15.72900000000004
 31
0.0
  0
LINE
  5
E9
330
E3
100
AcDbEntity
  8
치수문자_일반주서
 62
     0
370
    -2
100
AcDbLine
 10
61.1228021110412
 20
-2.999999999999964
 30
0.0
 11
61.12280211104117
 21
3.000000000000037
 31
0.0
  0
LINE
  5
EA
330
E3
100
AcDbEntity
  8
치수문자_일반주서
 62
     0
370
    -2
100
AcDbLine
 10
61.12280211104121
 20
-6.301999999999964
 30
0.0
 11
61.12280211104122
 21
-9.603999999999964
 31
0.0
  0
LINE
  5
EB
330
E3
100
AcDbEntity
  8
치수문자_일반주서
 62
     0
370
    -2
100
AcDbLine
 10
61.12280211104116
 20
6.302000000000037
 30
0.0
 11
61.12280211104115
 21
9.604000000000037
 31
0.0
  0
SOLID
  5
EC
330
E3
100
AcDbEntity
  8
치수문자_일반주서
 62
     0
100
AcDbTrace
 10
61.67313544437454
 20
-6.301999999999962
 30
0.0
 11
60.57246877770788
 21
-6.301999999999966
 31
0.0
 12
61.1228021110412
 22
-2.999999999999964
 32
0.0
 13
61.1228021110412
 23
-2.999999999999964
 33
0.0
  0
SOLID
  5
ED
330
E3
100
AcDbEntity
  8
치수문자_일반주서
 62
     0
100
AcDbTrace
 10
60.57246877770783
 20
6.302000000000035
 30
0.0
 11
61.67313544437449
 21
6.302000000000039
 31
0.0
 12
61.12280211104117
 22
3.000000000000037
 32
0.0
 13
61.12280211104117
 23
3.000000000000037
 33
0.0
  0
MTEXT
  5
EE
330
E3
100
AcDbEntity
  8
치수문자_일반주서
 62
     0
100
AcDbMText
 10
56.74780211104114
 20
12.66650000000002
 30
0.0
 40
3.5
 41
0.0
 71
     2
 72
     1
  1
\A1;%%c6
  7
SLDTEXTSTYLE0
 11
-3.552713678800499E-15
 21
1.0
 31
0.0
 73
     1
 44
1.0
  0
POINT
  5
147
330
E3
100
AcDbEntity
  8
Defpoints
 62
     0
100
AcDbPoint
 10
50.00000000000004
 20
-3.000000000000006
 30
0.0
  0
POINT
  5
148
330
E3
100
AcDbEntity
  8
Defpoints
 62
     0
100
AcDbPoint
 10
50.00000000000004
 20
2.999999999999997
 30
0.0
  0
POINT
  5
149
330
E3
100
AcDbEntity
  8
Defpoints
 62
     0
100
AcDbPoint
 10
61.12280211104118
 20
3.000000000000039
 30
0.0
  0
ENDBLK
  5
E5
330
E3
100
AcDbEntity
  8
0
100
AcDbBlockEnd
  0
BLOCK
  5
F2
330
F1
100
AcDbEntity
  8
0
100
AcDbBlockBegin
  2
_D_1
 70
     0
 10
0.0
 20
0.0
 30
0.0
  3
_D_1
  1

  0
LINE
  5
F4
330
F1
100
AcDbEntity
  8
치수문자_일반주서
 62
     0
370
    -2
100
AcDbLine
 10
-39.99999999999999
 20
2.56249999999999
 30
0.0
 11
-40.0
 21
20.38913260158164
 31
0.0
  0
LINE
  5
F5
330
F1
100
AcDbEntity
  8
치수문자_일반주서
 62
     0
370
    -2
100
AcDbLine
 10
50.0
 20
3.0625
 30
0.0
 11
49.99999999999999
 21
20.38913260158164
 31
0.0
  0
LINE
  5
F6
330
F1
100
AcDbEntity
  8
치수문자_일반주서
 62
     0
370
    -2
100
AcDbLine
 10
-36.698
 20
20.38913260158164
 30
0.0
 11
46.69799999999999
 21
20.38913260158164
 31
0.0
  0
SOLID
  5
F7
330
F1
100
AcDbEntity
  8
치수문자_일반주서
 62
     0
100
AcDbTrace
 10
-36.698
 20
20.93946593491497
 30
0.0
 11
-36.698
 21
19.83879926824831
 31
0.0
 12
-40.0
 22
20.38913260158164
 32
0.0
 13
-40.0
 23
20.38913260158164
 33
0.0
  0
SOLID
  5
F8
330
F1
100
AcDbEntity
  8
치수문자_일반주서
 62
     0
100
AcDbTrace
 10
46.69799999999999
 20
19.83879926824831
 30
0.0
 11
46.69799999999999
 21
20.93946593491497
 31
0.0
 12
49.99999999999999
 22
20.38913260158164
 32
0.0
 13
49.99999999999999
 23
20.38913260158164
 33
0.0
  0
MTEXT
  5
F9
330
F1
100
AcDbEntity
  8
치수문자_일반주서
 62
     0
100
AcDbMText
 10
5.000000000000004
 20
24.76413260158164
 30
0.0
 40
3.5
 41
0.0
 71
     2
 72
     1
  1
\A1;90
  7
SLDTEXTSTYLE0
 73
     1
 44
1.0
  0
POINT
  5
13E
330
F1
100
AcDbEntity
  8
Defpoints
 62
     0
100
AcDbPoint
 10
-39.99999999999999
 20
2.49999999999999
 30
0.0
  0
POINT
  5
13F
330
F1
100
AcDbEntity
  8
Defpoints
 62
     0
100
AcDbPoint
 10
50.0
 20
3.0
 30
0.0
  0
POINT
  5
140
330
F1
100
AcDbEntity
  8
Defpoints
 62
     0
100
AcDbPoint
 10
50.0
 20
20.38913260158164
 30
0.0
  0
ENDBLK
  5
F3
330
F1
100
AcDbEntity
  8
0
100
AcDbBlockEnd
  0
BLOCK
  5
FD
330
FC
100
AcDbEntity
  8
0
100
AcDbBlockBegin
  2
_D_2
 70
     0
 10
0.0
 20
0.0
 30
0.0
  3
_D_2
  1

  0
LINE
  5
FF
330
FC
100
AcDbEntity
  8
치수문자_일반주서
 62
     0
370
    -2
100
AcDbLine
 10
-39.56249999999999
 20
2.999999999999999
 30
0.0
 11
-48.41972776059806
 21
2.999999999999964
 31
0.0
  0
LINE
  5
100
330
FC
100
AcDbEntity
  8
치수문자_일반주서
 62
     0
370
    -2
100
AcDbLine
 10
-39.56249999999999
 20
-3.000000000000007
 30
0.0
 11
-48.41972776059804
 21
-3.000000000000039
 31
0.0
  0
LINE
  5
101
330
FC
100
AcDbEntity
  8
치수문자_일반주서
 62
     0
370
    -2
100
AcDbLine
 10
-48.41972776059806
 20
2.999999999999964
 30
0.0
 11
-48.41972776059811
 21
15.72899999999997
 31
0.0
  0
LINE
  5
102
330
FC
100
AcDbEntity
  8
치수문자_일반주서
 62
     0
370
    -2
100
AcDbLine
 10
-48.41972776059806
 20
2.999999999999964
 30
0.0
 11
-48.41972776059804
 21
-3.000000000000039
 31
0.0
  0
LINE
  5
103
330
FC
100
AcDbEntity
  8
치수문자_일반주서
 62
     0
370
    -2
100
AcDbLine
 10
-48.41972776059808
 20
6.301999999999964
 30
0.0
 11
-48.41972776059809
 21
9.603999999999964
 31
0.0
  0
LINE
  5
104
330
FC
100
AcDbEntity
  8
치수문자_일반주서
 62
     0
370
    -2
100
AcDbLine
 10
-48.41972776059803
 20
-6.302000000000039
 30
0.0
 11
-48.41972776059801
 21
-9.604000000000038
 31
0.0
  0
SOLID
  5
105
330
FC
100
AcDbEntity
  8
치수문자_일반주서
 62
     0
100
AcDbTrace
 10
-48.97006109393141
 20
6.301999999999962
 30
0.0
 11
-47.86939442726474
 21
6.301999999999966
 31
0.0
 12
-48.41972776059806
 22
2.999999999999964
 32
0.0
 13
-48.41972776059806
 23
2.999999999999964
 33
0.0
  0
SOLID
  5
106
330
FC
100
AcDbEntity
  8
치수문자_일반주서
 62
     0
100
AcDbTrace
 10
-47.86939442726469
 20
-6.302000000000037
 30
0.0
 11
-48.97006109393136
 21
-6.30200000000004
 31
0.0
 12
-48.41972776059804
 22
-3.000000000000039
 32
0.0
 13
-48.41972776059804
 23
-3.000000000000039
 33
0.0
  0
MTEXT
  5
107
330
FC
100
AcDbEntity
  8
치수문자_일반주서
 62
     0
100
AcDbMText
 10
-52.7947277605981
 20
12.66649999999995
 30
0.0
 40
3.5
 41
0.0
 71
     2
 72
     1
  1
\A1;%%c6
  7
SLDTEXTSTYLE0
 11
-3.552713678800498E-15
 21
1.0
 31
0.0
 73
     1
 44
1.0
  0
POINT
  5
144
330
FC
100
AcDbEntity
  8
Defpoints
 62
     0
100
AcDbPoint
 10
-39.49999999999999
 20
2.999999999999999
 30
0.0
  0
POINT
  5
145
330
FC
100
AcDbEntity
  8
Defpoints
 62
     0
100
AcDbPoint
 10
-39.49999999999999
 20
-3.000000000000006
 30
0.0
  0
POINT
  5
146
330
FC
100
AcDbEntity
  8
Defpoints
 62
     0
100
AcDbPoint
 10
-48.41972776059804
 20
-3.00000000000004
 30
0.0
  0
ENDBLK
  5
FE
330
FC
100
AcDbEntity
  8
0
100
AcDbBlockEnd
  0
BLOCK
  5
10A
330
109
100
AcDbEntity
  8
0
100
AcDbBlockBegin
  2
_D_3
 70
     0
 10
0.0
 20
0.0
 30
0.0
  3
_D_3
  1

  0
LINE
  5
10C
330
109
100
AcDbEntity
  8
치수문자_일반주서
 62
     0
370
    -2
100
AcDbLine
 10
10.0
 20
3.062499999999996
 30
0.0
 11
10.0
 21
13.84591830258764
 31
0.0
  0
LINE
  5
10D
330
109
100
AcDbEntity
  8
치수문자_일반주서
 62
     0
370
    -2
100
AcDbLine
 10
50.0
 20
3.0625
 30
0.0
 11
50.0
 21
13.84591830258764
 31
0.0
  0
LINE
  5
10E
330
109
100
AcDbEntity
  8
치수문자_일반주서
 62
     0
370
    -2
100
AcDbLine
 10
13.302
 20
13.84591830258764
 30
0.0
 11
46.698
 21
13.84591830258764
 31
0.0
  0
SOLID
  5
10F
330
109
100
AcDbEntity
  8
치수문자_일반주서
 62
     0
100
AcDbTrace
 10
13.302
 20
14.39625163592097
 30
0.0
 11
13.302
 21
13.2955849692543
 31
0.0
 12
10.0
 22
13.84591830258764
 32
0.0
 13
10.0
 23
13.84591830258764
 33
0.0
  0
SOLID
  5
110
330
109
100
AcDbEntity
  8
치수문자_일반주서
 62
     0
100
AcDbTrace
 10
46.698
 20
13.2955849692543
 30
0.0
 11
46.698
 21
14.39625163592097
 31
0.0
 12
50.0
 22
13.84591830258764
 32
0.0
 13
50.0
 23
13.84591830258764
 33
0.0
  0
MTEXT
  5
111
330
109
100
AcDbEntity
  8
치수문자_일반주서
 62
     0
100
AcDbMText
 10
30.00000000000001
 20
18.22091830258763
 30
0.0
 40
3.5
 41
0.0
 71
     2
 72
     1
  1
\A1;40
  7
SLDTEXTSTYLE0
 73
     1
 44
1.0
  0
POINT
  5
141
330
109
100
AcDbEntity
  8
Defpoints
 62
     0
100
AcDbPoint
 10
10.0
 20
2.999999999999996
 30
0.0
  0
POINT
  5
142
330
109
100
AcDbEntity
  8
Defpoints
 62
     0
100
AcDbPoint
 10
50.0
 20
3.0
 30
0.0
  0
POINT
  5
143
330
109
100
AcDbEntity
  8
Defpoints
 62
     0
100
AcDbPoint
 10
50.0
 20
13.84591830258764
 30
0.0
  0
ENDBLK
  5
10B
330
109
100
AcDbEntity
  8
0
100
AcDbBlockEnd
  0
BLOCK
  5
113
330
112
100
AcDbEntity
  8
0
100
AcDbBlockBegin
  2
SW_DOWELSYMBOL_0
 70
     0
 10
0.0
 20
0.0
 30
0.0
  3
SW_DOWELSYMBOL_0
  1

  0
CIRCLE
  5
115
330
112
100
AcDbEntity
  8
해칭선
 62
     0
100
AcDbCircle
 10
0.0
 20
0.0
 30
0.0
 40
3.0
  0
HATCH
  5
116
330
112
100
AcDbEntity
  8
0
  6
Continuous
 62
     0
370
    18
100
AcDbHatch
 10
0.0
 20
0.0
 30
0.0
210
0.0
220
0.0
230
1.0
  2
SOLID
 70
     1
 71
     0
 91
        1
 92
        0
 93
        3
 72
     2
 10
0.0
 20
0.0
 40
3.0
 50
0.0
 51
90.0
 73
     1
 72
     1
 10
0.0
 20
3.0
 11
0.0
 21
0.0
 72
     1
 10
0.0
 20
0.0
 11
3.0
 21
0.0
 97
        0
 75
     0
 76
     1
 98
        1
 10
0.0
 20
0.0
  0
HATCH
  5
117
330
112
100
AcDbEntity
  8
0
  6
Continuous
 62
     0
370
    18
100
AcDbHatch
 10
0.0
 20
0.0
 30
0.0
210
0.0
220
0.0
230
1.0
  2
SOLID
 70
     1
 71
     0
 91
        1
 92
        0
 93
        3
 72
     2
 10
0.0
 20
0.0
 40
3.0
 50
180.0
 51
270.0000000000008
 73
     1
 72
     1
 10
0.0
 20
-3.0
 11
0.0
 21
0.0
 72
     1
 10
0.0
 20
0.0
 11
-3.0
 21
0.0
 97
        0
 75
     0
 76
     1
 98
        1
 10
0.0
 20
0.0
  0
ENDBLK
  5
114
330
112
100
AcDbEntity
  8
0
100
AcDbBlockEnd
  0
ENDSEC
  0
SECTION
  2
ENTITIES
  0
LINE
  5
99
330
1F
100
AcDbEntity
  8
0
  6
Continuous
 62
     4
370
    25
100
AcDbLine
 10
10.0
 20
2.999999999999996
 30
0.0
 11
-39.49999999999999
 21
2.999999999999993
 31
0.0
  0
LINE
  5
9A
330
1F
100
AcDbEntity
  8
0
  6
Continuous
 62
     4
370
    25
100
AcDbLine
 10
-39.49999999999999
 20
-3.000000000000007
 30
0.0
 11
10.0
 21
-3.000000000000004
 31
0.0
  0
LINE
  5
9B
330
1F
100
AcDbEntity
  8
0
  6
Continuous
 62
     4
370
    25
100
AcDbLine
 10
-39.49999999999999
 20
2.99999999999999
 30
0.0
 11
-39.99999999999999
 21
2.499999999999989
 31
0.0
  0
LINE
  5
9C
330
1F
100
AcDbEntity
  8
0
  6
Continuous
 62
     4
370
    25
100
AcDbLine
 10
-39.99999999999999
 20
-2.500000000000004
 30
0.0
 11
-39.49999999999999
 21
-3.000000000000003
 31
0.0
  0
LINE
  5
9D
330
1F
100
AcDbEntity
  8
0
  6
Continuous
 62
     1
370
    25
100
AcDbLine
 10
48.83933906274007
 20
-3.000000000000007
 30
0.0
 11
50.0
 21
-3.000000000000007
 31
0.0
  0
LINE
  5
9E
330
1F
100
AcDbEntity
  8
0
  6
Continuous
 62
     1
370
    25
100
AcDbLine
 10
16.19095050652418
 20
-3.000000000000007
 30
0.0
 11
18.51185893000912
 21
-3.000000000000007
 31
0.0
  0
LINE
  5
9F
330
1F
100
AcDbEntity
  8
0
  6
Continuous
 62
     1
370
    25
100
AcDbLine
 10
34.83587643708805
 20
3.0
 30
0.0
 11
32.51588327778214
 21
3.0
 31
0.0
  0
LINE
  5
A0
330
1F
100
AcDbEntity
  8
0
  6
Continuous
 62
     1
370
    25
100
AcDbLine
 10
40.67678302184116
 20
-3.000000000000007
 30
0.0
 11
42.99795682029914
 21
-3.000000000000007
 31
0.0
  0
LINE
  5
A1
330
1F
100
AcDbEntity
  8
0
  6
Continuous
 62
     4
370
    25
100
AcDbLine
 10
10.0
 20
-3.000000000000007
 30
0.0
 11
10.3497829495367
 21
-3.000000000000007
 31
0.0
  0
LINE
  5
A2
330
1F
100
AcDbEntity
  8
0
  6
Continuous
 62
     1
370
    25
100
AcDbLine
 10
26.6747808253399
 20
3.0
 30
0.0
 11
24.35307396110292
 21
3.0
 31
0.0
  0
LINE
  5
A3
330
1F
100
AcDbEntity
  8
0
  6
Continuous
 62
     1
370
    25
100
AcDbLine
 10
24.35307396110299
 20
-3.000000000000007
 30
0.0
 11
26.67478082533992
 21
-3.000000000000007
 31
0.0
  0
LINE
  5
A4
330
1F
100
AcDbEntity
  8
0
  6
Continuous
 62
     1
370
    25
100
AcDbLine
 10
10.34978294953674
 20
3.0
 30
0.0
 11
10.0
 21
3.0
 31
0.0
  0
LINE
  5
A5
330
1F
100
AcDbEntity
  8
0
  6
Continuous
 62
     1
370
    25
100
AcDbLine
 10
42.99795682029913
 20
3.0
 30
0.0
 11
40.6767830218412
 21
3.0
 31
0.0
  0
LINE
  5
A6
330
1F
100
AcDbEntity
  8
0
  6
Continuous
 62
     1
370
    25
100
AcDbLine
 10
32.51588327778217
 20
-3.000000000000007
 30
0.0
 11
34.835876437088
 21
-3.000000000000007
 31
0.0
  0
LINE
  5
A7
330
1F
100
AcDbEntity
  8
0
  6
Continuous
 62
     1
370
    25
100
AcDbLine
 10
18.51185893000909
 20
3.0
 30
0.0
 11
16.19095050652422
 21
3.0
 31
0.0
  0
LINE
  5
A8
330
1F
100
AcDbEntity
  8
0
  6
Continuous
 62
     1
370
    25
100
AcDbLine
 10
50.0
 20
3.0
 30
0.0
 11
48.8393390627401
 21
3.0
 31
0.0
  0
SPLINE
  5
A9
330
1F
100
AcDbEntity
  8
0
  6
Continuous
 62
     4
370
    25
100
AcDbSpline
210
0.0
220
0.0
230
1.0
 70
     8
 71
     3
 72
    10
 73
     6
 74
     0
 42
0.000000001
 43
0.00000001
 40
0.0
 40
0.0
 40
0.0
 40
0.0
 40
0.5
 40
0.5
 40
1.0
 40
1.0
 40
1.0
 40
1.0
 10
8.802595799805411
 20
-2.867845419861147
 30
0.0
 10
8.707843418662218
 20
-2.85180792507882
 30
0.0
 10
8.630199544939476
 20
-2.826791303935338
 30
0.0
 10
8.526071982303446
 20
-2.757645419470649
 30
0.0
 10
8.499993897479545
 20
-2.71331167232057
 30
0.0
 10
8.499993897479545
 20
-2.66299897121336
 30
0.0
  0
LINE
  5
AA
330
1F
100
AcDbEntity
  8
0
  6
Continuous
 62
     4
370
    25
100
AcDbLine
 10
8.499993897479545
 20
-1.292187052341271
 30
0.0
 11
8.499993897479545
 21
-1.288889712125793
 31
0.0
  0
SPLINE
  5
AB
330
1F
100
AcDbEntity
  8
0
  6
Continuous
 62
     4
370
    25
100
AcDbSpline
210
0.0
220
0.0
230
1.0
 70
     8
 71
     3
 72
    14
 73
    10
 74
     0
 42
0.000000001
 43
0.00000001
 40
0.0
 40
0.0
 40
0.0
 40
0.0
 40
0.2500000000000002
 40
0.2500000000000002
 40
0.5000000000000001
 40
0.5000000000000001
 40
0.75
 40
0.75
 40
1.0
 40
1.0
 40
1.0
 40
1.0
 10
8.499993897479545
 20
-1.288889712125793
 30
0.0
 10
8.499993897479545
 20
-1.192241333550392
 30
0.0
 10
8.524887228533748
 20
-1.093869369235677
 30
0.0
 10
8.624401992379719
 20
-0.9186743741421075
 30
0.0
 10
8.699133406418447
 20
-0.8418350740617141
 30
0.0
 10
8.88211213946027
 20
-0.7344455576124869
 30
0.0
 10
8.987348208177872
 20
-0.7054660416229561
 30
0.0
 10
9.198816016987443
 20
-0.7030830551323453
 30
0.0
 10
9.30516170815863
 20
-0.7298201120933759
 30
0.0
 10
9.397959360614413
 20
-0.781611579888567
 30
0.0
  0
SPLINE
  5
AC
330
1F
100
AcDbEntity
  8
0
  6
Continuous
 62
     4
370
    25
100
AcDbSpline
210
0.0
220
0.0
230
1.0
 70
     8
 71
     3
 72
     8
 73
     4
 74
     0
 42
0.000000001
 43
0.00000001
 40
0.0
 40
0.0
 40
0.0
 40
0.0
 40
1.0
 40
1.0
 40
1.0
 40
1.0
 10
10.0
 20
2.786841627228102
 30
0.0
 10
9.799083801057382
 20
2.829676742386054
 30
0.0
 10
9.597733554850814
 20
2.866303362690918
 30
0.0
 10
9.397959360614413
 20
2.896391433868014
 30
0.0
  0
SPLINE
  5
AD
330
1F
100
AcDbEntity
  8
0
  6
Continuous
 62
     4
370
    25
100
AcDbSpline
210
0.0
220
0.0
230
1.0
 70
     8
 71
     3
 72
    14
 73
    10
 74
     0
 42
0.000000001
 43
0.00000001
 40
0.0
 40
0.0
 40
0.0
 40
0.0
 40
0.25
 40
0.25
 40
0.5
 40
0.5
 40
0.75
 40
0.75
 40
1.0
 40
1.0
 40
1.0
 40
1.0
 10
8.499993897479545
 20
2.709015191905771
 30
0.0
 10
8.499993897479545
 20
2.754998359963178
 30
0.0
 10
8.524887228533744
 20
2.795012681388091
 30
0.0
 10
8.624401992379719
 20
2.857391026857703
 30
0.0
 10
8.699133406418447
 20
2.880001836083837
 30
0.0
 10
8.88211213946027
 20
2.909241583414834
 30
0.0
 10
8.987348208177872
 20
2.915873654083039
 30
0.0
 10
9.198816016987443
 20
2.916449162945328
 30
0.0
 10
9.30516170815863
 20
2.910367725364676
 30
0.0
 10
9.397959360614413
 20
2.896391433868024
 30
0.0
  0
LINE
  5
AE
330
1F
100
AcDbEntity
  8
0
  6
Continuous
 62
     4
370
    25
100
AcDbLine
 10
8.499993897479545
 20
2.70901519190577
 30
0.0
 11
8.499993897479545
 21
1.381461718368109
 31
0.0
  0
SPLINE
  5
AF
330
1F
100
AcDbEntity
  8
0
  6
Continuous
 62
     4
370
    25
100
AcDbSpline
210
0.0
220
0.0
230
1.0
 70
     8
 71
     3
 72
    10
 73
     6
 74
     0
 42
0.000000001
 43
0.00000001
 40
0.0
 40
0.0
 40
0.0
 40
0.0
 40
0.5
 40
0.5
 40
1.0
 40
1.0
 40
1.0
 40
1.0
 10
8.802595799805411
 20
0.8806035701592264
 30
0.0
 10
8.707843418662218
 20
0.9328325838903722
 30
0.0
 10
8.630199544939476
 20
1.009053711243707
 30
0.0
 10
8.526071982303446
 20
1.185044391004698
 30
0.0
 10
8.499993897479545
 20
1.284475555446609
 30
0.0
 10
8.499993897479545
 20
1.381461718368109
 30
0.0
  0
SPLINE
  5
B0
330
1F
100
AcDbEntity
  8
0
  6
Continuous
 62
     4
370
    25
100
AcDbSpline
210
0.0
220
0.0
230
1.0
 70
     8
 71
     3
 72
    10
 73
     6
 74
     0
 42
0.000000001
 43
0.00000001
 40
0.0
 40
0.0
 40
0.0
 40
0.0
 40
0.5000000000000001
 40
0.5000000000000001
 40
1.0
 40
1.0
 40
1.0
 40
1.0
 10
10.0
 20
0.2021046096395706
 30
0.0
 10
9.799588041233132
 20
0.3172562465450685
 30
0.0
 10
9.598744189731901
 20
0.4320390925333134
 30
0.0
 10
9.200182835325855
 20
0.6585937514684113
 30
0.0
 10
9.002625423079335
 20
0.7703440725660047
 30
0.0
 10
8.802595799805411
 20
0.8806035701592262
 30
0.0
  0
SPLINE
  5
B1
330
1F
100
AcDbEntity
  8
0
  6
Continuous
 62
     4
370
    25
100
AcDbSpline
210
0.0
220
0.0
230
1.0
 70
     8
 71
     3
 72
     8
 73
     4
 74
     0
 42
0.000000001
 43
0.00000001
 40
0.0
 40
0.0
 40
0.0
 40
0.0
 40
1.0
 40
1.0
 40
1.0
 40
1.0
 10
10.0
 20
-1.110636639386861
 30
0.0
 10
9.799083801057382
 20
-1.003153527632874
 30
0.0
 10
9.597733554850814
 20
-0.8931079213723687
 30
0.0
 10
9.397959360614413
 20
-0.7816115798885661
 30
0.0
  0
LINE
  5
B2
330
1F
100
AcDbEntity
  8
0
  6
Continuous
 62
     4
370
    25
100
AcDbLine
 10
8.499993897479545
 20
-1.288889712125793
 30
0.0
 11
8.499993897479545
 21
-2.66299897121336
 31
0.0
  0
SPLINE
  5
B3
330
1F
100
AcDbEntity
  8
0
  6
Continuous
 62
     4
370
    25
100
AcDbSpline
210
0.0
220
0.0
230
1.0
 70
     8
 71
     3
 72
    10
 73
     6
 74
     0
 42
0.000000001
 43
0.00000001
 40
0.0
 40
0.0
 40
0.0
 40
0.0
 40
0.5
 40
0.5
 40
1.0
 40
1.0
 40
1.0
 40
1.0
 10
10.0
 20
-2.993184546057624
 30
0.0
 10
9.799588041233132
 20
-2.985409323291358
 30
0.0
 10
9.598744189731901
 20
-2.970961534347645
 30
0.0
 10
9.200182835325855
 20
-2.929082533247755
 30
0.0
 10
9.002625423079335
 20
-2.901701814823067
 30
0.0
 10
8.802595799805411
 20
-2.867845419861146
 30
0.0
  0
LINE
  5
B4
330
1F
100
AcDbEntity
  8
0
  6
Continuous
 62
     4
370
    25
100
AcDbLine
 10
-39.49999999999999
 20
2.99999999999999
 30
0.0
 11
-39.49999999999999
 21
-3.000000000000003
 31
0.0
  0
LINE
  5
B5
330
1F
100
AcDbEntity
  8
0
  6
Continuous
 62
     4
370
    25
100
AcDbLine
 10
10.0
 20
0.2021046096395707
 30
0.0
 11
10.0
 21
-1.110636639386877
 31
0.0
  0
LINE
  5
B6
330
1F
100
AcDbEntity
  8
0
  6
Continuous
 62
     4
370
    25
100
AcDbLine
 10
10.0
 20
2.999999999999996
 30
0.0
 11
10.0
 21
2.786841627228165
 31
0.0
  0
LINE
  5
B7
330
1F
100
AcDbEntity
  8
0
  6
Continuous
 62
     4
370
    25
100
AcDbLine
 10
10.0
 20
-2.993184546057624
 30
0.0
 11
10.0
 21
-3.000000000000004
 31
0.0
  0
LINE
  5
B8
330
1F
100
AcDbEntity
  8
0
  6
Continuous
 62
     4
370
    25
100
AcDbLine
 10
-39.99999999999999
 20
2.49999999999999
 30
0.0
 11
-39.99999999999999
 21
-2.500000000000004
 31
0.0
  0
LINE
  5
B9
330
1F
100
AcDbEntity
  8
0
  6
Continuous
 62
     4
370
    25
100
AcDbLine
 10
8.84492466161657
 20
0.8650752698226573
 30
0.0
 11
8.839619101605875
 21
0.8670216091706727
 31
0.0
  0
SPLINE
  5
BA
330
1F
100
AcDbEntity
  8
0
  6
Continuous
 62
     4
370
    25
100
AcDbSpline
210
0.0
220
0.0
230
1.0
 70
    24
 71
     3
 72
    20
 73
    16
 74
     0
 42
0.000000001
 43
0.00000001
 40
0.0
 40
0.0
 40
0.0
 40
0.0
 40
0.125
 40
0.125
 40
0.2499999999999999
 40
0.2499999999999999
 40
0.5
 40
0.5
 40
0.6250000000000001
 40
0.6250000000000001
 40
0.75
 40
0.75
 40
0.875
 40
0.875
 40
1.0
 40
1.0
 40
1.0
 40
1.0
 10
10.0
 20
2.786841627228171
 30
0.0
 10
10.0
 20
2.684222253282244
 30
0.0
 10
9.999999999999998
 20
2.590987930536008
 30
0.0
 10
10.0
 20
2.383751947908258
 30
0.0
 10
10.0
 20
2.272108257646157
 30
0.0
 10
10.0
 20
1.914578208766026
 30
0.0
 10
10.0
 20
1.643352035608126
 30
0.0
 10
10.0
 20
1.228869805408947
 30
0.0
 10
10.0
 20
1.090105751711329
 30
0.0
 10
10.0
 20
0.8265739044754435
 30
0.0
 10
10.0
 20
0.7019497131160841
 30
0.0
 10
10.0
 20
0.4854354501960108
 30
0.0
 10
10.0
 20
0.3937886592231393
 30
0.0
 10
10.0
 20
0.2594309266239835
 30
0.0
 10
10.0
 20
0.2169081606165147
 30
0.0
 10
10.0
 20
0.2021046096395706
 30
0.0
  0
SPLINE
  5
BB
330
1F
100
AcDbEntity
  8
0
  6
Continuous
 62
     4
370
    25
100
AcDbSpline
210
0.0
220
0.0
230
1.0
 70
    24
 71
     3
 72
    12
 73
     8
 74
     0
 42
0.000000001
 43
0.00000001
 40
0.0
 40
0.0
 40
0.0
 40
0.0
 40
0.1946876742500404
 40
0.4225929272832981
 40
0.6504981803165553
 40
0.8784034333496396
 40
1.0
 40
1.0
 40
1.0
 40
1.0
 10
10.0
 20
-1.067494668044688
 30
0.0
 10
10.0
 20
-1.08148622330509
 30
0.0
 10
9.999999999999998
 20
-1.111856570670508
 30
0.0
 10
10.0
 20
-1.440799495142612
 30
0.0
 10
10.0
 20
-1.955807737248216
 30
0.0
 10
10.0
 20
-2.510491851315133
 30
0.0
 10
10.0
 20
-2.868595338939625
 30
0.0
 10
10.0
 20
-2.993184546057624
 30
0.0
  0
SPLINE
  5
BC
330
1F
100
AcDbEntity
  8
0
  6
Continuous
 62
     1
370
    25
100
AcDbSpline
210
0.0
220
0.0
230
1.0
 70
     8
 71
     3
 72
    12
 73
     8
 74
     0
 42
0.000000001
 43
0.00000001
 40
0.0
 40
0.0
 40
0.0
 40
0.0
 40
0.2047453939618979
 40
0.4094883854597047
 40
0.614234916665131
 40
0.8189909243977
 40
1.0
 40
1.0
 40
1.0
 40
1.0
 10
9.999999999999995
 20
-1.110636639386858
 30
0.0
 10
10.42252046082029
 20
-1.330829876014667
 30
0.0
 10
11.2675564246437
 20
-1.771213765542594
 30
0.0
 10
12.53510929183911
 20
-2.310362537102125
 30
0.0
 10
13.80268981953495
 20
-2.712928996231593
 30
0.0
 10
15.02130096525736
 20
-2.960250222828812
 30
0.0
 10
15.81740280872444
 20
-2.981091440552411
 30
0.0
 10
16.19095050652418
 20
-2.990870577435311
 30
0.0
  0
SPLINE
  5
BD
330
1F
100
AcDbEntity
  8
0
  6
Continuous
 62
     1
370
    25
100
AcDbSpline
210
0.0
220
0.0
230
1.0
 70
     8
 71
     3
 72
    23
 73
    19
 74
     0
 42
0.000000001
 43
0.00000001
 40
0.0
 40
0.0
 40
0.0
 40
0.0
 40
0.0494278227751861
 40
0.1168117371128599
 40
0.1841936189208475
 40
0.2515740860916013
 40
0.3189537575286663
 40
0.3863332527046018
 40
0.4537131912180357
 40
0.5210941923505242
 40
0.5734577796348945
 40
0.6259146357342047
 40
0.6782679796435817
 40
0.744141128901614
 40
0.8100135052100207
 40
0.875887020355711
 40
0.9417635844036251
 40
1.0
 40
1.0
 40
1.0
 40
1.0
 10
29.59669858185061
 20
2.523040466812907
 30
0.0
 10
29.9137567719326
 20
2.618652888705105
 30
0.0
 10
30.66305374416196
 20
2.844611720466596
 30
0.0
 10
31.84456405373069
 20
3.002620800244504
 30
0.0
 10
33.14122494660052
 20
3.010286319197406
 30
0.0
 10
34.43785414589962
 20
2.825988211354515
 30
0.0
 10
35.73445995919739
 20
2.468045766151366
 30
0.0
 10
37.0310807850706
 20
1.956793924280985
 30
0.0
 10
38.32764053015269
 20
1.324386418612183
 30
0.0
 10
39.52813614272667
 20
0.6630185465821827
 30
0.0
 10
40.63214576968137
 20
0.0256596186026871
 30
0.0
 10
41.64074528159121
 20
-0.5557208422565185
 30
0.0
 10
42.73495879804963
 20
-1.16604960137347
 30
0.0
 10
43.91598836189244
 20
-1.768215121413205
 30
0.0
 10
45.18348622456615
 20
-2.311165992078263
 30
0.0
 10
46.45108148830383
 20
-2.712713846013404
 30
0.0
 10
47.6696888476829
 20
-2.960296797504677
 30
0.0
 10
48.46579114975381
 20
-2.981106314976183
 30
0.0
 10
48.83933906274009
 20
-2.990870577435306
 30
0.0
  0
SPLINE
  5
BE
330
1F
100
AcDbEntity
  8
0
  6
Continuous
 62
     1
370
    25
100
AcDbSpline
210
0.0
220
0.0
230
1.0
 70
     8
 71
     3
 72
    19
 73
    15
 74
     0
 42
0.000000001
 43
0.00000001
 40
0.0
 40
0.0
 40
0.0
 40
0.0
 40
0.085548087400221
 40
0.1710886205171827
 40
0.2566223620329436
 40
0.3421500794373886
 40
0.4276725444944369
 40
0.513190532701795
 40
0.5987048227450412
 40
0.6842161959468699
 40
0.7697254357123229
 40
0.8552333269708379
 40
0.9407406556159785
 40
1.0
 40
1.0
 40
1.0
 40
1.0
 10
50.0
 20
-2.925497095065785
 30
0.0
 10
49.56755046058331
 20
-2.852585343059378
 30
0.0
 10
48.70268956900129
 20
-2.706768277484222
 30
0.0
 10
47.40548122741048
 20
-2.271685320489136
 30
0.0
 10
46.10839460258573
 20
-1.708840072233622
 30
0.0
 10
44.81141803154829
 20
-1.036623015024195
 30
0.0
 10
43.5145368722082
 20
-0.3011076488985815
 30
0.0
 10
42.21773718721592
 20
0.4532660097745874
 30
0.0
 10
40.921004773033
 20
1.179604333909546
 30
0.0
 10
39.62432542243214
 20
1.832365517755465
 30
0.0
 10
38.32768490816288
 20
2.373414529261654
 30
0.0
 10
37.03106884911112
 20
2.760544786140935
 30
0.0
 10
35.8671360357745
 20
2.977485826209757
 30
0.0
 10
35.13540572498336
 20
2.979384726819474
 30
0.0
 10
34.83587643708805
 20
2.980162030067712
 30
0.0
  0
SPLINE
  5
BF
330
1F
100
AcDbEntity
  8
0
  6
Continuous
 62
     1
370
    25
100
AcDbSpline
210
0.0
220
0.0
230
1.0
 70
     8
 71
     3
 72
    17
 73
    13
 74
     0
 42
0.000000001
 43
0.00000001
 40
0.0
 40
0.0
 40
0.0
 40
0.0
 40
0.110277798662418
 40
0.2237271870749997
 40
0.2902830248151061
 40
0.3569601511851913
 40
0.4704248083749877
 40
0.5838794461220778
 40
0.6973250759915468
 40
0.8107627159252253
 40
0.9241933895337069
 40
1.0
 40
1.0
 40
1.0
 40
1.0
 10
21.4321171109503
 20
-2.536316837800445
 30
0.0
 10
21.01184804041063
 20
-2.652112176186872
 30
0.0
 10
20.15922295986928
 20
-2.887033127165392
 30
0.0
 10
19.0524975573741
 20
-3.00266412601942
 30
0.0
 10
18.1133063647174
 20
-3.002094365223126
 30
0.0
 10
17.1733986380718
 20
-2.920516194633683
 30
0.0
 10
16.05426416653589
 20
-2.698627456229401
 30
0.0
 10
14.75710758374558
 20
-2.273871943793762
 30
0.0
 10
13.45998324047696
 20
-1.708233463989168
 30
0.0
 10
12.163105780277
 20
-1.036863041234217
 30
0.0
 10
11.00927094459084
 20
-0.3821282155055796
 30
0.0
 10
10.28866693754264
 20
0.0350050796766106
 30
0.0
 10
9.999999999999998
 20
0.2021046096397586
 30
0.0
  0
LINE
  5
C0
330
1F
100
AcDbEntity
  8
0
  6
Continuous
 62
     1
370
    25
100
AcDbLine
 10
50.0
 20
-3.000000000000011
 30
0.0
 11
50.0
 21
-2.925497095065792
 31
0.0
  0
SPLINE
  5
C1
330
1F
100
AcDbEntity
  8
0
  6
Continuous
 62
     1
370
    25
100
AcDbSpline
210
0.0
220
0.0
230
1.0
 70
     8
 71
     3
 72
    24
 73
    20
 74
     0
 42
0.000000001
 43
0.00000001
 40
0.0
 40
0.0
 40
0.0
 40
0.0
 40
0.0018898102391709
 40
0.0692991853367803
 40
0.1367043879020533
 40
0.2041038966122173
 40
0.2714983141088757
 40
0.3388882466413259
 40
0.4062743036436922
 40
0.4736570973072249
 40
0.54103724214843
 40
0.6084153545736498
 40
0.6757920524407715
 40
0.7431679546187182
 40
0.8105436805453956
 40
0.8779198497847707
 40
0.9452970815837569
 40
0.9976577396177371
 40
1.0
 40
1.0
 40
1.0
 40
1.0
 10
21.43211711095027
 20
2.536316837800437
 30
0.0
 10
21.44424086181609
 20
2.540723297018283
 30
0.0
 10
21.88881780441763
 20
2.702307792480846
 30
0.0
 10
22.76584703010867
 20
2.879920037333786
 30
0.0
 10
24.0631167114127
 20
3.029524297693424
 30
0.0
 10
25.36027231404111
 20
2.973843363539327
 30
0.0
 10
26.65730939895781
 20
2.738550543965931
 30
0.0
 10
27.95424321746855
 20
2.332292798993794
 30
0.0
 10
29.25108750174949
 20
1.781851361085686
 30
0.0
 10
30.54785643210032
 20
1.120913105997009
 30
0.0
 10
31.84456431455784
 20
0.3905593074662725
 30
0.0
 10
33.14122484091484
 20
-0.364017667181149
 30
0.0
 10
34.4378543078202
 20
-1.095936491671941
 30
0.0
 10
35.73445941720553
 20
-1.760300011703618
 30
0.0
 10
37.03108279112019
 20
-2.314273613842962
 30
0.0
 10
38.32763304784078
 20
-2.729775901397081
 30
0.0
 10
39.52816143602087
 20
-2.940827342366561
 30
0.0
 10
40.31081108596295
 20
-3.016967851902266
 30
0.0
 10
40.66175630819976
 20
-2.99839268151609
 30
0.0
 10
40.67678302184116
 20
-2.997597332987182
 30
0.0
  0
SPLINE
  5
C2
330
1F
100
AcDbEntity
  8
0
  6
Continuous
 62
     1
370
    25
100
AcDbSpline
210
0.0
220
0.0
230
1.0
 70
     8
 71
     3
 72
    22
 73
    18
 74
     0
 42
0.000000001
 43
0.00000001
 40
0.0
 40
0.0
 40
0.0
 40
0.0
 40
0.0582044900827349
 40
0.1255471897972191
 40
0.1928863643192973
 40
0.2602226268070332
 40
0.3275565924950271
 40
0.3948888782575754
 40
0.4622201021693254
 40
0.5295508830641034
 40
0.5968818400925767
 40
0.6642135922794361
 40
0.7315467580807697
 40
0.7988819549423033
 40
0.8662197988591874
 40
0.9335609039379941
 40
0.9999999999999999
 40
0.9999999999999999
 40
0.9999999999999999
 40
0.9999999999999999
 10
45.93230292424442
 20
-2.524549828030779
 30
0.0
 10
45.55866572287677
 20
-2.632487381774129
 30
0.0
 10
44.75272960748898
 20
-2.865308879339033
 30
0.0
 10
43.51453716899755
 20
-3.013698635632738
 30
0.0
 10
42.21773710793514
 20
-2.997927134471476
 30
0.0
 10
40.92100479338613
 20
-2.792218347914388
 30
0.0
 10
39.62432542029607
 20
-2.414613174609284
 30
0.0
 10
38.32768489635524
 20
-1.887096809307062
 30
0.0
 10
37.03106889847674
 20
-1.242737918079716
 30
0.0
 10
35.7344631399953
 20
-0.5213527095486447
 30
0.0
 10
34.43785330928672
 20
0.2323120750177896
 30
0.0
 10
33.1412251122162
 20
0.971658679897259
 30
0.0
 10
31.84456422790963
 20
1.650539423743993
 30
0.0
 10
30.54785650738457
 20
2.228144953784845
 30
0.0
 10
29.25108728725181
 20
2.663995246384702
 30
0.0
 10
27.96005908836401
 20
2.947289528695129
 30
0.0
 10
27.10127680837677
 20
2.981684591943493
 30
0.0
 10
26.6747808253399
 20
2.998766169723538
 30
0.0
  0
SPLINE
  5
C3
330
1F
100
AcDbEntity
  8
0
  6
Continuous
 62
     1
370
    25
100
AcDbSpline
210
0.0
220
0.0
230
1.0
 70
     8
 71
     3
 72
    10
 73
     6
 74
     0
 42
0.000000001
 43
0.00000001
 40
0.0
 40
0.0
 40
0.0
 40
0.0
 40
0.3412695345251132
 40
0.7361189997907437
 40
0.9999999999999999
 40
0.9999999999999999
 40
0.9999999999999999
 40
0.9999999999999999
 10
13.28391436802849
 20
-2.524549828030782
 30
0.0
 10
12.91029601121024
 20
-2.63205884112807
 30
0.0
 10
12.10440054354942
 20
-2.863955975748629
 30
0.0
 10
11.009271213946
 20
-3.002034369812126
 30
0.0
 10
10.28866701458234
 20
-2.995715731100567
 30
0.0
 10
9.999999999999998
 20
-2.993184546055154
 30
0.0
  0
SPLINE
  5
C4
330
1F
100
AcDbEntity
  8
0
  6
Continuous
 62
     1
370
    25
100
AcDbSpline
210
0.0
220
0.0
230
1.0
 70
     8
 71
     3
 72
    19
 73
    15
 74
     0
 42
0.000000001
 43
0.00000001
 40
0.0
 40
0.0
 40
0.0
 40
0.0
 40
0.0883183129398809
 40
0.1766355895605982
 40
0.2649543930581805
 40
0.3532772843199541
 40
0.4416068180562388
 40
0.5299455389519288
 40
0.6182959778503047
 40
0.7086647975649122
 40
0.7990411405576097
 40
0.8894241784418614
 40
0.9798016217608512
 40
1.0
 40
1.0
 40
1.0
 40
1.0
 10
9.999999999999991
 20
2.786841627228104
 30
0.0
 10
10.42252045164209
 20
2.680472011161972
 30
0.0
 10
11.2675563971092
 20
2.467734027161243
 30
0.0
 10
12.53510940197639
 20
1.958206414102174
 30
0.0
 10
13.80268940650393
 20
1.344526471318877
 30
0.0
 10
15.07033971659963
 20
0.6480146516324649
 30
0.0
 10
16.33810398680451
 20
-0.0860770252248265
 30
0.0
 10
17.60602810789911
 20
-0.8152557570010667
 30
0.0
 10
18.88373621314614
 20
-1.501525689036291
 30
0.0
 10
20.17125930776964
 20
-2.100914064092048
 30
0.0
 10
21.46851506273539
 20
-2.578720368358821
 30
0.0
 10
22.7658441407803
 20
-2.881176957303498
 30
0.0
 10
23.72737197262445
 20
-3.01591227249191
 30
0.0
 10
24.25643283886431
 20
-2.988778024125838
 30
0.0
 10
24.35307396110299
 20
-2.983821535410583
 30
0.0
  0
SPLINE
  5
C5
330
1F
100
AcDbEntity
  8
0
  6
Continuous
 62
     1
370
    25
100
AcDbSpline
210
0.0
220
0.0
230
1.0
 70
     8
 71
     3
 72
    18
 73
    14
 74
     0
 42
0.000000001
 43
0.00000001
 40
0.0
 40
0.0
 40
0.0
 40
0.0
 40
0.0471698730857391
 40
0.1541998642683594
 40
0.2373757475461495
 40
0.3206997817904266
 40
0.4038593941859682
 40
0.5084942684941682
 40
0.6131279150261372
 40
0.7177633705212022
 40
0.8224036689834634
 40
0.9270518370988283
 40
1.0
 40
1.0
 40
1.0
 40
1.0
 10
37.75623138219655
 20
2.519002594635236
 30
0.0
 10
37.9467099528252
 20
2.582054605482075
 30
0.0
 10
38.56939065589987
 20
2.788173699691999
 30
0.0
 10
39.52813918094393
 20
2.946935416483012
 30
0.0
 10
40.63214504409096
 20
3.019778224075613
 30
0.0
 10
41.64074546812646
 20
2.966983119585425
 30
0.0
 10
42.73495875851151
 20
2.790467076817376
 30
0.0
 10
43.91598825028336
 20
2.460257199011887
 30
0.0
 10
45.18348670524426
 20
1.960238817751344
 30
0.0
 10
46.45107967712858
 20
1.343873743894413
 30
0.0
 10
47.71873266911572
 20
0.6485930945556675
 30
0.0
 10
48.85842259871207
 20
-0.0133636171996653
 30
0.0
 10
49.57563722961427
 20
-0.4227187154427647
 30
0.0
 10
49.87023503707283
 20
-0.5908624052371346
 30
0.0
  0
SPLINE
  5
C6
330
1F
100
AcDbEntity
  8
0
  6
Continuous
 62
     1
370
    25
100
AcDbSpline
210
0.0
220
0.0
230
1.0
 70
     8
 71
     3
 72
    13
 73
     9
 74
     0
 42
0.000000001
 43
0.00000001
 40
0.0
 40
0.0
 40
0.0
 40
0.0
 40
0.1852743386005746
 40
0.3705323166386046
 40
0.5557755858799945
 40
0.7410058085031184
 40
0.9262246559427685
 40
1.0
 40
1.0
 40
1.0
 40
1.0
 10
50.00000000000001
 20
0.6644296401890025
 30
0.0
 10
49.5675504576833
 20
0.9038754913142404
 30
0.0
 10
48.70268956030148
 20
1.382746049412467
 30
0.0
 10
47.40548126220498
 20
2.003563591693336
 30
0.0
 10
46.10839447212146
 20
2.506215952747151
 30
0.0
 10
44.81141851856542
 20
2.841205430173292
 30
0.0
 10
43.77461698436471
 20
3.002850052297238
 30
0.0
 10
43.17014316759823
 20
2.983228925505449
 30
0.0
 10
42.99795682029913
 20
2.97763978324906
 30
0.0
  0
SPLINE
  5
C7
330
1F
100
AcDbEntity
  8
0
  6
Continuous
 62
     1
370
    25
100
AcDbSpline
210
0.0
220
0.0
230
1.0
 70
     8
 71
     3
 72
    24
 73
    20
 74
     0
 42
0.000000001
 43
0.00000001
 40
0.0
 40
0.0
 40
0.0
 40
0.0
 40
0.0179553801021547
 40
0.0853325969799219
 40
0.1527136888793581
 40
0.2200992651546362
 40
0.2874899319755229
 40
0.3548862919045629
 40
0.4222868238185607
 40
0.4896823632111469
 40
0.557072292337063
 40
0.5966070421579295
 40
0.6362138384859868
 40
0.7036128373991334
 40
0.7710058846756666
 40
0.8383935811940956
 40
0.9057765316207722
 40
0.9731553439893434
 40
1.0
 40
1.0
 40
1.0
 40
1.0
 10
29.59669858185061
 20
-2.523040466812912
 30
0.0
 10
29.48150126739676
 20
-2.562932709139002
 30
0.0
 10
28.93402825643662
 20
-2.752519819947599
 30
0.0
 10
27.95424268339464
 20
-2.932394287943626
 30
0.0
 10
26.65730944772965
 20
-3.033302827409603
 30
0.0
 10
25.36027265311401
 20
-2.934291529717044
 30
0.0
 10
24.06311530617848
 20
-2.656617952161586
 30
0.0
 10
22.76585231255385
 20
-2.213412601198506
 30
0.0
 10
21.46848827836276
 20
-1.633294199534927
 30
0.0
 10
20.17135826143029
 20
-0.9517674449945192
 30
0.0
 10
19.05249647191592
 20
-0.3135926923138322
 30
0.0
 10
18.11330657694602
 20
0.2311577229990829
 30
0.0
 10
17.17339857806396
 20
0.7686878210692044
 30
0.0
 10
16.05426388218965
 20
1.380893215726813
 30
0.0
 10
14.75710874522731
 20
2.004278356268093
 30
0.0
 10
13.45997887936102
 20
2.505209614565519
 30
0.0
 10
12.16312206174011
 20
2.844515762210563
 30
0.0
 10
11.12593100863663
 20
2.993739546863974
 30
0.0
 10
10.52187967412774
 20
2.990788036415257
 30
0.0
 10
10.34978294953673
 20
2.989947138875922
 30
0.0
  0
LINE
  5
C8
330
1F
100
AcDbEntity
  8
0
  6
Continuous
 62
     1
370
    25
100
AcDbLine
 10
50.0
 20
-0.5000000000000117
 30
0.0
 11
50.0
 21
0.6644296401890022
 31
0.0
  0
LINE
  5
C9
330
1F
100
AcDbEntity
  8
0
  6
Continuous
 62
     1
370
    25
100
AcDbLine
 10
50.0
 20
-0.5000000000000109
 30
0.0
 11
49.87023503707282
 21
-0.5908624052371332
 31
0.0
  0
SPLINE
  5
CA
330
1F
100
AcDbEntity
  8
0
  6
Continuous
 62
     4
370
    25
100
AcDbSpline
210
0.0
220
0.0
230
1.0
 70
    24
 71
     3
 72
    16
 73
    12
 74
     0
 42
0.000000001
 43
0.00000001
 40
0.0
 40
0.0
 40
0.0
 40
0.0
 40
0.0752365531079435
 40
0.1913580707789151
 40
0.3042069629325055
 40
0.4203284806034777
 40
0.5331773727570678
 40
0.64929889042804
 40
0.762147782581547
 40
0.8782693002524276
 40
1.0
 40
1.0
 40
1.0
 40
1.0
 10
9.999999999999998
 20
-1.059403768303583
 30
0.0
 10
9.999999999999998
 20
-1.061019307010255
 30
0.0
 10
9.999999999999998
 20
-1.065128298682612
 30
0.0
 10
9.999999999999998
 20
-1.139269810319875
 30
0.0
 10
9.999999999999998
 20
-1.272079951234228
 30
0.0
 10
9.999999999999998
 20
-1.459099762085401
 30
0.0
 10
9.999999999999998
 20
-1.695495265748922
 30
0.0
 10
9.999999999999998
 20
-1.971066700823777
 30
0.0
 10
10.0
 20
-2.282889754041282
 30
0.0
 10
9.999999999999998
 20
-2.624774154810021
 30
0.0
 10
9.999999999999998
 20
-2.86846545463113
 30
0.0
 10
9.999999999999998
 20
-2.993184546055154
 30
0.0
  0
SPLINE
  5
CB
330
1F
100
AcDbEntity
  8
0
  6
Continuous
 62
     1
370
    25
100
AcDbSpline
210
0.0
220
0.0
230
1.0
 70
     8
 71
     3
 72
    23
 73
    19
 74
     0
 42
0.000000001
 43
0.00000001
 40
0.0
 40
0.0
 40
0.0
 40
0.0
 40
0.0269758254096312
 40
0.0928935295367667
 40
0.15881619111789
 40
0.2247457093184785
 40
0.2906839729736482
 40
0.3581286074864692
 40
0.4255788568202286
 40
0.4930341027281981
 40
0.5604851732645014
 40
0.6279305460711346
 40
0.6953708241997872
 40
0.7628066143122981
 40
0.8302385262574997
 40
0.8976671726432272
 40
0.9650931684041534
 40
1.0
 40
1.0
 40
1.0
 40
1.0
 10
13.28391436802848
 20
2.524549828030775
 30
0.0
 10
13.45683333281875
 20
2.581958095120302
 30
0.0
 10
14.05229436947999
 20
2.779648303799946
 30
0.0
 10
15.07034004760906
 20
2.954052955350356
 30
0.0
 10
16.33810389677143
 20
3.030229692293726
 30
0.0
 10
17.60602813698008
 20
2.917756866633195
 30
0.0
 10
18.88373618644773
 20
2.6327126808815
 30
0.0
 10
20.17125938676128
 20
2.184482250374283
 30
0.0
 10
21.46851477422555
 20
1.597670714974472
 30
0.0
 10
22.7658452158758
 20
0.9118145395392121
 30
0.0
 10
24.06311719772214
 20
0.1694197659460514
 30
0.0
 10
25.36027218283841
 20
-0.5834125516500352
 30
0.0
 10
26.65730943751227
 20
-1.300244334724418
 30
0.0
 10
27.95424319444199
 20
-1.935802779758836
 30
0.0
 10
29.25108755530042
 20
-2.453905210824485
 30
0.0
 10
30.54785624093439
 20
-2.810535504706815
 30
0.0
 10
31.63611367318127
 20
-2.993117223911205
 30
0.0
 10
32.29211436385947
 20
-2.980877825716098
 30
0.0
 10
32.51588327778215
 20
-2.976702834927057
 30
0.0
  0
SPLINE
  5
CC
330
1F
100
AcDbEntity
  8
0
  6
Continuous
 62
     1
370
    25
100
AcDbSpline
210
0.0
220
0.0
230
1.0
 70
     8
 71
     3
 72
    11
 73
     7
 74
     0
 42
0.000000001
 43
0.00000001
 40
0.0
 40
0.0
 40
0.0
 40
0.0
 40
0.1317374707430768
 40
0.4536490892768708
 40
0.7755849177260145
 40
1.0
 40
1.0
 40
1.0
 40
1.0
 10
45.93230292424441
 20
2.524549828030775
 30
0.0
 10
46.10522178256152
 20
2.581993958613764
 30
0.0
 10
46.70068245257352
 20
2.779807666257334
 30
0.0
 10
47.71873397963785
 20
2.952242213058988
 30
0.0
 10
48.85842238390883
 20
3.028286980045658
 30
0.0
 10
49.57563716707247
 20
2.966583129575867
 30
0.0
 10
49.87023503707282
 20
2.941238109721371
 30
0.0
  0
SPLINE
  5
CD
330
1F
100
AcDbEntity
  8
0
  6
Continuous
 62
     1
370
    25
100
AcDbSpline
210
0.0
220
0.0
230
1.0
 70
     8
 71
     3
 72
    13
 73
     9
 74
     0
 42
0.000000001
 43
0.00000001
 40
0.0
 40
0.0
 40
0.0
 40
0.0
 40
0.1414828206700811
 40
0.2875597530329619
 40
0.4762108549959655
 40
0.6655120396741262
 40
0.843515664686736
 40
1.0
 40
1.0
 40
1.0
 40
1.0
 10
49.87023503707282
 20
2.941238109721371
 30
0.0
 10
49.87116180183352
 20
2.828504024595636
 30
0.0
 10
49.87304542448429
 20
2.599375247521373
 30
0.0
 10
49.80766914866415
 20
2.226169185669916
 30
0.0
 10
49.65204983997889
 20
1.846336222850709
 30
0.0
 10
49.37887146571618
 20
1.543333839138405
 30
0.0
 10
49.06020971861047
 20
1.369322626293511
 30
0.0
 10
48.841436612308
 20
1.353982769250822
 30
0.0
 10
48.73908744526831
 20
1.346806285736178
 30
0.0
  0
LINE
  5
CE
330
1F
100
AcDbEntity
  8
0
  6
Continuous
 62
     1
370
    25
100
AcDbLine
 10
50.0
 20
0.6668960507281824
 30
0.0
 11
50.0
 21
0.6894231305804596
 31
0.0
  0
SPLINE
  5
CF
330
1F
100
AcDbEntity
  8
0
  6
Continuous
 62
     4
370
    25
100
AcDbSpline
210
0.0
220
0.0
230
1.0
 70
    24
 71
     3
 72
    20
 73
    16
 74
     0
 42
0.000000001
 43
0.00000001
 40
0.0
 40
0.0
 40
0.0
 40
0.0
 40
0.1249999999999999
 40
0.1249999999999999
 40
0.25
 40
0.25
 40
0.5
 40
0.5
 40
0.625
 40
0.625
 40
0.75
 40
0.75
 40
0.875
 40
0.875
 40
1.0
 40
1.0
 40
1.0
 40
1.0
 10
10.0
 20
2.786841627228171
 30
0.0
 10
10.0
 20
2.684222253282299
 30
0.0
 10
9.999999999999998
 20
2.59098793053611
 30
0.0
 10
9.999999999999998
 20
2.383751947908486
 30
0.0
 10
10.0
 20
2.272108257646458
 30
0.0
 10
10.0
 20
1.914578208766564
 30
0.0
 10
10.0
 20
1.643352035608855
 30
0.0
 10
10.0
 20
1.228869805409901
 30
0.0
 10
10.0
 20
1.090105751712343
 30
0.0
 10
10.0
 20
0.8265739044765209
 30
0.0
 10
10.0
 20
0.7019497131171617
 30
0.0
 10
10.0
 20
0.4854354501969949
 30
0.0
 10
10.0
 20
0.3937886592240293
 30
0.0
 10
10.0
 20
0.2594309266245862
 30
0.0
 10
10.0
 20
0.2169081606169248
 30
0.0
 10
10.0
 20
0.2021046096397584
 30
0.0
  0
SPLINE
  5
D0
330
1F
100
AcDbEntity
  8
0
  6
Continuous
 62
     1
370
    25
100
AcDbSpline
210
0.0
220
0.0
230
1.0
 70
     8
 71
     3
 72
     8
 73
     4
 74
     0
 42
0.000000001
 43
0.00000001
 40
0.0
 40
0.0
 40
0.0
 40
0.0
 40
1.0
 40
1.0
 40
1.0
 40
1.0
 10
50.0
 20
-2.39417448371956
 30
0.0
 10
49.53021694332988
 20
-2.128539244315989
 30
0.0
 10
49.08892964928774
 20
-1.799829127033016
 30
0.0
 10
48.66362622453234
 20
-1.435738991448241
 30
0.0
  0
LINE
  5
D1
330
1F
100
AcDbEntity
  8
0
  6
Continuous
 62
     1
370
    25
100
AcDbLine
 10
50.0
 20
-2.925497095065792
 30
0.0
 11
50.0
 21
-2.39417448371956
 31
0.0
  0
LINE
  5
D2
330
1F
100
AcDbEntity
  8
0
  6
Continuous
 62
     1
370
    25
100
AcDbLine
 10
49.81361748129034
 20
-0.630506444591022
 30
0.0
 11
48.66362622453232
 21
-1.435738991448236
 31
0.0
  0
SPLINE
  5
D3
330
1F
100
AcDbEntity
  8
0
  6
Continuous
 62
     1
370
    25
100
AcDbSpline
210
0.0
220
0.0
230
1.0
 70
     8
 71
     3
 72
    23
 73
    19
 74
     0
 42
0.000000001
 43
0.00000001
 40
0.0
 40
0.0
 40
0.0
 40
0.0
 40
0.0376828865984076
 40
0.1050603448001076
 40
0.1724379792576083
 40
0.2398164094247416
 40
0.3071962541863424
 40
0.374578131416183
 40
0.4419626575364549
 40
0.5093504470794614
 40
0.5767421122521958
 40
0.6441382625044493
 40
0.7115395041011072
 40
0.7789464396992667
 40
0.8463575479370413
 40
0.9137636628699904
 40
0.9811641666559203
 40
0.9999999999999999
 40
0.9999999999999999
 40
0.9999999999999999
 40
0.9999999999999999
 10
37.75623138219651
 20
-2.519002594635239
 30
0.0
 10
37.51450963759491
 20
-2.596229342335494
 30
0.0
 10
36.84058648239264
 20
-2.811538451418516
 30
0.0
 10
35.73446322728619
 20
-2.981464558818014
 30
0.0
 10
34.43785328685896
 20
-3.023638811352482
 30
0.0
 10
33.14122511463528
 20
-2.87103597758748
 30
0.0
 10
31.84456424066212
 20
-2.542525398353372
 30
0.0
 10
30.54785645395278
 20
-2.055932820849601
 30
0.0
 10
29.25108748823854
 20
-1.442077276429007
 30
0.0
 10
27.95424324966089
 20
-0.7388112394003042
 30
0.0
 10
26.65730928369006
 20
0.0102553024872947
 30
0.0
 10
25.36027274296148
 20
0.7586734973846436
 30
0.0
 10
24.06311511082301
 20
1.460227184205185
 30
0.0
 10
22.76585300419875
 20
2.070792046597922
 30
0.0
 10
21.46848570707265
 20
2.554854196124643
 30
0.0
 10
20.17136785377171
 20
2.873631529430729
 30
0.0
 10
19.18534505276378
 20
3.000222100710313
 30
0.0
 10
18.6325918729998
 20
2.993451502329299
 30
0.0
 10
18.51185893000909
 20
2.991972660961626
 30
0.0
  0
LINE
  5
D4
330
1F
100
AcDbEntity
  8
0
  6
Continuous
 62
     1
370
    25
100
AcDbLine
 10
50.0
 20
2.958039891549812
 30
0.0
 11
50.0
 21
3.000000000000004
 31
0.0
  0
ELLIPSE
  5
D5
330
1F
100
AcDbEntity
  8
0
  6
Continuous
 62
     1
370
    25
100
AcDbEllipse
 10
50.71407400337105
 20
-0.0000000000000038
 30
0.0
 11
4.284444020226331
 21
0.0
 31
0.0
210
0.0
220
0.0
230
1.0
 40
0.7002075382097126
 41
1.738244406014585
 42
1.769046555404854
  0
LINE
  5
D6
330
1F
100
AcDbEntity
  8
0
  6
Continuous
 62
     1
370
    25
100
AcDbLine
 10
50.0
 20
0.6894231305804596
 30
0.0
 11
50.0
 21
2.958039891549812
 31
0.0
  0
LINE
  5
D7
330
1F
100
AcDbEntity
  8
0
  6
Continuous
 62
     1
370
    25
100
AcDbLine
 10
50.0
 20
-0.5000000000000013
 30
0.0
 11
50.0
 21
-2.39417448371956
 31
0.0
  0
LINE
  5
D8
330
1F
100
AcDbEntity
  8
중심선
100
AcDbLine
 10
-42.99999999999998
 20
-0.0000000000000085
 30
0.0
 11
53.00000000000002
 21
0.0000000000000069
 31
0.0
  0
CIRCLE
  5
D9
330
1F
100
AcDbEntity
  8
해칭선
100
AcDbCircle
 10
0.0001675806629731
 20
-0.0000000000000043
 30
0.0
 40
3.0
  0
INSERT
  5
DA
330
1F
100
AcDbEntity
  8
0
  6
Continuous
 62
     7
100
AcDbBlockReference
 66
     1
  2
블럭10
 10
-7.440099248941765
 20
-52.04717430164393
 30
0.0
  0
ATTRIB
  5
DB
330
DA
100
AcDbEntity
  8
FORMAT
 62
     2
100
AcDbText
 10
-23.55936028837732
 20
-49.97180738881174
 30
0.0
 40
4.233333333333333
  1
SEME7206040E [ 4 FLUTE ]
 41
0.75
  7
SLDTEXTSTYLE0
 11
-23.55936028837732
 21
-52.08847405547841
 31
0.0
100
AcDbAttribute
  2
AUTOATTR0
 70
     0
 74
     1
  0
SEQEND
  5
DC
330
DA
100
AcDbEntity
  8
0
  6
Continuous
 62
     7
  0
HATCH
  5
DD
330
1F
100
AcDbEntity
  8
중심선
100
AcDbHatch
 10
0.0
 20
0.0
 30
0.0
210
0.0
220
0.0
230
1.0
  2
SOLID
 70
     1
 71
     0
 91
        1
 92
        0
 93
        4
 72
     1
 10
-1.725189944560918
 20
-35.8
 11
-5.1714651883982
 21
-35.8
 72
     1
 10
-5.1714651883982
 20
-35.8
 11
-7.299695047602222
 21
-38.33632558057259
 72
     1
 10
-7.299695047602222
 20
-38.33632558057259
 11
-3.853386718651791
 21
-38.3362861512701
 72
     1
 10
-3.853386718651791
 20
-38.3362861512701
 11
-1.725189944560918
 21
-35.8
 97
        0
 75
     0
 76
     1
 98
        1
 10
0.0
 20
0.0
  0
HATCH
  5
DE
330
1F
100
AcDbEntity
  8
중심선
100
AcDbHatch
 10
0.0
 20
0.0
 30
0.0
210
0.0
220
0.0
230
1.0
  2
SOLID
 70
     1
 71
     0
 91
        1
 92
        0
 93
        4
 72
     1
 10
3.287574046475034
 20
-35.80000000000003
 11
-0.158701197362221
 21
-35.79999999999997
 72
     1
 10
-0.158701197362221
 20
-35.79999999999997
 11
-4.689839205719638
 21
-41.20000000000002
 72
     1
 10
-4.689839205719637
 20
-41.20000000000002
 11
-1.243563961882355
 21
-41.20000000000002
 72
     1
 10
-1.243563961882355
 20
-41.20000000000002
 11
3.287574046475033
 21
-35.80000000000003
 97
        0
 75
     0
 76
     1
 98
        1
 10
0.0
 20
0.0
  0
HATCH
  5
DF
330
1F
100
AcDbEntity
  8
중심선
100
AcDbHatch
 10
0.0
 20
0.0
 30
0.0
210
0.0
220
0.0
230
1.0
  2
SOLID
 70
     1
 71
     0
 91
        1
 92
        0
 93
        4
 72
     1
 10
8.30033803751093
 20
-35.79999999999997
 11
4.854062793673869
 21
-35.79999999999997
 72
     1
 10
4.854062793673869
 20
-35.79999999999997
 11
-2.194374108215436
 21
-44.20000000000002
 72
     1
 10
-2.194374108215436
 20
-44.20000000000002
 11
1.251901135621847
 21
-44.20000000000002
 72
     1
 10
1.251901135621847
 20
-44.20000000000002
 11
8.30033803751093
 21
-35.79999999999997
 97
        0
 75
     0
 76
     1
 98
        1
 10
0.0
 20
0.0
  0
HATCH
  5
E0
330
1F
100
AcDbEntity
  8
중심선
100
AcDbHatch
 10
0.0
 20
0.0
 30
0.0
210
0.0
220
0.0
230
1.0
  2
SOLID
 70
     1
 71
     0
 91
        1
 92
        0
 93
        6
 72
     3
 10
13.10022846852313
 20
-40.00000000005127
 11
3.960054785062284
 21
1.540850780301639E-10
 40
0.3939339440162633
 50
17.09539180608433
 51
320.0019657685087
 73
     0
 72
     1
 10
14.7832281242237
 20
-38.58789400463836
 11
17.08852999792476
 21
-36.6535672945904
 72
     3
 10
13.10022846847028
 20
-40.00000000000015
 11
6.600054785286829
 21
-1.249000902703301E-13
 40
0.6363583540795982
 50
39.9987384933739
 51
368.4976242363725
 73
     1
 72
     1
 10
19.52556096037089
 20
-39.03999999993002
 11
11.7802957753062
 21
-39.03999999993002
 72
     1
 10
11.7802957753062
 20
-39.03999999993002
 11
11.78027073086027
 21
-40.95999999992991
 72
     1
 10
11.78027073086027
 20
-40.95999999992991
 11
16.22165050033231
 21
-40.95999999992988
 97
        0
 75
     0
 76
     1
 98
        1
 10
0.0
 20
0.0
  0
DIMENSION
  5
E1
330
1F
100
AcDbEntity
  8
치수문자_일반주서
100
AcDbDimension
  2
_D
 10
61.12280211104117
 20
3.000000000000037
 30
0.0
 11
61.12280211104114
 21
12.66650000000004
 31
0.0
 70
   160
  1
%%c<>
 71
     2
 42
6.000000000000003
 52
-270.0
  3
SLDDIMSTYLE0
100
AcDbAlignedDimension
 13
50.00000000000004
 23
-3.000000000000006
 33
0.0
 14
50.00000000000004
 24
2.999999999999997
 34
0.0
 50
90.0000000000002
100
AcDbRotatedDimension
  0
DIMENSION
  5
EF
330
1F
100
AcDbEntity
  8
치수문자_일반주서
100
AcDbDimension
  2
_D_1
 10
49.99999999999999
 20
20.38913260158164
 30
0.0
 11
5.000000000000004
 21
20.38913260158164
 31
0.0
 70
   160
  1
<>
 71
     2
 42
90.0
  3
SLDDIMSTYLE1
100
AcDbAlignedDimension
 13
-39.99999999999999
 23
2.49999999999999
 33
0.0
 14
50.0
 24
3.0
 34
0.0
 50
-0.0000000000000045
100
AcDbRotatedDimension
  0
DIMENSION
  5
FA
330
1F
100
AcDbEntity
  8
치수문자_일반주서
100
AcDbDimension
  2
_D_2
 10
-48.41972776059804
 20
-3.000000000000039
 30
0.0
 11
-48.4197277605981
 21
12.66649999999997
 31
0.0
 70
   160
  1
%%c<>
 71
     2
 42
6.000000000000005
 52
-270.0
  3
SLDDIMSTYLE2
100
AcDbAlignedDimension
 13
-39.49999999999999
 23
2.999999999999999
 33
0.0
 14
-39.49999999999999
 24
-3.000000000000006
 34
0.0
 50
90.0000000000002
100
AcDbRotatedDimension
  0
DIMENSION
  5
108
330
1F
100
AcDbEntity
  8
치수문자_일반주서
100
AcDbDimension
  2
_D_3
 10
50.0
 20
13.84591830258764
 30
0.0
 11
30.00000000000001
 21
13.84591830258764
 31
0.0
 70
   160
  1
<>
 71
     2
 42
40.0
  3
SLDDIMSTYLE1
100
AcDbAlignedDimension
 13
10.0
 23
2.999999999999996
 33
0.0
 14
50.0
 24
3.0
 34
0.0
 50
-0.0000000000000382
100
AcDbRotatedDimension
  0
INSERT
  5
118
330
1F
100
AcDbEntity
  8
해칭선
100
AcDbBlockReference
  2
SW_DOWELSYMBOL_0
 10
0.0001675806629731
 20
-0.0000000000000043
 30
0.0
  0
ENDSEC
  0
SECTION
  2
OBJECTS
  0
DICTIONARY
  5
C
330
0
100
AcDbDictionary
281
     1
  3
ACAD_GROUP
350
D
  3
ACAD_IMAGE_VARS
350
13C
  3
ACAD_LAYOUT
350
1A
  3
ACAD_MLINESTYLE
350
17
  3
ACAD_PLOTSETTINGS
350
19
  3
ACAD_PLOTSTYLENAME
350
E
  3
ACAD_SCALELIST
350
47
  3
APPDATA
350
13A
  3
DWGPROPS
350
14B
  0
DICTIONARY
  5
D
102
{ACAD_REACTORS
330
C
102
}
330
C
100
AcDbDictionary
281
     1
  0
RASTERVARIABLES
  5
13C
102
{ACAD_REACTORS
330
C
102
}
330
C
100
AcDbRasterVariables
 90
        0
 70
     1
 71
     1
 72
     1
  0
DICTIONARY
  5
1A
102
{ACAD_REACTORS
330
C
102
}
330
C
100
AcDbDictionary
281
     1
  3
Layout1
350
1E
  3
Layout2
350
26
  3
Model
350
22
  0
DICTIONARY
  5
17
102
{ACAD_REACTORS
330
C
102
}
330
C
100
AcDbDictionary
281
     1
  3
Standard
350
18
  0
DICTIONARY
  5
19
102
{ACAD_REACTORS
330
C
102
}
330
C
100
AcDbDictionary
281
     1
  0
ACDBDICTIONARYWDFLT
  5
E
102
{ACAD_REACTORS
330
C
102
}
330
C
100
AcDbDictionary
281
     1
  3
Normal
350
F
100
AcDbDictionaryWithDefault
340
F
  0
DICTIONARY
  5
47
102
{ACAD_REACTORS
330
C
102
}
330
C
100
AcDbDictionary
281
     1
  3
A0
350
48
  3
A1
350
49
  3
A2
350
4A
  3
A3
350
4B
  3
A4
350
4C
  3
A5
350
4D
  3
A6
350
4E
  3
A7
350
4F
  3
A8
350
50
  3
A9
350
51
  3
B0
350
52
  3
B1
350
53
  3
B2
350
54
  3
B3
350
55
  3
B4
350
56
  3
B5
350
57
  3
B6
350
58
  3
B7
350
59
  3
B8
350
5A
  3
B9
350
5B
  3
C0
350
5C
  3
C1
350
5D
  3
C2
350
5E
  3
C3
350
5F
  3
C4
350
60
  3
C5
350
61
  3
C6
350
62
  3
C7
350
63
  3
C8
350
64
  3
C9
350
65
  3
D0
350
66
  3
D1
350
67
  3
D2
350
68
  0
DICTIONARY
  5
13A
102
{ACAD_REACTORS
330
C
102
}
330
C
100
AcDbDictionary
281
     1
  0
XRECORD
  5
14B
102
{ACAD_REACTORS
330
C
102
}
330
C
100
AcDbXrecord
280
     1
  1
DWGPROPS COOKIE
  2

  3

  4

  6

  7

  8
12014102
  9

300
=
301
=
302
=
303
=
304
=
305
=
306
=
307
=
308
=
309
=
 40
0.0
 41
2458260.200323032
 42
2458268.133245081
  1

 90
        0
  0
LAYOUT
  5
1E
102
{ACAD_REACTORS
330
1A
102
}
330
1A
100
AcDbPlotSettings
  1

  2
none_device
  4

  6

 40
0.0
 41
0.0
 42
0.0
 43
0.0
 44
0.0
 45
0.0
 46
0.0
 47
0.0
 48
0.0
 49
0.0
140
0.0
141
0.0
142
1.0
143
1.0
 70
   688
 72
     1
 73
     0
 74
     5
  7

 75
    16
147
1.0
148
0.0
149
0.0
100
AcDbLayout
  1
Layout1
 70
     1
 71
     1
 10
0.0
 20
0.0
 11
420.0
 21
297.0
 12
0.0
 22
0.0
 32
0.0
 14
1.000000000000000E+20
 24
1.000000000000000E+20
 34
1.000000000000000E+20
 15
-1.000000000000000E+20
 25
-1.000000000000000E+20
 35
-1.000000000000000E+20
146
0.0
 13
0.0
 23
0.0
 33
0.0
 16
1.0
 26
0.0
 36
0.0
 17
0.0
 27
1.0
 37
0.0
 76
     0
330
1B
  0
LAYOUT
  5
26
102
{ACAD_REACTORS
330
1A
102
}
330
1A
100
AcDbPlotSettings
  1

  2
none_device
  4

  6

 40
0.0
 41
0.0
 42
0.0
 43
0.0
 44
0.0
 45
0.0
 46
0.0
 47
0.0
 48
0.0
 49
0.0
140
0.0
141
0.0
142
1.0
143
1.0
 70
   688
 72
     1
 73
     0
 74
     5
  7

 75
    16
147
1.0
148
0.0
149
0.0
100
AcDbLayout
  1
Layout2
 70
     1
 71
     2
 10
0.0
 20
0.0
 11
0.0
 21
0.0
 12
0.0
 22
0.0
 32
0.0
 14
0.0
 24
0.0
 34
0.0
 15
0.0
 25
0.0
 35
0.0
146
0.0
 13
0.0
 23
0.0
 33
0.0
 16
1.0
 26
0.0
 36
0.0
 17
0.0
 27
1.0
 37
0.0
 76
     0
330
23
  0
LAYOUT
  5
22
102
{ACAD_REACTORS
330
1A
102
}
330
1A
100
AcDbPlotSettings
  1

  2
none_device
  4
ANSI_A_(11.00_x_8.50_Inches)
  6

 40
6.35
 41
19.05
 42
6.35000508
 43
19.05000254
 44
279.4
 45
215.9
 46
120.3381455628447
 47
117.493632602635
 48
0.0
 49
0.0
140
0.0
141
0.0
142
0.0872157908483446
143
1.0
 70
  1696
 72
     0
 73
     0
 74
     0
  7

 75
     0
147
0.0235690232323232
148
0.0
149
0.0
100
AcDbLayout
  1
Model
 70
     1
 71
     0
 10
0.0
 20
0.0
 11
420.0
 21
297.0
 12
0.0
 22
0.0
 32
0.0
 14
-52.79472776059811
 24
-49.97180738881174
 34
0.0
 15
61.67313544437454
 25
24.76413260158164
 35
0.0
146
0.0
 13
0.0
 23
0.0
 33
0.0
 16
1.0
 26
0.0
 36
0.0
 17
0.0
 27
1.0
 37
0.0
 76
     0
330
1F
331
29
  0
MLINESTYLE
  5
18
102
{ACAD_REACTORS
330
17
102
}
330
17
100
AcDbMlineStyle
  2
Standard
 70
     0
  3

 62
   256
 51
90.0
 52
90.0
 71
     2
 49
0.5
 62
   256
  6
BYLAYER
 49
-0.5
 62
   256
  6
BYLAYER
  0
ACDBPLACEHOLDER
  5
F
102
{ACAD_REACTORS
330
E
102
}
330
E
  0
SCALE
  5
48
102
{ACAD_REACTORS
330
47
102
}
330
47
100
AcDbScale
 70
     0
300
1:1
140
1.0
141
1.0
290
     1
  0
SCALE
  5
49
102
{ACAD_REACTORS
330
47
102
}
330
47
100
AcDbScale
 70
     0
300
1:2
140
1.0
141
2.0
290
     0
  0
SCALE
  5
4A
102
{ACAD_REACTORS
330
47
102
}
330
47
100
AcDbScale
 70
     0
300
1:4
140
1.0
141
4.0
290
     0
  0
SCALE
  5
4B
102
{ACAD_REACTORS
330
47
102
}
330
47
100
AcDbScale
 70
     0
300
1:5
140
1.0
141
5.0
290
     0
  0
SCALE
  5
4C
102
{ACAD_REACTORS
330
47
102
}
330
47
100
AcDbScale
 70
     0
300
1:8
140
1.0
141
8.0
290
     0
  0
SCALE
  5
4D
102
{ACAD_REACTORS
330
47
102
}
330
47
100
AcDbScale
 70
     0
300
1:10
140
1.0
141
10.0
290
     0
  0
SCALE
  5
4E
102
{ACAD_REACTORS
330
47
102
}
330
47
100
AcDbScale
 70
     0
300
1:16
140
1.0
141
16.0
290
     0
  0
SCALE
  5
4F
102
{ACAD_REACTORS
330
47
102
}
330
47
100
AcDbScale
 70
     0
300
1:20
140
1.0
141
20.0
290
     0
  0
SCALE
  5
50
102
{ACAD_REACTORS
330
47
102
}
330
47
100
AcDbScale
 70
     0
300
1:30
140
1.0
141
30.0
290
     0
  0
SCALE
  5
51
102
{ACAD_REACTORS
330
47
102
}
330
47
100
AcDbScale
 70
     0
300
1:40
140
1.0
141
40.0
290
     0
  0
SCALE
  5
52
102
{ACAD_REACTORS
330
47
102
}
330
47
100
AcDbScale
 70
     0
300
1:50
140
1.0
141
50.0
290
     0
  0
SCALE
  5
53
102
{ACAD_REACTORS
330
47
102
}
330
47
100
AcDbScale
 70
     0
300
1:100
140
1.0
141
100.0
290
     0
  0
SCALE
  5
54
102
{ACAD_REACTORS
330
47
102
}
330
47
100
AcDbScale
 70
     0
300
2:1
140
2.0
141
1.0
290
     0
  0
SCALE
  5
55
102
{ACAD_REACTORS
330
47
102
}
330
47
100
AcDbScale
 70
     0
300
4:1
140
4.0
141
1.0
290
     0
  0
SCALE
  5
56
102
{ACAD_REACTORS
330
47
102
}
330
47
100
AcDbScale
 70
     0
300
8:1
140
8.0
141
1.0
290
     0
  0
SCALE
  5
57
102
{ACAD_REACTORS
330
47
102
}
330
47
100
AcDbScale
 70
     0
300
10:1
140
10.0
141
1.0
290
     0
  0
SCALE
  5
58
102
{ACAD_REACTORS
330
47
102
}
330
47
100
AcDbScale
 70
     0
300
100:1
140
100.0
141
1.0
290
     0
  0
SCALE
  5
59
102
{ACAD_REACTORS
330
47
102
}
330
47
100
AcDbScale
 70
     0
300
1/128" = 1'-0"
140
0.0078125
141
12.0
290
     0
  0
SCALE
  5
5A
102
{ACAD_REACTORS
330
47
102
}
330
47
100
AcDbScale
 70
     0
300
1/64" = 1'-0"
140
0.015625
141
12.0
290
     0
  0
SCALE
  5
5B
102
{ACAD_REACTORS
330
47
102
}
330
47
100
AcDbScale
 70
     0
300
1/32" = 1'-0"
140
0.03125
141
12.0
290
     0
  0
SCALE
  5
5C
102
{ACAD_REACTORS
330
47
102
}
330
47
100
AcDbScale
 70
     0
300
1/16" = 1'-0"
140
0.0625
141
12.0
290
     0
  0
SCALE
  5
5D
102
{ACAD_REACTORS
330
47
102
}
330
47
100
AcDbScale
 70
     0
300
3/32" = 1'-0"
140
0.09375
141
12.0
290
     0
  0
SCALE
  5
5E
102
{ACAD_REACTORS
330
47
102
}
330
47
100
AcDbScale
 70
     0
300
1/8" = 1'-0"
140
0.125
141
12.0
290
     0
  0
SCALE
  5
5F
102
{ACAD_REACTORS
330
47
102
}
330
47
100
AcDbScale
 70
     0
300
3/16" = 1'-0"
140
0.1875
141
12.0
290
     0
  0
SCALE
  5
60
102
{ACAD_REACTORS
330
47
102
}
330
47
100
AcDbScale
 70
     0
300
1/4" = 1'-0"
140
0.25
141
12.0
290
     0
  0
SCALE
  5
61
102
{ACAD_REACTORS
330
47
102
}
330
47
100
AcDbScale
 70
     0
300
3/8" = 1'-0"
140
0.375
141
12.0
290
     0
  0
SCALE
  5
62
102
{ACAD_REACTORS
330
47
102
}
330
47
100
AcDbScale
 70
     0
300
1/2" = 1'-0"
140
0.5
141
12.0
290
     0
  0
SCALE
  5
63
102
{ACAD_REACTORS
330
47
102
}
330
47
100
AcDbScale
 70
     0
300
3/4" = 1'-0"
140
0.75
141
12.0
290
     0
  0
SCALE
  5
64
102
{ACAD_REACTORS
330
47
102
}
330
47
100
AcDbScale
 70
     0
300
1" = 1'-0"
140
1.0
141
12.0
290
     0
  0
SCALE
  5
65
102
{ACAD_REACTORS
330
47
102
}
330
47
100
AcDbScale
 70
     0
300
1-1/2" = 1'-0"
140
1.5
141
12.0
290
     0
  0
SCALE
  5
66
102
{ACAD_REACTORS
330
47
102
}
330
47
100
AcDbScale
 70
     0
300
3" = 1'-0"
140
3.0
141
12.0
290
     0
  0
SCALE
  5
67
102
{ACAD_REACTORS
330
47
102
}
330
47
100
AcDbScale
 70
     0
300
6" = 1'-0"
140
6.0
141
12.0
290
     0
  0
SCALE
  5
68
102
{ACAD_REACTORS
330
47
102
}
330
47
100
AcDbScale
 70
     0
300
1'-0" = 1'-0"
140
12.0
141
12.0
290
     0
  0
ENDSEC
  0
EOF
