  0
SECTION
  2
HEADER
  9
$ACADVER
  1
AC1015
  9
$ACADMAINTVER
 70
     6
  9
$DWGCODEPAGE
  3
ANSI_949
  9
$INSBASE
 10
0.0
 20
0.0
 30
0.0
  9
$EXTMIN
 10
-108.392952403213
 20
-49.97180738881174
 30
0.0
  9
$EXTMAX
 10
64.54443999308349
 20
24.76413260158163
 30
0.0
  9
$LIMMIN
 10
0.0
 20
0.0
  9
$LIMMAX
 10
420.0
 20
297.0
  9
$ORTHOMODE
 70
     0
  9
$REGENMODE
 70
     1
  9
$FILLMODE
 70
     1
  9
$QTEXTMODE
 70
     0
  9
$MIRRTEXT
 70
     1
  9
$LTSCALE
 40
1.0
  9
$ATTMODE
 70
     1
  9
$TEXTSIZE
 40
3.5
  9
$TRACEWID
 40
1.0
  9
$TEXTSTYLE
  7
Standard
  9
$CLAYER
  8
0
  9
$CELTYPE
  6
ByLayer
  9
$CECOLOR
 62
   256
  9
$CELTSCALE
 40
1.0
  9
$DISPSILH
 70
     0
  9
$DIMSCALE
 40
1.0
  9
$DIMASZ
 40
3.302
  9
$DIMEXO
 40
1.0
  9
$DIMDLI
 40
3.75
  9
$DIMRND
 40
0.0
  9
$DIMDLE
 40
0.0
  9
$DIMEXE
 40
1.0
  9
$DIMTP
 40
0.0
  9
$DIMTM
 40
0.0
  9
$DIMTXT
 40
3.5
  9
$DIMCEN
 40
2.5
  9
$DIMTSZ
 40
0.0
  9
$DIMTOL
 70
     0
  9
$DIMLIM
 70
     0
  9
$DIMTIH
 70
     1
  9
$DIMTOH
 70
     1
  9
$DIMSE1
 70
     0
  9
$DIMSE2
 70
     0
  9
$DIMTAD
 70
     1
  9
$DIMZIN
 70
     0
  9
$DIMBLK
  1

  9
$DIMASO
 70
     1
  9
$DIMSHO
 70
     1
  9
$DIMPOST
  1

  9
$DIMAPOST
  1

  9
$DIMALT
 70
     0
  9
$DIMALTD
 70
     3
  9
$DIMALTF
 40
0.0393700787401575
  9
$DIMLFAC
 40
1.0
  9
$DIMTOFL
 70
     1
  9
$DIMTVP
 40
0.0
  9
$DIMTIX
 70
     0
  9
$DIMSOXD
 70
     0
  9
$DIMSAH
 70
     0
  9
$DIMBLK1
  1

  9
$DIMBLK2
  1

  9
$DIMSTYLE
  2
ISO-25
  9
$DIMCLRD
 70
     0
  9
$DIMCLRE
 70
     0
  9
$DIMCLRT
 70
     0
  9
$DIMTFAC
 40
1.0
  9
$DIMGAP
 40
1.524
  9
$DIMJUST
 70
     0
  9
$DIMSD1
 70
     0
  9
$DIMSD2
 70
     0
  9
$DIMTOLJ
 70
     0
  9
$DIMTZIN
 70
     0
  9
$DIMALTZ
 70
     0
  9
$DIMALTTZ
 70
     0
  9
$DIMUPT
 70
     0
  9
$DIMDEC
 70
     2
  9
$DIMTDEC
 70
     2
  9
$DIMALTU
 70
     2
  9
$DIMALTTD
 70
     3
  9
$DIMTXSTY
  7
Standard
  9
$DIMAUNIT
 70
     0
  9
$DIMADEC
 70
     2
  9
$DIMALTRND
 40
0.0
  9
$DIMAZIN
 70
     0
  9
$DIMDSEP
 70
    44
  9
$DIMATFIT
 70
     3
  9
$DIMFRAC
 70
     0
  9
$DIMLDRBLK
  1

  9
$DIMLUNIT
 70
     2
  9
$DIMLWD
 70
    -2
  9
$DIMLWE
 70
    -2
  9
$DIMTMOVE
 70
     0
  9
$LUNITS
 70
     2
  9
$LUPREC
 70
     2
  9
$SKETCHINC
 40
1.0
  9
$FILLETRAD
 40
10.0
  9
$AUNITS
 70
     0
  9
$AUPREC
 70
     2
  9
$MENU
  1
.
  9
$ELEVATION
 40
0.0
  9
$PELEVATION
 40
0.0
  9
$THICKNESS
 40
0.0
  9
$LIMCHECK
 70
     0
  9
$CHAMFERA
 40
0.0
  9
$CHAMFERB
 40
0.0
  9
$CHAMFERC
 40
0.0
  9
$CHAMFERD
 40
0.0
  9
$SKPOLY
 70
     0
  9
$TDCREATE
 40
2458260.575512257
  9
$TDUCREATE
 40
2458260.200512257
  9
$TDUPDATE
 40
2458268.508865151
  9
$TDUUPDATE
 40
2458268.133865151
  9
$TDINDWG
 40
0.0004746065
  9
$TDUSRTIMER
 40
2458268.133390579
  9
$USRTIMER
 70
     1
  9
$ANGBASE
 50
0.0
  9
$ANGDIR
 70
     0
  9
$PDMODE
 70
     0
  9
$PDSIZE
 40
-1.0
  9
$PLINEWID
 40
0.0
  9
$SPLFRAME
 70
     0
  9
$SPLINETYPE
 70
     6
  9
$SPLINESEGS
 70
     8
  9
$HANDSEED
  5
152
  9
$SURFTAB1
 70
     6
  9
$SURFTAB2
 70
     6
  9
$SURFTYPE
 70
     6
  9
$SURFU
 70
     6
  9
$SURFV
 70
     6
  9
$UCSBASE
  2

  9
$UCSNAME
  2

  9
$UCSORG
 10
0.0
 20
0.0
 30
0.0
  9
$UCSXDIR
 10
1.0
 20
0.0
 30
0.0
  9
$UCSYDIR
 10
0.0
 20
1.0
 30
0.0
  9
$UCSORTHOREF
  2

  9
$UCSORTHOVIEW
 70
     0
  9
$UCSORGTOP
 10
0.0
 20
0.0
 30
0.0
  9
$UCSORGBOTTOM
 10
0.0
 20
0.0
 30
0.0
  9
$UCSORGLEFT
 10
0.0
 20
0.0
 30
0.0
  9
$UCSORGRIGHT
 10
0.0
 20
0.0
 30
0.0
  9
$UCSORGFRONT
 10
0.0
 20
0.0
 30
0.0
  9
$UCSORGBACK
 10
0.0
 20
0.0
 30
0.0
  9
$PUCSBASE
  2

  9
$PUCSNAME
  2

  9
$PUCSORG
 10
0.0
 20
0.0
 30
0.0
  9
$PUCSXDIR
 10
1.0
 20
0.0
 30
0.0
  9
$PUCSYDIR
 10
0.0
 20
1.0
 30
0.0
  9
$PUCSORTHOREF
  2

  9
$PUCSORTHOVIEW
 70
     0
  9
$PUCSORGTOP
 10
0.0
 20
0.0
 30
0.0
  9
$PUCSORGBOTTOM
 10
0.0
 20
0.0
 30
0.0
  9
$PUCSORGLEFT
 10
0.0
 20
0.0
 30
0.0
  9
$PUCSORGRIGHT
 10
0.0
 20
0.0
 30
0.0
  9
$PUCSORGFRONT
 10
0.0
 20
0.0
 30
0.0
  9
$PUCSORGBACK
 10
0.0
 20
0.0
 30
0.0
  9
$USERI1
 70
     0
  9
$USERI2
 70
     0
  9
$USERI3
 70
     0
  9
$USERI4
 70
     0
  9
$USERI5
 70
     0
  9
$USERR1
 40
0.0
  9
$USERR2
 40
0.0
  9
$USERR3
 40
0.0
  9
$USERR4
 40
0.0
  9
$USERR5
 40
0.0
  9
$WORLDVIEW
 70
     1
  9
$SHADEDGE
 70
     3
  9
$SHADEDIF
 70
    70
  9
$TILEMODE
 70
     1
  9
$MAXACTVP
 70
    64
  9
$PINSBASE
 10
0.0
 20
0.0
 30
0.0
  9
$PLIMCHECK
 70
     0
  9
$PEXTMIN
 10
1.000000000000000E+20
 20
1.000000000000000E+20
 30
1.000000000000000E+20
  9
$PEXTMAX
 10
-1.000000000000000E+20
 20
-1.000000000000000E+20
 30
-1.000000000000000E+20
  9
$PLIMMIN
 10
0.0
 20
0.0
  9
$PLIMMAX
 10
0.0
 20
0.0
  9
$UNITMODE
 70
     0
  9
$VISRETAIN
 70
     1
  9
$PLINEGEN
 70
     0
  9
$PSLTSCALE
 70
     1
  9
$TREEDEPTH
 70
  3020
  9
$CMLSTYLE
  2
Standard
  9
$CMLJUST
 70
     0
  9
$CMLSCALE
 40
20.0
  9
$PROXYGRAPHICS
 70
     1
  9
$MEASUREMENT
 70
     1
  9
$CELWEIGHT
370
    -1
  9
$ENDCAPS
280
     0
  9
$JOINSTYLE
280
     0
  9
$LWDISPLAY
290
     1
  9
$INSUNITS
 70
     4
  9
$HYPERLINKBASE
  1

  9
$STYLESHEET
  1

  9
$XEDIT
290
     1
  9
$CEPSNTYPE
380
     0
  9
$PSTYLEMODE
290
     1
  9
$FINGERPRINTGUID
  2
{ED06BAEC-F52B-4859-909A-9D49E1664440}
  9
$VERSIONGUID
  2
{FAEB1C32-E019-11D5-929B-00C0DF256EC4}
  9
$EXTNAMES
290
     1
  9
$PSVPSCALE
 40
0.0
  9
$OLESTARTUP
290
     0
  0
ENDSEC
  0
SECTION
  2
CLASSES
  0
CLASS
  1
ACDBDICTIONARYWDFLT
  2
AcDbDictionaryWithDefault
  3
ObjectDBX Classes
 90
        0
280
     0
281
     0
  0
CLASS
  1
VISUALSTYLE
  2
AcDbVisualStyle
  3
ObjectDBX Classes
 90
     4095
280
     0
281
     0
  0
CLASS
  1
MATERIAL
  2
AcDbMaterial
  3
ObjectDBX Classes
 90
     1153
280
     0
281
     0
  0
CLASS
  1
SCALE
  2
AcDbScale
  3
ObjectDBX Classes
 90
     1153
280
     0
281
     0
  0
CLASS
  1
TABLESTYLE
  2
AcDbTableStyle
  3
ObjectDBX Classes
 90
     4095
280
     0
281
     0
  0
CLASS
  1
MLEADERSTYLE
  2
AcDbMLeaderStyle
  3
ACDB_MLEADERSTYLE_CLASS
 90
     4095
280
     0
281
     0
  0
CLASS
  1
SUN
  2
AcDbSun
  3
SCENEOE
 90
     1153
280
     0
281
     0
  0
CLASS
  1
ACDBPLACEHOLDER
  2
AcDbPlaceHolder
  3
ObjectDBX Classes
 90
        0
280
     0
281
     0
  0
CLASS
  1
LAYOUT
  2
AcDbLayout
  3
ObjectDBX Classes
 90
        0
280
     0
281
     0
  0
CLASS
  1
RASTERVARIABLES
  2
AcDbRasterVariables
  3
ISM
 90
        0
280
     0
281
     0
  0
ENDSEC
  0
SECTION
  2
TABLES
  0
TABLE
  2
VPORT
  5
8
330
0
100
AcDbSymbolTable
 70
     1
  0
VPORT
  5
29
330
8
100
AcDbSymbolTableRecord
100
AcDbViewportTableRecord
  2
*Active
 70
     0
 10
0.0
 20
0.0
 11
1.0
 21
1.0
 12
-21.92425620506475
 22
-12.60383739361505
 13
0.0
 23
0.0
 14
10.0
 24
10.0
 15
10.0
 25
10.0
 16
0.0
 26
0.0
 36
1.0
 17
0.0
 27
0.0
 37
0.0
 40
101.5097491070841
 41
1.737726098191215
 42
50.0
 43
0.0
 44
0.0
 50
0.0
 51
0.0
 71
    16
 72
  2000
 73
     1
 74
     3
 75
     0
 76
     0
 77
     0
 78
     0
281
     0
 65
     1
110
0.0
120
0.0
130
0.0
111
1.0
121
0.0
131
0.0
112
0.0
122
1.0
132
0.0
 79
     0
146
0.0
  0
ENDTAB
  0
TABLE
  2
LTYPE
  5
5
330
0
100
AcDbSymbolTable
 70
     6
  0
LTYPE
  5
14
330
5
100
AcDbSymbolTableRecord
100
AcDbLinetypeTableRecord
  2
ByBlock
 70
     0
  3

 72
    65
 73
     0
 40
0.0
  0
LTYPE
  5
15
330
5
100
AcDbSymbolTableRecord
100
AcDbLinetypeTableRecord
  2
ByLayer
 70
     0
  3

 72
    65
 73
     0
 40
0.0
  0
LTYPE
  5
16
330
5
100
AcDbSymbolTableRecord
100
AcDbLinetypeTableRecord
  2
Continuous
 70
     0
  3
Solid line
 72
    65
 73
     0
 40
0.0
  0
LTYPE
  5
6E
330
5
100
AcDbSymbolTableRecord
100
AcDbLinetypeTableRecord
  2
HIDDEN
 70
     0
  3
Hidden __ __ __ __ __ __ __ __ __ __ __ __ __ __
 72
    65
 73
     2
 40
1.905
 49
1.27
 74
     0
 49
-0.635
 74
     0
  0
LTYPE
  5
6F
330
5
100
AcDbSymbolTableRecord
100
AcDbLinetypeTableRecord
  2
PHANTOM
 70
     0
  3
Phantom ______  __  __  ______  __  __  ______
 72
    65
 73
     6
 40
12.7
 49
6.35
 74
     0
 49
-1.27
 74
     0
 49
1.27
 74
     0
 49
-1.27
 74
     0
 49
1.27
 74
     0
 49
-1.27
 74
     0
  0
LTYPE
  5
70
330
5
100
AcDbSymbolTableRecord
100
AcDbLinetypeTableRecord
  2
CENTER
 70
     0
  3
Center ____ _ ____ _ ____ _ ____ _ ____ _ ____
 72
    65
 73
     4
 40
10.16
 49
6.35
 74
     0
 49
-1.27
 74
     0
 49
1.27
 74
     0
 49
-1.27
 74
     0
  0
LTYPE
  5
71
330
5
100
AcDbSymbolTableRecord
100
AcDbLinetypeTableRecord
  2
CENTERX2
 70
     0
  3
Center (2x) ________  __  ________  __  _____
 72
    65
 73
     4
 40
20.32
 49
12.7
 74
     0
 49
-2.54
 74
     0
 49
2.54
 74
     0
 49
-2.54
 74
     0
  0
LTYPE
  5
72
330
5
100
AcDbSymbolTableRecord
100
AcDbLinetypeTableRecord
  2
DOT2
 70
     0
  3
Dot (.5x) ........................................
 72
    65
 73
     2
 40
0.635
 49
0.0
 74
     0
 49
-0.635
 74
     0
  0
ENDTAB
  0
TABLE
  2
LAYER
  5
2
330
0
100
AcDbSymbolTable
 70
    17
  0
LAYER
  5
10
330
2
100
AcDbSymbolTableRecord
100
AcDbLayerTableRecord
  2
0
 70
     0
 62
     7
  6
Continuous
370
    -3
390
F
  0
LAYER
  5
73
330
2
100
AcDbSymbolTableRecord
100
AcDbLayerTableRecord
  2
FORMAT
 70
     0
 62
     2
  6
Continuous
370
    -3
390
F
  0
LAYER
  5
74
330
2
100
AcDbSymbolTableRecord
100
AcDbLayerTableRecord
  2
외형선
 70
     0
 62
   100
  6
Continuous
370
    35
390
F
  0
LAYER
  5
75
330
2
100
AcDbSymbolTableRecord
100
AcDbLayerTableRecord
  2
숨은선
 70
     0
 62
     2
  6
HIDDEN
370
    25
390
F
  0
LAYER
  5
76
330
2
100
AcDbSymbolTableRecord
100
AcDbLayerTableRecord
  2
중심선
 70
     0
 62
     1
  6
CENTERX2
370
    -3
390
F
  0
LAYER
  5
77
330
2
100
AcDbSymbolTableRecord
100
AcDbLayerTableRecord
  2
파단선
 70
     0
 62
     4
  6
Continuous
370
    -3
390
F
  0
LAYER
  5
78
330
2
100
AcDbSymbolTableRecord
100
AcDbLayerTableRecord
  2
해칭선
 70
     0
 62
   100
  6
Continuous
370
    -3
390
F
  0
LAYER
  5
79
330
2
100
AcDbSymbolTableRecord
100
AcDbLayerTableRecord
  2
가는실선
 70
     0
 62
     4
  6
Continuous
370
    -3
390
F
  0
LAYER
  5
7A
330
2
100
AcDbSymbolTableRecord
100
AcDbLayerTableRecord
  2
치수_보조선
 70
     0
 62
     4
  6
Continuous
370
    -3
390
F
  0
LAYER
  5
7B
330
2
100
AcDbSymbolTableRecord
100
AcDbLayerTableRecord
  2
치수문자_일반주서
 70
     0
 62
     7
  6
Continuous
370
    25
390
F
  0
LAYER
  5
7C
330
2
100
AcDbSymbolTableRecord
100
AcDbLayerTableRecord
  2
개별주서
 70
     0
 62
   100
  6
Continuous
370
    35
390
F
  0
LAYER
  5
7D
330
2
100
AcDbSymbolTableRecord
100
AcDbLayerTableRecord
  2
중간선
 70
     0
 62
     2
  6
Continuous
370
    25
390
F
  0
LAYER
  5
7E
330
2
100
AcDbSymbolTableRecord
100
AcDbLayerTableRecord
  2
윤곽선
 70
     0
 62
     3
  6
Continuous
370
    50
390
F
  0
LAYER
  5
7F
330
2
100
AcDbSymbolTableRecord
100
AcDbLayerTableRecord
  2
중심마크
 70
     0
 62
   100
  6
Continuous
370
    35
390
F
  0
LAYER
  5
80
330
2
100
AcDbSymbolTableRecord
100
AcDbLayerTableRecord
  2
가상선
 70
     0
 62
     4
  6
PHANTOM
370
    -3
390
F
  0
LAYER
  5
81
330
2
100
AcDbSymbolTableRecord
100
AcDbLayerTableRecord
  2
특수지정선
 70
     0
 62
     5
  6
CENTERX2
370
    70
390
F
  0
LAYER
  5
143
330
2
100
AcDbSymbolTableRecord
100
AcDbLayerTableRecord
  2
Defpoints
 70
     0
 62
     7
  6
Continuous
290
     0
370
    -3
390
F
  0
ENDTAB
  0
TABLE
  2
STYLE
  5
3
330
0
100
AcDbSymbolTable
 70
     2
  0
STYLE
  5
11
330
3
100
AcDbSymbolTableRecord
100
AcDbTextStyleTableRecord
  2
Standard
 70
     0
 40
0.0
 41
1.0
 50
0.0
 71
     0
 42
3.5
  3
txt
  4

  0
STYLE
  5
97
330
3
100
AcDbSymbolTableRecord
100
AcDbTextStyleTableRecord
  2
SLDTEXTSTYLE0
 70
     0
 40
0.0
 41
0.75
 50
0.0
 71
     0
 42
3.5
  3
TXT
  4

  0
ENDTAB
  0
TABLE
  2
VIEW
  5
6
330
0
100
AcDbSymbolTable
 70
     0
  0
ENDTAB
  0
TABLE
  2
UCS
  5
7
330
0
100
AcDbSymbolTable
 70
     0
  0
ENDTAB
  0
TABLE
  2
APPID
  5
9
330
0
100
AcDbSymbolTable
 70
     1
  0
APPID
  5
12
330
9
100
AcDbSymbolTableRecord
100
AcDbRegAppTableRecord
  2
ACAD
 70
     0
  0
ENDTAB
  0
TABLE
  2
DIMSTYLE
  5
A
330
0
100
AcDbSymbolTable
 70
     4
100
AcDbDimStyleTable
  0
DIMSTYLE
105
27
330
A
100
AcDbSymbolTableRecord
100
AcDbDimStyleTableRecord
  2
ISO-25
 70
     0
 41
2.5
 42
0.625
 43
3.75
 44
1.25
 73
     0
 74
     0
 77
     1
 78
     8
140
2.5
141
2.5
143
0.03937007874016
147
0.625
171
     3
172
     1
178
     0
271
     2
272
     2
274
     3
278
    44
283
     0
284
     8
340
11
  0
DIMSTYLE
105
E8
102
{ACAD_REACTORS
330
E7
102
}
330
A
100
AcDbSymbolTableRecord
100
AcDbDimStyleTableRecord
  2
SLDDIMSTYLE0
 70
     0
 41
3.302
 44
0.0
 45
0.000000001
 73
     0
 74
     0
 77
     1
 78
    12
 79
     3
140
3.5
147
0.875
172
     1
173
     1
178
     0
271
     1
272
     1
276
     2
284
    12
289
     0
340
97
  0
DIMSTYLE
105
F6
102
{ACAD_REACTORS
330
F5
330
10E
102
}
330
A
100
AcDbSymbolTableRecord
100
AcDbDimStyleTableRecord
  2
SLDDIMSTYLE1
 70
     0
 41
3.302
 44
0.0
 45
0.000000001
 73
     0
 74
     0
 77
     1
 78
    12
 79
     3
140
3.5
147
0.875
173
     1
178
     0
271
     2
272
     2
276
     2
284
    12
340
97
  0
DIMSTYLE
105
101
102
{ACAD_REACTORS
330
100
102
}
330
A
100
AcDbSymbolTableRecord
100
AcDbDimStyleTableRecord
  2
SLDDIMSTYLE2
 70
     0
 41
3.302
 44
0.0
 45
0.000000001
 73
     0
 74
     0
 77
     1
 78
    12
 79
     3
140
3.5
147
0.875
172
     1
173
     1
178
     0
271
     2
272
     2
276
     2
284
    12
289
     0
340
97
  0
ENDTAB
  0
TABLE
  2
BLOCK_RECORD
  5
1
330
0
100
AcDbSymbolTable
 70
     7
  0
BLOCK_RECORD
  5
1F
330
1
100
AcDbSymbolTableRecord
100
AcDbBlockTableRecord
  2
*Model_Space
340
22
  0
BLOCK_RECORD
  5
1B
330
1
100
AcDbSymbolTableRecord
100
AcDbBlockTableRecord
  2
*Paper_Space
340
1E
  0
BLOCK_RECORD
  5
23
330
1
100
AcDbSymbolTableRecord
100
AcDbBlockTableRecord
  2
*Paper_Space0
340
26
  0
BLOCK_RECORD
  5
82
330
1
100
AcDbSymbolTableRecord
100
AcDbBlockTableRecord
  2
블럭10
340
0
102
{BLKREFS
331
E0
102
}
  0
BLOCK_RECORD
  5
E9
330
1
100
AcDbSymbolTableRecord
100
AcDbBlockTableRecord
  2
_D
340
0
  0
BLOCK_RECORD
  5
F7
330
1
100
AcDbSymbolTableRecord
100
AcDbBlockTableRecord
  2
_D_1
340
0
  0
BLOCK_RECORD
  5
102
330
1
100
AcDbSymbolTableRecord
100
AcDbBlockTableRecord
  2
_D_2
340
0
  0
BLOCK_RECORD
  5
10F
330
1
100
AcDbSymbolTableRecord
100
AcDbBlockTableRecord
  2
_D_3
340
0
  0
BLOCK_RECORD
  5
118
330
1
100
AcDbSymbolTableRecord
100
AcDbBlockTableRecord
  2
SW_DOWELSYMBOL_0
340
0
102
{BLKREFS
331
11E
102
}
  0
ENDTAB
  0
ENDSEC
  0
SECTION
  2
BLOCKS
  0
BLOCK
  5
20
330
1F
100
AcDbEntity
  8
0
100
AcDbBlockBegin
  2
*Model_Space
 70
     0
 10
0.0
 20
0.0
 30
0.0
  3
*Model_Space
  1

  0
ENDBLK
  5
21
330
1F
100
AcDbEntity
  8
0
100
AcDbBlockEnd
  0
BLOCK
  5
1C
330
1B
100
AcDbEntity
 67
     1
  8
0
100
AcDbBlockBegin
  2
*Paper_Space
 70
     0
 10
0.0
 20
0.0
 30
0.0
  3
*Paper_Space
  1

  0
ENDBLK
  5
1D
330
1B
100
AcDbEntity
 67
     1
  8
0
100
AcDbBlockEnd
  0
BLOCK
  5
24
330
23
100
AcDbEntity
  8
0
100
AcDbBlockBegin
  2
*Paper_Space0
 70
     0
 10
0.0
 20
0.0
 30
0.0
  3
*Paper_Space0
  1

  0
ENDBLK
  5
25
330
23
100
AcDbEntity
  8
0
100
AcDbBlockEnd
  0
BLOCK
  5
83
330
82
100
AcDbEntity
  8
0
100
AcDbBlockBegin
  2
블럭10
 70
     2
 10
0.0
 20
0.0
 30
0.0
  3
블럭10
  1

  0
ELLIPSE
  5
85
330
82
100
AcDbEntity
  8
중심선
100
AcDbEllipse
 10
20.54032771741204
 20
12.0471743016438
 30
0.0
 11
6.600054785286829
 21
-1.261213355974178E-13
 31
0.0
210
0.0
220
0.0
230
1.0
 40
0.636358354079598
 41
0.9219305317359503
 42
6.513795318482858
  0
ELLIPSE
  5
86
330
82
100
AcDbEntity
  8
중심선
100
AcDbEllipse
 10
20.54032771746488
 20
12.04717430159265
 30
0.0
 11
3.960054785062283
 21
1.540847449632565E-10
 31
0.0
210
0.0
220
0.0
230
1.0
 40
0.3939339440162632
 41
1.131841032648279
 42
5.62031148352944
  0
LINE
  5
87
330
82
100
AcDbEntity
  8
중심선
100
AcDbLine
 10
2.268634060543552
 20
16.24717430164393
 30
0.0
 11
5.714909304380834
 21
16.24717430164393
 31
0.0
  0
LINE
  5
88
330
82
100
AcDbEntity
  8
중심선
100
AcDbLine
 10
5.245725140726316
 20
7.84717430164391
 30
0.0
 11
8.692000384563599
 21
7.84717430164391
 31
0.0
  0
LINE
  5
89
330
82
100
AcDbEntity
  8
중심선
100
AcDbLine
 10
15.74043728645272
 20
16.24717430164393
 30
0.0
 11
8.692000384563599
 21
7.84717430164391
 31
0.0
  0
LINE
  5
8A
330
82
100
AcDbEntity
  8
중심선
100
AcDbLine
 10
0.1404042013395286
 20
13.71084872107135
 30
0.0
 11
3.58671253028996
 21
13.71088815037384
 31
0.0
  0
LINE
  5
8B
330
82
100
AcDbEntity
  8
중심선
100
AcDbLine
 10
2.750260043222114
 20
10.84717430164391
 30
0.0
 11
6.196535287059397
 21
10.84717430164391
 31
0.0
  0
LINE
  5
8C
330
82
100
AcDbEntity
  8
중심선
100
AcDbLine
 10
12.29416204261559
 20
16.24717430164393
 30
0.0
 11
5.245725140726316
 21
7.84717430164391
 31
0.0
  0
LINE
  5
8D
330
82
100
AcDbEntity
  8
중심선
100
AcDbLine
 10
10.72767329541681
 20
16.24717430164393
 30
0.0
 11
6.196535287059397
 21
10.84717430164391
 31
0.0
  0
LINE
  5
8E
330
82
100
AcDbEntity
  8
중심선
100
AcDbLine
 10
7.28139805157953
 20
16.24717430164393
 30
0.0
 11
2.750260043222114
 21
10.84717430164391
 31
0.0
  0
LINE
  5
8F
330
82
100
AcDbEntity
  8
중심선
100
AcDbLine
 10
5.714909304380834
 20
16.24717430164393
 30
0.0
 11
3.58671253028996
 21
13.71088815037384
 31
0.0
  0
LINE
  5
90
330
82
100
AcDbEntity
  8
중심선
100
AcDbLine
 10
2.268634060543552
 20
16.24717430164393
 30
0.0
 11
0.1404042013395286
 21
13.71084872107135
 31
0.0
  0
LINE
  5
91
330
82
100
AcDbEntity
  8
중심선
100
AcDbLine
 10
7.28139805157953
 20
16.24717430164393
 30
0.0
 11
10.72767329541681
 21
16.24717430164393
 31
0.0
  0
LINE
  5
92
330
82
100
AcDbEntity
  8
중심선
100
AcDbLine
 10
12.29416204261559
 20
16.24717430164393
 30
0.0
 11
15.74043728645272
 21
16.24717430164393
 31
0.0
  0
LINE
  5
93
330
82
100
AcDbEntity
  8
중심선
100
AcDbLine
 10
19.22036997980202
 20
11.08717430171403
 30
0.0
 11
23.66174974927406
 21
11.08717430171406
 31
0.0
  0
LINE
  5
94
330
82
100
AcDbEntity
  8
중심선
100
AcDbLine
 10
19.22039502424796
 20
13.00717430171391
 30
0.0
 11
19.22036997980202
 21
11.08717430171403
 31
0.0
  0
LINE
  5
95
330
82
100
AcDbEntity
  8
중심선
100
AcDbLine
 10
19.22039502424796
 20
13.00717430171391
 30
0.0
 11
26.96566020931264
 21
13.00717430171391
 31
0.0
  0
LINE
  5
96
330
82
100
AcDbEntity
  8
중심선
100
AcDbLine
 10
22.22332737316547
 20
13.45928029700563
 30
0.0
 11
24.52862924686651
 21
15.39360700705356
 31
0.0
  0
ATTDEF
  5
98
330
82
100
AcDbEntity
  8
FORMAT
 62
     2
100
AcDbText
 10
-16.11926103943555
 20
2.075366912832191
 30
0.0
 40
4.233333333333333
  1
SEME7206045E [ 4 FLUTE ]
 41
0.75
  7
SLDTEXTSTYLE0
 11
-16.11926103943555
 21
-0.0412997538344756
 31
0.0
100
AcDbAttributeDefinition
  3

  2
AUTOATTR0
 70
     0
 74
     1
  0
ENDBLK
  5
84
330
82
100
AcDbEntity
  8
0
100
AcDbBlockEnd
  0
BLOCK
  5
EA
330
E9
100
AcDbEntity
  8
0
100
AcDbBlockBegin
  2
_D
 70
     0
 10
0.0
 20
0.0
 30
0.0
  3
_D
  1

  0
LINE
  5
EC
330
E9
100
AcDbEntity
  8
치수문자_일반주서
 62
     0
370
    -2
100
AcDbLine
 10
55.0625
 20
-3.00000000000001
 30
0.0
 11
63.99410665975013
 21
-2.999999999999977
 31
0.0
  0
LINE
  5
ED
330
E9
100
AcDbEntity
  8
치수문자_일반주서
 62
     0
370
    -2
100
AcDbLine
 10
55.0625
 20
2.999999999999992
 30
0.0
 11
63.99410665975011
 21
3.000000000000027
 31
0.0
  0
LINE
  5
EE
330
E9
100
AcDbEntity
  8
치수문자_일반주서
 62
     0
370
    -2
100
AcDbLine
 10
63.99410665975013
 20
-2.999999999999977
 30
0.0
 11
63.99410665975006
 21
15.72900000000003
 31
0.0
  0
LINE
  5
EF
330
E9
100
AcDbEntity
  8
치수문자_일반주서
 62
     0
370
    -2
100
AcDbLine
 10
63.99410665975013
 20
-2.999999999999977
 30
0.0
 11
63.99410665975011
 21
3.000000000000027
 31
0.0
  0
LINE
  5
F0
330
E9
100
AcDbEntity
  8
치수문자_일반주서
 62
     0
370
    -2
100
AcDbLine
 10
63.99410665975014
 20
-6.301999999999977
 30
0.0
 11
63.99410665975016
 21
-9.603999999999976
 31
0.0
  0
LINE
  5
F1
330
E9
100
AcDbEntity
  8
치수문자_일반주서
 62
     0
370
    -2
100
AcDbLine
 10
63.99410665975009
 20
6.302000000000026
 30
0.0
 11
63.99410665975008
 21
9.604000000000026
 31
0.0
  0
SOLID
  5
F2
330
E9
100
AcDbEntity
  8
치수문자_일반주서
 62
     0
100
AcDbTrace
 10
64.54443999308347
 20
-6.301999999999975
 30
0.0
 11
63.44377332641681
 21
-6.301999999999978
 31
0.0
 12
63.99410665975013
 22
-2.999999999999977
 32
0.0
 13
63.99410665975013
 23
-2.999999999999977
 33
0.0
  0
SOLID
  5
F3
330
E9
100
AcDbEntity
  8
치수문자_일반주서
 62
     0
100
AcDbTrace
 10
63.44377332641676
 20
6.302000000000024
 30
0.0
 11
64.54443999308343
 21
6.302000000000028
 31
0.0
 12
63.99410665975011
 22
3.000000000000027
 32
0.0
 13
63.99410665975011
 23
3.000000000000027
 33
0.0
  0
MTEXT
  5
F4
330
E9
100
AcDbEntity
  8
치수문자_일반주서
 62
     0
100
AcDbMText
 10
59.61910665975007
 20
12.66650000000001
 30
0.0
 40
3.5
 41
0.0
 71
     2
 72
     1
  1
\A1;%%c6
  7
SLDTEXTSTYLE0
 11
-3.552713678800499E-15
 21
1.0
 31
0.0
 73
     1
 44
1.0
  0
POINT
  5
14D
330
E9
100
AcDbEntity
  8
Defpoints
 62
     0
100
AcDbPoint
 10
55.0
 20
-3.000000000000011
 30
0.0
  0
POINT
  5
14E
330
E9
100
AcDbEntity
  8
Defpoints
 62
     0
100
AcDbPoint
 10
55.0
 20
2.999999999999992
 30
0.0
  0
POINT
  5
14F
330
E9
100
AcDbEntity
  8
Defpoints
 62
     0
100
AcDbPoint
 10
63.9941066597501
 20
3.000000000000026
 30
0.0
  0
ENDBLK
  5
EB
330
E9
100
AcDbEntity
  8
0
100
AcDbBlockEnd
  0
BLOCK
  5
F8
330
F7
100
AcDbEntity
  8
0
100
AcDbBlockBegin
  2
_D_1
 70
     0
 10
0.0
 20
0.0
 30
0.0
  3
_D_1
  1

  0
LINE
  5
FA
330
F7
100
AcDbEntity
  8
치수문자_일반주서
 62
     0
370
    -2
100
AcDbLine
 10
-95.0
 20
2.562499999999979
 30
0.0
 11
-95.0
 21
20.38913260158163
 31
0.0
  0
LINE
  5
FB
330
F7
100
AcDbEntity
  8
치수문자_일반주서
 62
     0
370
    -2
100
AcDbLine
 10
55.0
 20
3.0625
 30
0.0
 11
55.0
 21
20.38913260158163
 31
0.0
  0
LINE
  5
FC
330
F7
100
AcDbEntity
  8
치수문자_일반주서
 62
     0
370
    -2
100
AcDbLine
 10
-91.69800000000001
 20
20.38913260158163
 30
0.0
 11
51.698
 21
20.38913260158163
 31
0.0
  0
SOLID
  5
FD
330
F7
100
AcDbEntity
  8
치수문자_일반주서
 62
     0
100
AcDbTrace
 10
-91.69800000000001
 20
20.93946593491496
 30
0.0
 11
-91.69800000000001
 21
19.83879926824829
 31
0.0
 12
-95.0
 22
20.38913260158163
 32
0.0
 13
-95.0
 23
20.38913260158163
 33
0.0
  0
SOLID
  5
FE
330
F7
100
AcDbEntity
  8
치수문자_일반주서
 62
     0
100
AcDbTrace
 10
51.698
 20
19.83879926824829
 30
0.0
 11
51.698
 21
20.93946593491496
 31
0.0
 12
55.0
 22
20.38913260158163
 32
0.0
 13
55.0
 23
20.38913260158163
 33
0.0
  0
MTEXT
  5
FF
330
F7
100
AcDbEntity
  8
치수문자_일반주서
 62
     0
100
AcDbMText
 10
-19.99999999999999
 20
24.76413260158163
 30
0.0
 40
3.5
 41
0.0
 71
     2
 72
     1
  1
\A1;150
  7
SLDTEXTSTYLE0
 73
     1
 44
1.0
  0
POINT
  5
144
330
F7
100
AcDbEntity
  8
Defpoints
 62
     0
100
AcDbPoint
 10
-95.0
 20
2.499999999999979
 30
0.0
  0
POINT
  5
145
330
F7
100
AcDbEntity
  8
Defpoints
 62
     0
100
AcDbPoint
 10
55.0
 20
3.0
 30
0.0
  0
POINT
  5
146
330
F7
100
AcDbEntity
  8
Defpoints
 62
     0
100
AcDbPoint
 10
55.0
 20
20.38913260158163
 30
0.0
  0
ENDBLK
  5
F9
330
F7
100
AcDbEntity
  8
0
100
AcDbBlockEnd
  0
BLOCK
  5
103
330
102
100
AcDbEntity
  8
0
100
AcDbBlockBegin
  2
_D_2
 70
     0
 10
0.0
 20
0.0
 30
0.0
  3
_D_2
  1

  0
LINE
  5
105
330
102
100
AcDbEntity
  8
치수문자_일반주서
 62
     0
370
    -2
100
AcDbLine
 10
-94.56249999999997
 20
2.999999999999994
 30
0.0
 11
-104.0179524032129
 21
2.999999999999959
 31
0.0
  0
LINE
  5
106
330
102
100
AcDbEntity
  8
치수문자_일반주서
 62
     0
370
    -2
100
AcDbLine
 10
-94.56249999999997
 20
-3.000000000000012
 30
0.0
 11
-104.0179524032129
 21
-3.000000000000046
 31
0.0
  0
LINE
  5
107
330
102
100
AcDbEntity
  8
치수문자_일반주서
 62
     0
370
    -2
100
AcDbLine
 10
-104.0179524032129
 20
2.999999999999959
 30
0.0
 11
-104.017952403213
 21
15.72899999999996
 31
0.0
  0
LINE
  5
108
330
102
100
AcDbEntity
  8
치수문자_일반주서
 62
     0
370
    -2
100
AcDbLine
 10
-104.0179524032129
 20
2.999999999999959
 30
0.0
 11
-104.0179524032129
 21
-3.000000000000046
 31
0.0
  0
LINE
  5
109
330
102
100
AcDbEntity
  8
치수문자_일반주서
 62
     0
370
    -2
100
AcDbLine
 10
-104.0179524032129
 20
6.301999999999959
 30
0.0
 11
-104.0179524032129
 21
9.603999999999958
 31
0.0
  0
LINE
  5
10A
330
102
100
AcDbEntity
  8
치수문자_일반주서
 62
     0
370
    -2
100
AcDbLine
 10
-104.0179524032129
 20
-6.302000000000046
 30
0.0
 11
-104.0179524032129
 21
-9.604000000000045
 31
0.0
  0
SOLID
  5
10B
330
102
100
AcDbEntity
  8
치수문자_일반주서
 62
     0
100
AcDbTrace
 10
-104.5682857365463
 20
6.301999999999958
 30
0.0
 11
-103.4676190698796
 21
6.30199999999996
 31
0.0
 12
-104.0179524032129
 22
2.999999999999959
 32
0.0
 13
-104.0179524032129
 23
2.999999999999959
 33
0.0
  0
SOLID
  5
10C
330
102
100
AcDbEntity
  8
치수문자_일반주서
 62
     0
100
AcDbTrace
 10
-103.4676190698796
 20
-6.302000000000045
 30
0.0
 11
-104.5682857365462
 21
-6.302000000000047
 31
0.0
 12
-104.0179524032129
 22
-3.000000000000046
 32
0.0
 13
-104.0179524032129
 23
-3.000000000000046
 33
0.0
  0
MTEXT
  5
10D
330
102
100
AcDbEntity
  8
치수문자_일반주서
 62
     0
100
AcDbMText
 10
-108.3929524032129
 20
12.66649999999995
 30
0.0
 40
3.5
 41
0.0
 71
     2
 72
     1
  1
\A1;%%c6
  7
SLDTEXTSTYLE0
 11
-2.368475785866999E-15
 21
1.0
 31
0.0
 73
     1
 44
1.0
  0
POINT
  5
14A
330
102
100
AcDbEntity
  8
Defpoints
 62
     0
100
AcDbPoint
 10
-94.49999999999997
 20
2.999999999999994
 30
0.0
  0
POINT
  5
14B
330
102
100
AcDbEntity
  8
Defpoints
 62
     0
100
AcDbPoint
 10
-94.49999999999997
 20
-3.000000000000011
 30
0.0
  0
POINT
  5
14C
330
102
100
AcDbEntity
  8
Defpoints
 62
     0
100
AcDbPoint
 10
-104.0179524032129
 20
-3.000000000000047
 30
0.0
  0
ENDBLK
  5
104
330
102
100
AcDbEntity
  8
0
100
AcDbBlockEnd
  0
BLOCK
  5
110
330
10F
100
AcDbEntity
  8
0
100
AcDbBlockBegin
  2
_D_3
 70
     0
 10
0.0
 20
0.0
 30
0.0
  3
_D_3
  1

  0
LINE
  5
112
330
10F
100
AcDbEntity
  8
치수문자_일반주서
 62
     0
370
    -2
100
AcDbLine
 10
10.00000000000001
 20
2.633923333748572
 30
0.0
 11
10.00000000000001
 21
13.41734163633624
 31
0.0
  0
LINE
  5
113
330
10F
100
AcDbEntity
  8
치수문자_일반주서
 62
     0
370
    -2
100
AcDbLine
 10
55.0
 20
3.0625
 30
0.0
 11
55.0
 21
13.41734163633624
 31
0.0
  0
LINE
  5
114
330
10F
100
AcDbEntity
  8
치수문자_일반주서
 62
     0
370
    -2
100
AcDbLine
 10
13.30200000000001
 20
13.41734163633624
 30
0.0
 11
51.698
 21
13.41734163633624
 31
0.0
  0
SOLID
  5
115
330
10F
100
AcDbEntity
  8
치수문자_일반주서
 62
     0
100
AcDbTrace
 10
13.30200000000001
 20
13.96767496966957
 30
0.0
 11
13.30200000000001
 21
12.8670083030029
 31
0.0
 12
10.00000000000001
 22
13.41734163633624
 32
0.0
 13
10.00000000000001
 23
13.41734163633624
 33
0.0
  0
SOLID
  5
116
330
10F
100
AcDbEntity
  8
치수문자_일반주서
 62
     0
100
AcDbTrace
 10
51.698
 20
12.8670083030029
 30
0.0
 11
51.698
 21
13.96767496966957
 31
0.0
 12
55.0
 22
13.41734163633624
 32
0.0
 13
55.0
 23
13.41734163633624
 33
0.0
  0
MTEXT
  5
117
330
10F
100
AcDbEntity
  8
치수문자_일반주서
 62
     0
100
AcDbMText
 10
32.49999999999999
 20
17.79234163633624
 30
0.0
 40
3.5
 41
0.0
 71
     2
 72
     1
  1
\A1;45
  7
SLDTEXTSTYLE0
 73
     1
 44
1.0
  0
POINT
  5
147
330
10F
100
AcDbEntity
  8
Defpoints
 62
     0
100
AcDbPoint
 10
10.00000000000001
 20
2.571423333748572
 30
0.0
  0
POINT
  5
148
330
10F
100
AcDbEntity
  8
Defpoints
 62
     0
100
AcDbPoint
 10
55.0
 20
3.0
 30
0.0
  0
POINT
  5
149
330
10F
100
AcDbEntity
  8
Defpoints
 62
     0
100
AcDbPoint
 10
55.0
 20
13.41734163633624
 30
0.0
  0
ENDBLK
  5
111
330
10F
100
AcDbEntity
  8
0
100
AcDbBlockEnd
  0
BLOCK
  5
119
330
118
100
AcDbEntity
  8
0
100
AcDbBlockBegin
  2
SW_DOWELSYMBOL_0
 70
     0
 10
0.0
 20
0.0
 30
0.0
  3
SW_DOWELSYMBOL_0
  1

  0
CIRCLE
  5
11B
330
118
100
AcDbEntity
  8
해칭선
 62
     0
100
AcDbCircle
 10
0.0
 20
0.0
 30
0.0
 40
3.0
  0
HATCH
  5
11C
330
118
100
AcDbEntity
  8
0
  6
Continuous
 62
     0
370
    18
100
AcDbHatch
 10
0.0
 20
0.0
 30
0.0
210
0.0
220
0.0
230
1.0
  2
SOLID
 70
     1
 71
     0
 91
        1
 92
        0
 93
        3
 72
     2
 10
0.0
 20
0.0
 40
3.0
 50
0.0
 51
90.0
 73
     1
 72
     1
 10
0.0
 20
3.0
 11
0.0
 21
0.0
 72
     1
 10
0.0
 20
0.0
 11
3.0
 21
0.0
 97
        0
 75
     0
 76
     1
 98
        1
 10
0.0
 20
0.0
  0
HATCH
  5
11D
330
118
100
AcDbEntity
  8
0
  6
Continuous
 62
     0
370
    18
100
AcDbHatch
 10
0.0
 20
0.0
 30
0.0
210
0.0
220
0.0
230
1.0
  2
SOLID
 70
     1
 71
     0
 91
        1
 92
        0
 93
        3
 72
     2
 10
0.0
 20
0.0
 40
3.0
 50
180.0
 51
270.0000000000008
 73
     1
 72
     1
 10
0.0
 20
-3.0
 11
0.0
 21
0.0
 72
     1
 10
0.0
 20
0.0
 11
-3.0
 21
0.0
 97
        0
 75
     0
 76
     1
 98
        1
 10
0.0
 20
0.0
  0
ENDBLK
  5
11A
330
118
100
AcDbEntity
  8
0
100
AcDbBlockEnd
  0
ENDSEC
  0
SECTION
  2
ENTITIES
  0
LINE
  5
99
330
1F
100
AcDbEntity
  8
0
  6
Continuous
 62
     4
370
    25
100
AcDbLine
 10
8.500169273231972
 20
2.999999999999992
 30
0.0
 11
-94.49999999999997
 21
2.999999999999985
 31
0.0
  0
LINE
  5
9A
330
1F
100
AcDbEntity
  8
0
  6
Continuous
 62
     4
370
    25
100
AcDbLine
 10
-94.49999999999997
 20
-3.000000000000015
 30
0.0
 11
8.500169273231968
 21
-3.000000000000008
 31
0.0
  0
LINE
  5
9B
330
1F
100
AcDbEntity
  8
0
  6
Continuous
 62
     4
370
    25
100
AcDbLine
 10
-94.49999999999997
 20
2.999999999999979
 30
0.0
 11
-95.0
 21
2.499999999999979
 31
0.0
  0
LINE
  5
9C
330
1F
100
AcDbEntity
  8
0
  6
Continuous
 62
     4
370
    25
100
AcDbLine
 10
-95.0
 20
-2.500000000000009
 30
0.0
 11
-94.49999999999997
 21
-3.000000000000008
 31
0.0
  0
LINE
  5
9D
330
1F
100
AcDbEntity
  8
0
  6
Continuous
 62
     1
370
    25
100
AcDbLine
 10
53.84009437435982
 20
-3.000000000000013
 30
0.0
 11
55.0
 21
-3.000000000000013
 31
0.0
  0
LINE
  5
9E
330
1F
100
AcDbEntity
  8
0
  6
Continuous
 62
     1
370
    25
100
AcDbLine
 10
21.19170581814392
 20
-3.000000000000013
 30
0.0
 11
23.51286055663259
 21
-3.000000000000013
 31
0.0
  0
LINE
  5
9F
330
1F
100
AcDbEntity
  8
0
  6
Continuous
 62
     1
370
    25
100
AcDbLine
 10
39.83589256305064
 20
2.999999999999996
 30
0.0
 11
37.51490017089477
 21
2.999999999999996
 31
0.0
  0
LINE
  5
A0
330
1F
100
AcDbEntity
  8
0
  6
Continuous
 62
     1
370
    25
100
AcDbLine
 10
45.67649897108423
 20
-3.000000000000013
 30
0.0
 11
47.99803579690954
 21
-3.000000000000013
 31
0.0
  0
LINE
  5
A1
330
1F
100
AcDbEntity
  8
0
  6
Continuous
 62
     1
370
    25
100
AcDbLine
 10
13.02811041486829
 20
-3.000000000000013
 30
0.0
 11
15.34964724069362
 21
-3.000000000000013
 31
0.0
  0
LINE
  5
A2
330
1F
100
AcDbEntity
  8
0
  6
Continuous
 62
     1
370
    25
100
AcDbLine
 10
31.67511331084562
 20
2.999999999999996
 30
0.0
 11
29.35334831132961
 21
2.999999999999996
 31
0.0
  0
LINE
  5
A3
330
1F
100
AcDbEntity
  8
0
  6
Continuous
 62
     1
370
    25
100
AcDbLine
 10
29.35334831132964
 20
-3.000000000000013
 30
0.0
 11
31.67511331084564
 21
-3.000000000000013
 31
0.0
  0
LINE
  5
A4
330
1F
100
AcDbEntity
  8
0
  6
Continuous
 62
     1
370
    25
100
AcDbLine
 10
15.34964724069362
 20
2.999999999999996
 30
0.0
 11
13.02811041486834
 21
2.999999999999996
 31
0.0
  0
LINE
  5
A5
330
1F
100
AcDbEntity
  8
0
  6
Continuous
 62
     1
370
    25
100
AcDbLine
 10
47.99803579690954
 20
2.999999999999996
 30
0.0
 11
45.67649897108425
 21
2.999999999999996
 31
0.0
  0
LINE
  5
A6
330
1F
100
AcDbEntity
  8
0
  6
Continuous
 62
     1
370
    25
100
AcDbLine
 10
30.84750904373755
 20
0.4718688810492557
 30
0.0
 11
30.92813725480266
 21
0.428868820627112
 31
0.0
  0
LINE
  5
A7
330
1F
100
AcDbEntity
  8
0
  6
Continuous
 62
     1
370
    25
100
AcDbLine
 10
38.35987647916888
 20
-0.4797956698036754
 30
0.0
 11
38.26137704992711
 21
-0.4288688206269855
 31
0.0
  0
LINE
  5
A8
330
1F
100
AcDbEntity
  8
0
  6
Continuous
 62
     1
370
    25
100
AcDbLine
 10
14.51851159858323
 20
0.4732566966777432
 30
0.0
 11
14.60394297669474
 21
0.4288688206271099
 31
0.0
  0
SPLINE
  5
A9
330
1F
100
AcDbEntity
  8
0
  6
Continuous
 62
     1
370
    25
100
AcDbSpline
210
0.0
220
0.0
230
1.0
 70
     8
 71
     3
 72
     9
 73
     5
 74
     0
 42
0.000000001
 43
0.00000001
 40
0.0
 40
0.0
 40
0.0
 40
0.0
 40
0.4718111643337067
 40
1.0
 40
1.0
 40
1.0
 40
1.0
 10
22.36553144068598
 20
-0.6660418212193143
 30
0.0
 10
22.24139132554931
 20
-0.603881676222263
 30
0.0
 10
21.97827734156385
 20
-0.4721337446428266
 30
0.0
 10
21.7720837707905
 20
-0.341273659348448
 30
0.0
 10
21.66317462872185
 20
-0.2721548232616183
 30
0.0
  0
SPLINE
  5
AA
330
1F
100
AcDbEntity
  8
0
  6
Continuous
 62
     1
370
    25
100
AcDbSpline
210
0.0
220
0.0
230
1.0
 70
     8
 71
     3
 72
     9
 73
     5
 74
     0
 42
0.000000001
 43
0.00000001
 40
0.0
 40
0.0
 40
0.0
 40
0.0
 40
0.3652733869330826
 40
1.0
 40
1.0
 40
1.0
 40
1.0
 10
54.85372792726555
 20
-0.5857723396961895
 30
0.0
 10
54.7882301163953
 20
-0.5492986700661704
 30
0.0
 10
54.60891836466821
 20
-0.4494455985455201
 30
0.0
 10
54.42701933803369
 20
-0.3409927392926276
 30
0.0
 10
54.31156318493777
 20
-0.2721548232616161
 30
0.0
  0
LINE
  5
AB
330
1F
100
AcDbEntity
  8
0
  6
Continuous
 62
     1
370
    25
100
AcDbLine
 10
47.16690015479915
 20
0.4732566966777463
 30
0.0
 11
47.25233153291066
 21
0.4288688206271119
 31
0.0
  0
LINE
  5
AC
330
1F
100
AcDbEntity
  8
0
  6
Continuous
 62
     1
370
    25
100
AcDbLine
 10
37.51490017089478
 20
-3.000000000000013
 30
0.0
 11
39.83589256305062
 21
-3.000000000000013
 31
0.0
  0
LINE
  5
AD
330
1F
100
AcDbEntity
  8
0
  6
Continuous
 62
     1
370
    25
100
AcDbLine
 10
23.5128605566326
 20
2.999999999999996
 30
0.0
 11
21.19170581814391
 21
2.999999999999996
 31
0.0
  0
LINE
  5
AE
330
1F
100
AcDbEntity
  8
0
  6
Continuous
 62
     1
370
    25
100
AcDbLine
 10
55.0
 20
2.999999999999996
 30
0.0
 11
53.84009437435984
 21
2.999999999999996
 31
0.0
  0
SPLINE
  5
AF
330
1F
100
AcDbEntity
  8
0
  6
Continuous
 62
     4
370
    25
100
AcDbSpline
210
0.0
220
0.0
230
1.0
 70
     8
 71
     3
 72
    10
 73
     6
 74
     0
 42
0.000000001
 43
0.00000001
 40
0.0
 40
0.0
 40
0.0
 40
0.0
 40
0.5
 40
0.5
 40
1.0
 40
1.0
 40
1.0
 40
1.0
 10
8.80149133051621
 20
-0.9168748144171789
 30
0.0
 10
8.707094710693916
 20
-0.8647522483471102
 30
0.0
 10
8.629786287519291
 20
-0.7879605318691295
 30
0.0
 10
8.526128208250807
 20
-0.604354367977169
 30
0.0
 10
8.500169273231975
 20
-0.4976890468114141
 30
0.0
 10
8.500169273231977
 20
-0.3896076242824216
 30
0.0
  0
SPLINE
  5
B0
330
1F
100
AcDbEntity
  8
0
  6
Continuous
 62
     4
370
    25
100
AcDbSpline
210
0.0
220
0.0
230
1.0
 70
     8
 71
     3
 72
    14
 73
    10
 74
     0
 42
0.000000001
 43
0.00000001
 40
0.0
 40
0.0
 40
0.0
 40
0.0
 40
0.2499999999999999
 40
0.2499999999999999
 40
0.4999999999999998
 40
0.4999999999999998
 40
0.7499999999999999
 40
0.7499999999999999
 40
1.0
 40
1.0
 40
1.0
 40
1.0
 10
8.500169273231975
 20
1.486051244179031
 30
0.0
 10
8.500169273231975
 20
1.578953148738924
 30
0.0
 10
8.52501502476516
 20
1.667950378718449
 30
0.0
 10
8.624359940348379
 20
1.819204611927315
 30
0.0
 10
8.698949491444644
 20
1.881663619648902
 30
0.0
 10
8.881708046648907
 20
1.967124762747682
 30
0.0
 10
8.986819638542404
 20
1.989198201625659
 30
0.0
 10
9.198105625437496
 20
1.991241829319392
 30
0.0
 10
9.30439676814247
 20
1.971111131471093
 30
0.0
 10
9.397215637400675
 20
1.930203516658953
 30
0.0
  0
SPLINE
  5
B1
330
1F
100
AcDbEntity
  8
0
  6
Continuous
 62
     4
370
    25
100
AcDbSpline
210
0.0
220
0.0
230
1.0
 70
     8
 71
     3
 72
    10
 73
     6
 74
     0
 42
0.000000001
 43
0.00000001
 40
0.0
 40
0.0
 40
0.0
 40
0.0
 40
0.5
 40
0.5
 40
1.0
 40
1.0
 40
1.0
 40
1.0
 10
8.80149133051621
 20
-2.856455946567915
 30
0.0
 10
8.707094710693916
 20
-2.873186422719618
 30
0.0
 10
8.629786287519291
 20
-2.896208842266986
 30
0.0
 10
8.526128208250807
 20
-2.940010757755128
 30
0.0
 10
8.500169273231975
 20
-2.960437063754898
 30
0.0
 10
8.500169273231977
 20
-2.974593400634958
 30
0.0
  0
SPLINE
  5
B2
330
1F
100
AcDbEntity
  8
0
  6
Continuous
 62
     4
370
    25
100
AcDbSpline
210
0.0
220
0.0
230
1.0
 70
     8
 71
     3
 72
     8
 73
     4
 74
     0
 42
0.000000001
 43
0.00000001
 40
0.0
 40
0.0
 40
0.0
 40
0.0
 40
1.0
 40
1.0
 40
1.0
 40
1.0
 10
10.00000000000001
 20
-2.571423333748021
 30
0.0
 10
9.602781174307584
 20
-2.689927575240499
 30
0.0
 10
9.197977543560798
 20
-2.78618432938174
 30
0.0
 10
8.801491330516225
 20
-2.856455946567913
 30
0.0
  0
LINE
  5
B3
330
1F
100
AcDbEntity
  8
0
  6
Continuous
 62
     4
370
    25
100
AcDbLine
 10
8.500169273231972
 20
2.999999999999992
 30
0.0
 11
8.500169273231975
 21
2.974593400634943
 31
0.0
  0
SPLINE
  5
B4
330
1F
100
AcDbEntity
  8
0
  6
Continuous
 62
     4
370
    25
100
AcDbSpline
210
0.0
220
0.0
230
1.0
 70
     8
 71
     3
 72
    10
 73
     6
 74
     0
 42
0.000000001
 43
0.00000001
 40
0.0
 40
0.0
 40
0.0
 40
0.0
 40
0.5
 40
0.5
 40
1.0
 40
1.0
 40
1.0
 40
1.0
 10
8.80149133051621
 20
2.856455946567905
 30
0.0
 10
8.707094710693916
 20
2.873186422719607
 30
0.0
 10
8.629786287519291
 20
2.896208842266975
 30
0.0
 10
8.526128208250807
 20
2.940010757755114
 30
0.0
 10
8.500169273231975
 20
2.960437063754885
 30
0.0
 10
8.500169273231975
 20
2.974593400634943
 30
0.0
  0
SPLINE
  5
B5
330
1F
100
AcDbEntity
  8
0
  6
Continuous
 62
     4
370
    25
100
AcDbSpline
210
0.0
220
0.0
230
1.0
 70
     8
 71
     3
 72
     8
 73
     4
 74
     0
 42
0.000000001
 43
0.00000001
 40
0.0
 40
0.0
 40
0.0
 40
0.0
 40
1.0
 40
1.0
 40
1.0
 40
1.0
 10
10.00000000000001
 20
2.571423333748014
 30
0.0
 10
9.602781174307584
 20
2.689927575240491
 30
0.0
 10
9.197977543560798
 20
2.786184329381731
 30
0.0
 10
8.801491330516225
 20
2.856455946567902
 30
0.0
  0
LINE
  5
B6
330
1F
100
AcDbEntity
  8
0
  6
Continuous
 62
     4
370
    25
100
AcDbLine
 10
10.00000000000001
 20
2.571423333748014
 30
0.0
 11
10.00000000000001
 21
1.651684452817109
 31
0.0
  0
SPLINE
  5
B7
330
1F
100
AcDbEntity
  8
0
  6
Continuous
 62
     4
370
    25
100
AcDbSpline
210
0.0
220
0.0
230
1.0
 70
     8
 71
     3
 72
     8
 73
     4
 74
     0
 42
0.000000001
 43
0.00000001
 40
0.0
 40
0.0
 40
0.0
 40
0.0
 40
1.0
 40
1.0
 40
1.0
 40
1.0
 10
10.00000000000001
 20
1.651684452817031
 30
0.0
 10
9.80031577187078
 20
1.748234255278351
 30
0.0
 10
9.598715406812602
 20
1.841397490279675
 30
0.0
 10
9.397215637400675
 20
1.930203516658947
 30
0.0
  0
SPLINE
  5
B8
330
1F
100
AcDbEntity
  8
0
  6
Continuous
 62
     4
370
    25
100
AcDbSpline
210
0.0
220
0.0
230
1.0
 70
     8
 71
     3
 72
     8
 73
     4
 74
     0
 42
0.000000001
 43
0.00000001
 40
0.0
 40
0.0
 40
0.0
 40
0.0
 40
1.0
 40
1.0
 40
1.0
 40
1.0
 10
10.00000000000001
 20
-1.545244976905582
 30
0.0
 10
9.602781174307584
 20
-1.348043512881355
 30
0.0
 10
9.197977543560798
 20
-1.1358008614959
 30
0.0
 10
8.801491330516225
 20
-0.9168748144171868
 30
0.0
  0
LINE
  5
B9
330
1F
100
AcDbEntity
  8
0
  6
Continuous
 62
     4
370
    25
100
AcDbLine
 10
10.00000000000001
 20
-1.545244976905582
 30
0.0
 11
10.00000000000001
 21
-2.504383850036371
 31
0.0
  0
SPLINE
  5
BA
330
1F
100
AcDbEntity
  8
0
  6
Continuous
 62
     4
370
    25
100
AcDbSpline
210
0.0
220
0.0
230
1.0
 70
     8
 71
     3
 72
     8
 73
     4
 74
     0
 42
0.000000001
 43
0.00000001
 40
0.0
 40
0.0
 40
0.0
 40
0.0
 40
1.0
 40
1.0
 40
1.0
 40
1.0
 10
10.00000000000001
 20
-2.504383850036282
 30
0.0
 10
9.80031577187078
 20
-2.440707585854334
 30
0.0
 10
9.598715406812602
 20
-2.371225988667515
 30
0.0
 10
9.397215637400675
 20
-2.296587552060118
 30
0.0
  0
SPLINE
  5
BB
330
1F
100
AcDbEntity
  8
0
  6
Continuous
 62
     4
370
    25
100
AcDbSpline
210
0.0
220
0.0
230
1.0
 70
     8
 71
     3
 72
    14
 73
    10
 74
     0
 42
0.000000001
 43
0.00000001
 40
0.0
 40
0.0
 40
0.0
 40
0.0
 40
0.2499999999999999
 40
0.2499999999999999
 40
0.4999999999999998
 40
0.4999999999999998
 40
0.7499999999999999
 40
0.7499999999999999
 40
1.0
 40
1.0
 40
1.0
 40
1.0
 10
8.500169273231975
 20
-2.606079756967168
 30
0.0
 10
8.500169273231975
 20
-2.553104789302135
 30
0.0
 10
8.52501502476516
 20
-2.495311282043049
 30
0.0
 10
8.62435994034838
 20
-2.387285370478511
 30
0.0
 10
8.698949491444644
 20
-2.337187313421363
 30
0.0
 10
8.881708046648907
 20
-2.265727848465666
 30
0.0
 10
8.986819638542404
 20
-2.245683054102018
 30
0.0
 10
9.198105625437496
 20
-2.243871173218392
 30
0.0
 10
9.30439676814247
 20
-2.262206096888648
 30
0.0
 10
9.397215637400675
 20
-2.296587552060123
 30
0.0
  0
LINE
  5
BC
330
1F
100
AcDbEntity
  8
0
  6
Continuous
 62
     4
370
    25
100
AcDbLine
 10
8.500169273231975
 20
-2.606079756967168
 30
0.0
 11
8.500169273231975
 21
-3.000000000000008
 31
0.0
  0
LINE
  5
BD
330
1F
100
AcDbEntity
  8
0
  6
Continuous
 62
     4
370
    25
100
AcDbLine
 10
-94.49999999999997
 20
2.999999999999979
 30
0.0
 11
-94.49999999999997
 21
-3.000000000000008
 31
0.0
  0
LINE
  5
BE
330
1F
100
AcDbEntity
  8
0
  6
Continuous
 62
     4
370
    25
100
AcDbLine
 10
8.500169273231972
 20
1.48605124417903
 30
0.0
 11
8.500169273231975
 21
-0.389607624282422
 31
0.0
  0
LINE
  5
BF
330
1F
100
AcDbEntity
  8
0
  6
Continuous
 62
     4
370
    25
100
AcDbLine
 10
-95.0
 20
2.499999999999979
 30
0.0
 11
-95.0
 21
-2.50000000000001
 31
0.0
  0
SPLINE
  5
C0
330
1F
100
AcDbEntity
  8
0
  6
Continuous
 62
     4
370
    25
100
AcDbSpline
210
0.0
220
0.0
230
1.0
 70
    24
 71
     3
 72
    20
 73
    16
 74
     0
 42
0.000000001
 43
0.00000001
 40
0.0
 40
0.0
 40
0.0
 40
0.0
 40
0.125
 40
0.125
 40
0.25
 40
0.25
 40
0.5000000000000001
 40
0.5000000000000001
 40
0.6250000000000001
 40
0.6250000000000001
 40
0.7500000000000001
 40
0.7500000000000001
 40
0.8750000000000001
 40
0.8750000000000001
 40
1.0
 40
1.0
 40
1.0
 40
1.0
 10
10.00000000000001
 20
1.651684452817114
 30
0.0
 10
10.00000000000001
 20
1.581586405804666
 30
0.0
 10
10.00000000000001
 20
1.513821740085669
 30
0.0
 10
10.00000000000001
 20
1.354623711971066
 30
0.0
 10
10.00000000000001
 20
1.264456744346878
 30
0.0
 10
10.00000000000001
 20
0.9571436121690928
 30
0.0
 10
10.00000000000001
 20
0.7007606418064561
 30
0.0
 10
10.00000000000001
 20
0.2438001771146728
 30
0.0
 10
10.00000000000001
 20
0.0799343845561348
 30
0.0
 10
10.00000000000001
 20
-0.2607826045585904
 30
0.0
 10
10.00000000000001
 20
-0.4375902794874428
 30
0.0
 10
10.00000000000001
 20
-0.7865958749542586
 30
0.0
 10
10.00000000000001
 20
-0.9585910668037121
 30
0.0
 10
10.00000000000001
 20
-1.276358134138571
 30
0.0
 10
10.00000000000001
 20
-1.421858771953899
 30
0.0
 10
10.00000000000001
 20
-1.545244976905582
 30
0.0
  0
SPLINE
  5
C1
330
1F
100
AcDbEntity
  8
0
  6
Continuous
 62
     1
370
    25
100
AcDbSpline
210
0.0
220
0.0
230
1.0
 70
     8
 71
     3
 72
    15
 73
    11
 74
     0
 42
0.000000001
 43
0.00000001
 40
0.0
 40
0.0
 40
0.0
 40
0.0
 40
0.128404726720664
 40
0.2567992673565802
 40
0.3852064816168445
 40
0.5150244954762477
 40
0.6448590935104235
 40
0.7747069981496308
 40
0.9045649113636128
 40
1.0
 40
1.0
 40
1.0
 40
1.0
 10
10.0
 20
1.651684452817036
 30
0.0
 10
10.47900266770141
 20
1.408543024868354
 30
0.0
 10
11.4369700048008
 20
0.9222794568839378
 30
0.0
 10
12.87390548451545
 20
0.0890679639604949
 30
0.0
 10
14.3161518675836
 20
-0.7450144390515179
 30
0.0
 10
15.7638294605599
 20
-1.526923122832142
 30
0.0
 10
17.21691447278922
 20
-2.194485906231612
 30
0.0
 10
18.67017954400871
 20
-2.683815769172114
 30
0.0
 10
19.9951287336243
 20
-2.96671532096827
 30
0.0
 10
20.83565518363888
 20
-2.974081309527106
 30
0.0
 10
21.19170581814391
 20
-2.977201574094729
 30
0.0
  0
SPLINE
  5
C2
330
1F
100
AcDbEntity
  8
0
  6
Continuous
 62
     1
370
    25
100
AcDbSpline
210
0.0
220
0.0
230
1.0
 70
     8
 71
     3
 72
    21
 73
    17
 74
     0
 42
0.000000001
 43
0.00000001
 40
0.0
 40
0.0
 40
0.0
 40
0.0
 40
0.003201821481038
 40
0.0786907758962796
 40
0.1541906215951864
 40
0.2422923049711925
 40
0.3304207031833027
 40
0.418444842443875
 40
0.4931192735228618
 40
0.5677877808317287
 40
0.6424636585521998
 40
0.7179599940558282
 40
0.7934659741718295
 40
0.8689796928126167
 40
0.9444992319916836
 40
1.0
 40
1.0
 40
1.0
 40
1.0
 10
34.59377171831949
 20
2.534453578633496
 30
0.0
 10
34.6143096311451
 20
2.542030698957602
 30
0.0
 10
35.11906740889984
 20
2.728252660704865
 30
0.0
 10
36.10819296657678
 20
2.915341488168876
 30
0.0
 10
37.64173384254283
 20
3.049690275602528
 30
0.0
 10
39.25735548293378
 20
2.88243110447551
 30
0.0
 10
40.95325263626061
 20
2.409989682450401
 30
0.0
 10
42.5628815789264
 20
1.717865890816807
 30
0.0
 10
44.08532733508439
 20
0.9166213511492151
 30
0.0
 10
45.52230240528563
 20
0.0905836122975448
 30
0.0
 10
46.96453815500529
 20
-0.7454255421564394
 30
0.0
 10
48.41221862760439
 20
-1.526812441345306
 30
0.0
 10
49.86530286524289
 20
-2.194515579776981
 30
0.0
 10
51.31856814434966
 20
-2.683807773764901
 30
0.0
 10
52.64351728214579
 20
-2.966716715192633
 30
0.0
 10
53.48404373756525
 20
-2.974081724389192
 30
0.0
 10
53.84009437435984
 20
-2.977201574094724
 30
0.0
  0
SPLINE
  5
C3
330
1F
100
AcDbEntity
  8
0
  6
Continuous
 62
     1
370
    25
100
AcDbSpline
210
0.0
220
0.0
230
1.0
 70
     8
 71
     3
 72
    18
 73
    14
 74
     0
 42
0.000000001
 43
0.00000001
 40
0.0
 40
0.0
 40
0.0
 40
0.0
 40
0.0957944317784993
 40
0.1916042589604685
 40
0.2874270879477271
 40
0.3832605052234244
 40
0.4791020810027473
 40
0.5749493729374033
 40
0.6707999298617973
 40
0.766651295568512
 40
0.8625010126005872
 40
0.9583466260479576
 40
1.0
 40
1.0
 40
1.0
 40
1.0
 10
55.00000000000001
 20
-2.925497095065789
 30
0.0
 10
54.51583181274896
 20
-2.841412828128166
 30
0.0
 10
53.54741762616056
 20
-2.67323078082431
 30
0.0
 10
52.09463072414268
 20
-2.152397248515484
 30
0.0
 10
50.64161126083396
 20
-1.480633594819077
 30
0.0
 10
49.18839820977334
 20
-0.6894008516706023
 30
0.0
 10
47.73503706794111
 20
0.1541879593603088
 30
0.0
 10
46.28157186304252
 20
0.9863906809137837
 30
0.0
 10
44.82804739272811
 20
1.740890896750768
 30
0.0
 10
43.37450783909765
 20
2.363763726017593
 30
0.0
 10
41.92099964525754
 20
2.789353233962317
 30
0.0
 10
40.74146063283797
 20
2.999944013420608
 30
0.0
 10
40.04643941359359
 20
2.977898381326038
 30
0.0
 10
39.83589256305064
 20
2.971219968815428
 30
0.0
  0
SPLINE
  5
C4
330
1F
100
AcDbEntity
  8
0
  6
Continuous
 62
     1
370
    25
100
AcDbSpline
210
0.0
220
0.0
230
1.0
 70
     8
 71
     3
 72
    19
 73
    15
 74
     0
 42
0.000000001
 43
0.00000001
 40
0.0
 40
0.0
 40
0.0
 40
0.0
 40
0.0302372042936047
 40
0.139384035249485
 40
0.2483528318890579
 40
0.3367468685290547
 40
0.4251551112333617
 40
0.5135753513161363
 40
0.6020053617116403
 40
0.6904429003429198
 40
0.7788857135401064
 40
0.867331539497191
 40
0.955778111755838
 40
1.0
 40
1.0
 40
1.0
 40
1.0
 10
26.43456534406569
 20
-2.516171077415601
 30
0.0
 10
26.26893797848822
 20
-2.572912530724032
 30
0.0
 10
25.50544773191105
 20
-2.834472847321228
 30
0.0
 10
24.14374679987921
 20
-3.026558148037044
 30
0.0
 10
22.4641868407516
 20
-2.989628189106715
 30
0.0
 10
20.89905851056167
 20
-2.662358917317899
 30
0.0
 10
19.4462341170632
 20
-2.155309691373674
 30
0.0
 10
17.99322546162009
 20
-1.47985788798613
 30
0.0
 10
16.54000667739326
 20
-0.689590745725942
 30
0.0
 10
15.08665766004431
 20
0.1541717179776828
 30
0.0
 10
13.63314968744067
 20
0.9866455794544269
 30
0.0
 10
12.17978416995087
 20
1.739887506592425
 30
0.0
 10
10.96800839766048
 20
2.262915966583604
 30
0.0
 10
10.24199827454682
 20
2.49429771095507
 30
0.0
 10
10.00000000000001
 20
2.571423333748572
 30
0.0
  0
LINE
  5
C5
330
1F
100
AcDbEntity
  8
0
  6
Continuous
 62
     1
370
    25
100
AcDbLine
 10
55.0
 20
-3.000000000000017
 30
0.0
 11
55.0
 21
-2.925497095065798
 31
0.0
  0
SPLINE
  5
C6
330
1F
100
AcDbEntity
  8
0
  6
Continuous
 62
     1
370
    25
100
AcDbSpline
210
0.0
220
0.0
230
1.0
 70
     8
 71
     3
 72
    10
 73
     6
 74
     0
 42
0.000000001
 43
0.00000001
 40
0.0
 40
0.0
 40
0.0
 40
0.0
 40
0.4745501309524604
 40
0.9490626168121399
 40
0.9999999999999999
 40
0.9999999999999999
 40
0.9999999999999999
 40
0.9999999999999999
 10
10.0
 20
-2.504383850036282
 30
0.0
 10
10.47900357046642
 20
-2.633763713154039
 30
0.0
 10
11.4369727130242
 20
-2.892513175949225
 30
0.0
 10
12.44631507964121
 20
-3.02915277529747
 30
0.0
 10
12.97669510022967
 20
-2.992596602764172
 30
0.0
 10
13.02811041486829
 20
-2.989052828414041
 30
0.0
  0
SPLINE
  5
C7
330
1F
100
AcDbEntity
  8
0
  6
Continuous
 62
     1
370
    25
100
AcDbSpline
210
0.0
220
0.0
230
1.0
 70
     8
 71
     3
 72
    21
 73
    17
 74
     0
 42
0.000000001
 43
0.00000001
 40
0.0
 40
0.0
 40
0.0
 40
0.0
 40
0.0497106390952451
 40
0.125241089402658
 40
0.200763848148717
 40
0.2762770084890925
 40
0.3517786782996123
 40
0.4272730489934495
 40
0.5027785577425633
 40
0.5782949601637439
 40
0.6664159637792819
 40
0.754563688089348
 40
0.8426071305844322
 40
0.9172979373765728
 40
0.9919828190995418
 40
1.0
 40
1.0
 40
1.0
 40
1.0
 10
26.43456534406565
 20
2.516171077415587
 30
0.0
 10
26.75339806141577
 20
2.614885951213366
 30
0.0
 10
27.55666588466043
 20
2.863588413295822
 30
0.0
 10
28.84429590711941
 20
3.019811429841053
 30
0.0
 10
30.29738768516513
 20
2.990724377688506
 30
0.0
 10
31.75025647138127
 20
2.721451099170185
 30
0.0
 10
33.20290231447984
 20
2.242867553635263
 30
0.0
 10
34.65543629831934
 20
1.589450825311088
 30
0.0
 10
36.10818869895907
 20
0.8127081727061537
 30
0.0
 10
37.64173520648743
 20
-0.0737893716150772
 30
0.0
 10
39.25735506635047
 20
-1.005256918357219
 30
0.0
 10
40.95325284882739
 20
-1.874462860059706
 30
0.0
 10
42.56288117798313
 20
-2.519817789089482
 30
0.0
 10
44.08532851470817
 20
-2.882417624057228
 30
0.0
 10
45.09470427865658
 20
-3.029350897984483
 30
0.0
 10
45.62508371325209
 20
-2.992614111567821
 30
0.0
 10
45.67649897108422
 20
-2.989052828414037
 30
0.0
  0
SPLINE
  5
C8
330
1F
100
AcDbEntity
  8
0
  6
Continuous
 62
     1
370
    25
100
AcDbSpline
210
0.0
220
0.0
230
1.0
 70
     8
 71
     3
 72
    22
 73
    18
 74
     0
 42
0.000000001
 43
0.00000001
 40
0.0
 40
0.0
 40
0.0
 40
0.0
 40
0.0147472589846652
 40
0.090237303308053
 40
0.1657337742602497
 40
0.2412347479509661
 40
0.3167382935443344
 40
0.3922424762329351
 40
0.4677453602250565
 40
0.5432450117352311
 40
0.6187395019680844
 40
0.6942269100855805
 40
0.7697053261478253
 40
0.8451728540177527
 40
0.9206292494350823
 40
0.9960929402974836
 40
1.0
 40
1.0
 40
1.0
 40
1.0
 10
50.92554565170794
 20
-2.521674490992234
 30
0.0
 10
50.83091701414953
 20
-2.555497870593363
 30
0.0
 10
50.25189191681686
 20
-2.762460436799342
 30
0.0
 10
49.18839634266812
 20
-2.949604968215838
 30
0.0
 10
47.73503756421296
 20
-3.038257407668666
 30
0.0
 10
46.28157174524214
 20
-2.874161138614892
 30
0.0
 10
44.82804736762512
 20
-2.491165477001082
 30
0.0
 10
43.37450805731302
 20
-1.913373205392602
 30
0.0
 10
41.92099879753146
 20
-1.187221183585787
 30
0.0
 10
40.46756413962994
 20
-0.3687002878718837
 30
0.0
 10
39.01424871780027
 20
0.4782907542599124
 30
0.0
 10
37.5610965520991
 20
1.288593504749707
 30
0.0
 10
36.10815289642307
 20
1.996865660705975
 30
0.0
 10
34.65544663135766
 20
2.556960182912464
 30
0.0
 10
33.20289677692439
 20
2.892359277142449
 30
0.0
 10
32.2094735009133
 20
3.034615554372345
 30
0.0
 10
31.70018334040738
 20
2.996166716932044
 30
0.0
 10
31.67511331084563
 20
2.994274056193643
 30
0.0
  0
SPLINE
  5
C9
330
1F
100
AcDbEntity
  8
0
  6
Continuous
 62
     1
370
    25
100
AcDbSpline
210
0.0
220
0.0
230
1.0
 70
     8
 71
     3
 72
    14
 73
    10
 74
     0
 42
0.000000001
 43
0.00000001
 40
0.0
 40
0.0
 40
0.0
 40
0.0
 40
0.0342964795924375
 40
0.2098574273768018
 40
0.3854333210398556
 40
0.5610196863491941
 40
0.736612032919654
 40
0.9122058611297638
 40
0.9999999999999999
 40
0.9999999999999999
 40
0.9999999999999999
 40
0.9999999999999999
 10
18.277157095492
 20
-2.521674490992239
 30
0.0
 10
18.18252847134718
 20
-2.555497764618296
 30
0.0
 10
17.6035034560912
 20
-2.762459682371257
 30
0.0
 10
16.5400052654871
 20
-2.949624885293561
 30
0.0
 10
15.08665803843654
 20
-3.038186061989788
 30
0.0
 10
13.63314958591441
 20
-2.874426622573186
 30
0.0
 10
12.17978419764054
 20
-2.490174853477802
 30
0.0
 10
10.96800839458395
 20
-2.012588198773506
 30
0.0
 10
10.24199827377771
 20
-1.66207893577087
 30
0.0
 10
10.00000000000001
 20
-1.545244976906035
 30
0.0
  0
SPLINE
  5
CA
330
1F
100
AcDbEntity
  8
0
  6
Continuous
 62
     1
370
    25
100
AcDbSpline
210
0.0
220
0.0
230
1.0
 70
     8
 71
     3
 72
    21
 73
    17
 74
     0
 42
0.000000001
 43
0.00000001
 40
0.0
 40
0.0
 40
0.0
 40
0.0
 40
0.0686830087376973
 40
0.1433801207792131
 40
0.2180846060558618
 40
0.2936098634245565
 40
0.3691447691003751
 40
0.4446874162655282
 40
0.5202358861987492
 40
0.5957882512067852
 40
0.6713425775856776
 40
0.7468969286020365
 40
0.8224493674844067
 40
0.8979979604147605
 40
0.9735407795101525
 40
1.0
 40
1.0
 40
1.0
 40
1.0
 10
10.11580233701262
 20
2.533062002554211
 30
0.0
 10
10.5562039422014
 20
2.655471867661405
 30
0.0
 10
11.47557012175359
 20
2.911010196080665
 30
0.0
 10
12.87390539515468
 20
3.034296877026458
 30
0.0
 10
14.31615189564315
 20
2.946883169400377
 30
0.0
 10
15.76382943855177
 20
2.62761469759939
 30
0.0
 10
17.21691453258769
 20
2.104260157431128
 30
0.0
 10
18.67017932679601
 20
1.417053298139707
 30
0.0
 10
20.1235781764984
 20
0.6197757662741332
 30
0.0
 10
21.57706696681808
 20
-0.2256249807787234
 30
0.0
 10
23.03060103589374
 20
-1.053795753902004
 30
0.0
 10
24.48413551949241
 20
-1.798949203696075
 30
0.0
 10
25.93762647628627
 20
-2.408492161734388
 30
0.0
 10
27.39102647043789
 20
-2.815192732895007
 30
0.0
 10
28.52959528168385
 20
-3.008231379902868
 30
0.0
 10
29.18367954871718
 20
-2.980539659660101
 30
0.0
 10
29.35334831132964
 20
-2.973356456906254
 30
0.0
  0
SPLINE
  5
CB
330
1F
100
AcDbEntity
  8
0
  6
Continuous
 62
     1
370
    25
100
AcDbSpline
210
0.0
220
0.0
230
1.0
 70
     8
 71
     3
 72
    16
 73
    12
 74
     0
 42
0.000000001
 43
0.00000001
 40
0.0
 40
0.0
 40
0.0
 40
0.0
 40
0.1120099939097894
 40
0.2303230027309479
 40
0.3486476900442121
 40
0.4682724010546763
 40
0.5879123940514809
 40
0.7075646488194691
 40
0.8272261262895263
 40
0.9468937731817786
 40
1.0
 40
1.0
 40
1.0
 40
1.0
 10
42.72505134627091
 20
2.523369193876158
 30
0.0
 10
43.17849955621963
 20
2.649599898185686
 30
0.0
 10
44.11091236737005
 20
2.90916454807602
 30
0.0
 10
45.52229405930776
 20
3.034486842759046
 30
0.0
 10
46.96454015308706
 20
2.946833924777693
 30
0.0
 10
48.41221909451201
 20
2.627619326435981
 30
0.0
 10
49.8652989929401
 20
2.104291095443343
 30
0.0
 10
51.31858316869435
 20
1.416924898376573
 30
0.0
 10
52.77190968050552
 20
0.6202584729945584
 30
0.0
 10
53.95611748944565
 20
-0.0702524830901647
 30
0.0
 10
54.65531865573077
 20
-0.4684628288926798
 30
0.0
 10
54.87023503707282
 20
-0.5908624052371256
 30
0.0
  0
SPLINE
  5
CC
330
1F
100
AcDbEntity
  8
0
  6
Continuous
 62
     1
370
    25
100
AcDbSpline
210
0.0
220
0.0
230
1.0
 70
     8
 71
     3
 72
    12
 73
     8
 74
     0
 42
0.000000001
 43
0.00000001
 40
0.0
 40
0.0
 40
0.0
 40
0.0
 40
0.2074547830429706
 40
0.4149429067512325
 40
0.6224591874895576
 40
0.8299983984863547
 40
1.0
 40
1.0
 40
1.0
 40
1.0
 10
55.00000000000003
 20
0.6644296401889979
 30
0.0
 10
54.51583180502222
 20
0.9319742875578264
 30
0.0
 10
53.54741760297912
 20
1.467106580178721
 30
0.0
 10
52.09463081689108
 20
2.143626335797777
 30
0.0
 10
50.64161091296037
 20
2.650678852271438
 30
0.0
 10
49.27605558565171
 20
2.956215587976486
 30
0.0
 10
48.39483685795527
 20
2.974459737956336
 30
0.0
 10
47.99803579690954
 20
2.982674835800214
 30
0.0
  0
SPLINE
  5
CD
330
1F
100
AcDbEntity
  8
0
  6
Continuous
 62
     1
370
    25
100
AcDbSpline
210
0.0
220
0.0
230
1.0
 70
     8
 71
     3
 72
    20
 73
    16
 74
     0
 42
0.000000001
 43
0.00000001
 40
0.0
 40
0.0
 40
0.0
 40
0.0
 40
0.0722838707234478
 40
0.1477772100304322
 40
0.2232820385994606
 40
0.2987964645151289
 40
0.3743185811434997
 40
0.4498464700245167
 40
0.5430584490077721
 40
0.6361183857301151
 40
0.7116073670718
 40
0.7871084804685919
 40
0.8626198396909364
 40
0.9381395428127492
 40
1.0
 40
1.0
 40
1.0
 40
1.0
 10
34.59377171831949
 20
-2.534453578633509
 30
0.0
 10
34.13016215238783
 20
-2.661223076006612
 30
0.0
 10
33.18235834067831
 20
-2.920390749946359
 30
0.0
 10
31.75025905529706
 20
-3.03636835308136
 30
0.0
 10
30.29738305809922
 20
-2.933894222209825
 30
0.0
 10
28.84431183377744
 20
-2.599235480038064
 30
0.0
 10
27.39097041561783
 20
-2.063732818956486
 30
0.0
 10
25.82445222955077
 20
-1.313198592194345
 30
0.0
 10
24.14378049301206
 20
-0.3718406009530458
 30
0.0
 10
22.46417971639047
 20
0.6119709095473137
 30
0.0
 10
20.89906018420421
 20
1.464711654526815
 30
0.0
 10
19.44623391451546
 20
2.144268277822886
 30
0.0
 10
17.99322459764186
 20
2.650506494411641
 30
0.0
 10
16.62766658572721
 20
2.956249715670568
 30
0.0
 10
15.7464481639762
 20
2.974470333962238
 30
0.0
 10
15.34964724069363
 20
2.982674835800213
 30
0.0
  0
LINE
  5
CE
330
1F
100
AcDbEntity
  8
0
  6
Continuous
 62
     1
370
    25
100
AcDbLine
 10
55.0
 20
-0.500000000000016
 30
0.0
 11
55.0
 21
0.6644296401889971
 31
0.0
  0
LINE
  5
CF
330
1F
100
AcDbEntity
  8
0
  6
Continuous
 62
     1
370
    25
100
AcDbLine
 10
55.0
 20
-0.5000000000000155
 30
0.0
 11
54.87023503707282
 21
-0.5908624052371377
 31
0.0
  0
SPLINE
  5
D0
330
1F
100
AcDbEntity
  8
0
  6
Continuous
 62
     4
370
    25
100
AcDbSpline
210
0.0
220
0.0
230
1.0
 70
    24
 71
     3
 72
    20
 73
    16
 74
     0
 42
0.000000001
 43
0.00000001
 40
0.0
 40
0.0
 40
0.0
 40
0.0
 40
0.125
 40
0.125
 40
0.25
 40
0.25
 40
0.5
 40
0.5
 40
0.625
 40
0.625
 40
0.75
 40
0.75
 40
0.875
 40
0.875
 40
1.0
 40
1.0
 40
1.0
 40
1.0
 10
10.00000000000001
 20
1.651684452817116
 30
0.0
 10
10.00000000000001
 20
1.581586405804657
 30
0.0
 10
10.00000000000001
 20
1.513821740085649
 30
0.0
 10
10.00000000000001
 20
1.354623711971016
 30
0.0
 10
10.00000000000001
 20
1.264456744346808
 30
0.0
 10
10.00000000000001
 20
0.9571436121689516
 30
0.0
 10
10.00000000000001
 20
0.7007606418062515
 30
0.0
 10
10.00000000000001
 20
0.2438001771143566
 30
0.0
 10
10.00000000000001
 20
0.079934384555782
 30
0.0
 10
10.00000000000001
 20
-0.2607826045590143
 30
0.0
 10
10.00000000000001
 20
-0.4375902794879001
 30
0.0
 10
10.00000000000001
 20
-0.7865958749547604
 30
0.0
 10
10.00000000000001
 20
-0.9585910668042267
 30
0.0
 10
10.00000000000001
 20
-1.276358134139079
 30
0.0
 10
10.00000000000001
 20
-1.421858771954388
 30
0.0
 10
10.00000000000001
 20
-1.545244976906036
 30
0.0
  0
SPLINE
  5
D1
330
1F
100
AcDbEntity
  8
0
  6
Continuous
 62
     1
370
    25
100
AcDbSpline
210
0.0
220
0.0
230
1.0
 70
     8
 71
     3
 72
    21
 73
    17
 74
     0
 42
0.000000001
 43
0.00000001
 40
0.0
 40
0.0
 40
0.0
 40
0.0
 40
0.0204277022523993
 40
0.095975370116447
 40
0.1715269330139572
 40
0.2470804572615007
 40
0.3226340061462491
 40
0.3981856429173092
 40
0.4737334337771841
 40
0.5492754508633955
 40
0.6248097752103625
 40
0.7003344996817404
 40
0.7758477318635959
 40
0.8513536638109777
 40
0.9268707355193246
 40
0.9999999999999999
 40
0.9999999999999999
 40
0.9999999999999999
 40
0.9999999999999999
 10
18.27715709549201
 20
2.521674490992223
 30
0.0
 10
18.40815308445031
 20
2.567470062481487
 30
0.0
 10
19.02361087645758
 20
2.78263116425739
 30
0.0
 10
20.12357941431049
 20
2.966160165692708
 30
0.0
 10
21.57706664172799
 20
3.033479792882062
 30
0.0
 10
23.03060109837958
 20
2.850235530889579
 30
0.0
 10
24.48413559464255
 20
2.449460979958456
 30
0.0
 10
25.93762611321988
 20
1.857274709110554
 30
0.0
 10
27.39102784743535
 20
1.121051143365873
 30
0.0
 10
28.844296398451
 20
0.2976876343261705
 30
0.0
 10
30.29738737491707
 20
-0.5488446724336818
 30
0.0
 10
31.7502572209771
 20
-1.352348990369831
 30
0.0
 10
33.20289962683262
 20
-2.052066805016109
 30
0.0
 10
34.65544629906725
 20
-2.587559203662495
 30
0.0
 10
36.09277025616306
 20
-2.936324951146227
 30
0.0
 10
37.04596078195277
 20
-2.976600054202907
 30
0.0
 10
37.51490017089478
 20
-2.996414122540742
 30
0.0
  0
SPLINE
  5
D2
330
1F
100
AcDbEntity
  8
0
  6
Continuous
 62
     1
370
    25
100
AcDbSpline
210
0.0
220
0.0
230
1.0
 70
     8
 71
     3
 72
    11
 73
     7
 74
     0
 42
0.000000001
 43
0.00000001
 40
0.0
 40
0.0
 40
0.0
 40
0.0
 40
0.099620464358151
 40
0.4680463235566688
 40
0.836491177796206
 40
1.0
 40
1.0
 40
1.0
 40
1.0
 10
50.92554565170794
 20
2.521674490992222
 30
0.0
 10
51.05654220867629
 20
2.567489145442706
 30
0.0
 10
51.67200266936234
 20
2.782739904598738
 30
0.0
 10
52.77190875174077
 20
2.964170641434067
 30
0.0
 10
53.95611757925739
 20
3.026473808292619
 30
0.0
 10
54.65531867684624
 20
2.961277707413858
 30
0.0
 10
54.87023503707282
 20
2.941238109721367
 30
0.0
  0
SPLINE
  5
D3
330
1F
100
AcDbEntity
  8
0
  6
Continuous
 62
     1
370
    25
100
AcDbSpline
210
0.0
220
0.0
230
1.0
 70
     8
 71
     3
 72
    18
 73
    14
 74
     0
 42
0.000000001
 43
0.00000001
 40
0.0
 40
0.0
 40
0.0
 40
0.0
 40
0.2500000000000012
 40
0.2500000000000012
 40
0.375000000000002
 40
0.375000000000002
 40
0.5000000000000028
 40
0.5000000000000028
 40
0.7500000000000047
 40
0.7500000000000047
 40
0.8750000000000023
 40
0.8750000000000023
 40
1.0
 40
1.0
 40
1.0
 40
1.0
 10
54.87023503707283
 20
2.941238109721372
 30
0.0
 10
54.87920250283555
 20
2.73334749693802
 30
0.0
 10
54.86568439444558
 20
2.528763678827821
 30
0.0
 10
54.79674163611438
 20
2.229044857318347
 30
0.0
 10
54.76541643133754
 20
2.131333637080392
 30
0.0
 10
54.68617401986059
 20
1.948857353975277
 30
0.0
 10
54.63714944090417
 20
1.861903053222042
 30
0.0
 10
54.46783093925992
 20
1.629889471787154
 30
0.0
 10
54.32268300877339
 20
1.511199920927667
 30
0.0
 10
54.08506617666898
 20
1.400085194075859
 30
0.0
 10
54.00154500228349
 20
1.373397800068798
 30
0.0
 10
53.83392950093264
 20
1.340571324633115
 30
0.0
 10
53.74918422418813
 20
1.334002140800603
 30
0.0
 10
53.66362622453234
 20
1.336373775467663
 30
0.0
  0
LINE
  5
D4
330
1F
100
AcDbEntity
  8
0
  6
Continuous
 62
     1
370
    25
100
AcDbLine
 10
55.0
 20
0.6669006068344568
 30
0.0
 11
55.0
 21
0.6894231305804549
 31
0.0
  0
SPLINE
  5
D5
330
1F
100
AcDbEntity
  8
0
  6
Continuous
 62
     1
370
    25
100
AcDbSpline
210
0.0
220
0.0
230
1.0
 70
     8
 71
     3
 72
    21
 73
    17
 74
     0
 42
0.000000001
 43
0.00000001
 40
0.0
 40
0.0
 40
0.0
 40
0.0
 40
0.0418526782191116
 40
0.1175065720354473
 40
0.1931552940302102
 40
0.2687969194411809
 40
0.3444295344265461
 40
0.4200512389755191
 40
0.495661788328807
 40
0.5712796480314246
 40
0.6469090159467309
 40
0.7225479970387545
 40
0.7981946815287135
 40
0.8738471477922007
 40
0.9672128726900929
 40
1.0
 40
1.0
 40
1.0
 40
1.0
 10
42.72505134627086
 20
-2.523369193876172
 30
0.0
 10
42.45702729736487
 20
-2.608764824261061
 30
0.0
 10
41.70451662062587
 20
-2.848523621554761
 30
0.0
 10
40.46756438995262
 20
-3.010971280862803
 30
0.0
 10
39.01424866336674
 20
-3.0030708823367
 30
0.0
 10
37.56109651954758
 20
-2.752398182613358
 30
0.0
 10
36.1081530810183
 20
-2.290414255559458
 30
0.0
 10
34.6554459256767
 20
-1.649857988667408
 30
0.0
 10
33.20289941478129
 20
-0.8812353961223434
 30
0.0
 10
31.75025844281769
 20
-0.0442385241844632
 30
0.0
 10
30.2973826986099
 20
0.7965389743729762
 30
0.0
 10
28.84431388470366
 20
1.574242934050989
 30
0.0
 10
27.39096257036295
 20
2.234260825548173
 30
0.0
 10
25.82448446338851
 20
2.740104530984477
 30
0.0
 10
24.53094990510101
 20
3.012381054110278
 30
0.0
 10
23.72287835821017
 20
2.970368368548774
 30
0.0
 10
23.51286055663259
 20
2.959449271231282
 30
0.0
  0
LINE
  5
D6
330
1F
100
AcDbEntity
  8
0
  6
Continuous
 62
     1
370
    25
100
AcDbLine
 10
10.11580233701259
 20
-2.53306200255423
 30
0.0
 11
10.00000000000001
 21
-2.571423333748578
 31
0.0
  0
SPLINE
  5
D7
330
1F
100
AcDbEntity
  8
0
  6
Continuous
 62
     1
370
    25
100
AcDbSpline
210
0.0
220
0.0
230
1.0
 70
     8
 71
     3
 72
     8
 73
     4
 74
     0
 42
0.000000001
 43
0.00000001
 40
0.0
 40
0.0
 40
0.0
 40
0.0
 40
1.0
 40
1.0
 40
1.0
 40
1.0
 10
55.0
 20
-2.394174483719564
 30
0.0
 10
54.53021694332989
 20
-2.128539244315992
 30
0.0
 10
54.08892964928775
 20
-1.799829127033024
 30
0.0
 10
53.66362622453234
 20
-1.435738991448246
 30
0.0
  0
LINE
  5
D8
330
1F
100
AcDbEntity
  8
0
  6
Continuous
 62
     1
370
    25
100
AcDbLine
 10
55.0
 20
-2.925497095065798
 30
0.0
 11
55.0
 21
-2.394174483719565
 31
0.0
  0
LINE
  5
D9
330
1F
100
AcDbEntity
  8
0
  6
Continuous
 62
     1
370
    25
100
AcDbLine
 10
54.75750648488075
 20
-0.6697957872534813
 30
0.0
 11
53.66362622453236
 21
-1.435738991448252
 31
0.0
  0
ELLIPSE
  5
DA
330
1F
100
AcDbEntity
  8
0
  6
Continuous
 62
     1
370
    25
100
AcDbEllipse
 10
55.71407400337106
 20
-0.0000000000000085
 30
0.0
 11
4.284444020226339
 21
0.0
 31
0.0
210
0.0
220
0.0
230
1.0
 40
0.7002075382097115
 41
1.738244406014587
 42
1.769046555404855
  0
LINE
  5
DB
330
1F
100
AcDbEntity
  8
0
  6
Continuous
 62
     1
370
    25
100
AcDbLine
 10
55.0
 20
2.958039891549808
 30
0.0
 11
55.0
 21
3.0
 31
0.0
  0
LINE
  5
DC
330
1F
100
AcDbEntity
  8
0
  6
Continuous
 62
     1
370
    25
100
AcDbLine
 10
55.0
 20
0.6894231305804549
 30
0.0
 11
55.0
 21
2.958039891549808
 31
0.0
  0
LINE
  5
DD
330
1F
100
AcDbEntity
  8
0
  6
Continuous
 62
     1
370
    25
100
AcDbLine
 10
55.0
 20
-0.5000000000000057
 30
0.0
 11
55.0
 21
-2.394174483719564
 31
0.0
  0
LINE
  5
DE
330
1F
100
AcDbEntity
  8
중심선
100
AcDbLine
 10
-97.99999999999997
 20
-0.0000000000000132
 30
0.0
 11
58.00000000000001
 21
0.0000000000000059
 31
0.0
  0
CIRCLE
  5
DF
330
1F
100
AcDbEntity
  8
해칭선
100
AcDbCircle
 10
0.0003429564153935
 20
-0.0000000000000043
 30
0.0
 40
3.0
  0
INSERT
  5
E0
330
1F
100
AcDbEntity
  8
0
  6
Continuous
 62
     7
100
AcDbBlockReference
 66
     1
  2
블럭10
 10
-32.44009924894178
 20
-52.04717430164393
 30
0.0
  0
ATTRIB
  5
E1
330
E0
100
AcDbEntity
  8
FORMAT
 62
     2
100
AcDbText
 10
-48.55936028837733
 20
-49.97180738881174
 30
0.0
 40
4.233333333333333
  1
SEME7206045E [ 4 FLUTE ]
 41
0.75
  7
SLDTEXTSTYLE0
 11
-48.55936028837733
 21
-52.08847405547841
 31
0.0
100
AcDbAttribute
  2
AUTOATTR0
 70
     0
 74
     1
  0
SEQEND
  5
E2
330
E0
100
AcDbEntity
  8
0
  6
Continuous
 62
     7
  0
HATCH
  5
E3
330
1F
100
AcDbEntity
  8
중심선
100
AcDbHatch
 10
0.0
 20
0.0
 30
0.0
210
0.0
220
0.0
230
1.0
  2
SOLID
 70
     1
 71
     0
 91
        1
 92
        0
 93
        4
 72
     1
 10
-26.72518994456094
 20
-35.8
 11
-30.17146518839822
 21
-35.8
 72
     1
 10
-30.17146518839822
 20
-35.8
 11
-32.29969504760224
 21
-38.33632558057259
 72
     1
 10
-32.29969504760224
 20
-38.33632558057259
 11
-28.85338671865181
 21
-38.3362861512701
 72
     1
 10
-28.85338671865181
 20
-38.3362861512701
 11
-26.72518994456094
 21
-35.8
 97
        0
 75
     0
 76
     1
 98
        1
 10
0.0
 20
0.0
  0
HATCH
  5
E4
330
1F
100
AcDbEntity
  8
중심선
100
AcDbHatch
 10
0.0
 20
0.0
 30
0.0
210
0.0
220
0.0
230
1.0
  2
SOLID
 70
     1
 71
     0
 91
        1
 92
        0
 93
        4
 72
     1
 10
-21.71242595352496
 20
-35.8
 11
-25.15870119736224
 21
-35.8
 72
     1
 10
-25.15870119736224
 20
-35.8
 11
-29.68983920571966
 21
-41.20000000000002
 72
     1
 10
-29.68983920571966
 20
-41.20000000000002
 11
-26.24356396188238
 21
-41.20000000000002
 72
     1
 10
-26.24356396188238
 20
-41.20000000000002
 11
-21.71242595352496
 21
-35.8
 97
        0
 75
     0
 76
     1
 98
        1
 10
0.0
 20
0.0
  0
HATCH
  5
E5
330
1F
100
AcDbEntity
  8
중심선
100
AcDbHatch
 10
0.0
 20
0.0
 30
0.0
210
0.0
220
0.0
230
1.0
  2
SOLID
 70
     1
 71
     0
 91
        1
 92
        0
 93
        4
 72
     1
 10
-16.69966196248909
 20
-35.8
 11
-20.14593720632621
 21
-35.80000000000003
 72
     1
 10
-20.14593720632621
 20
-35.80000000000003
 11
-27.19437410821546
 21
-44.20000000000002
 72
     1
 10
-27.19437410821546
 20
-44.20000000000002
 11
-23.74809886437817
 21
-44.20000000000002
 72
     1
 10
-23.74809886437817
 20
-44.20000000000002
 11
-16.69966196248909
 21
-35.8
 97
        0
 75
     0
 76
     1
 98
        1
 10
0.0
 20
0.0
  0
HATCH
  5
E6
330
1F
100
AcDbEntity
  8
중심선
100
AcDbHatch
 10
0.0
 20
0.0
 30
0.0
210
0.0
220
0.0
230
1.0
  2
SOLID
 70
     1
 71
     0
 91
        1
 92
        0
 93
        6
 72
     3
 10
-11.89977153147689
 20
-40.00000000005127
 11
3.960054785062284
 21
1.540850780301639E-10
 40
0.3939339440162633
 50
17.09539180608434
 51
320.0019657685086
 73
     0
 72
     1
 10
-10.2167718757763
 20
-38.58789400463833
 11
-7.91147000207526
 21
-36.65356729459038
 72
     3
 10
-11.89977153152974
 20
-40.00000000000015
 11
6.600054785286829
 21
-1.249000902703301E-13
 40
0.6363583540795982
 50
39.99873849337408
 51
368.4976242363725
 73
     1
 72
     1
 10
-5.47443903962913
 20
-39.03999999993002
 11
-13.21970422469382
 21
-39.03999999993002
 72
     1
 10
-13.21970422469382
 20
-39.03999999993002
 11
-13.21972926913975
 21
-40.95999999992991
 72
     1
 10
-13.21972926913975
 20
-40.95999999992991
 11
-8.778349499667716
 21
-40.95999999992988
 97
        0
 75
     0
 76
     1
 98
        1
 10
0.0
 20
0.0
  0
DIMENSION
  5
E7
330
1F
100
AcDbEntity
  8
치수문자_일반주서
100
AcDbDimension
  2
_D
 10
63.99410665975011
 20
3.000000000000027
 30
0.0
 11
63.99410665975007
 21
12.66650000000003
 31
0.0
 70
   160
  1
%%c<>
 71
     2
 42
6.000000000000003
 52
-270.0
  3
SLDDIMSTYLE0
100
AcDbAlignedDimension
 13
55.0
 23
-3.000000000000011
 33
0.0
 14
55.0
 24
2.999999999999992
 34
0.0
 50
90.0000000000002
100
AcDbRotatedDimension
  0
DIMENSION
  5
F5
330
1F
100
AcDbEntity
  8
치수문자_일반주서
100
AcDbDimension
  2
_D_1
 10
55.0
 20
20.38913260158163
 30
0.0
 11
-19.99999999999999
 21
20.38913260158163
 31
0.0
 70
   160
  1
<>
 71
     2
 42
150.0
  3
SLDDIMSTYLE1
100
AcDbAlignedDimension
 13
-95.0
 23
2.499999999999979
 33
0.0
 14
55.0
 24
3.0
 34
0.0
 50
-0.0000000000000027
100
AcDbRotatedDimension
  0
DIMENSION
  5
100
330
1F
100
AcDbEntity
  8
치수문자_일반주서
100
AcDbDimension
  2
_D_2
 10
-104.0179524032129
 20
-3.000000000000046
 30
0.0
 11
-104.0179524032129
 21
12.66649999999996
 31
0.0
 70
   160
  1
%%c<>
 71
     2
 42
6.000000000000005
 52
-270.0
  3
SLDDIMSTYLE2
100
AcDbAlignedDimension
 13
-94.49999999999997
 23
2.999999999999994
 33
0.0
 14
-94.49999999999997
 24
-3.000000000000011
 34
0.0
 50
90.0000000000002
100
AcDbRotatedDimension
  0
DIMENSION
  5
10E
330
1F
100
AcDbEntity
  8
치수문자_일반주서
100
AcDbDimension
  2
_D_3
 10
55.0
 20
13.41734163633624
 30
0.0
 11
32.49999999999999
 21
13.41734163633624
 31
0.0
 70
   160
  1
<>
 71
     2
 42
44.99999999999999
  3
SLDDIMSTYLE1
100
AcDbAlignedDimension
 13
10.00000000000001
 23
2.571423333748572
 33
0.0
 14
55.0
 24
3.0
 34
0.0
 50
0.0000000000000362
100
AcDbRotatedDimension
  0
INSERT
  5
11E
330
1F
100
AcDbEntity
  8
해칭선
100
AcDbBlockReference
  2
SW_DOWELSYMBOL_0
 10
0.0003429564153935
 20
-0.0000000000000043
 30
0.0
  0
ENDSEC
  0
SECTION
  2
OBJECTS
  0
DICTIONARY
  5
C
330
0
100
AcDbDictionary
281
     1
  3
ACAD_GROUP
350
D
  3
ACAD_IMAGE_VARS
350
142
  3
ACAD_LAYOUT
350
1A
  3
ACAD_MLINESTYLE
350
17
  3
ACAD_PLOTSETTINGS
350
19
  3
ACAD_PLOTSTYLENAME
350
E
  3
ACAD_SCALELIST
350
47
  3
APPDATA
350
140
  3
DWGPROPS
350
151
  0
DICTIONARY
  5
D
102
{ACAD_REACTORS
330
C
102
}
330
C
100
AcDbDictionary
281
     1
  0
RASTERVARIABLES
  5
142
102
{ACAD_REACTORS
330
C
102
}
330
C
100
AcDbRasterVariables
 90
        0
 70
     1
 71
     1
 72
     1
  0
DICTIONARY
  5
1A
102
{ACAD_REACTORS
330
C
102
}
330
C
100
AcDbDictionary
281
     1
  3
Layout1
350
1E
  3
Layout2
350
26
  3
Model
350
22
  0
DICTIONARY
  5
17
102
{ACAD_REACTORS
330
C
102
}
330
C
100
AcDbDictionary
281
     1
  3
Standard
350
18
  0
DICTIONARY
  5
19
102
{ACAD_REACTORS
330
C
102
}
330
C
100
AcDbDictionary
281
     1
  0
ACDBDICTIONARYWDFLT
  5
E
102
{ACAD_REACTORS
330
C
102
}
330
C
100
AcDbDictionary
281
     1
  3
Normal
350
F
100
AcDbDictionaryWithDefault
340
F
  0
DICTIONARY
  5
47
102
{ACAD_REACTORS
330
C
102
}
330
C
100
AcDbDictionary
281
     1
  3
A0
350
48
  3
A1
350
49
  3
A2
350
4A
  3
A3
350
4B
  3
A4
350
4C
  3
A5
350
4D
  3
A6
350
4E
  3
A7
350
4F
  3
A8
350
50
  3
A9
350
51
  3
B0
350
52
  3
B1
350
53
  3
B2
350
54
  3
B3
350
55
  3
B4
350
56
  3
B5
350
57
  3
B6
350
58
  3
B7
350
59
  3
B8
350
5A
  3
B9
350
5B
  3
C0
350
5C
  3
C1
350
5D
  3
C2
350
5E
  3
C3
350
5F
  3
C4
350
60
  3
C5
350
61
  3
C6
350
62
  3
C7
350
63
  3
C8
350
64
  3
C9
350
65
  3
D0
350
66
  3
D1
350
67
  3
D2
350
68
  0
DICTIONARY
  5
140
102
{ACAD_REACTORS
330
C
102
}
330
C
100
AcDbDictionary
281
     1
  0
XRECORD
  5
151
102
{ACAD_REACTORS
330
C
102
}
330
C
100
AcDbXrecord
280
     1
  1
DWGPROPS COOKIE
  2

  3

  4

  6

  7

  8
12014102
  9

300
=
301
=
302
=
303
=
304
=
305
=
306
=
307
=
308
=
309
=
 40
0.0
 41
2458260.200512257
 42
2458268.133865151
  1

 90
        0
  0
LAYOUT
  5
1E
102
{ACAD_REACTORS
330
1A
102
}
330
1A
100
AcDbPlotSettings
  1

  2
none_device
  4

  6

 40
0.0
 41
0.0
 42
0.0
 43
0.0
 44
0.0
 45
0.0
 46
0.0
 47
0.0
 48
0.0
 49
0.0
140
0.0
141
0.0
142
1.0
143
1.0
 70
   688
 72
     1
 73
     0
 74
     5
  7

 75
    16
147
1.0
148
0.0
149
0.0
100
AcDbLayout
  1
Layout1
 70
     1
 71
     1
 10
0.0
 20
0.0
 11
420.0
 21
297.0
 12
0.0
 22
0.0
 32
0.0
 14
1.000000000000000E+20
 24
1.000000000000000E+20
 34
1.000000000000000E+20
 15
-1.000000000000000E+20
 25
-1.000000000000000E+20
 35
-1.000000000000000E+20
146
0.0
 13
0.0
 23
0.0
 33
0.0
 16
1.0
 26
0.0
 36
0.0
 17
0.0
 27
1.0
 37
0.0
 76
     0
330
1B
  0
LAYOUT
  5
26
102
{ACAD_REACTORS
330
1A
102
}
330
1A
100
AcDbPlotSettings
  1

  2
none_device
  4

  6

 40
0.0
 41
0.0
 42
0.0
 43
0.0
 44
0.0
 45
0.0
 46
0.0
 47
0.0
 48
0.0
 49
0.0
140
0.0
141
0.0
142
1.0
143
1.0
 70
   688
 72
     1
 73
     0
 74
     5
  7

 75
    16
147
1.0
148
0.0
149
0.0
100
AcDbLayout
  1
Layout2
 70
     1
 71
     2
 10
0.0
 20
0.0
 11
0.0
 21
0.0
 12
0.0
 22
0.0
 32
0.0
 14
0.0
 24
0.0
 34
0.0
 15
0.0
 25
0.0
 35
0.0
146
0.0
 13
0.0
 23
0.0
 33
0.0
 16
1.0
 26
0.0
 36
0.0
 17
0.0
 27
1.0
 37
0.0
 76
     0
330
23
  0
LAYOUT
  5
22
102
{ACAD_REACTORS
330
1A
102
}
330
1A
100
AcDbPlotSettings
  1

  2
none_device
  4
ANSI_A_(11.00_x_8.50_Inches)
  6

 40
6.35
 41
19.05
 42
6.35000508
 43
19.05000254
 44
279.4
 45
215.9
 46
161.9682888939979
 47
108.2131344839468
 48
0.0
 49
0.0
140
0.0
141
0.0
142
0.0589085814011889
143
1.0
 70
  1696
 72
     0
 73
     0
 74
     0
  7

 75
     0
147
0.0235690232323232
148
0.0
149
0.0
100
AcDbLayout
  1
Model
 70
     1
 71
     0
 10
0.0
 20
0.0
 11
420.0
 21
297.0
 12
0.0
 22
0.0
 32
0.0
 14
-108.392952403213
 24
-49.97180738881174
 34
0.0
 15
64.54443999308349
 25
24.76413260158163
 35
0.0
146
0.0
 13
0.0
 23
0.0
 33
0.0
 16
1.0
 26
0.0
 36
0.0
 17
0.0
 27
1.0
 37
0.0
 76
     0
330
1F
331
29
  0
MLINESTYLE
  5
18
102
{ACAD_REACTORS
330
17
102
}
330
17
100
AcDbMlineStyle
  2
Standard
 70
     0
  3

 62
   256
 51
90.0
 52
90.0
 71
     2
 49
0.5
 62
   256
  6
BYLAYER
 49
-0.5
 62
   256
  6
BYLAYER
  0
ACDBPLACEHOLDER
  5
F
102
{ACAD_REACTORS
330
E
102
}
330
E
  0
SCALE
  5
48
102
{ACAD_REACTORS
330
47
102
}
330
47
100
AcDbScale
 70
     0
300
1:1
140
1.0
141
1.0
290
     1
  0
SCALE
  5
49
102
{ACAD_REACTORS
330
47
102
}
330
47
100
AcDbScale
 70
     0
300
1:2
140
1.0
141
2.0
290
     0
  0
SCALE
  5
4A
102
{ACAD_REACTORS
330
47
102
}
330
47
100
AcDbScale
 70
     0
300
1:4
140
1.0
141
4.0
290
     0
  0
SCALE
  5
4B
102
{ACAD_REACTORS
330
47
102
}
330
47
100
AcDbScale
 70
     0
300
1:5
140
1.0
141
5.0
290
     0
  0
SCALE
  5
4C
102
{ACAD_REACTORS
330
47
102
}
330
47
100
AcDbScale
 70
     0
300
1:8
140
1.0
141
8.0
290
     0
  0
SCALE
  5
4D
102
{ACAD_REACTORS
330
47
102
}
330
47
100
AcDbScale
 70
     0
300
1:10
140
1.0
141
10.0
290
     0
  0
SCALE
  5
4E
102
{ACAD_REACTORS
330
47
102
}
330
47
100
AcDbScale
 70
     0
300
1:16
140
1.0
141
16.0
290
     0
  0
SCALE
  5
4F
102
{ACAD_REACTORS
330
47
102
}
330
47
100
AcDbScale
 70
     0
300
1:20
140
1.0
141
20.0
290
     0
  0
SCALE
  5
50
102
{ACAD_REACTORS
330
47
102
}
330
47
100
AcDbScale
 70
     0
300
1:30
140
1.0
141
30.0
290
     0
  0
SCALE
  5
51
102
{ACAD_REACTORS
330
47
102
}
330
47
100
AcDbScale
 70
     0
300
1:40
140
1.0
141
40.0
290
     0
  0
SCALE
  5
52
102
{ACAD_REACTORS
330
47
102
}
330
47
100
AcDbScale
 70
     0
300
1:50
140
1.0
141
50.0
290
     0
  0
SCALE
  5
53
102
{ACAD_REACTORS
330
47
102
}
330
47
100
AcDbScale
 70
     0
300
1:100
140
1.0
141
100.0
290
     0
  0
SCALE
  5
54
102
{ACAD_REACTORS
330
47
102
}
330
47
100
AcDbScale
 70
     0
300
2:1
140
2.0
141
1.0
290
     0
  0
SCALE
  5
55
102
{ACAD_REACTORS
330
47
102
}
330
47
100
AcDbScale
 70
     0
300
4:1
140
4.0
141
1.0
290
     0
  0
SCALE
  5
56
102
{ACAD_REACTORS
330
47
102
}
330
47
100
AcDbScale
 70
     0
300
8:1
140
8.0
141
1.0
290
     0
  0
SCALE
  5
57
102
{ACAD_REACTORS
330
47
102
}
330
47
100
AcDbScale
 70
     0
300
10:1
140
10.0
141
1.0
290
     0
  0
SCALE
  5
58
102
{ACAD_REACTORS
330
47
102
}
330
47
100
AcDbScale
 70
     0
300
100:1
140
100.0
141
1.0
290
     0
  0
SCALE
  5
59
102
{ACAD_REACTORS
330
47
102
}
330
47
100
AcDbScale
 70
     0
300
1/128" = 1'-0"
140
0.0078125
141
12.0
290
     0
  0
SCALE
  5
5A
102
{ACAD_REACTORS
330
47
102
}
330
47
100
AcDbScale
 70
     0
300
1/64" = 1'-0"
140
0.015625
141
12.0
290
     0
  0
SCALE
  5
5B
102
{ACAD_REACTORS
330
47
102
}
330
47
100
AcDbScale
 70
     0
300
1/32" = 1'-0"
140
0.03125
141
12.0
290
     0
  0
SCALE
  5
5C
102
{ACAD_REACTORS
330
47
102
}
330
47
100
AcDbScale
 70
     0
300
1/16" = 1'-0"
140
0.0625
141
12.0
290
     0
  0
SCALE
  5
5D
102
{ACAD_REACTORS
330
47
102
}
330
47
100
AcDbScale
 70
     0
300
3/32" = 1'-0"
140
0.09375
141
12.0
290
     0
  0
SCALE
  5
5E
102
{ACAD_REACTORS
330
47
102
}
330
47
100
AcDbScale
 70
     0
300
1/8" = 1'-0"
140
0.125
141
12.0
290
     0
  0
SCALE
  5
5F
102
{ACAD_REACTORS
330
47
102
}
330
47
100
AcDbScale
 70
     0
300
3/16" = 1'-0"
140
0.1875
141
12.0
290
     0
  0
SCALE
  5
60
102
{ACAD_REACTORS
330
47
102
}
330
47
100
AcDbScale
 70
     0
300
1/4" = 1'-0"
140
0.25
141
12.0
290
     0
  0
SCALE
  5
61
102
{ACAD_REACTORS
330
47
102
}
330
47
100
AcDbScale
 70
     0
300
3/8" = 1'-0"
140
0.375
141
12.0
290
     0
  0
SCALE
  5
62
102
{ACAD_REACTORS
330
47
102
}
330
47
100
AcDbScale
 70
     0
300
1/2" = 1'-0"
140
0.5
141
12.0
290
     0
  0
SCALE
  5
63
102
{ACAD_REACTORS
330
47
102
}
330
47
100
AcDbScale
 70
     0
300
3/4" = 1'-0"
140
0.75
141
12.0
290
     0
  0
SCALE
  5
64
102
{ACAD_REACTORS
330
47
102
}
330
47
100
AcDbScale
 70
     0
300
1" = 1'-0"
140
1.0
141
12.0
290
     0
  0
SCALE
  5
65
102
{ACAD_REACTORS
330
47
102
}
330
47
100
AcDbScale
 70
     0
300
1-1/2" = 1'-0"
140
1.5
141
12.0
290
     0
  0
SCALE
  5
66
102
{ACAD_REACTORS
330
47
102
}
330
47
100
AcDbScale
 70
     0
300
3" = 1'-0"
140
3.0
141
12.0
290
     0
  0
SCALE
  5
67
102
{ACAD_REACTORS
330
47
102
}
330
47
100
AcDbScale
 70
     0
300
6" = 1'-0"
140
6.0
141
12.0
290
     0
  0
SCALE
  5
68
102
{ACAD_REACTORS
330
47
102
}
330
47
100
AcDbScale
 70
     0
300
1'-0" = 1'-0"
140
12.0
141
12.0
290
     0
  0
ENDSEC
  0
EOF
