  0
SECTION
  2
HEADER
  9
$ACADVER
  1
AC1015
  9
$ACADMAINTVER
 70
     6
  9
$DWGCODEPAGE
  3
ANSI_949
  9
$INSBASE
 10
0.0
 20
0.0
 30
0.0
  9
$EXTMIN
 10
-61.21118943357253
 20
-49.97180738881173
 30
0.0
  9
$EXTMAX
 10
69.99948399608628
 20
25.76413260158164
 30
0.0
  9
$LIMMIN
 10
0.0
 20
0.0
  9
$LIMMAX
 10
420.0
 20
297.0
  9
$ORTHOMODE
 70
     0
  9
$REGENMODE
 70
     1
  9
$FILLMODE
 70
     1
  9
$QTEXTMODE
 70
     0
  9
$MIRRTEXT
 70
     1
  9
$LTSCALE
 40
1.0
  9
$ATTMODE
 70
     1
  9
$TEXTSIZE
 40
3.5
  9
$TRACEWID
 40
1.0
  9
$TEXTSTYLE
  7
Standard
  9
$CLAYER
  8
0
  9
$CELTYPE
  6
ByLayer
  9
$CECOLOR
 62
   256
  9
$CELTSCALE
 40
1.0
  9
$DISPSILH
 70
     0
  9
$DIMSCALE
 40
1.0
  9
$DIMASZ
 40
3.302
  9
$DIMEXO
 40
1.0
  9
$DIMDLI
 40
3.75
  9
$DIMRND
 40
0.0
  9
$DIMDLE
 40
0.0
  9
$DIMEXE
 40
1.0
  9
$DIMTP
 40
0.0
  9
$DIMTM
 40
0.0
  9
$DIMTXT
 40
3.5
  9
$DIMCEN
 40
2.5
  9
$DIMTSZ
 40
0.0
  9
$DIMTOL
 70
     0
  9
$DIMLIM
 70
     0
  9
$DIMTIH
 70
     1
  9
$DIMTOH
 70
     1
  9
$DIMSE1
 70
     0
  9
$DIMSE2
 70
     0
  9
$DIMTAD
 70
     1
  9
$DIMZIN
 70
     0
  9
$DIMBLK
  1

  9
$DIMASO
 70
     1
  9
$DIMSHO
 70
     1
  9
$DIMPOST
  1

  9
$DIMAPOST
  1

  9
$DIMALT
 70
     0
  9
$DIMALTD
 70
     3
  9
$DIMALTF
 40
0.0393700787401575
  9
$DIMLFAC
 40
1.0
  9
$DIMTOFL
 70
     1
  9
$DIMTVP
 40
0.0
  9
$DIMTIX
 70
     0
  9
$DIMSOXD
 70
     0
  9
$DIMSAH
 70
     0
  9
$DIMBLK1
  1

  9
$DIMBLK2
  1

  9
$DIMSTYLE
  2
ISO-25
  9
$DIMCLRD
 70
     0
  9
$DIMCLRE
 70
     0
  9
$DIMCLRT
 70
     0
  9
$DIMTFAC
 40
1.0
  9
$DIMGAP
 40
1.524
  9
$DIMJUST
 70
     0
  9
$DIMSD1
 70
     0
  9
$DIMSD2
 70
     0
  9
$DIMTOLJ
 70
     0
  9
$DIMTZIN
 70
     0
  9
$DIMALTZ
 70
     0
  9
$DIMALTTZ
 70
     0
  9
$DIMUPT
 70
     0
  9
$DIMDEC
 70
     2
  9
$DIMTDEC
 70
     2
  9
$DIMALTU
 70
     2
  9
$DIMALTTD
 70
     3
  9
$DIMTXSTY
  7
Standard
  9
$DIMAUNIT
 70
     0
  9
$DIMADEC
 70
     2
  9
$DIMALTRND
 40
0.0
  9
$DIMAZIN
 70
     0
  9
$DIMDSEP
 70
    44
  9
$DIMATFIT
 70
     3
  9
$DIMFRAC
 70
     0
  9
$DIMLDRBLK
  1

  9
$DIMLUNIT
 70
     2
  9
$DIMLWD
 70
    -2
  9
$DIMLWE
 70
    -2
  9
$DIMTMOVE
 70
     0
  9
$LUNITS
 70
     2
  9
$LUPREC
 70
     2
  9
$SKETCHINC
 40
1.0
  9
$FILLETRAD
 40
10.0
  9
$AUNITS
 70
     0
  9
$AUPREC
 70
     2
  9
$MENU
  1
.
  9
$ELEVATION
 40
0.0
  9
$PELEVATION
 40
0.0
  9
$THICKNESS
 40
0.0
  9
$LIMCHECK
 70
     0
  9
$CHAMFERA
 40
0.0
  9
$CHAMFERB
 40
0.0
  9
$CHAMFERC
 40
0.0
  9
$CHAMFERD
 40
0.0
  9
$SKPOLY
 70
     0
  9
$TDCREATE
 40
2458260.577024595
  9
$TDUCREATE
 40
2458260.202024595
  9
$TDUPDATE
 40
2458268.578039734
  9
$TDUUPDATE
 40
2458268.203039734
  9
$TDINDWG
 40
0.0005564005
  9
$TDUSRTIMER
 40
2458268.202483356
  9
$USRTIMER
 70
     1
  9
$ANGBASE
 50
0.0
  9
$ANGDIR
 70
     0
  9
$PDMODE
 70
     0
  9
$PDSIZE
 40
-1.0
  9
$PLINEWID
 40
0.0
  9
$SPLFRAME
 70
     0
  9
$SPLINETYPE
 70
     6
  9
$SPLINESEGS
 70
     8
  9
$HANDSEED
  5
14F
  9
$SURFTAB1
 70
     6
  9
$SURFTAB2
 70
     6
  9
$SURFTYPE
 70
     6
  9
$SURFU
 70
     6
  9
$SURFV
 70
     6
  9
$UCSBASE
  2

  9
$UCSNAME
  2

  9
$UCSORG
 10
0.0
 20
0.0
 30
0.0
  9
$UCSXDIR
 10
1.0
 20
0.0
 30
0.0
  9
$UCSYDIR
 10
0.0
 20
1.0
 30
0.0
  9
$UCSORTHOREF
  2

  9
$UCSORTHOVIEW
 70
     0
  9
$UCSORGTOP
 10
0.0
 20
0.0
 30
0.0
  9
$UCSORGBOTTOM
 10
0.0
 20
0.0
 30
0.0
  9
$UCSORGLEFT
 10
0.0
 20
0.0
 30
0.0
  9
$UCSORGRIGHT
 10
0.0
 20
0.0
 30
0.0
  9
$UCSORGFRONT
 10
0.0
 20
0.0
 30
0.0
  9
$UCSORGBACK
 10
0.0
 20
0.0
 30
0.0
  9
$PUCSBASE
  2

  9
$PUCSNAME
  2

  9
$PUCSORG
 10
0.0
 20
0.0
 30
0.0
  9
$PUCSXDIR
 10
1.0
 20
0.0
 30
0.0
  9
$PUCSYDIR
 10
0.0
 20
1.0
 30
0.0
  9
$PUCSORTHOREF
  2

  9
$PUCSORTHOVIEW
 70
     0
  9
$PUCSORGTOP
 10
0.0
 20
0.0
 30
0.0
  9
$PUCSORGBOTTOM
 10
0.0
 20
0.0
 30
0.0
  9
$PUCSORGLEFT
 10
0.0
 20
0.0
 30
0.0
  9
$PUCSORGRIGHT
 10
0.0
 20
0.0
 30
0.0
  9
$PUCSORGFRONT
 10
0.0
 20
0.0
 30
0.0
  9
$PUCSORGBACK
 10
0.0
 20
0.0
 30
0.0
  9
$USERI1
 70
     0
  9
$USERI2
 70
     0
  9
$USERI3
 70
     0
  9
$USERI4
 70
     0
  9
$USERI5
 70
     0
  9
$USERR1
 40
0.0
  9
$USERR2
 40
0.0
  9
$USERR3
 40
0.0
  9
$USERR4
 40
0.0
  9
$USERR5
 40
0.0
  9
$WORLDVIEW
 70
     1
  9
$SHADEDGE
 70
     3
  9
$SHADEDIF
 70
    70
  9
$TILEMODE
 70
     1
  9
$MAXACTVP
 70
    64
  9
$PINSBASE
 10
0.0
 20
0.0
 30
0.0
  9
$PLIMCHECK
 70
     0
  9
$PEXTMIN
 10
1.000000000000000E+20
 20
1.000000000000000E+20
 30
1.000000000000000E+20
  9
$PEXTMAX
 10
-1.000000000000000E+20
 20
-1.000000000000000E+20
 30
-1.000000000000000E+20
  9
$PLIMMIN
 10
0.0
 20
0.0
  9
$PLIMMAX
 10
0.0
 20
0.0
  9
$UNITMODE
 70
     0
  9
$VISRETAIN
 70
     1
  9
$PLINEGEN
 70
     0
  9
$PSLTSCALE
 70
     1
  9
$TREEDEPTH
 70
  3020
  9
$CMLSTYLE
  2
Standard
  9
$CMLJUST
 70
     0
  9
$CMLSCALE
 40
20.0
  9
$PROXYGRAPHICS
 70
     1
  9
$MEASUREMENT
 70
     1
  9
$CELWEIGHT
370
    -1
  9
$ENDCAPS
280
     0
  9
$JOINSTYLE
280
     0
  9
$LWDISPLAY
290
     1
  9
$INSUNITS
 70
     4
  9
$HYPERLINKBASE
  1

  9
$STYLESHEET
  1

  9
$XEDIT
290
     1
  9
$CEPSNTYPE
380
     0
  9
$PSTYLEMODE
290
     1
  9
$FINGERPRINTGUID
  2
{80EB045E-78B2-4963-B2F3-59760A904E9F}
  9
$VERSIONGUID
  2
{FAEB1C32-E019-11D5-929B-00C0DF256EC4}
  9
$EXTNAMES
290
     1
  9
$PSVPSCALE
 40
0.0
  9
$OLESTARTUP
290
     0
  0
ENDSEC
  0
SECTION
  2
CLASSES
  0
CLASS
  1
ACDBDICTIONARYWDFLT
  2
AcDbDictionaryWithDefault
  3
ObjectDBX Classes
 90
        0
280
     0
281
     0
  0
CLASS
  1
VISUALSTYLE
  2
AcDbVisualStyle
  3
ObjectDBX Classes
 90
     4095
280
     0
281
     0
  0
CLASS
  1
MATERIAL
  2
AcDbMaterial
  3
ObjectDBX Classes
 90
     1153
280
     0
281
     0
  0
CLASS
  1
SCALE
  2
AcDbScale
  3
ObjectDBX Classes
 90
     1153
280
     0
281
     0
  0
CLASS
  1
TABLESTYLE
  2
AcDbTableStyle
  3
ObjectDBX Classes
 90
     4095
280
     0
281
     0
  0
CLASS
  1
MLEADERSTYLE
  2
AcDbMLeaderStyle
  3
ACDB_MLEADERSTYLE_CLASS
 90
     4095
280
     0
281
     0
  0
CLASS
  1
SUN
  2
AcDbSun
  3
SCENEOE
 90
     1153
280
     0
281
     0
  0
CLASS
  1
ACDBPLACEHOLDER
  2
AcDbPlaceHolder
  3
ObjectDBX Classes
 90
        0
280
     0
281
     0
  0
CLASS
  1
LAYOUT
  2
AcDbLayout
  3
ObjectDBX Classes
 90
        0
280
     0
281
     0
  0
CLASS
  1
RASTERVARIABLES
  2
AcDbRasterVariables
  3
ISM
 90
        0
280
     0
281
     0
  0
ENDSEC
  0
SECTION
  2
TABLES
  0
TABLE
  2
VPORT
  5
8
330
0
100
AcDbSymbolTable
 70
     1
  0
VPORT
  5
29
330
8
100
AcDbSymbolTableRecord
100
AcDbViewportTableRecord
  2
*Active
 70
     0
 10
0.0
 20
0.0
 11
1.0
 21
1.0
 12
4.394147281256878
 22
-12.10383739361504
 13
0.0
 23
0.0
 14
10.0
 24
10.0
 15
10.0
 25
10.0
 16
0.0
 26
0.0
 36
1.0
 17
0.0
 27
0.0
 37
0.0
 40
77.25065879020124
 41
1.739018087855297
 42
50.0
 43
0.0
 44
0.0
 50
0.0
 51
0.0
 71
    16
 72
  2000
 73
     1
 74
     3
 75
     0
 76
     0
 77
     0
 78
     0
281
     0
 65
     1
110
0.0
120
0.0
130
0.0
111
1.0
121
0.0
131
0.0
112
0.0
122
1.0
132
0.0
 79
     0
146
0.0
  0
ENDTAB
  0
TABLE
  2
LTYPE
  5
5
330
0
100
AcDbSymbolTable
 70
     6
  0
LTYPE
  5
14
330
5
100
AcDbSymbolTableRecord
100
AcDbLinetypeTableRecord
  2
ByBlock
 70
     0
  3

 72
    65
 73
     0
 40
0.0
  0
LTYPE
  5
15
330
5
100
AcDbSymbolTableRecord
100
AcDbLinetypeTableRecord
  2
ByLayer
 70
     0
  3

 72
    65
 73
     0
 40
0.0
  0
LTYPE
  5
16
330
5
100
AcDbSymbolTableRecord
100
AcDbLinetypeTableRecord
  2
Continuous
 70
     0
  3
Solid line
 72
    65
 73
     0
 40
0.0
  0
LTYPE
  5
6E
330
5
100
AcDbSymbolTableRecord
100
AcDbLinetypeTableRecord
  2
HIDDEN
 70
     0
  3
Hidden __ __ __ __ __ __ __ __ __ __ __ __ __ __
 72
    65
 73
     2
 40
1.905
 49
1.27
 74
     0
 49
-0.635
 74
     0
  0
LTYPE
  5
6F
330
5
100
AcDbSymbolTableRecord
100
AcDbLinetypeTableRecord
  2
PHANTOM
 70
     0
  3
Phantom ______  __  __  ______  __  __  ______
 72
    65
 73
     6
 40
12.7
 49
6.35
 74
     0
 49
-1.27
 74
     0
 49
1.27
 74
     0
 49
-1.27
 74
     0
 49
1.27
 74
     0
 49
-1.27
 74
     0
  0
LTYPE
  5
70
330
5
100
AcDbSymbolTableRecord
100
AcDbLinetypeTableRecord
  2
CENTER
 70
     0
  3
Center ____ _ ____ _ ____ _ ____ _ ____ _ ____
 72
    65
 73
     4
 40
10.16
 49
6.35
 74
     0
 49
-1.27
 74
     0
 49
1.27
 74
     0
 49
-1.27
 74
     0
  0
LTYPE
  5
71
330
5
100
AcDbSymbolTableRecord
100
AcDbLinetypeTableRecord
  2
CENTERX2
 70
     0
  3
Center (2x) ________  __  ________  __  _____
 72
    65
 73
     4
 40
20.32
 49
12.7
 74
     0
 49
-2.54
 74
     0
 49
2.54
 74
     0
 49
-2.54
 74
     0
  0
LTYPE
  5
72
330
5
100
AcDbSymbolTableRecord
100
AcDbLinetypeTableRecord
  2
DOT2
 70
     0
  3
Dot (.5x) ........................................
 72
    65
 73
     2
 40
0.635
 49
0.0
 74
     0
 49
-0.635
 74
     0
  0
ENDTAB
  0
TABLE
  2
LAYER
  5
2
330
0
100
AcDbSymbolTable
 70
    17
  0
LAYER
  5
10
330
2
100
AcDbSymbolTableRecord
100
AcDbLayerTableRecord
  2
0
 70
     0
 62
     7
  6
Continuous
370
    -3
390
F
  0
LAYER
  5
73
330
2
100
AcDbSymbolTableRecord
100
AcDbLayerTableRecord
  2
FORMAT
 70
     0
 62
     2
  6
Continuous
370
    -3
390
F
  0
LAYER
  5
74
330
2
100
AcDbSymbolTableRecord
100
AcDbLayerTableRecord
  2
외형선
 70
     0
 62
   100
  6
Continuous
370
    35
390
F
  0
LAYER
  5
75
330
2
100
AcDbSymbolTableRecord
100
AcDbLayerTableRecord
  2
숨은선
 70
     0
 62
     2
  6
HIDDEN
370
    25
390
F
  0
LAYER
  5
76
330
2
100
AcDbSymbolTableRecord
100
AcDbLayerTableRecord
  2
중심선
 70
     0
 62
     1
  6
CENTERX2
370
    -3
390
F
  0
LAYER
  5
77
330
2
100
AcDbSymbolTableRecord
100
AcDbLayerTableRecord
  2
파단선
 70
     0
 62
     4
  6
Continuous
370
    -3
390
F
  0
LAYER
  5
78
330
2
100
AcDbSymbolTableRecord
100
AcDbLayerTableRecord
  2
해칭선
 70
     0
 62
   100
  6
Continuous
370
    -3
390
F
  0
LAYER
  5
79
330
2
100
AcDbSymbolTableRecord
100
AcDbLayerTableRecord
  2
가는실선
 70
     0
 62
     4
  6
Continuous
370
    -3
390
F
  0
LAYER
  5
7A
330
2
100
AcDbSymbolTableRecord
100
AcDbLayerTableRecord
  2
치수_보조선
 70
     0
 62
     4
  6
Continuous
370
    -3
390
F
  0
LAYER
  5
7B
330
2
100
AcDbSymbolTableRecord
100
AcDbLayerTableRecord
  2
치수문자_일반주서
 70
     0
 62
     7
  6
Continuous
370
    25
390
F
  0
LAYER
  5
7C
330
2
100
AcDbSymbolTableRecord
100
AcDbLayerTableRecord
  2
개별주서
 70
     0
 62
   100
  6
Continuous
370
    35
390
F
  0
LAYER
  5
7D
330
2
100
AcDbSymbolTableRecord
100
AcDbLayerTableRecord
  2
중간선
 70
     0
 62
     2
  6
Continuous
370
    25
390
F
  0
LAYER
  5
7E
330
2
100
AcDbSymbolTableRecord
100
AcDbLayerTableRecord
  2
윤곽선
 70
     0
 62
     3
  6
Continuous
370
    50
390
F
  0
LAYER
  5
7F
330
2
100
AcDbSymbolTableRecord
100
AcDbLayerTableRecord
  2
중심마크
 70
     0
 62
   100
  6
Continuous
370
    35
390
F
  0
LAYER
  5
80
330
2
100
AcDbSymbolTableRecord
100
AcDbLayerTableRecord
  2
가상선
 70
     0
 62
     4
  6
PHANTOM
370
    -3
390
F
  0
LAYER
  5
81
330
2
100
AcDbSymbolTableRecord
100
AcDbLayerTableRecord
  2
특수지정선
 70
     0
 62
     5
  6
CENTERX2
370
    70
390
F
  0
LAYER
  5
140
330
2
100
AcDbSymbolTableRecord
100
AcDbLayerTableRecord
  2
Defpoints
 70
     0
 62
     7
  6
Continuous
290
     0
370
    -3
390
F
  0
ENDTAB
  0
TABLE
  2
STYLE
  5
3
330
0
100
AcDbSymbolTable
 70
     2
  0
STYLE
  5
11
330
3
100
AcDbSymbolTableRecord
100
AcDbTextStyleTableRecord
  2
Standard
 70
     0
 40
0.0
 41
1.0
 50
0.0
 71
     0
 42
3.5
  3
txt
  4

  0
STYLE
  5
97
330
3
100
AcDbSymbolTableRecord
100
AcDbTextStyleTableRecord
  2
SLDTEXTSTYLE0
 70
     0
 40
0.0
 41
0.75
 50
0.0
 71
     0
 42
3.5
  3
TXT
  4

  0
ENDTAB
  0
TABLE
  2
VIEW
  5
6
330
0
100
AcDbSymbolTable
 70
     0
  0
ENDTAB
  0
TABLE
  2
UCS
  5
7
330
0
100
AcDbSymbolTable
 70
     0
  0
ENDTAB
  0
TABLE
  2
APPID
  5
9
330
0
100
AcDbSymbolTable
 70
     1
  0
APPID
  5
12
330
9
100
AcDbSymbolTableRecord
100
AcDbRegAppTableRecord
  2
ACAD
 70
     0
  0
ENDTAB
  0
TABLE
  2
DIMSTYLE
  5
A
330
0
100
AcDbSymbolTable
 70
     4
100
AcDbDimStyleTable
  0
DIMSTYLE
105
27
330
A
100
AcDbSymbolTableRecord
100
AcDbDimStyleTableRecord
  2
ISO-25
 70
     0
 41
2.5
 42
0.625
 43
3.75
 44
1.25
 73
     0
 74
     0
 77
     1
 78
     8
140
2.5
141
2.5
143
0.03937007874016
147
0.625
171
     3
172
     1
178
     0
271
     2
272
     2
274
     3
278
    44
283
     0
284
     8
340
11
  0
DIMSTYLE
105
E5
102
{ACAD_REACTORS
330
E4
102
}
330
A
100
AcDbSymbolTableRecord
100
AcDbDimStyleTableRecord
  2
SLDDIMSTYLE0
 70
     0
 41
3.302
 44
0.0
 45
0.000000001
 73
     0
 74
     0
 77
     1
 78
    12
 79
     3
140
3.5
147
0.875
172
     1
173
     1
178
     0
271
     1
272
     1
276
     2
284
    12
289
     0
340
97
  0
DIMSTYLE
105
F3
102
{ACAD_REACTORS
330
F2
330
10B
102
}
330
A
100
AcDbSymbolTableRecord
100
AcDbDimStyleTableRecord
  2
SLDDIMSTYLE1
 70
     0
 41
3.302
 44
0.0
 45
0.000000001
 73
     0
 74
     0
 77
     1
 78
    12
 79
     3
140
3.5
147
0.875
173
     1
178
     0
271
     2
272
     2
276
     2
284
    12
340
97
  0
DIMSTYLE
105
FE
102
{ACAD_REACTORS
330
FD
102
}
330
A
100
AcDbSymbolTableRecord
100
AcDbDimStyleTableRecord
  2
SLDDIMSTYLE2
 70
     0
 41
3.302
 44
0.0
 45
0.000000001
 73
     0
 74
     0
 77
     1
 78
    12
 79
     3
140
3.5
147
0.875
172
     1
173
     1
178
     0
271
     2
272
     2
276
     2
284
    12
289
     0
340
97
  0
ENDTAB
  0
TABLE
  2
BLOCK_RECORD
  5
1
330
0
100
AcDbSymbolTable
 70
     7
  0
BLOCK_RECORD
  5
1F
330
1
100
AcDbSymbolTableRecord
100
AcDbBlockTableRecord
  2
*Model_Space
340
22
  0
BLOCK_RECORD
  5
1B
330
1
100
AcDbSymbolTableRecord
100
AcDbBlockTableRecord
  2
*Paper_Space
340
1E
  0
BLOCK_RECORD
  5
23
330
1
100
AcDbSymbolTableRecord
100
AcDbBlockTableRecord
  2
*Paper_Space0
340
26
  0
BLOCK_RECORD
  5
82
330
1
100
AcDbSymbolTableRecord
100
AcDbBlockTableRecord
  2
블럭10
340
0
102
{BLKREFS
331
DD
102
}
  0
BLOCK_RECORD
  5
E6
330
1
100
AcDbSymbolTableRecord
100
AcDbBlockTableRecord
  2
_D
340
0
  0
BLOCK_RECORD
  5
F4
330
1
100
AcDbSymbolTableRecord
100
AcDbBlockTableRecord
  2
_D_1
340
0
  0
BLOCK_RECORD
  5
FF
330
1
100
AcDbSymbolTableRecord
100
AcDbBlockTableRecord
  2
_D_2
340
0
  0
BLOCK_RECORD
  5
10C
330
1
100
AcDbSymbolTableRecord
100
AcDbBlockTableRecord
  2
_D_3
340
0
  0
BLOCK_RECORD
  5
115
330
1
100
AcDbSymbolTableRecord
100
AcDbBlockTableRecord
  2
SW_DOWELSYMBOL_0
340
0
102
{BLKREFS
331
11B
102
}
  0
ENDTAB
  0
ENDSEC
  0
SECTION
  2
BLOCKS
  0
BLOCK
  5
20
330
1F
100
AcDbEntity
  8
0
100
AcDbBlockBegin
  2
*Model_Space
 70
     0
 10
0.0
 20
0.0
 30
0.0
  3
*Model_Space
  1

  0
ENDBLK
  5
21
330
1F
100
AcDbEntity
  8
0
100
AcDbBlockEnd
  0
BLOCK
  5
1C
330
1B
100
AcDbEntity
 67
     1
  8
0
100
AcDbBlockBegin
  2
*Paper_Space
 70
     0
 10
0.0
 20
0.0
 30
0.0
  3
*Paper_Space
  1

  0
ENDBLK
  5
1D
330
1B
100
AcDbEntity
 67
     1
  8
0
100
AcDbBlockEnd
  0
BLOCK
  5
24
330
23
100
AcDbEntity
  8
0
100
AcDbBlockBegin
  2
*Paper_Space0
 70
     0
 10
0.0
 20
0.0
 30
0.0
  3
*Paper_Space0
  1

  0
ENDBLK
  5
25
330
23
100
AcDbEntity
  8
0
100
AcDbBlockEnd
  0
BLOCK
  5
83
330
82
100
AcDbEntity
  8
0
100
AcDbBlockBegin
  2
블럭10
 70
     2
 10
0.0
 20
0.0
 30
0.0
  3
블럭10
  1

  0
ELLIPSE
  5
85
330
82
100
AcDbEntity
  8
중심선
100
AcDbEllipse
 10
20.54032771741204
 20
12.0471743016438
 30
0.0
 11
6.600054785286829
 21
-1.261213355974178E-13
 31
0.0
210
0.0
220
0.0
230
1.0
 40
0.636358354079598
 41
0.9219305317359503
 42
6.513795318482858
  0
ELLIPSE
  5
86
330
82
100
AcDbEntity
  8
중심선
100
AcDbEllipse
 10
20.54032771746488
 20
12.04717430159265
 30
0.0
 11
3.960054785062283
 21
1.540847449632565E-10
 31
0.0
210
0.0
220
0.0
230
1.0
 40
0.3939339440162632
 41
1.131841032648279
 42
5.62031148352944
  0
LINE
  5
87
330
82
100
AcDbEntity
  8
중심선
100
AcDbLine
 10
2.268634060543552
 20
16.24717430164393
 30
0.0
 11
5.714909304380834
 21
16.24717430164393
 31
0.0
  0
LINE
  5
88
330
82
100
AcDbEntity
  8
중심선
100
AcDbLine
 10
5.245725140726316
 20
7.84717430164391
 30
0.0
 11
8.692000384563599
 21
7.84717430164391
 31
0.0
  0
LINE
  5
89
330
82
100
AcDbEntity
  8
중심선
100
AcDbLine
 10
15.74043728645272
 20
16.24717430164393
 30
0.0
 11
8.692000384563599
 21
7.84717430164391
 31
0.0
  0
LINE
  5
8A
330
82
100
AcDbEntity
  8
중심선
100
AcDbLine
 10
0.1404042013395286
 20
13.71084872107135
 30
0.0
 11
3.58671253028996
 21
13.71088815037384
 31
0.0
  0
LINE
  5
8B
330
82
100
AcDbEntity
  8
중심선
100
AcDbLine
 10
2.750260043222114
 20
10.84717430164391
 30
0.0
 11
6.196535287059397
 21
10.84717430164391
 31
0.0
  0
LINE
  5
8C
330
82
100
AcDbEntity
  8
중심선
100
AcDbLine
 10
12.29416204261559
 20
16.24717430164393
 30
0.0
 11
5.245725140726316
 21
7.84717430164391
 31
0.0
  0
LINE
  5
8D
330
82
100
AcDbEntity
  8
중심선
100
AcDbLine
 10
10.72767329541681
 20
16.24717430164393
 30
0.0
 11
6.196535287059397
 21
10.84717430164391
 31
0.0
  0
LINE
  5
8E
330
82
100
AcDbEntity
  8
중심선
100
AcDbLine
 10
7.28139805157953
 20
16.24717430164393
 30
0.0
 11
2.750260043222114
 21
10.84717430164391
 31
0.0
  0
LINE
  5
8F
330
82
100
AcDbEntity
  8
중심선
100
AcDbLine
 10
5.714909304380834
 20
16.24717430164393
 30
0.0
 11
3.58671253028996
 21
13.71088815037384
 31
0.0
  0
LINE
  5
90
330
82
100
AcDbEntity
  8
중심선
100
AcDbLine
 10
2.268634060543552
 20
16.24717430164393
 30
0.0
 11
0.1404042013395286
 21
13.71084872107135
 31
0.0
  0
LINE
  5
91
330
82
100
AcDbEntity
  8
중심선
100
AcDbLine
 10
7.28139805157953
 20
16.24717430164393
 30
0.0
 11
10.72767329541681
 21
16.24717430164393
 31
0.0
  0
LINE
  5
92
330
82
100
AcDbEntity
  8
중심선
100
AcDbLine
 10
12.29416204261559
 20
16.24717430164393
 30
0.0
 11
15.74043728645272
 21
16.24717430164393
 31
0.0
  0
LINE
  5
93
330
82
100
AcDbEntity
  8
중심선
100
AcDbLine
 10
19.22036997980202
 20
11.08717430171403
 30
0.0
 11
23.66174974927406
 21
11.08717430171406
 31
0.0
  0
LINE
  5
94
330
82
100
AcDbEntity
  8
중심선
100
AcDbLine
 10
19.22039502424796
 20
13.00717430171391
 30
0.0
 11
19.22036997980202
 21
11.08717430171403
 31
0.0
  0
LINE
  5
95
330
82
100
AcDbEntity
  8
중심선
100
AcDbLine
 10
19.22039502424796
 20
13.00717430171391
 30
0.0
 11
26.96566020931264
 21
13.00717430171391
 31
0.0
  0
LINE
  5
96
330
82
100
AcDbEntity
  8
중심선
100
AcDbLine
 10
22.22332737316547
 20
13.45928029700563
 30
0.0
 11
24.52862924686651
 21
15.39360700705356
 31
0.0
  0
ATTDEF
  5
98
330
82
100
AcDbEntity
  8
FORMAT
 62
     2
100
AcDbText
 10
-16.11926103943555
 20
2.075366912832191
 30
0.0
 40
4.233333333333333
  1
SEME7208045E [ 4 FLUTE ]
 41
0.75
  7
SLDTEXTSTYLE0
 11
-16.11926103943555
 21
-0.0412997538344756
 31
0.0
100
AcDbAttributeDefinition
  3

  2
AUTOATTR0
 70
     0
 74
     1
  0
ENDBLK
  5
84
330
82
100
AcDbEntity
  8
0
100
AcDbBlockEnd
  0
BLOCK
  5
E7
330
E6
100
AcDbEntity
  8
0
100
AcDbBlockBegin
  2
_D
 70
     0
 10
0.0
 20
0.0
 30
0.0
  3
_D
  1

  0
LINE
  5
E9
330
E6
100
AcDbEntity
  8
치수문자_일반주서
 62
     0
370
    -2
100
AcDbLine
 10
55.0625
 20
-4.000000000000009
 30
0.0
 11
69.44915066275293
 21
-3.999999999999954
 31
0.0
  0
LINE
  5
EA
330
E6
100
AcDbEntity
  8
치수문자_일반주서
 62
     0
370
    -2
100
AcDbLine
 10
55.0625
 20
4.000000000000004
 30
0.0
 11
69.4491506627529
 21
4.000000000000055
 31
0.0
  0
LINE
  5
EB
330
E6
100
AcDbEntity
  8
치수문자_일반주서
 62
     0
370
    -2
100
AcDbLine
 10
69.44915066275293
 20
-3.999999999999954
 30
0.0
 11
69.44915066275286
 21
16.72900000000006
 31
0.0
  0
LINE
  5
EC
330
E6
100
AcDbEntity
  8
치수문자_일반주서
 62
     0
370
    -2
100
AcDbLine
 10
69.44915066275293
 20
-3.999999999999954
 30
0.0
 11
69.4491506627529
 21
4.000000000000055
 31
0.0
  0
LINE
  5
ED
330
E6
100
AcDbEntity
  8
치수문자_일반주서
 62
     0
370
    -2
100
AcDbLine
 10
69.44915066275294
 20
-7.301999999999953
 30
0.0
 11
69.44915066275296
 21
-10.60399999999995
 31
0.0
  0
LINE
  5
EE
330
E6
100
AcDbEntity
  8
치수문자_일반주서
 62
     0
370
    -2
100
AcDbLine
 10
69.44915066275288
 20
7.302000000000055
 30
0.0
 11
69.44915066275287
 21
10.60400000000005
 31
0.0
  0
SOLID
  5
EF
330
E6
100
AcDbEntity
  8
치수문자_일반주서
 62
     0
100
AcDbTrace
 10
69.99948399608627
 20
-7.301999999999952
 30
0.0
 11
68.89881732941961
 21
-7.301999999999955
 31
0.0
 12
69.44915066275293
 22
-3.999999999999954
 32
0.0
 13
69.44915066275293
 23
-3.999999999999954
 33
0.0
  0
SOLID
  5
F0
330
E6
100
AcDbEntity
  8
치수문자_일반주서
 62
     0
100
AcDbTrace
 10
68.89881732941956
 20
7.302000000000053
 30
0.0
 11
69.99948399608621
 21
7.302000000000056
 31
0.0
 12
69.4491506627529
 22
4.000000000000055
 32
0.0
 13
69.4491506627529
 23
4.000000000000055
 33
0.0
  0
MTEXT
  5
F1
330
E6
100
AcDbEntity
  8
치수문자_일반주서
 62
     0
100
AcDbMText
 10
65.07415066275287
 20
13.66650000000004
 30
0.0
 40
3.5
 41
0.0
 71
     2
 72
     1
  1
\A1;%%c8
  7
SLDTEXTSTYLE0
 11
-3.552713678800495E-15
 21
1.0
 31
0.0
 73
     1
 44
1.0
  0
POINT
  5
14A
330
E6
100
AcDbEntity
  8
Defpoints
 62
     0
100
AcDbPoint
 10
55.0
 20
-4.000000000000009
 30
0.0
  0
POINT
  5
14B
330
E6
100
AcDbEntity
  8
Defpoints
 62
     0
100
AcDbPoint
 10
55.0
 20
4.000000000000004
 30
0.0
  0
POINT
  5
14C
330
E6
100
AcDbEntity
  8
Defpoints
 62
     0
100
AcDbPoint
 10
69.44915066275287
 20
4.000000000000058
 30
0.0
  0
ENDBLK
  5
E8
330
E6
100
AcDbEntity
  8
0
100
AcDbBlockEnd
  0
BLOCK
  5
F5
330
F4
100
AcDbEntity
  8
0
100
AcDbBlockBegin
  2
_D_1
 70
     0
 10
0.0
 20
0.0
 30
0.0
  3
_D_1
  1

  0
LINE
  5
F7
330
F4
100
AcDbEntity
  8
치수문자_일반주서
 62
     0
370
    -2
100
AcDbLine
 10
-45.0
 20
3.562499999999991
 30
0.0
 11
-45.0
 21
21.38913260158164
 31
0.0
  0
LINE
  5
F8
330
F4
100
AcDbEntity
  8
치수문자_일반주서
 62
     0
370
    -2
100
AcDbLine
 10
55.0
 20
4.062500000000003
 30
0.0
 11
55.0
 21
21.38913260158164
 31
0.0
  0
LINE
  5
F9
330
F4
100
AcDbEntity
  8
치수문자_일반주서
 62
     0
370
    -2
100
AcDbLine
 10
-41.698
 20
21.38913260158164
 30
0.0
 11
51.698
 21
21.38913260158164
 31
0.0
  0
SOLID
  5
FA
330
F4
100
AcDbEntity
  8
치수문자_일반주서
 62
     0
100
AcDbTrace
 10
-41.698
 20
21.93946593491497
 30
0.0
 11
-41.698
 21
20.83879926824831
 31
0.0
 12
-45.0
 22
21.38913260158164
 32
0.0
 13
-45.0
 23
21.38913260158164
 33
0.0
  0
SOLID
  5
FB
330
F4
100
AcDbEntity
  8
치수문자_일반주서
 62
     0
100
AcDbTrace
 10
51.698
 20
20.83879926824831
 30
0.0
 11
51.698
 21
21.93946593491497
 31
0.0
 12
55.0
 22
21.38913260158164
 32
0.0
 13
55.0
 23
21.38913260158164
 33
0.0
  0
MTEXT
  5
FC
330
F4
100
AcDbEntity
  8
치수문자_일반주서
 62
     0
100
AcDbMText
 10
5.000000000000003
 20
25.76413260158164
 30
0.0
 40
3.5
 41
0.0
 71
     2
 72
     1
  1
\A1;100
  7
SLDTEXTSTYLE0
 73
     1
 44
1.0
  0
POINT
  5
141
330
F4
100
AcDbEntity
  8
Defpoints
 62
     0
100
AcDbPoint
 10
-45.0
 20
3.499999999999991
 30
0.0
  0
POINT
  5
142
330
F4
100
AcDbEntity
  8
Defpoints
 62
     0
100
AcDbPoint
 10
55.0
 20
4.000000000000003
 30
0.0
  0
POINT
  5
143
330
F4
100
AcDbEntity
  8
Defpoints
 62
     0
100
AcDbPoint
 10
55.0
 20
21.38913260158164
 30
0.0
  0
ENDBLK
  5
F6
330
F4
100
AcDbEntity
  8
0
100
AcDbBlockEnd
  0
BLOCK
  5
100
330
FF
100
AcDbEntity
  8
0
100
AcDbBlockBegin
  2
_D_2
 70
     0
 10
0.0
 20
0.0
 30
0.0
  3
_D_2
  1

  0
LINE
  5
102
330
FF
100
AcDbEntity
  8
치수문자_일반주서
 62
     0
370
    -2
100
AcDbLine
 10
-44.56249999999999
 20
4.000000000000002
 30
0.0
 11
-56.83618943357249
 21
3.999999999999956
 31
0.0
  0
LINE
  5
103
330
FF
100
AcDbEntity
  8
치수문자_일반주서
 62
     0
370
    -2
100
AcDbLine
 10
-44.56249999999999
 20
-4.000000000000005
 30
0.0
 11
-56.83618943357246
 21
-4.000000000000053
 31
0.0
  0
LINE
  5
104
330
FF
100
AcDbEntity
  8
치수문자_일반주서
 62
     0
370
    -2
100
AcDbLine
 10
-56.83618943357249
 20
3.999999999999956
 30
0.0
 11
-56.83618943357254
 21
16.72899999999996
 31
0.0
  0
LINE
  5
105
330
FF
100
AcDbEntity
  8
치수문자_일반주서
 62
     0
370
    -2
100
AcDbLine
 10
-56.83618943357249
 20
3.999999999999956
 30
0.0
 11
-56.83618943357246
 21
-4.000000000000053
 31
0.0
  0
LINE
  5
106
330
FF
100
AcDbEntity
  8
치수문자_일반주서
 62
     0
370
    -2
100
AcDbLine
 10
-56.83618943357251
 20
7.301999999999955
 30
0.0
 11
-56.83618943357252
 21
10.60399999999995
 31
0.0
  0
LINE
  5
107
330
FF
100
AcDbEntity
  8
치수문자_일반주서
 62
     0
370
    -2
100
AcDbLine
 10
-56.83618943357245
 20
-7.302000000000053
 30
0.0
 11
-56.83618943357244
 21
-10.60400000000005
 31
0.0
  0
SOLID
  5
108
330
FF
100
AcDbEntity
  8
치수문자_일반주서
 62
     0
100
AcDbTrace
 10
-57.38652276690584
 20
7.301999999999953
 30
0.0
 11
-56.28585610023917
 21
7.301999999999957
 31
0.0
 12
-56.83618943357249
 22
3.999999999999956
 32
0.0
 13
-56.83618943357249
 23
3.999999999999956
 33
0.0
  0
SOLID
  5
109
330
FF
100
AcDbEntity
  8
치수문자_일반주서
 62
     0
100
AcDbTrace
 10
-56.28585610023912
 20
-7.302000000000051
 30
0.0
 11
-57.38652276690578
 21
-7.302000000000055
 31
0.0
 12
-56.83618943357246
 22
-4.000000000000053
 32
0.0
 13
-56.83618943357246
 23
-4.000000000000053
 33
0.0
  0
MTEXT
  5
10A
330
FF
100
AcDbEntity
  8
치수문자_일반주서
 62
     0
100
AcDbMText
 10
-61.21118943357253
 20
13.66649999999994
 30
0.0
 40
3.5
 41
0.0
 71
     2
 72
     1
  1
\A1;%%c8
  7
SLDTEXTSTYLE0
 11
-3.552713678800498E-15
 21
1.0
 31
0.0
 73
     1
 44
1.0
  0
POINT
  5
147
330
FF
100
AcDbEntity
  8
Defpoints
 62
     0
100
AcDbPoint
 10
-44.49999999999999
 20
4.000000000000002
 30
0.0
  0
POINT
  5
148
330
FF
100
AcDbEntity
  8
Defpoints
 62
     0
100
AcDbPoint
 10
-44.49999999999999
 20
-4.000000000000005
 30
0.0
  0
POINT
  5
149
330
FF
100
AcDbEntity
  8
Defpoints
 62
     0
100
AcDbPoint
 10
-56.8361894335725
 20
-4.000000000000052
 30
0.0
  0
ENDBLK
  5
101
330
FF
100
AcDbEntity
  8
0
100
AcDbBlockEnd
  0
BLOCK
  5
10D
330
10C
100
AcDbEntity
  8
0
100
AcDbBlockBegin
  2
_D_3
 70
     0
 10
0.0
 20
0.0
 30
0.0
  3
_D_3
  1

  0
LINE
  5
10F
330
10C
100
AcDbEntity
  8
치수문자_일반주서
 62
     0
370
    -2
100
AcDbLine
 10
10.0
 20
4.062239217284727
 30
0.0
 11
10.0
 21
14.8456575198724
 31
0.0
  0
LINE
  5
110
330
10C
100
AcDbEntity
  8
치수문자_일반주서
 62
     0
370
    -2
100
AcDbLine
 10
55.0
 20
4.062500000000003
 30
0.0
 11
55.0
 21
14.8456575198724
 31
0.0
  0
LINE
  5
111
330
10C
100
AcDbEntity
  8
치수문자_일반주서
 62
     0
370
    -2
100
AcDbLine
 10
13.302
 20
14.8456575198724
 30
0.0
 11
51.698
 21
14.8456575198724
 31
0.0
  0
SOLID
  5
112
330
10C
100
AcDbEntity
  8
치수문자_일반주서
 62
     0
100
AcDbTrace
 10
13.302
 20
15.39599085320573
 30
0.0
 11
13.302
 21
14.29532418653906
 31
0.0
 12
10.0
 22
14.8456575198724
 32
0.0
 13
10.0
 23
14.8456575198724
 33
0.0
  0
SOLID
  5
113
330
10C
100
AcDbEntity
  8
치수문자_일반주서
 62
     0
100
AcDbTrace
 10
51.698
 20
14.29532418653906
 30
0.0
 11
51.698
 21
15.39599085320573
 31
0.0
 12
55.0
 22
14.8456575198724
 32
0.0
 13
55.0
 23
14.8456575198724
 33
0.0
  0
MTEXT
  5
114
330
10C
100
AcDbEntity
  8
치수문자_일반주서
 62
     0
100
AcDbMText
 10
32.49999999999999
 20
19.2206575198724
 30
0.0
 40
3.5
 41
0.0
 71
     2
 72
     1
  1
\A1;45
  7
SLDTEXTSTYLE0
 73
     1
 44
1.0
  0
POINT
  5
144
330
10C
100
AcDbEntity
  8
Defpoints
 62
     0
100
AcDbPoint
 10
10.0
 20
3.999739217284727
 30
0.0
  0
POINT
  5
145
330
10C
100
AcDbEntity
  8
Defpoints
 62
     0
100
AcDbPoint
 10
55.0
 20
4.000000000000003
 30
0.0
  0
POINT
  5
146
330
10C
100
AcDbEntity
  8
Defpoints
 62
     0
100
AcDbPoint
 10
55.0
 20
14.8456575198724
 30
0.0
  0
ENDBLK
  5
10E
330
10C
100
AcDbEntity
  8
0
100
AcDbBlockEnd
  0
BLOCK
  5
116
330
115
100
AcDbEntity
  8
0
100
AcDbBlockBegin
  2
SW_DOWELSYMBOL_0
 70
     0
 10
0.0
 20
0.0
 30
0.0
  3
SW_DOWELSYMBOL_0
  1

  0
CIRCLE
  5
118
330
115
100
AcDbEntity
  8
해칭선
 62
     0
100
AcDbCircle
 10
0.0
 20
0.0
 30
0.0
 40
3.0
  0
HATCH
  5
119
330
115
100
AcDbEntity
  8
0
  6
Continuous
 62
     0
370
    18
100
AcDbHatch
 10
0.0
 20
0.0
 30
0.0
210
0.0
220
0.0
230
1.0
  2
SOLID
 70
     1
 71
     0
 91
        1
 92
        0
 93
        3
 72
     2
 10
-0.000005611898576
 20
-0.0000000000000043
 40
3.0
 50
0.0
 51
90.0
 73
     1
 72
     1
 10
-0.000005611898576
 20
2.999999999999995
 11
-0.000005611898576
 21
-0.0000000000000044
 72
     1
 10
-0.000005611898576
 20
-0.0000000000000043
 11
2.999994388101423
 21
-0.0000000000000043
 97
        0
 75
     0
 76
     1
 98
        1
 10
0.0
 20
0.0
  0
HATCH
  5
11A
330
115
100
AcDbEntity
  8
0
  6
Continuous
 62
     0
370
    18
100
AcDbHatch
 10
0.0
 20
0.0
 30
0.0
210
0.0
220
0.0
230
1.0
  2
SOLID
 70
     1
 71
     0
 91
        1
 92
        0
 93
        3
 72
     2
 10
-0.000005611898576
 20
-0.0000000000000043
 40
3.0
 50
180.0
 51
270.0000000000008
 73
     1
 72
     1
 10
-0.000005611898576
 20
-3.000000000000004
 11
-0.000005611898576
 21
-0.0000000000000044
 72
     1
 10
-0.000005611898576
 20
-0.0000000000000043
 11
-3.000005611898576
 21
-0.0000000000000043
 97
        0
 75
     0
 76
     1
 98
        1
 10
0.0
 20
0.0
  0
ENDBLK
  5
117
330
115
100
AcDbEntity
  8
0
100
AcDbBlockEnd
  0
ENDSEC
  0
SECTION
  2
ENTITIES
  0
LINE
  5
99
330
1F
100
AcDbEntity
  8
0
  6
Continuous
 62
     4
370
    25
100
AcDbLine
 10
8.749327844109398
 20
3.999999999999998
 30
0.0
 11
-44.5
 21
3.999999999999995
 31
0.0
  0
LINE
  5
9A
330
1F
100
AcDbEntity
  8
0
  6
Continuous
 62
     4
370
    25
100
AcDbLine
 10
10.0
 20
3.999999999999998
 30
0.0
 11
9.92116753369832
 21
3.999999999999998
 31
0.0
  0
LINE
  5
9B
330
1F
100
AcDbEntity
  8
0
  6
Continuous
 62
     4
370
    25
100
AcDbLine
 10
9.921167533698355
 20
-4.000000000000002
 30
0.0
 11
10.0
 21
-4.000000000000002
 31
0.0
  0
LINE
  5
9C
330
1F
100
AcDbEntity
  8
0
  6
Continuous
 62
     4
370
    25
100
AcDbLine
 10
-44.5
 20
-4.000000000000005
 30
0.0
 11
8.749327844109391
 21
-4.000000000000002
 31
0.0
  0
LINE
  5
9D
330
1F
100
AcDbEntity
  8
0
  6
Continuous
 62
     4
370
    25
100
AcDbLine
 10
-44.5
 20
3.999999999999992
 30
0.0
 11
-45.0
 21
3.499999999999991
 31
0.0
  0
LINE
  5
9E
330
1F
100
AcDbEntity
  8
0
  6
Continuous
 62
     4
370
    25
100
AcDbLine
 10
-45.0
 20
-3.500000000000002
 30
0.0
 11
-44.5
 21
-4.000000000000003
 31
0.0
  0
LINE
  5
9F
330
1F
100
AcDbEntity
  8
0
  6
Continuous
 62
     1
370
    25
100
AcDbLine
 10
53.45241439695731
 20
-4.000000000000006
 30
0.0
 11
55.0
 21
-4.000000000000006
 31
0.0
  0
LINE
  5
A0
330
1F
100
AcDbEntity
  8
0
  6
Continuous
 62
     1
370
    25
100
AcDbLine
 10
10.0
 20
-4.000000000000006
 30
0.0
 11
13.01653061169808
 21
-4.000000000000006
 31
0.0
  0
LINE
  5
A1
330
1F
100
AcDbEntity
  8
0
  6
Continuous
 62
     1
370
    25
100
AcDbLine
 10
34.78183636196175
 20
4.000000000000003
 30
0.0
 11
31.68677643838445
 21
4.000000000000003
 31
0.0
  0
SPLINE
  5
A2
330
1F
100
AcDbEntity
  8
0
  6
Continuous
 62
     1
370
    25
100
AcDbSpline
210
0.0
220
0.0
230
1.0
 70
     8
 71
     3
 72
    13
 73
     9
 74
     0
 42
0.000000001
 43
0.00000001
 40
0.0
 40
0.0
 40
0.0
 40
0.0
 40
0.272223431492335
 40
0.551805694218597
 40
0.6778513458448794
 40
0.7645825796176636
 40
0.8670132900933524
 40
1.0
 40
1.0
 40
1.0
 40
1.0
 10
11.56104323901236
 20
-0.936765144849257
 30
0.0
 10
11.47930148547971
 20
-0.8950476139703096
 30
0.0
 10
11.31360830907877
 20
-0.8104848305186891
 30
0.0
 10
11.12265202099938
 20
-0.7070080063731691
 30
0.0
 10
10.98994346839062
 20
-0.6257012496464656
 30
0.0
 10
11.00912514752591
 20
-0.6272627597044047
 30
0.0
 10
10.95051754336841
 20
-0.5922181523583735
 30
0.0
 10
10.89749928365947
 20
-0.5615174574158611
 30
0.0
 10
10.86754940181888
 20
-0.5441747118976169
 30
0.0
  0
LINE
  5
A3
330
1F
100
AcDbEntity
  8
0
  6
Continuous
 62
     1
370
    25
100
AcDbLine
 10
54.69022156790989
 20
-0.7120684269563284
 30
0.0
 11
54.39873414344009
 21
-0.544174711897612
 31
0.0
  0
LINE
  5
A4
330
1F
100
AcDbEntity
  8
0
  6
Continuous
 62
     1
370
    25
100
AcDbLine
 10
44.50714686048146
 20
0.6600246777080654
 30
0.0
 11
44.67223557410966
 21
0.5713428220925866
 31
0.0
  0
LINE
  5
A5
330
1F
100
AcDbEntity
  8
0
  6
Continuous
 62
     1
370
    25
100
AcDbLine
 10
22.71938582145718
 20
0.6722120610168549
 30
0.0
 11
22.90664320329898
 21
0.5713428220925942
 31
0.0
  0
LINE
  5
A6
330
1F
100
AcDbEntity
  8
0
  6
Continuous
 62
     1
370
    25
100
AcDbLine
 10
32.73629922324213
 20
-0.6010127412304505
 30
0.0
 11
32.68123533725216
 21
-0.5716225103320796
 31
0.0
  0
LINE
  5
A7
330
1F
100
AcDbEntity
  8
0
  6
Continuous
 62
     1
370
    25
100
AcDbLine
 10
42.5695919082746
 20
-4.000000000000006
 30
0.0
 11
45.66369102918627
 21
-4.000000000000006
 31
0.0
  0
LINE
  5
A8
330
1F
100
AcDbEntity
  8
0
  6
Continuous
 62
     1
370
    25
100
AcDbLine
 10
23.8974255089879
 20
4.000000000000003
 30
0.0
 11
20.80324058369901
 21
4.000000000000003
 31
0.0
  0
LINE
  5
A9
330
1F
100
AcDbEntity
  8
0
  6
Continuous
 62
     1
370
    25
100
AcDbLine
 10
20.80324058369905
 20
-4.000000000000006
 30
0.0
 11
23.89742550898787
 21
-4.000000000000006
 31
0.0
  0
LINE
  5
AA
330
1F
100
AcDbEntity
  8
0
  6
Continuous
 62
     1
370
    25
100
AcDbLine
 10
45.66369102918628
 20
4.000000000000003
 30
0.0
 11
42.56959190827465
 21
4.000000000000003
 31
0.0
  0
LINE
  5
AB
330
1F
100
AcDbEntity
  8
0
  6
Continuous
 62
     1
370
    25
100
AcDbLine
 10
31.68677643838442
 20
-4.000000000000006
 30
0.0
 11
34.78183636196171
 21
-4.000000000000006
 31
0.0
  0
LINE
  5
AC
330
1F
100
AcDbEntity
  8
0
  6
Continuous
 62
     1
370
    25
100
AcDbLine
 10
13.01653061169803
 20
4.000000000000003
 30
0.0
 11
10.0
 21
4.000000000000003
 31
0.0
  0
LINE
  5
AD
330
1F
100
AcDbEntity
  8
0
  6
Continuous
 62
     1
370
    25
100
AcDbLine
 10
55.0
 20
4.000000000000003
 30
0.0
 11
53.45241439695728
 21
4.000000000000003
 31
0.0
  0
SPLINE
  5
AE
330
1F
100
AcDbEntity
  8
0
  6
Continuous
 62
     4
370
    25
100
AcDbSpline
210
0.0
220
0.0
230
1.0
 70
     8
 71
     3
 72
    10
 73
     6
 74
     0
 42
0.000000001
 43
0.00000001
 40
0.0
 40
0.0
 40
0.0
 40
0.0
 40
0.5
 40
0.5
 40
1.0
 40
1.0
 40
1.0
 40
1.0
 10
8.903628791395905
 20
-3.31581385504612
 30
0.0
 10
8.777197864361945
 20
-3.275084560913407
 30
0.0
 10
8.673583701576092
 20
-3.21356027389118
 30
0.0
 10
8.534622646197075
 20
-3.056942620568151
 30
0.0
 10
8.499820704918001
 20
-2.961721097007294
 30
0.0
 10
8.499820704918001
 20
-2.859818752328454
 30
0.0
  0
SPLINE
  5
AF
330
1F
100
AcDbEntity
  8
0
  6
Continuous
 62
     4
370
    25
100
AcDbSpline
210
0.0
220
0.0
230
1.0
 70
     8
 71
     3
 72
    16
 73
    12
 74
     0
 42
0.000000001
 43
0.00000001
 40
0.0
 40
0.0
 40
0.0
 40
0.0
 40
0.125
 40
0.125
 40
0.2500000000000001
 40
0.2500000000000001
 40
0.5000000000000001
 40
0.5000000000000001
 40
0.7500000000000002
 40
0.7500000000000002
 40
1.0
 40
1.0
 40
1.0
 40
1.0
 10
8.499820704918001
 20
-0.5900236548310646
 30
0.0
 10
8.499820704918001
 20
-0.5194230429811708
 30
0.0
 10
8.507778128475666
 20
-0.4498639213183653
 30
0.0
 10
8.540810572776534
 20
-0.3130665872478095
 30
0.0
 10
8.566241475371235
 20
-0.2458046816733204
 30
0.0
 10
8.665839510262508
 20
-0.059982592230468
 30
0.0
 10
8.765574565533612
 20
0.0468275058730252
 30
0.0
 10
9.009691943762736
 20
0.1950927776965224
 30
0.0
 10
9.150088970928175
 20
0.2345733960796658
 30
0.0
 10
9.432166728420302
 20
0.2376524912630003
 30
0.0
 10
9.573997096127048
 20
0.2010624990111097
 30
0.0
 10
9.697713462454649
 20
0.1294377368399188
 30
0.0
  0
SPLINE
  5
B0
330
1F
100
AcDbEntity
  8
0
  6
Continuous
 62
     4
370
    25
100
AcDbSpline
210
0.0
220
0.0
230
1.0
 70
    24
 71
     3
 72
    20
 73
    16
 74
     0
 42
0.000000001
 43
0.00000001
 40
0.0
 40
0.0
 40
0.0
 40
0.0
 40
0.125
 40
0.125
 40
0.2500000000000001
 40
0.2500000000000001
 40
0.5000000000000001
 40
0.5000000000000001
 40
0.6250000000000002
 40
0.6250000000000002
 40
0.7500000000000002
 40
0.7500000000000002
 40
0.8750000000000001
 40
0.8750000000000001
 40
1.0
 40
1.0
 40
1.0
 40
1.0
 10
10.0
 20
-0.0456748712012445
 30
0.0
 10
10.0
 20
-0.0641864389196514
 30
0.0
 10
10.0
 20
-0.0898791634688719
 30
0.0
 10
10.0
 20
-0.1656491836054139
 30
0.0
 10
10.0
 20
-0.2160504709631697
 30
0.0
 10
10.0
 20
-0.4178518672586085
 30
0.0
 10
10.0
 20
-0.6215460547587345
 30
0.0
 10
10.0
 20
-1.074644474906344
 30
0.0
 10
10.0
 20
-1.250017131049512
 30
0.0
 10
10.0
 20
-1.647306970890897
 30
0.0
 10
10.0
 20
-1.86931701911672
 30
0.0
 10
10.0
 20
-2.346064458383822
 30
0.0
 10
10.0
 20
-2.600678423659224
 30
0.0
 10
10.0
 20
-3.116757949387025
 30
0.0
 10
10.0
 20
-3.377878998346191
 30
0.0
 10
10.0
 20
-3.627079297248774
 30
0.0
  0
SPLINE
  5
B1
330
1F
100
AcDbEntity
  8
0
  6
Continuous
 62
     4
370
    25
100
AcDbSpline
210
0.0
220
0.0
230
1.0
 70
     8
 71
     3
 72
     8
 73
     4
 74
     0
 42
0.000000001
 43
0.00000001
 40
0.0
 40
0.0
 40
0.0
 40
0.0
 40
1.0
 40
1.0
 40
1.0
 40
1.0
 10
10.0
 20
-3.627079297248774
 30
0.0
 10
9.635216883082443
 20
-3.538128877334709
 30
0.0
 10
9.27067436032971
 20
-3.434056339602121
 30
0.0
 10
8.903628791395905
 20
-3.31581385504612
 30
0.0
  0
SPLINE
  5
B2
330
1F
100
AcDbEntity
  8
0
  6
Continuous
 62
     4
370
    25
100
AcDbSpline
210
0.0
220
0.0
230
1.0
 70
     8
 71
     3
 72
     8
 73
     4
 74
     0
 42
0.000000001
 43
0.00000001
 40
0.0
 40
0.0
 40
0.0
 40
0.0
 40
1.0
 40
1.0
 40
1.0
 40
1.0
 10
10.0
 20
-0.0456748712036512
 30
0.0
 10
9.898969264726652
 20
0.012751792106179
 30
0.0
 10
9.798508203054977
 20
0.0710832964541743
 30
0.0
 10
9.69771346244925
 20
0.1294377368430418
 30
0.0
  0
LINE
  5
B3
330
1F
100
AcDbEntity
  8
0
  6
Continuous
 62
     4
370
    25
100
AcDbLine
 10
10.00000000000001
 20
3.999999999999998
 30
0.0
 11
10.0
 21
3.999739217284713
 31
0.0
  0
SPLINE
  5
B4
330
1F
100
AcDbEntity
  8
0
  6
Continuous
 62
     4
370
    25
100
AcDbSpline
210
0.0
220
0.0
230
1.0
 70
     8
 71
     3
 72
     8
 73
     4
 74
     0
 42
0.000000001
 43
0.00000001
 40
0.0
 40
0.0
 40
0.0
 40
0.0
 40
1.0
 40
1.0
 40
1.0
 40
1.0
 10
10.0
 20
3.999739217266598
 30
0.0
 10
9.898969264726652
 20
4.000406418345611
 30
0.0
 10
9.798508203054977
 20
3.999794491615257
 30
0.0
 10
9.69771346244925
 20
3.997905185504131
 30
0.0
  0
SPLINE
  5
B5
330
1F
100
AcDbEntity
  8
0
  6
Continuous
 62
     4
370
    25
100
AcDbSpline
210
0.0
220
0.0
230
1.0
 70
     8
 71
     3
 72
    16
 73
    12
 74
     0
 42
0.000000001
 43
0.00000001
 40
0.0
 40
0.0
 40
0.0
 40
0.0
 40
0.1250000000000001
 40
0.1250000000000001
 40
0.2500000000000001
 40
0.2500000000000001
 40
0.5000000000000001
 40
0.5000000000000001
 40
0.7500000000000001
 40
0.7500000000000001
 40
1.0
 40
1.0
 40
1.0
 40
1.0
 10
8.499820704918001
 20
3.956244695003052
 30
0.0
 10
8.499820704918001
 20
3.96677387968407
 30
0.0
 10
8.507778128475666
 20
3.975216191487875
 30
0.0
 10
8.540810572776534
 20
3.988321780990136
 30
0.0
 10
8.566241475371243
 20
3.992921841442079
 30
0.0
 10
8.665839510262519
 20
4.001472376790854
 30
0.0
 10
8.765574565533612
 20
4.000413461449876
 30
0.0
 10
9.009691943762732
 20
3.995927862955777
 30
0.0
 10
9.150088970928175
 20
3.993116289359212
 30
0.0
 10
9.432166728420302
 20
3.99293421832751
 30
0.0
 10
9.573997096127048
 20
3.995586234281801
 30
0.0
 10
9.697713462454649
 20
3.997905185504246
 30
0.0
  0
LINE
  5
B6
330
1F
100
AcDbEntity
  8
0
  6
Continuous
 62
     4
370
    25
100
AcDbLine
 10
8.499820704918001
 20
3.956244695003052
 30
0.0
 11
8.499820704918001
 21
2.796683161144749
 31
0.0
  0
SPLINE
  5
B7
330
1F
100
AcDbEntity
  8
0
  6
Continuous
 62
     4
370
    25
100
AcDbSpline
210
0.0
220
0.0
230
1.0
 70
     8
 71
     3
 72
    10
 73
     6
 74
     0
 42
0.000000001
 43
0.00000001
 40
0.0
 40
0.0
 40
0.0
 40
0.0
 40
0.5
 40
0.5
 40
1.0
 40
1.0
 40
1.0
 40
1.0
 10
8.903628791395905
 20
2.237270318643737
 30
0.0
 10
8.777197864361945
 20
2.297634395646901
 30
0.0
 10
8.673583701576092
 20
2.385148217558178
 30
0.0
 10
8.534622646197075
 20
2.582828578943331
 30
0.0
 10
8.499820704918001
 20
2.692480353952425
 30
0.0
 10
8.499820704918001
 20
2.796683161144749
 30
0.0
  0
SPLINE
  5
B8
330
1F
100
AcDbEntity
  8
0
  6
Continuous
 62
     4
370
    25
100
AcDbSpline
210
0.0
220
0.0
230
1.0
 70
     8
 71
     3
 72
     8
 73
     4
 74
     0
 42
0.000000001
 43
0.00000001
 40
0.0
 40
0.0
 40
0.0
 40
0.0
 40
1.0
 40
1.0
 40
1.0
 40
1.0
 10
10.0
 20
1.686504008732087
 30
0.0
 10
9.635216883082443
 20
1.877805200357742
 30
0.0
 10
9.270674360329707
 20
2.062025483328735
 30
0.0
 10
8.903628791395905
 20
2.237270318643737
 30
0.0
  0
LINE
  5
B9
330
1F
100
AcDbEntity
  8
0
  6
Continuous
 62
     4
370
    25
100
AcDbLine
 10
10.0
 20
1.686504008732087
 30
0.0
 11
10.0
 21
-0.0456748712012474
 31
0.0
  0
LINE
  5
BA
330
1F
100
AcDbEntity
  8
0
  6
Continuous
 62
     4
370
    25
100
AcDbLine
 10
8.499820704918001
 20
-0.5900236548310646
 30
0.0
 11
8.499820704918001
 21
-2.859818752328454
 31
0.0
  0
LINE
  5
BB
330
1F
100
AcDbEntity
  8
0
  6
Continuous
 62
     4
370
    25
100
AcDbLine
 10
10.0
 20
-3.627079297248774
 30
0.0
 11
10.00000000000001
 21
-4.000000000000002
 31
0.0
  0
LINE
  5
BC
330
1F
100
AcDbEntity
  8
0
  6
Continuous
 62
     4
370
    25
100
AcDbLine
 10
9.69771346244925
 20
-3.997905185504135
 30
0.0
 11
9.921167533698348
 21
-3.999260925218659
 31
0.0
  0
SPLINE
  5
BD
330
1F
100
AcDbEntity
  8
0
  6
Continuous
 62
     4
370
    25
100
AcDbSpline
210
0.0
220
0.0
230
1.0
 70
     8
 71
     3
 72
    12
 73
     8
 74
     0
 42
0.000000001
 43
0.00000001
 40
0.0
 40
0.0
 40
0.0
 40
0.0
 40
0.1736087793183921
 40
0.431056476686913
 40
0.6894041442107454
 40
0.9484802853681956
 40
1.0
 40
1.0
 40
1.0
 40
1.0
 10
8.749327844109395
 20
-3.99911018042281
 30
0.0
 10
8.791958043084627
 20
-3.998996423724088
 30
0.0
 10
8.897805359348647
 20
-3.998713975094804
 30
0.0
 10
9.127943143056248
 20
-3.993129535549862
 30
0.0
 10
9.396420642849842
 20
-3.992495909788588
 30
0.0
 10
9.588839740557344
 20
-3.995824614966542
 30
0.0
 10
9.682223537295657
 20
-3.997609173929035
 30
0.0
 10
9.69771346244925
 20
-3.997905185504135
 30
0.0
  0
LINE
  5
BE
330
1F
100
AcDbEntity
  8
0
  6
Continuous
 62
     4
370
    25
100
AcDbLine
 10
-44.5
 20
3.999999999999992
 30
0.0
 11
-44.5
 21
-4.000000000000003
 31
0.0
  0
LINE
  5
BF
330
1F
100
AcDbEntity
  8
0
  6
Continuous
 62
     4
370
    25
100
AcDbLine
 10
-45.0
 20
3.499999999999991
 30
0.0
 11
-45.0
 21
-3.500000000000004
 31
0.0
  0
SPLINE
  5
C0
330
1F
100
AcDbEntity
  8
0
  6
Continuous
 62
     4
370
    25
100
AcDbSpline
210
0.0
220
0.0
230
1.0
 70
    24
 71
     3
 72
    13
 73
     9
 74
     0
 42
0.000000001
 43
0.00000001
 40
0.0
 40
0.0
 40
0.0
 40
0.0
 40
0.2684192790272358
 40
0.4154186514750662
 40
0.5624180239228966
 40
0.7094173963707274
 40
0.8564167688185583
 40
0.9999999999999999
 40
0.9999999999999999
 40
0.9999999999999999
 40
0.9999999999999999
 10
10.0
 20
3.999739217284713
 30
0.0
 10
10.0
 20
3.716967755332731
 30
0.0
 10
10.0
 20
3.279336971786045
 30
0.0
 10
10.0
 20
2.758224633101937
 30
0.0
 10
9.999999999999996
 20
2.392705446812405
 30
0.0
 10
9.999999999999996
 20
2.086273258766153
 30
0.0
 10
10.0
 20
1.839442646007476
 30
0.0
 10
10.0
 20
1.737082432807941
 30
0.0
 10
9.999999999999996
 20
1.686504008731456
 30
0.0
  0
SPLINE
  5
C1
330
1F
100
AcDbEntity
  8
0
  6
Continuous
 62
     1
370
    25
100
AcDbSpline
210
0.0
220
0.0
230
1.0
 70
     8
 71
     3
 72
    23
 73
    19
 74
     0
 42
0.000000001
 43
0.00000001
 40
0.0
 40
0.0
 40
0.0
 40
0.0
 40
0.0248112795619091
 40
0.0895291087412371
 40
0.1542470566556434
 40
0.2189651258197957
 40
0.2836833187461346
 40
0.348401637944825
 40
0.4131200859237141
 40
0.4778386651882827
 40
0.5425573782416039
 40
0.607276227584295
 40
0.6732340937061271
 40
0.7391922067784518
 40
0.8051505606397665
 40
0.8711091491204919
 40
0.9370679660431798
 40
1.0
 40
1.0
 40
1.0
 40
1.0
 10
27.79143812690435
 20
3.361661554476504
 30
0.0
 10
28.00366397934642
 20
3.432765955306494
 30
0.0
 10
28.76946049433784
 20
3.689339326220499
 30
0.0
 10
30.08882930423658
 20
3.923918389002637
 30
0.0
 10
31.74954560425081
 20
4.040375088267247
 30
0.0
 10
33.41026567248846
 20
3.913587851546887
 30
0.0
 10
35.07098954841722
 20
3.566286019420355
 30
0.0
 10
36.7317172842407
 20
3.014180894242948
 30
0.0
 10
38.39244909500792
 20
2.289952513494548
 30
0.0
 10
40.05318453120195
 20
1.434720409823612
 30
0.0
 10
41.71392563827639
 20
0.4974495958877179
 30
0.0
 10
43.385262025665
 20
-0.4743793440711142
 30
0.0
 10
45.06722259632302
 20
-1.425202008842836
 30
0.0
 10
46.75978095399397
 20
-2.296974262159167
 30
0.0
 10
48.45234826180715
 20
-3.033708933814224
 30
0.0
 10
50.14492250042447
 20
-3.585157236721588
 30
0.0
 10
51.81161122600287
 20
-3.937292818058062
 30
0.0
 10
52.91411011194425
 20
-3.975881197591915
 30
0.0
 10
53.45241439695731
 20
-3.994722296045313
 30
0.0
  0
SPLINE
  5
C2
330
1F
100
AcDbEntity
  8
0
  6
Continuous
 62
     1
370
    25
100
AcDbSpline
210
0.0
220
0.0
230
1.0
 70
     8
 71
     3
 72
    20
 73
    16
 74
     0
 42
0.000000001
 43
0.00000001
 40
0.0
 40
0.0
 40
0.0
 40
0.0
 40
0.0821425448164154
 40
0.164284894529694
 40
0.246427052290223
 40
0.3285690212519027
 40
0.4107108045720904
 40
0.49285240541154
 40
0.5749938269343511
 40
0.6571350723079075
 40
0.7392761447028229
 40
0.8214170472928852
 40
0.9035577832549965
 40
0.9856983557691174
 40
1.0
 40
1.0
 40
1.0
 40
1.0
 10
55.00000000000001
 20
-3.900662793421044
 30
0.0
 10
54.44640808720868
 20
-3.808209723792769
 30
0.0
 10
53.33922557650516
 20
-3.623303804128684
 30
0.0
 10
51.67845476234636
 20
-3.078987493123809
 30
0.0
 10
50.0176885457435
 20
-2.374621561999682
 30
0.0
 10
48.35692692303581
 20
-1.530176084633186
 30
0.0
 10
46.69616979825445
 20
-0.5993894780258953
 30
0.0
 10
45.03541709993392
 20
0.3660076022048184
 30
0.0
 10
43.37466875038767
 20
1.310285045697853
 30
0.0
 10
41.7139246718035
 20
2.180058279154561
 30
0.0
 10
40.05318479259419
 20
2.923673338766219
 30
0.0
 10
38.39244901590899
 20
3.505672506235342
 30
0.0
 10
36.73171733924474
 20
3.866441523626628
 30
0.0
 10
35.52818018017788
 20
4.023836891309911
 30
0.0
 10
34.87822042937628
 20
3.988727202468392
 30
0.0
 10
34.78183636196175
 20
3.98352070373977
 30
0.0
  0
SPLINE
  5
C3
330
1F
100
AcDbEntity
  8
0
  6
Continuous
 62
     1
370
    25
100
AcDbSpline
210
0.0
220
0.0
230
1.0
 70
     8
 71
     3
 72
    12
 73
     8
 74
     0
 42
0.000000001
 43
0.00000001
 40
0.0
 40
0.0
 40
0.0
 40
0.0
 40
0.0349514452454808
 40
0.2856704096007275
 40
0.5363805800356609
 40
0.7872390629878977
 40
1.0
 40
1.0
 40
1.0
 40
1.0
 10
16.90382125145719
 20
-3.374231190388306
 30
0.0
 10
16.82338662297341
 20
-3.402842325713318
 30
0.0
 10
16.16596621864785
 20
-3.636691160576442
 30
0.0
 10
14.9315896403943
 20
-3.876690239193246
 30
0.0
 10
13.20035916807135
 20
-4.041228989036399
 30
0.0
 10
11.55647289949708
 20
-3.954522771472549
 30
0.0
 10
10.48960119718923
 20
-3.730079302607888
 30
0.0
 10
10.0
 20
-3.627079297246669
 30
0.0
  0
LINE
  5
C4
330
1F
100
AcDbEntity
  8
0
  6
Continuous
 62
     1
370
    25
100
AcDbLine
 10
55.0
 20
-4.000000000000011
 30
0.0
 11
55.0
 21
-3.900662793421052
 31
0.0
  0
SPLINE
  5
C5
330
1F
100
AcDbEntity
  8
0
  6
Continuous
 62
     1
370
    25
100
AcDbSpline
210
0.0
220
0.0
230
1.0
 70
     8
 71
     3
 72
    23
 73
    19
 74
     0
 42
0.000000001
 43
0.00000001
 40
0.0
 40
0.0
 40
0.0
 40
0.0
 40
0.0469749239575952
 40
0.1116834700317109
 40
0.1763918723536123
 40
0.241100133415871
 40
0.3058082557136457
 40
0.37051624174464
 40
0.4352240940090575
 40
0.4999318150095554
 40
0.5646394072512001
 40
0.6293468732414224
 40
0.6940542154899721
 40
0.7587614365088724
 40
0.8234685388123743
 40
0.888175524916913
 40
0.9528823973410597
 40
1.0
 40
1.0
 40
1.0
 40
1.0
 10
49.56254667009877
 20
-3.363599858996295
 30
0.0
 10
49.16067301271302
 20
-3.485343337609228
 30
0.0
 10
48.20521335913928
 20
-3.774789982749041
 30
0.0
 10
46.69616981485994
 20
-3.989505502238677
 30
0.0
 10
45.03541709553137
 20
-4.023013825015096
 30
0.0
 10
43.37466875139248
 20
-3.819688040197777
 30
0.0
 10
41.71392467218678
 20
-3.399763075402775
 30
0.0
 10
40.05318479005628
 20
-2.78494552103347
 30
0.0
 10
38.39244902567738
 20
-2.011009399630528
 30
0.0
 10
36.73171730270927
 20
-1.122048388193462
 30
0.0
 10
35.07098954387331
 20
-0.1689257430080258
 30
0.0
 10
33.41026567219568
 20
0.7938174224194364
 30
0.0
 10
31.74954560996593
 20
1.711319266076578
 30
0.0
 10
30.08882928166897
 20
2.530397611976614
 30
0.0
 10
28.42811660330745
 20
3.206899348299302
 30
0.0
 10
26.76740752218848
 20
3.692128333953721
 30
0.0
 10
25.25717746024537
 20
3.9682012908774
 30
0.0
 10
24.30051733378495
 20
3.974601827055987
 30
0.0
 10
23.8974255089879
 20
3.977298713585012
 30
0.0
  0
SPLINE
  5
C6
330
1F
100
AcDbEntity
  8
0
  6
Continuous
 62
     1
370
    25
100
AcDbSpline
210
0.0
220
0.0
230
1.0
 70
     8
 71
     3
 72
    13
 73
     9
 74
     0
 42
0.000000001
 43
0.00000001
 40
0.0
 40
0.0
 40
0.0
 40
0.0
 40
0.1778833347253967
 40
0.3557662469462721
 40
0.5336487434849294
 40
0.7115308311712807
 40
0.8894125168427227
 40
1.0
 40
1.0
 40
1.0
 40
1.0
 10
55.00000000000001
 20
0.8859061869186708
 30
0.0
 10
54.44640808709424
 20
1.192681647918192
 30
0.0
 10
53.33922557616184
 20
1.806231841271015
 30
0.0
 10
51.67845476371969
 20
2.609056713218441
 30
0.0
 10
50.01768854059358
 20
3.268891060608219
 30
0.0
 10
48.35692694226208
 20
3.731202917606042
 30
0.0
 10
46.90559483635541
 20
3.980386559439769
 30
0.0
 10
46.00785022481622
 20
3.975055152516092
 30
0.0
 10
45.66369102918628
 20
3.973011305418771
 30
0.0
  0
SPLINE
  5
C7
330
1F
100
AcDbEntity
  8
0
  6
Continuous
 62
     1
370
    25
100
AcDbSpline
210
0.0
220
0.0
230
1.0
 70
     8
 71
     3
 72
    18
 73
    14
 74
     0
 42
0.000000001
 43
0.00000001
 40
0.0
 40
0.0
 40
0.0
 40
0.0
 40
0.0575581817672023
 40
0.1509022124047975
 40
0.2442460826869814
 40
0.3375897962529313
 40
0.4309333567447116
 40
0.5282287241479842
 40
0.6255212094222924
 40
0.7228105469215138
 40
0.8200964720156005
 40
0.9174399485062813
 40
1.0
 40
1.0
 40
1.0
 40
1.0
 10
27.79143812690435
 20
-3.361661554476508
 30
0.0
 10
27.4500942917183
 20
-3.468651740779205
 30
0.0
 10
26.5551817295278
 20
-3.74915149464527
 30
0.0
 10
25.10670153894415
 20
-3.971997854533994
 30
0.0
 10
23.44600117720046
 20
-4.031286274036844
 30
0.0
 10
21.78529553804852
 20
-3.851767603695368
 30
0.0
 10
20.10118906152022
 20
-3.448648239800048
 30
0.0
 10
18.39353932820773
 20
-2.83175913854761
 30
0.0
 10
16.66253618299231
 20
-2.030837437427725
 30
0.0
 10
14.93158859118356
 20
-1.103234401710255
 30
0.0
 10
13.20035944958311
 20
-0.1088611435382981
 30
0.0
 10
11.55647284142779
 20
0.8486402171833235
 30
0.0
 10
10.48960117892306
 20
1.422947145289748
 30
0.0
 10
10.0
 20
1.686504008731455
 30
0.0
  0
SPLINE
  5
C8
330
1F
100
AcDbEntity
  8
0
  6
Continuous
 62
     4
370
    25
100
AcDbSpline
210
0.0
220
0.0
230
1.0
 70
    24
 71
     3
 72
    13
 73
     9
 74
     0
 42
0.000000001
 43
0.00000001
 40
0.0
 40
0.0
 40
0.0
 40
0.0
 40
0.268589782447168
 40
0.4135873364326332
 40
0.5627898293065098
 40
0.7077873832919752
 40
0.8569898761658523
 40
1.0
 40
1.0
 40
1.0
 40
1.0
 10
10.0
 20
3.999739217284727
 30
0.0
 10
10.0
 20
3.717015152214446
 30
0.0
 10
9.999999999999996
 20
3.281663174367621
 30
0.0
 10
9.999999999999996
 20
2.759818114944748
 30
0.0
 10
9.999999999999996
 20
2.396091733667437
 30
0.0
 10
9.999999999999996
 20
2.087153127473273
 30
0.0
 10
9.999999999999993
 20
1.840858319081662
 30
0.0
 10
10.00000000000001
 20
1.737223392121248
 30
0.0
 10
10.00000000000002
 20
1.686504008731446
 30
0.0
  0
SPLINE
  5
C9
330
1F
100
AcDbEntity
  8
0
  6
Continuous
 62
     1
370
    25
100
AcDbSpline
210
0.0
220
0.0
230
1.0
 70
     8
 71
     3
 72
    20
 73
    16
 74
     0
 42
0.000000001
 43
0.00000001
 40
0.0
 40
0.0
 40
0.0
 40
0.0
 40
0.0778084475987855
 40
0.1556170240038408
 40
0.2334257264994286
 40
0.3112345523676283
 40
0.3890434988883829
 40
0.4668525633395448
 40
0.5434295662793422
 40
0.6200066947978202
 40
0.696583951882848
 40
0.7731613405199262
 40
0.8497388636921356
 40
0.9263165243800807
 40
1.0
 40
1.0
 40
1.0
 40
1.0
 10
9.999999999998865
 20
3.999739217266608
 30
0.0
 10
10.56247527362363
 20
3.973086212808133
 30
0.0
 10
11.6874267520104
 20
3.919780159769059
 30
0.0
 10
13.3748561191293
 20
3.54517303498997
 30
0.0
 10
15.06228847766264
 20
2.978246300131515
 30
0.0
 10
16.74972498805671
 20
2.230969725122372
 30
0.0
 10
18.43716115888729
 20
1.353220756142145
 30
0.0
 10
20.11570592830542
 20
0.4003012847655997
 30
0.0
 10
21.78529881530075
 20
-0.5703058625842033
 30
0.0
 10
23.44600030165971
 20
-1.503251432049634
 30
0.0
 10
25.10670176384724
 20
-2.349884592962837
 30
0.0
 10
26.76740754818373
 20
-3.063443183918076
 30
0.0
 10
28.42811660394326
 20
-3.597008189211691
 30
0.0
 10
30.06790651506314
 20
-3.938527935490447
 30
0.0
 10
31.15412704128561
 20
-3.976982015585406
 30
0.0
 10
31.68677643838443
 20
-3.99583872293359
 30
0.0
  0
SPLINE
  5
CA
330
1F
100
AcDbEntity
  8
0
  6
Continuous
 62
     1
370
    25
100
AcDbSpline
210
0.0
220
0.0
230
1.0
 70
     8
 71
     3
 72
    11
 73
     7
 74
     0
 42
0.000000001
 43
0.00000001
 40
0.0
 40
0.0
 40
0.0
 40
0.0
 40
0.1134579194420529
 40
0.4432058434708322
 40
0.7731679554002744
 40
1.0
 40
1.0
 40
1.0
 40
1.0
 10
49.56254667009877
 20
3.363599858996296
 30
0.0
 10
49.75667136347869
 20
3.429369763110532
 30
0.0
 10
50.51498950372893
 20
3.686289738122351
 30
0.0
 10
51.83786567871491
 20
3.919921510933114
 30
0.0
 10
53.35473783962038
 20
4.037263601357849
 30
0.0
 10
54.30738763266469
 20
3.965241645110391
 30
0.0
 10
54.69548707266377
 20
3.9359006626304
 30
0.0
  0
SPLINE
  5
CB
330
1F
100
AcDbEntity
  8
0
  6
Continuous
 62
     1
370
    25
100
AcDbSpline
210
0.0
220
0.0
230
1.0
 70
     8
 71
     3
 72
    18
 73
    14
 74
     0
 42
0.000000001
 43
0.00000001
 40
0.0
 40
0.0
 40
0.0
 40
0.0
 40
0.2500000000000011
 40
0.2500000000000011
 40
0.3750000000000018
 40
0.3750000000000018
 40
0.5000000000000026
 40
0.5000000000000026
 40
0.6250000000000032
 40
0.6250000000000032
 40
0.7500000000000039
 40
0.7500000000000039
 40
1.0
 40
1.0
 40
1.0
 40
1.0
 10
54.69548707266377
 20
3.935900662630407
 30
0.0
 10
54.70297875298807
 20
3.670631489969654
 30
0.0
 10
54.68247227355729
 20
3.41020625127969
 30
0.0
 10
54.59321355482395
 20
3.029689247395055
 30
0.0
 10
54.55315639020179
 20
2.904661764890822
 30
0.0
 10
54.45343788869688
 20
2.671161901843168
 30
0.0
 10
54.39283571894092
 20
2.560198376270182
 30
0.0
 10
54.25167981840416
 20
2.358081368929667
 30
0.0
 10
54.17269004411776
 20
2.268708753570056
 30
0.0
 10
53.99834265079015
 20
2.11270208767112
 30
0.0
 10
53.90245269895239
 20
2.0462211891363
 30
0.0
 10
53.60504806713851
 20
1.888787309562161
 30
0.0
 10
53.38787379522098
 20
1.835995677645671
 30
0.0
 10
53.17131541104553
 20
1.828684588954513
 30
0.0
  0
LINE
  5
CC
330
1F
100
AcDbEntity
  8
0
  6
Continuous
 62
     1
370
    25
100
AcDbLine
 10
55.0
 20
0.8893561894566636
 30
0.0
 11
55.0
 21
0.9404748452664448
 31
0.0
  0
SPLINE
  5
CD
330
1F
100
AcDbEntity
  8
0
  6
Continuous
 62
     4
370
    25
100
AcDbSpline
210
0.0
220
0.0
230
1.0
 70
    24
 71
     3
 72
    20
 73
    16
 74
     0
 42
0.000000001
 43
0.00000001
 40
0.0
 40
0.0
 40
0.0
 40
0.0
 40
0.125
 40
0.125
 40
0.2499999999999999
 40
0.2499999999999999
 40
0.5
 40
0.5
 40
0.625
 40
0.625
 40
0.7500000000000001
 40
0.7500000000000001
 40
0.875
 40
0.875
 40
1.0
 40
1.0
 40
1.0
 40
1.0
 10
10.0
 20
-0.0456748712012426
 30
0.0
 10
10.0
 20
-0.0641864389196426
 30
0.0
 10
10.0
 20
-0.0898791634688513
 30
0.0
 10
10.0
 20
-0.1656491836053477
 30
0.0
 10
10.0
 20
-0.2160504709630708
 30
0.0
 10
10.0
 20
-0.4178518672583653
 30
0.0
 10
10.0
 20
-0.6215460547583309
 30
0.0
 10
10.0
 20
-1.074644474905578
 30
0.0
 10
10.0
 20
-1.250017131048607
 30
0.0
 10
10.0
 20
-1.647306970889692
 30
0.0
 10
10.0
 20
-1.869317019115356
 30
0.0
 10
10.0
 20
-2.346064458382157
 30
0.0
 10
10.0
 20
-2.60067842365742
 30
0.0
 10
10.0
 20
-3.116757949385009
 30
0.0
 10
10.0
 20
-3.377878998344108
 30
0.0
 10
10.0
 20
-3.62707929724667
 30
0.0
  0
SPLINE
  5
CE
330
1F
100
AcDbEntity
  8
0
  6
Continuous
 62
     1
370
    25
100
AcDbSpline
210
0.0
220
0.0
230
1.0
 70
     8
 71
     3
 72
    14
 73
    10
 74
     0
 42
0.000000001
 43
0.00000001
 40
0.0
 40
0.0
 40
0.0
 40
0.0
 40
0.1561962509916135
 40
0.312392760554848
 40
0.4685895232380085
 40
0.6247865335850155
 40
0.7809837861355023
 40
0.9371812754249045
 40
1.0
 40
1.0
 40
1.0
 40
1.0
 10
9.999999999998865
 20
-0.0456748712029929
 30
0.0
 10
10.56247527243192
 20
-0.3701204860163694
 30
0.0
 10
11.68742674843525
 20
-1.019012252739424
 30
0.0
 10
13.37485613342992
 20
-1.931729360030055
 30
0.0
 10
15.0622884240352
 20
-2.729593008103851
 30
0.0
 10
16.74972518826626
 20
-3.37009443013678
 30
0.0
 10
18.4371604116749
 20
-3.797422976891418
 30
0.0
 10
19.78834757627876
 20
-4.002686121491558
 30
0.0
 10
20.5770291542031
 20
-3.979047709799593
 30
0.0
 10
20.80324058369905
 20
-3.972267687228345
 30
0.0
  0
SPLINE
  5
CF
330
1F
100
AcDbEntity
  8
0
  6
Continuous
 62
     1
370
    25
100
AcDbSpline
210
0.0
220
0.0
230
1.0
 70
     8
 71
     3
 72
    17
 73
    13
 74
     0
 42
0.000000001
 43
0.00000001
 40
0.0
 40
0.0
 40
0.0
 40
0.0
 40
0.0859247909125673
 40
0.1896005451855619
 40
0.2932765177864955
 40
0.3989373258866842
 40
0.5045985295877339
 40
0.6102601190192618
 40
0.7159220842979478
 40
0.8215844155278657
 40
0.9273153797688083
 40
1.0
 40
1.0
 40
1.0
 40
1.0
 10
38.67678994773662
 20
3.370855806614201
 30
0.0
 10
39.13558778822846
 20
3.504803941436943
 30
0.0
 10
40.14796523789515
 20
3.800372183375675
 30
0.0
 10
41.71392565092972
 20
4.004253193635928
 30
0.0
 10
43.38526202503448
 20
4.012232226507111
 30
0.0
 10
45.06722258567576
 20
3.780024843390999
 30
0.0
 10
46.75978099715078
 20
3.323363370385418
 30
0.0
 10
48.45234809982637
 20
2.668979277515947
 30
0.0
 10
50.14492310519373
 20
1.855967592143076
 30
0.0
 10
51.83786571280631
 20
0.9333382478893205
 30
0.0
 10
53.35473783412155
 20
0.0541745413067459
 30
0.0
 10
54.30738763107296
 20
-0.4910880430300401
 30
0.0
 10
54.69548707266377
 20
-0.7132222472031479
 30
0.0
  0
SPLINE
  5
D0
330
1F
100
AcDbEntity
  8
0
  6
Continuous
 62
     1
370
    25
100
AcDbSpline
210
0.0
220
0.0
230
1.0
 70
     8
 71
     3
 72
     8
 73
     4
 74
     0
 42
0.000000001
 43
0.00000001
 40
0.0
 40
0.0
 40
0.0
 40
0.0
 40
1.0
 40
1.0
 40
1.0
 40
1.0
 10
55.0
 20
-3.08393340093467
 30
0.0
 10
54.35788832274969
 20
-2.721896529077738
 30
0.0
 10
53.75329889679261
 20
-2.27633736775076
 30
0.0
 10
53.1713154110454
 20
-1.780458734193949
 30
0.0
  0
LINE
  5
D1
330
1F
100
AcDbEntity
  8
0
  6
Continuous
 62
     1
370
    25
100
AcDbLine
 10
55.0
 20
-3.900662793421052
 30
0.0
 11
55.0
 21
-3.08393340093467
 31
0.0
  0
SPLINE
  5
D2
330
1F
100
AcDbEntity
  8
0
  6
Continuous
 62
     1
370
    25
100
AcDbSpline
210
0.0
220
0.0
230
1.0
 70
    24
 71
     3
 72
    12
 73
     8
 74
     0
 42
0.000000001
 43
0.00000001
 40
0.0
 40
0.0
 40
0.0
 40
0.0
 40
0.0840263679265494
 40
0.3303777467426274
 40
0.5774800996134813
 40
0.8117634562512017
 40
1.0
 40
1.0
 40
1.0
 40
1.0
 10
54.62981817056966
 20
-0.7592041074753793
 30
0.0
 10
54.61828754193063
 20
-0.767277940568738
 30
0.0
 10
54.57295102195128
 20
-0.7990229136144805
 30
0.0
 10
54.37253087180675
 20
-0.9393586135548069
 30
0.0
 10
54.00312439557631
 20
-1.198019812874833
 30
0.0
 10
53.5793980716391
 20
-1.494716179033571
 30
0.0
 10
53.29708742758585
 20
-1.692392220116489
 30
0.0
 10
53.1713154110454
 20
-1.780458734193943
 30
0.0
  0
SPLINE
  5
D3
330
1F
100
AcDbEntity
  8
0
  6
Continuous
 62
     1
370
    25
100
AcDbSpline
210
0.0
220
0.0
230
1.0
 70
     8
 71
     3
 72
    24
 73
    20
 74
     0
 42
0.000000001
 43
0.00000001
 40
0.0
 40
0.0
 40
0.0
 40
0.0
 40
0.0110810892145846
 40
0.0758014891591576
 40
0.1405217603196482
 40
0.2052419052039786
 40
0.2699619263223902
 40
0.3346818261873984
 40
0.3994016073137468
 40
0.464121272218364
 40
0.5288408234203144
 40
0.5935602634407552
 40
0.658279594802889
 40
0.7229988200319205
 40
0.7904580080416627
 40
0.8579151977437275
 40
0.9253702049538909
 40
0.9928228461924188
 40
1.0
 40
1.0
 40
1.0
 40
1.0
 10
38.67678994773657
 20
-3.370855806614203
 30
0.0
 10
38.58200930091519
 20
-3.404222327751373
 30
0.0
 10
37.93365118075199
 20
-3.632469925192341
 30
0.0
 10
36.73171734148077
 20
-3.868737664253518
 30
0.0
 10
35.07098953336778
 20
-4.037832580703498
 30
0.0
 10
33.41026567544641
 20
-3.95892521728641
 30
0.0
 10
31.74954560746847
 20
-3.6582249636009
 30
0.0
 10
30.08882928840808
 20
-3.147113040405152
 30
0.0
 10
28.42811657884852
 20
-2.456374581520993
 30
0.0
 10
26.76740761328486
 20
-1.625087119395887
 30
0.0
 10
25.10670152853803
 20
-0.7009076544297177
 30
0.0
 10
23.44600117779338
 20
0.2633878623147136
 30
0.0
 10
21.78529554608292
 20
1.212502373423222
 30
0.0
 10
20.10118902821446
 20
2.105146339021287
 30
0.0
 10
18.39353945918492
 20
2.882835116808205
 30
0.0
 10
16.66253569466642
 20
3.498911815449877
 30
0.0
 10
14.93159041342524
 20
3.8723344520461
 30
0.0
 10
13.71626263903089
 20
4.032079975383258
 30
0.0
 10
13.07792007132988
 20
3.992016795857317
 30
0.0
 10
13.01653061169803
 20
3.988163916436963
 30
0.0
  0
SPLINE
  5
D4
330
1F
100
AcDbEntity
  8
0
  6
Continuous
 62
     1
370
    25
100
AcDbSpline
210
0.0
220
0.0
230
1.0
 70
     8
 71
     3
 72
    23
 73
    19
 74
     0
 42
0.000000001
 43
0.00000001
 40
0.0
 40
0.0
 40
0.0
 40
0.0
 40
0.0597419470330031
 40
0.125487935779815
 40
0.1901928748387415
 40
0.2548979200073426
 40
0.3196030738102654
 40
0.3843083387701555
 40
0.4490137174076134
 40
0.5137192122411482
 40
0.578424825787132
 40
0.6431305605597532
 40
0.7078364190709735
 40
0.7725424038304796
 40
0.8372485173456405
 40
0.9019547621214598
 40
0.9666611406605331
 40
1.0
 40
1.0
 40
1.0
 40
1.0
 10
16.90382125145715
 20
3.374231190388307
 30
0.0
 10
17.41493440671065
 20
3.5192046511467
 30
0.0
 10
18.48852738430875
 20
3.823721347319604
 30
0.0
 10
20.11570592221424
 20
4.016261156644114
 30
0.0
 10
21.78529881688273
 20
3.998801184164224
 30
0.0
 10
23.4460003013821
 20
3.748094731828446
 30
0.0
 10
25.10670176337574
 20
3.28432225565931
 30
0.0
 10
26.76740755034735
 20
2.632411614379176
 30
0.0
 10
28.42811659576022
 20
1.830064471632061
 30
0.0
 10
30.08882928369891
 20
0.9230511018743263
 30
0.0
 10
31.74954560939336
 20
-0.036754039068431
 30
0.0
 10
33.41026567245596
 20
-0.9944000714439911
 30
0.0
 10
35.07098954340459
 20
-1.895408482405756
 30
0.0
 10
36.73171730432371
 20
-2.687200256645777
 30
0.0
 10
38.39244901968829
 20
-3.328448017749872
 30
0.0
 10
40.05318481239824
 20
-3.767744966692161
 30
0.0
 10
41.44556612799171
 20
-3.991794423475556
 30
0.0
 10
42.28436912883421
 20
-3.976524882126964
 30
0.0
 10
42.5695919082746
 20
-3.971332696333815
 30
0.0
  0
LINE
  5
D5
330
1F
100
AcDbEntity
  8
0
  6
Continuous
 62
     1
370
    25
100
AcDbLine
 10
55.0
 20
-0.5000000000000131
 30
0.0
 11
55.0
 21
0.8859061869186711
 31
0.0
  0
LINE
  5
D6
330
1F
100
AcDbEntity
  8
0
  6
Continuous
 62
     1
370
    25
100
AcDbLine
 10
55.0
 20
-0.5000000000000133
 30
0.0
 11
54.69548707266377
 21
-0.7132222472031533
 31
0.0
  0
LINE
  5
D7
330
1F
100
AcDbEntity
  8
0
  6
Continuous
 62
     1
370
    25
100
AcDbLine
 10
55.0
 20
3.968626966596893
 30
0.0
 11
55.0
 21
4.000000000000007
 31
0.0
  0
ELLIPSE
  5
D8
330
1F
100
AcDbEntity
  8
0
  6
Continuous
 62
     1
370
    25
100
AcDbEllipse
 10
55.71407400337105
 20
-0.000000000000002
 30
0.0
 11
5.712592026968444
 21
0.0
 31
0.0
210
0.0
220
0.0
230
1.0
 40
0.7002075382097123
 41
1.696124157962963
 42
1.750060474925948
  0
LINE
  5
D9
330
1F
100
AcDbEntity
  8
0
  6
Continuous
 62
     1
370
    25
100
AcDbLine
 10
55.0
 20
0.9404748452664448
 30
0.0
 11
55.0
 21
3.968626966596893
 31
0.0
  0
LINE
  5
DA
330
1F
100
AcDbEntity
  8
0
  6
Continuous
 62
     1
370
    25
100
AcDbLine
 10
55.0
 20
-0.4999999999999992
 30
0.0
 11
55.0
 21
-3.083933400934669
 31
0.0
  0
LINE
  5
DB
330
1F
100
AcDbEntity
  8
중심선
100
AcDbLine
 10
-48.0
 20
-0.0000000000000068
 30
0.0
 11
58.00000000000001
 21
0.0000000000000062
 31
0.0
  0
CIRCLE
  5
DC
330
1F
100
AcDbEntity
  8
해칭선
100
AcDbCircle
 10
-0.000005611898576
 20
-0.0000000000000043
 30
0.0
 40
3.0
  0
INSERT
  5
DD
330
1F
100
AcDbEntity
  8
0
  6
Continuous
 62
     7
100
AcDbBlockReference
 66
     1
  2
블럭10
 10
-7.440099248941772
 20
-52.04717430164393
 30
0.0
  0
ATTRIB
  5
DE
330
DD
100
AcDbEntity
  8
FORMAT
 62
     2
100
AcDbText
 10
-23.55936028837733
 20
-49.97180738881173
 30
0.0
 40
4.233333333333333
  1
SEME7208045E [ 4 FLUTE ]
 41
0.75
  7
SLDTEXTSTYLE0
 11
-23.55936028837733
 21
-52.0884740554784
 31
0.0
100
AcDbAttribute
  2
AUTOATTR0
 70
     0
 74
     1
  0
SEQEND
  5
DF
330
DD
100
AcDbEntity
  8
0
  6
Continuous
 62
     7
  0
HATCH
  5
E0
330
1F
100
AcDbEntity
  8
중심선
100
AcDbHatch
 10
0.0
 20
0.0
 30
0.0
210
0.0
220
0.0
230
1.0
  2
SOLID
 70
     1
 71
     0
 91
        1
 92
        0
 93
        4
 72
     1
 10
-1.725189944560918
 20
-35.8
 11
-5.1714651883982
 21
-35.8
 72
     1
 10
-5.1714651883982
 20
-35.8
 11
-7.299695047602222
 21
-38.33632558057259
 72
     1
 10
-7.299695047602222
 20
-38.33632558057259
 11
-3.853386718651791
 21
-38.3362861512701
 72
     1
 10
-3.853386718651791
 20
-38.3362861512701
 11
-1.725189944560918
 21
-35.8
 97
        0
 75
     0
 76
     1
 98
        1
 10
0.0
 20
0.0
  0
HATCH
  5
E1
330
1F
100
AcDbEntity
  8
중심선
100
AcDbHatch
 10
0.0
 20
0.0
 30
0.0
210
0.0
220
0.0
230
1.0
  2
SOLID
 70
     1
 71
     0
 91
        1
 92
        0
 93
        4
 72
     1
 10
3.287574046475034
 20
-35.80000000000003
 11
-0.158701197362221
 21
-35.79999999999997
 72
     1
 10
-0.158701197362221
 20
-35.79999999999997
 11
-4.689839205719638
 21
-41.20000000000002
 72
     1
 10
-4.689839205719637
 20
-41.20000000000002
 11
-1.243563961882355
 21
-41.20000000000002
 72
     1
 10
-1.243563961882355
 20
-41.20000000000002
 11
3.287574046475033
 21
-35.80000000000003
 97
        0
 75
     0
 76
     1
 98
        1
 10
0.0
 20
0.0
  0
HATCH
  5
E2
330
1F
100
AcDbEntity
  8
중심선
100
AcDbHatch
 10
0.0
 20
0.0
 30
0.0
210
0.0
220
0.0
230
1.0
  2
SOLID
 70
     1
 71
     0
 91
        1
 92
        0
 93
        4
 72
     1
 10
8.30033803751093
 20
-35.79999999999997
 11
4.854062793673869
 21
-35.79999999999997
 72
     1
 10
4.854062793673869
 20
-35.79999999999997
 11
-2.194374108215436
 21
-44.20000000000002
 72
     1
 10
-2.194374108215436
 20
-44.20000000000002
 11
1.251901135621847
 21
-44.20000000000002
 72
     1
 10
1.251901135621847
 20
-44.20000000000002
 11
8.30033803751093
 21
-35.79999999999997
 97
        0
 75
     0
 76
     1
 98
        1
 10
0.0
 20
0.0
  0
HATCH
  5
E3
330
1F
100
AcDbEntity
  8
중심선
100
AcDbHatch
 10
0.0
 20
0.0
 30
0.0
210
0.0
220
0.0
230
1.0
  2
SOLID
 70
     1
 71
     0
 91
        1
 92
        0
 93
        6
 72
     3
 10
13.10022846852313
 20
-40.00000000005127
 11
3.960054785062284
 21
1.540850780301639E-10
 40
0.3939339440162633
 50
17.09539180608433
 51
320.0019657685087
 73
     0
 72
     1
 10
14.7832281242237
 20
-38.58789400463836
 11
17.08852999792476
 21
-36.6535672945904
 72
     3
 10
13.10022846847028
 20
-40.00000000000015
 11
6.600054785286829
 21
-1.249000902703301E-13
 40
0.6363583540795982
 50
39.9987384933739
 51
368.4976242363725
 73
     1
 72
     1
 10
19.52556096037089
 20
-39.03999999993002
 11
11.7802957753062
 21
-39.03999999993002
 72
     1
 10
11.7802957753062
 20
-39.03999999993002
 11
11.78027073086027
 21
-40.95999999992991
 72
     1
 10
11.78027073086027
 20
-40.95999999992991
 11
16.22165050033231
 21
-40.95999999992988
 97
        0
 75
     0
 76
     1
 98
        1
 10
0.0
 20
0.0
  0
DIMENSION
  5
E4
330
1F
100
AcDbEntity
  8
치수문자_일반주서
100
AcDbDimension
  2
_D
 10
69.4491506627529
 20
4.000000000000055
 30
0.0
 11
69.44915066275287
 21
13.66650000000006
 31
0.0
 70
   160
  1
%%c<>
 71
     2
 42
8.000000000000012
 52
-270.0
  3
SLDDIMSTYLE0
100
AcDbAlignedDimension
 13
55.0
 23
-4.000000000000009
 33
0.0
 14
55.0
 24
4.000000000000004
 34
0.0
 50
90.0000000000002
100
AcDbRotatedDimension
  0
DIMENSION
  5
F2
330
1F
100
AcDbEntity
  8
치수문자_일반주서
100
AcDbDimension
  2
_D_1
 10
55.0
 20
21.38913260158164
 30
0.0
 11
5.000000000000003
 21
21.38913260158164
 31
0.0
 70
   160
  1
<>
 71
     2
 42
100.0
  3
SLDDIMSTYLE1
100
AcDbAlignedDimension
 13
-45.0
 23
3.499999999999991
 33
0.0
 14
55.0
 24
4.000000000000003
 34
0.0
 50
-0.0000000000000041
100
AcDbRotatedDimension
  0
DIMENSION
  5
FD
330
1F
100
AcDbEntity
  8
치수문자_일반주서
100
AcDbDimension
  2
_D_2
 10
-56.83618943357246
 20
-4.000000000000053
 30
0.0
 11
-56.83618943357253
 21
13.66649999999996
 31
0.0
 70
   160
  1
%%c<>
 71
     2
 42
8.000000000000007
 52
-270.0
  3
SLDDIMSTYLE2
100
AcDbAlignedDimension
 13
-44.49999999999999
 23
4.000000000000002
 33
0.0
 14
-44.49999999999999
 24
-4.000000000000005
 34
0.0
 50
90.0000000000002
100
AcDbRotatedDimension
  0
DIMENSION
  5
10B
330
1F
100
AcDbEntity
  8
치수문자_일반주서
100
AcDbDimension
  2
_D_3
 10
55.0
 20
14.8456575198724
 30
0.0
 11
32.49999999999999
 21
14.8456575198724
 31
0.0
 70
   160
  1
<>
 71
     2
 42
45.0
  3
SLDDIMSTYLE1
100
AcDbAlignedDimension
 13
10.0
 23
3.999739217284727
 33
0.0
 14
55.0
 24
4.000000000000003
 34
0.0
 50
0.0000000000000452
100
AcDbRotatedDimension
  0
INSERT
  5
11B
330
1F
100
AcDbEntity
  8
해칭선
100
AcDbBlockReference
  2
SW_DOWELSYMBOL_0
 10
-0.000005611898576
 20
-0.0000000000000043
 30
0.0
  0
ENDSEC
  0
SECTION
  2
OBJECTS
  0
DICTIONARY
  5
C
330
0
100
AcDbDictionary
281
     1
  3
ACAD_GROUP
350
D
  3
ACAD_IMAGE_VARS
350
13F
  3
ACAD_LAYOUT
350
1A
  3
ACAD_MLINESTYLE
350
17
  3
ACAD_PLOTSETTINGS
350
19
  3
ACAD_PLOTSTYLENAME
350
E
  3
ACAD_SCALELIST
350
47
  3
APPDATA
350
13D
  3
DWGPROPS
350
14E
  0
DICTIONARY
  5
D
102
{ACAD_REACTORS
330
C
102
}
330
C
100
AcDbDictionary
281
     1
  0
RASTERVARIABLES
  5
13F
102
{ACAD_REACTORS
330
C
102
}
330
C
100
AcDbRasterVariables
 90
        0
 70
     1
 71
     1
 72
     1
  0
DICTIONARY
  5
1A
102
{ACAD_REACTORS
330
C
102
}
330
C
100
AcDbDictionary
281
     1
  3
Layout1
350
1E
  3
Layout2
350
26
  3
Model
350
22
  0
DICTIONARY
  5
17
102
{ACAD_REACTORS
330
C
102
}
330
C
100
AcDbDictionary
281
     1
  3
Standard
350
18
  0
DICTIONARY
  5
19
102
{ACAD_REACTORS
330
C
102
}
330
C
100
AcDbDictionary
281
     1
  0
ACDBDICTIONARYWDFLT
  5
E
102
{ACAD_REACTORS
330
C
102
}
330
C
100
AcDbDictionary
281
     1
  3
Normal
350
F
100
AcDbDictionaryWithDefault
340
F
  0
DICTIONARY
  5
47
102
{ACAD_REACTORS
330
C
102
}
330
C
100
AcDbDictionary
281
     1
  3
A0
350
48
  3
A1
350
49
  3
A2
350
4A
  3
A3
350
4B
  3
A4
350
4C
  3
A5
350
4D
  3
A6
350
4E
  3
A7
350
4F
  3
A8
350
50
  3
A9
350
51
  3
B0
350
52
  3
B1
350
53
  3
B2
350
54
  3
B3
350
55
  3
B4
350
56
  3
B5
350
57
  3
B6
350
58
  3
B7
350
59
  3
B8
350
5A
  3
B9
350
5B
  3
C0
350
5C
  3
C1
350
5D
  3
C2
350
5E
  3
C3
350
5F
  3
C4
350
60
  3
C5
350
61
  3
C6
350
62
  3
C7
350
63
  3
C8
350
64
  3
C9
350
65
  3
D0
350
66
  3
D1
350
67
  3
D2
350
68
  0
DICTIONARY
  5
13D
102
{ACAD_REACTORS
330
C
102
}
330
C
100
AcDbDictionary
281
     1
  0
XRECORD
  5
14E
102
{ACAD_REACTORS
330
C
102
}
330
C
100
AcDbXrecord
280
     1
  1
DWGPROPS COOKIE
  2

  3

  4

  6

  7

  8
12014102
  9

300
=
301
=
302
=
303
=
304
=
305
=
306
=
307
=
308
=
309
=
 40
0.0
 41
2458260.202024595
 42
2458268.203039734
  1

 90
        0
  0
LAYOUT
  5
1E
102
{ACAD_REACTORS
330
1A
102
}
330
1A
100
AcDbPlotSettings
  1

  2
none_device
  4

  6

 40
0.0
 41
0.0
 42
0.0
 43
0.0
 44
0.0
 45
0.0
 46
0.0
 47
0.0
 48
0.0
 49
0.0
140
0.0
141
0.0
142
1.0
143
1.0
 70
   688
 72
     1
 73
     0
 74
     5
  7

 75
    16
147
1.0
148
0.0
149
0.0
100
AcDbLayout
  1
Layout1
 70
     1
 71
     1
 10
0.0
 20
0.0
 11
420.0
 21
297.0
 12
0.0
 22
0.0
 32
0.0
 14
1.000000000000000E+20
 24
1.000000000000000E+20
 34
1.000000000000000E+20
 15
-1.000000000000000E+20
 25
-1.000000000000000E+20
 35
-1.000000000000000E+20
146
0.0
 13
0.0
 23
0.0
 33
0.0
 16
1.0
 26
0.0
 36
0.0
 17
0.0
 27
1.0
 37
0.0
 76
     0
330
1B
  0
LAYOUT
  5
26
102
{ACAD_REACTORS
330
1A
102
}
330
1A
100
AcDbPlotSettings
  1

  2
none_device
  4

  6

 40
0.0
 41
0.0
 42
0.0
 43
0.0
 44
0.0
 45
0.0
 46
0.0
 47
0.0
 48
0.0
 49
0.0
140
0.0
141
0.0
142
1.0
143
1.0
 70
   688
 72
     1
 73
     0
 74
     5
  7

 75
    16
147
1.0
148
0.0
149
0.0
100
AcDbLayout
  1
Layout2
 70
     1
 71
     2
 10
0.0
 20
0.0
 11
0.0
 21
0.0
 12
0.0
 22
0.0
 32
0.0
 14
0.0
 24
0.0
 34
0.0
 15
0.0
 25
0.0
 35
0.0
146
0.0
 13
0.0
 23
0.0
 33
0.0
 16
1.0
 26
0.0
 36
0.0
 17
0.0
 27
1.0
 37
0.0
 76
     0
330
23
  0
LAYOUT
  5
22
102
{ACAD_REACTORS
330
1A
102
}
330
1A
100
AcDbPlotSettings
  1

  2
none_device
  4
ANSI_A_(11.00_x_8.50_Inches)
  6

 40
6.35
 41
19.05
 42
6.35000508
 43
19.05000254
 44
279.4
 45
215.9
 46
121.3029676324358
 47
114.347919909107
 48
0.0
 49
0.0
140
0.0
141
0.0
142
0.0807487851913164
143
1.0
 70
  1696
 72
     0
 73
     0
 74
     0
  7

 75
     0
147
0.0235690232323232
148
0.0
149
0.0
100
AcDbLayout
  1
Model
 70
     1
 71
     0
 10
0.0
 20
0.0
 11
420.0
 21
297.0
 12
0.0
 22
0.0
 32
0.0
 14
-61.21118943357253
 24
-49.97180738881173
 34
0.0
 15
69.99948399608628
 25
25.76413260158164
 35
0.0
146
0.0
 13
0.0
 23
0.0
 33
0.0
 16
1.0
 26
0.0
 36
0.0
 17
0.0
 27
1.0
 37
0.0
 76
     0
330
1F
331
29
  0
MLINESTYLE
  5
18
102
{ACAD_REACTORS
330
17
102
}
330
17
100
AcDbMlineStyle
  2
Standard
 70
     0
  3

 62
   256
 51
90.0
 52
90.0
 71
     2
 49
0.5
 62
   256
  6
BYLAYER
 49
-0.5
 62
   256
  6
BYLAYER
  0
ACDBPLACEHOLDER
  5
F
102
{ACAD_REACTORS
330
E
102
}
330
E
  0
SCALE
  5
48
102
{ACAD_REACTORS
330
47
102
}
330
47
100
AcDbScale
 70
     0
300
1:1
140
1.0
141
1.0
290
     1
  0
SCALE
  5
49
102
{ACAD_REACTORS
330
47
102
}
330
47
100
AcDbScale
 70
     0
300
1:2
140
1.0
141
2.0
290
     0
  0
SCALE
  5
4A
102
{ACAD_REACTORS
330
47
102
}
330
47
100
AcDbScale
 70
     0
300
1:4
140
1.0
141
4.0
290
     0
  0
SCALE
  5
4B
102
{ACAD_REACTORS
330
47
102
}
330
47
100
AcDbScale
 70
     0
300
1:5
140
1.0
141
5.0
290
     0
  0
SCALE
  5
4C
102
{ACAD_REACTORS
330
47
102
}
330
47
100
AcDbScale
 70
     0
300
1:8
140
1.0
141
8.0
290
     0
  0
SCALE
  5
4D
102
{ACAD_REACTORS
330
47
102
}
330
47
100
AcDbScale
 70
     0
300
1:10
140
1.0
141
10.0
290
     0
  0
SCALE
  5
4E
102
{ACAD_REACTORS
330
47
102
}
330
47
100
AcDbScale
 70
     0
300
1:16
140
1.0
141
16.0
290
     0
  0
SCALE
  5
4F
102
{ACAD_REACTORS
330
47
102
}
330
47
100
AcDbScale
 70
     0
300
1:20
140
1.0
141
20.0
290
     0
  0
SCALE
  5
50
102
{ACAD_REACTORS
330
47
102
}
330
47
100
AcDbScale
 70
     0
300
1:30
140
1.0
141
30.0
290
     0
  0
SCALE
  5
51
102
{ACAD_REACTORS
330
47
102
}
330
47
100
AcDbScale
 70
     0
300
1:40
140
1.0
141
40.0
290
     0
  0
SCALE
  5
52
102
{ACAD_REACTORS
330
47
102
}
330
47
100
AcDbScale
 70
     0
300
1:50
140
1.0
141
50.0
290
     0
  0
SCALE
  5
53
102
{ACAD_REACTORS
330
47
102
}
330
47
100
AcDbScale
 70
     0
300
1:100
140
1.0
141
100.0
290
     0
  0
SCALE
  5
54
102
{ACAD_REACTORS
330
47
102
}
330
47
100
AcDbScale
 70
     0
300
2:1
140
2.0
141
1.0
290
     0
  0
SCALE
  5
55
102
{ACAD_REACTORS
330
47
102
}
330
47
100
AcDbScale
 70
     0
300
4:1
140
4.0
141
1.0
290
     0
  0
SCALE
  5
56
102
{ACAD_REACTORS
330
47
102
}
330
47
100
AcDbScale
 70
     0
300
8:1
140
8.0
141
1.0
290
     0
  0
SCALE
  5
57
102
{ACAD_REACTORS
330
47
102
}
330
47
100
AcDbScale
 70
     0
300
10:1
140
10.0
141
1.0
290
     0
  0
SCALE
  5
58
102
{ACAD_REACTORS
330
47
102
}
330
47
100
AcDbScale
 70
     0
300
100:1
140
100.0
141
1.0
290
     0
  0
SCALE
  5
59
102
{ACAD_REACTORS
330
47
102
}
330
47
100
AcDbScale
 70
     0
300
1/128" = 1'-0"
140
0.0078125
141
12.0
290
     0
  0
SCALE
  5
5A
102
{ACAD_REACTORS
330
47
102
}
330
47
100
AcDbScale
 70
     0
300
1/64" = 1'-0"
140
0.015625
141
12.0
290
     0
  0
SCALE
  5
5B
102
{ACAD_REACTORS
330
47
102
}
330
47
100
AcDbScale
 70
     0
300
1/32" = 1'-0"
140
0.03125
141
12.0
290
     0
  0
SCALE
  5
5C
102
{ACAD_REACTORS
330
47
102
}
330
47
100
AcDbScale
 70
     0
300
1/16" = 1'-0"
140
0.0625
141
12.0
290
     0
  0
SCALE
  5
5D
102
{ACAD_REACTORS
330
47
102
}
330
47
100
AcDbScale
 70
     0
300
3/32" = 1'-0"
140
0.09375
141
12.0
290
     0
  0
SCALE
  5
5E
102
{ACAD_REACTORS
330
47
102
}
330
47
100
AcDbScale
 70
     0
300
1/8" = 1'-0"
140
0.125
141
12.0
290
     0
  0
SCALE
  5
5F
102
{ACAD_REACTORS
330
47
102
}
330
47
100
AcDbScale
 70
     0
300
3/16" = 1'-0"
140
0.1875
141
12.0
290
     0
  0
SCALE
  5
60
102
{ACAD_REACTORS
330
47
102
}
330
47
100
AcDbScale
 70
     0
300
1/4" = 1'-0"
140
0.25
141
12.0
290
     0
  0
SCALE
  5
61
102
{ACAD_REACTORS
330
47
102
}
330
47
100
AcDbScale
 70
     0
300
3/8" = 1'-0"
140
0.375
141
12.0
290
     0
  0
SCALE
  5
62
102
{ACAD_REACTORS
330
47
102
}
330
47
100
AcDbScale
 70
     0
300
1/2" = 1'-0"
140
0.5
141
12.0
290
     0
  0
SCALE
  5
63
102
{ACAD_REACTORS
330
47
102
}
330
47
100
AcDbScale
 70
     0
300
3/4" = 1'-0"
140
0.75
141
12.0
290
     0
  0
SCALE
  5
64
102
{ACAD_REACTORS
330
47
102
}
330
47
100
AcDbScale
 70
     0
300
1" = 1'-0"
140
1.0
141
12.0
290
     0
  0
SCALE
  5
65
102
{ACAD_REACTORS
330
47
102
}
330
47
100
AcDbScale
 70
     0
300
1-1/2" = 1'-0"
140
1.5
141
12.0
290
     0
  0
SCALE
  5
66
102
{ACAD_REACTORS
330
47
102
}
330
47
100
AcDbScale
 70
     0
300
3" = 1'-0"
140
3.0
141
12.0
290
     0
  0
SCALE
  5
67
102
{ACAD_REACTORS
330
47
102
}
330
47
100
AcDbScale
 70
     0
300
6" = 1'-0"
140
6.0
141
12.0
290
     0
  0
SCALE
  5
68
102
{ACAD_REACTORS
330
47
102
}
330
47
100
AcDbScale
 70
     0
300
1'-0" = 1'-0"
140
12.0
141
12.0
290
     0
  0
ENDSEC
  0
EOF
