  0
SECTION
  2
HEADER
  9
$ACADVER
  1
AC1015
  9
$ACADMAINTVER
 70
     6
  9
$DWGCODEPAGE
  3
ANSI_949
  9
$INSBASE
 10
0.0
 20
0.0
 30
0.0
  9
$EXTMIN
 10
-56.57042807744497
 20
-49.97180738881174
 30
0.0
  9
$EXTMAX
 10
75.8607038780685
 20
25.76413260158164
 30
0.0
  9
$LIMMIN
 10
0.0
 20
0.0
  9
$LIMMAX
 10
420.0
 20
297.0
  9
$ORTHOMODE
 70
     0
  9
$REGENMODE
 70
     1
  9
$FILLMODE
 70
     1
  9
$QTEXTMODE
 70
     0
  9
$MIRRTEXT
 70
     1
  9
$LTSCALE
 40
1.0
  9
$ATTMODE
 70
     1
  9
$TEXTSIZE
 40
3.5
  9
$TRACEWID
 40
1.0
  9
$TEXTSTYLE
  7
Standard
  9
$CLAYER
  8
0
  9
$CELTYPE
  6
ByLayer
  9
$CECOLOR
 62
   256
  9
$CELTSCALE
 40
1.0
  9
$DISPSILH
 70
     0
  9
$DIMSCALE
 40
1.0
  9
$DIMASZ
 40
3.302
  9
$DIMEXO
 40
1.0
  9
$DIMDLI
 40
3.75
  9
$DIMRND
 40
0.0
  9
$DIMDLE
 40
0.0
  9
$DIMEXE
 40
1.0
  9
$DIMTP
 40
0.0
  9
$DIMTM
 40
0.0
  9
$DIMTXT
 40
3.5
  9
$DIMCEN
 40
2.5
  9
$DIMTSZ
 40
0.0
  9
$DIMTOL
 70
     0
  9
$DIMLIM
 70
     0
  9
$DIMTIH
 70
     1
  9
$DIMTOH
 70
     1
  9
$DIMSE1
 70
     0
  9
$DIMSE2
 70
     0
  9
$DIMTAD
 70
     1
  9
$DIMZIN
 70
     0
  9
$DIMBLK
  1

  9
$DIMASO
 70
     1
  9
$DIMSHO
 70
     1
  9
$DIMPOST
  1

  9
$DIMAPOST
  1

  9
$DIMALT
 70
     0
  9
$DIMALTD
 70
     3
  9
$DIMALTF
 40
0.0393700787401575
  9
$DIMLFAC
 40
1.0
  9
$DIMTOFL
 70
     1
  9
$DIMTVP
 40
0.0
  9
$DIMTIX
 70
     0
  9
$DIMSOXD
 70
     0
  9
$DIMSAH
 70
     0
  9
$DIMBLK1
  1

  9
$DIMBLK2
  1

  9
$DIMSTYLE
  2
ISO-25
  9
$DIMCLRD
 70
     0
  9
$DIMCLRE
 70
     0
  9
$DIMCLRT
 70
     0
  9
$DIMTFAC
 40
1.0
  9
$DIMGAP
 40
1.524
  9
$DIMJUST
 70
     0
  9
$DIMSD1
 70
     0
  9
$DIMSD2
 70
     0
  9
$DIMTOLJ
 70
     0
  9
$DIMTZIN
 70
     0
  9
$DIMALTZ
 70
     0
  9
$DIMALTTZ
 70
     0
  9
$DIMUPT
 70
     0
  9
$DIMDEC
 70
     2
  9
$DIMTDEC
 70
     2
  9
$DIMALTU
 70
     2
  9
$DIMALTTD
 70
     3
  9
$DIMTXSTY
  7
Standard
  9
$DIMAUNIT
 70
     0
  9
$DIMADEC
 70
     2
  9
$DIMALTRND
 40
0.0
  9
$DIMAZIN
 70
     0
  9
$DIMDSEP
 70
    44
  9
$DIMATFIT
 70
     3
  9
$DIMFRAC
 70
     0
  9
$DIMLDRBLK
  1

  9
$DIMLUNIT
 70
     2
  9
$DIMLWD
 70
    -2
  9
$DIMLWE
 70
    -2
  9
$DIMTMOVE
 70
     0
  9
$LUNITS
 70
     2
  9
$LUPREC
 70
     2
  9
$SKETCHINC
 40
1.0
  9
$FILLETRAD
 40
10.0
  9
$AUNITS
 70
     0
  9
$AUPREC
 70
     2
  9
$MENU
  1
.
  9
$ELEVATION
 40
0.0
  9
$PELEVATION
 40
0.0
  9
$THICKNESS
 40
0.0
  9
$LIMCHECK
 70
     0
  9
$CHAMFERA
 40
0.0
  9
$CHAMFERB
 40
0.0
  9
$CHAMFERC
 40
0.0
  9
$CHAMFERD
 40
0.0
  9
$SKPOLY
 70
     0
  9
$TDCREATE
 40
2458260.577402674
  9
$TDUCREATE
 40
2458260.202402674
  9
$TDUPDATE
 40
2458268.578632928
  9
$TDUUPDATE
 40
2458268.203632928
  9
$TDINDWG
 40
0.0005066319
  9
$TDUSRTIMER
 40
2458268.203126343
  9
$USRTIMER
 70
     1
  9
$ANGBASE
 50
0.0
  9
$ANGDIR
 70
     0
  9
$PDMODE
 70
     0
  9
$PDSIZE
 40
-1.0
  9
$PLINEWID
 40
0.0
  9
$SPLFRAME
 70
     0
  9
$SPLINETYPE
 70
     6
  9
$SPLINESEGS
 70
     8
  9
$HANDSEED
  5
14B
  9
$SURFTAB1
 70
     6
  9
$SURFTAB2
 70
     6
  9
$SURFTYPE
 70
     6
  9
$SURFU
 70
     6
  9
$SURFV
 70
     6
  9
$UCSBASE
  2

  9
$UCSNAME
  2

  9
$UCSORG
 10
0.0
 20
0.0
 30
0.0
  9
$UCSXDIR
 10
1.0
 20
0.0
 30
0.0
  9
$UCSYDIR
 10
0.0
 20
1.0
 30
0.0
  9
$UCSORTHOREF
  2

  9
$UCSORTHOVIEW
 70
     0
  9
$UCSORGTOP
 10
0.0
 20
0.0
 30
0.0
  9
$UCSORGBOTTOM
 10
0.0
 20
0.0
 30
0.0
  9
$UCSORGLEFT
 10
0.0
 20
0.0
 30
0.0
  9
$UCSORGRIGHT
 10
0.0
 20
0.0
 30
0.0
  9
$UCSORGFRONT
 10
0.0
 20
0.0
 30
0.0
  9
$UCSORGBACK
 10
0.0
 20
0.0
 30
0.0
  9
$PUCSBASE
  2

  9
$PUCSNAME
  2

  9
$PUCSORG
 10
0.0
 20
0.0
 30
0.0
  9
$PUCSXDIR
 10
1.0
 20
0.0
 30
0.0
  9
$PUCSYDIR
 10
0.0
 20
1.0
 30
0.0
  9
$PUCSORTHOREF
  2

  9
$PUCSORTHOVIEW
 70
     0
  9
$PUCSORGTOP
 10
0.0
 20
0.0
 30
0.0
  9
$PUCSORGBOTTOM
 10
0.0
 20
0.0
 30
0.0
  9
$PUCSORGLEFT
 10
0.0
 20
0.0
 30
0.0
  9
$PUCSORGRIGHT
 10
0.0
 20
0.0
 30
0.0
  9
$PUCSORGFRONT
 10
0.0
 20
0.0
 30
0.0
  9
$PUCSORGBACK
 10
0.0
 20
0.0
 30
0.0
  9
$USERI1
 70
     0
  9
$USERI2
 70
     0
  9
$USERI3
 70
     0
  9
$USERI4
 70
     0
  9
$USERI5
 70
     0
  9
$USERR1
 40
0.0
  9
$USERR2
 40
0.0
  9
$USERR3
 40
0.0
  9
$USERR4
 40
0.0
  9
$USERR5
 40
0.0
  9
$WORLDVIEW
 70
     1
  9
$SHADEDGE
 70
     3
  9
$SHADEDIF
 70
    70
  9
$TILEMODE
 70
     1
  9
$MAXACTVP
 70
    64
  9
$PINSBASE
 10
0.0
 20
0.0
 30
0.0
  9
$PLIMCHECK
 70
     0
  9
$PEXTMIN
 10
1.000000000000000E+20
 20
1.000000000000000E+20
 30
1.000000000000000E+20
  9
$PEXTMAX
 10
-1.000000000000000E+20
 20
-1.000000000000000E+20
 30
-1.000000000000000E+20
  9
$PLIMMIN
 10
0.0
 20
0.0
  9
$PLIMMAX
 10
0.0
 20
0.0
  9
$UNITMODE
 70
     0
  9
$VISRETAIN
 70
     1
  9
$PLINEGEN
 70
     0
  9
$PSLTSCALE
 70
     1
  9
$TREEDEPTH
 70
  3020
  9
$CMLSTYLE
  2
Standard
  9
$CMLJUST
 70
     0
  9
$CMLSCALE
 40
20.0
  9
$PROXYGRAPHICS
 70
     1
  9
$MEASUREMENT
 70
     1
  9
$CELWEIGHT
370
    -1
  9
$ENDCAPS
280
     0
  9
$JOINSTYLE
280
     0
  9
$LWDISPLAY
290
     1
  9
$INSUNITS
 70
     4
  9
$HYPERLINKBASE
  1

  9
$STYLESHEET
  1

  9
$XEDIT
290
     1
  9
$CEPSNTYPE
380
     0
  9
$PSTYLEMODE
290
     1
  9
$FINGERPRINTGUID
  2
{9D2F8F95-199B-4C96-A9DD-DE7E95F799DC}
  9
$VERSIONGUID
  2
{FAEB1C32-E019-11D5-929B-00C0DF256EC4}
  9
$EXTNAMES
290
     1
  9
$PSVPSCALE
 40
0.0
  9
$OLESTARTUP
290
     0
  0
ENDSEC
  0
SECTION
  2
CLASSES
  0
CLASS
  1
ACDBDICTIONARYWDFLT
  2
AcDbDictionaryWithDefault
  3
ObjectDBX Classes
 90
        0
280
     0
281
     0
  0
CLASS
  1
VISUALSTYLE
  2
AcDbVisualStyle
  3
ObjectDBX Classes
 90
     4095
280
     0
281
     0
  0
CLASS
  1
MATERIAL
  2
AcDbMaterial
  3
ObjectDBX Classes
 90
     1153
280
     0
281
     0
  0
CLASS
  1
SCALE
  2
AcDbScale
  3
ObjectDBX Classes
 90
     1153
280
     0
281
     0
  0
CLASS
  1
TABLESTYLE
  2
AcDbTableStyle
  3
ObjectDBX Classes
 90
     4095
280
     0
281
     0
  0
CLASS
  1
MLEADERSTYLE
  2
AcDbMLeaderStyle
  3
ACDB_MLEADERSTYLE_CLASS
 90
     4095
280
     0
281
     0
  0
CLASS
  1
SUN
  2
AcDbSun
  3
SCENEOE
 90
     1153
280
     0
281
     0
  0
CLASS
  1
ACDBPLACEHOLDER
  2
AcDbPlaceHolder
  3
ObjectDBX Classes
 90
        0
280
     0
281
     0
  0
CLASS
  1
LAYOUT
  2
AcDbLayout
  3
ObjectDBX Classes
 90
        0
280
     0
281
     0
  0
CLASS
  1
RASTERVARIABLES
  2
AcDbRasterVariables
  3
ISM
 90
        0
280
     0
281
     0
  0
ENDSEC
  0
SECTION
  2
TABLES
  0
TABLE
  2
VPORT
  5
8
330
0
100
AcDbSymbolTable
 70
     1
  0
VPORT
  5
29
330
8
100
AcDbSymbolTableRecord
100
AcDbViewportTableRecord
  2
*Active
 70
     0
 10
0.0
 20
0.0
 11
1.0
 21
1.0
 12
9.645137900311767
 22
-12.10383739361505
 13
0.0
 23
0.0
 14
10.0
 24
10.0
 15
10.0
 25
10.0
 16
0.0
 26
0.0
 36
1.0
 17
0.0
 27
0.0
 37
0.0
 40
77.67587671340176
 41
1.739018087855297
 42
50.0
 43
0.0
 44
0.0
 50
0.0
 51
0.0
 71
    16
 72
  2000
 73
     1
 74
     3
 75
     0
 76
     0
 77
     0
 78
     0
281
     0
 65
     1
110
0.0
120
0.0
130
0.0
111
1.0
121
0.0
131
0.0
112
0.0
122
1.0
132
0.0
 79
     0
146
0.0
  0
ENDTAB
  0
TABLE
  2
LTYPE
  5
5
330
0
100
AcDbSymbolTable
 70
     6
  0
LTYPE
  5
14
330
5
100
AcDbSymbolTableRecord
100
AcDbLinetypeTableRecord
  2
ByBlock
 70
     0
  3

 72
    65
 73
     0
 40
0.0
  0
LTYPE
  5
15
330
5
100
AcDbSymbolTableRecord
100
AcDbLinetypeTableRecord
  2
ByLayer
 70
     0
  3

 72
    65
 73
     0
 40
0.0
  0
LTYPE
  5
16
330
5
100
AcDbSymbolTableRecord
100
AcDbLinetypeTableRecord
  2
Continuous
 70
     0
  3
Solid line
 72
    65
 73
     0
 40
0.0
  0
LTYPE
  5
6E
330
5
100
AcDbSymbolTableRecord
100
AcDbLinetypeTableRecord
  2
HIDDEN
 70
     0
  3
Hidden __ __ __ __ __ __ __ __ __ __ __ __ __ __
 72
    65
 73
     2
 40
1.905
 49
1.27
 74
     0
 49
-0.635
 74
     0
  0
LTYPE
  5
6F
330
5
100
AcDbSymbolTableRecord
100
AcDbLinetypeTableRecord
  2
PHANTOM
 70
     0
  3
Phantom ______  __  __  ______  __  __  ______
 72
    65
 73
     6
 40
12.7
 49
6.35
 74
     0
 49
-1.27
 74
     0
 49
1.27
 74
     0
 49
-1.27
 74
     0
 49
1.27
 74
     0
 49
-1.27
 74
     0
  0
LTYPE
  5
70
330
5
100
AcDbSymbolTableRecord
100
AcDbLinetypeTableRecord
  2
CENTER
 70
     0
  3
Center ____ _ ____ _ ____ _ ____ _ ____ _ ____
 72
    65
 73
     4
 40
10.16
 49
6.35
 74
     0
 49
-1.27
 74
     0
 49
1.27
 74
     0
 49
-1.27
 74
     0
  0
LTYPE
  5
71
330
5
100
AcDbSymbolTableRecord
100
AcDbLinetypeTableRecord
  2
CENTERX2
 70
     0
  3
Center (2x) ________  __  ________  __  _____
 72
    65
 73
     4
 40
20.32
 49
12.7
 74
     0
 49
-2.54
 74
     0
 49
2.54
 74
     0
 49
-2.54
 74
     0
  0
LTYPE
  5
72
330
5
100
AcDbSymbolTableRecord
100
AcDbLinetypeTableRecord
  2
DOT2
 70
     0
  3
Dot (.5x) ........................................
 72
    65
 73
     2
 40
0.635
 49
0.0
 74
     0
 49
-0.635
 74
     0
  0
ENDTAB
  0
TABLE
  2
LAYER
  5
2
330
0
100
AcDbSymbolTable
 70
    17
  0
LAYER
  5
10
330
2
100
AcDbSymbolTableRecord
100
AcDbLayerTableRecord
  2
0
 70
     0
 62
     7
  6
Continuous
370
    -3
390
F
  0
LAYER
  5
73
330
2
100
AcDbSymbolTableRecord
100
AcDbLayerTableRecord
  2
FORMAT
 70
     0
 62
     2
  6
Continuous
370
    -3
390
F
  0
LAYER
  5
74
330
2
100
AcDbSymbolTableRecord
100
AcDbLayerTableRecord
  2
외형선
 70
     0
 62
   100
  6
Continuous
370
    35
390
F
  0
LAYER
  5
75
330
2
100
AcDbSymbolTableRecord
100
AcDbLayerTableRecord
  2
숨은선
 70
     0
 62
     2
  6
HIDDEN
370
    25
390
F
  0
LAYER
  5
76
330
2
100
AcDbSymbolTableRecord
100
AcDbLayerTableRecord
  2
중심선
 70
     0
 62
     1
  6
CENTERX2
370
    -3
390
F
  0
LAYER
  5
77
330
2
100
AcDbSymbolTableRecord
100
AcDbLayerTableRecord
  2
파단선
 70
     0
 62
     4
  6
Continuous
370
    -3
390
F
  0
LAYER
  5
78
330
2
100
AcDbSymbolTableRecord
100
AcDbLayerTableRecord
  2
해칭선
 70
     0
 62
   100
  6
Continuous
370
    -3
390
F
  0
LAYER
  5
79
330
2
100
AcDbSymbolTableRecord
100
AcDbLayerTableRecord
  2
가는실선
 70
     0
 62
     4
  6
Continuous
370
    -3
390
F
  0
LAYER
  5
7A
330
2
100
AcDbSymbolTableRecord
100
AcDbLayerTableRecord
  2
치수_보조선
 70
     0
 62
     4
  6
Continuous
370
    -3
390
F
  0
LAYER
  5
7B
330
2
100
AcDbSymbolTableRecord
100
AcDbLayerTableRecord
  2
치수문자_일반주서
 70
     0
 62
     7
  6
Continuous
370
    25
390
F
  0
LAYER
  5
7C
330
2
100
AcDbSymbolTableRecord
100
AcDbLayerTableRecord
  2
개별주서
 70
     0
 62
   100
  6
Continuous
370
    35
390
F
  0
LAYER
  5
7D
330
2
100
AcDbSymbolTableRecord
100
AcDbLayerTableRecord
  2
중간선
 70
     0
 62
     2
  6
Continuous
370
    25
390
F
  0
LAYER
  5
7E
330
2
100
AcDbSymbolTableRecord
100
AcDbLayerTableRecord
  2
윤곽선
 70
     0
 62
     3
  6
Continuous
370
    50
390
F
  0
LAYER
  5
7F
330
2
100
AcDbSymbolTableRecord
100
AcDbLayerTableRecord
  2
중심마크
 70
     0
 62
   100
  6
Continuous
370
    35
390
F
  0
LAYER
  5
80
330
2
100
AcDbSymbolTableRecord
100
AcDbLayerTableRecord
  2
가상선
 70
     0
 62
     4
  6
PHANTOM
370
    -3
390
F
  0
LAYER
  5
81
330
2
100
AcDbSymbolTableRecord
100
AcDbLayerTableRecord
  2
특수지정선
 70
     0
 62
     5
  6
CENTERX2
370
    70
390
F
  0
LAYER
  5
13B
330
2
100
AcDbSymbolTableRecord
100
AcDbLayerTableRecord
  2
Defpoints
 70
     0
 62
     7
  6
Continuous
290
     0
370
    -3
390
F
  0
ENDTAB
  0
TABLE
  2
STYLE
  5
3
330
0
100
AcDbSymbolTable
 70
     2
  0
STYLE
  5
11
330
3
100
AcDbSymbolTableRecord
100
AcDbTextStyleTableRecord
  2
Standard
 70
     0
 40
0.0
 41
1.0
 50
0.0
 71
     0
 42
3.5
  3
txt
  4

  0
STYLE
  5
97
330
3
100
AcDbSymbolTableRecord
100
AcDbTextStyleTableRecord
  2
SLDTEXTSTYLE0
 70
     0
 40
0.0
 41
0.75
 50
0.0
 71
     0
 42
3.5
  3
TXT
  4

  0
ENDTAB
  0
TABLE
  2
VIEW
  5
6
330
0
100
AcDbSymbolTable
 70
     0
  0
ENDTAB
  0
TABLE
  2
UCS
  5
7
330
0
100
AcDbSymbolTable
 70
     0
  0
ENDTAB
  0
TABLE
  2
APPID
  5
9
330
0
100
AcDbSymbolTable
 70
     1
  0
APPID
  5
12
330
9
100
AcDbSymbolTableRecord
100
AcDbRegAppTableRecord
  2
ACAD
 70
     0
  0
ENDTAB
  0
TABLE
  2
DIMSTYLE
  5
A
330
0
100
AcDbSymbolTable
 70
     4
100
AcDbDimStyleTable
  0
DIMSTYLE
105
27
330
A
100
AcDbSymbolTableRecord
100
AcDbDimStyleTableRecord
  2
ISO-25
 70
     0
 41
2.5
 42
0.625
 43
3.75
 44
1.25
 73
     0
 74
     0
 77
     1
 78
     8
140
2.5
141
2.5
143
0.03937007874016
147
0.625
171
     3
172
     1
178
     0
271
     2
272
     2
274
     3
278
    44
283
     0
284
     8
340
11
  0
DIMSTYLE
105
E0
102
{ACAD_REACTORS
330
DF
102
}
330
A
100
AcDbSymbolTableRecord
100
AcDbDimStyleTableRecord
  2
SLDDIMSTYLE0
 70
     0
 41
3.302
 44
0.0
 45
0.000000001
 73
     0
 74
     0
 77
     1
 78
    12
 79
     3
140
3.5
147
0.875
172
     1
173
     1
178
     0
271
     1
272
     1
276
     2
284
    12
289
     0
340
97
  0
DIMSTYLE
105
EE
102
{ACAD_REACTORS
330
ED
330
106
102
}
330
A
100
AcDbSymbolTableRecord
100
AcDbDimStyleTableRecord
  2
SLDDIMSTYLE1
 70
     0
 41
3.302
 44
0.0
 45
0.000000001
 73
     0
 74
     0
 77
     1
 78
    12
 79
     3
140
3.5
147
0.875
173
     1
178
     0
271
     2
272
     2
276
     2
284
    12
340
97
  0
DIMSTYLE
105
F9
102
{ACAD_REACTORS
330
F8
102
}
330
A
100
AcDbSymbolTableRecord
100
AcDbDimStyleTableRecord
  2
SLDDIMSTYLE2
 70
     0
 41
3.302
 44
0.0
 45
0.000000001
 73
     0
 74
     0
 77
     1
 78
    12
 79
     3
140
3.5
147
0.875
172
     1
173
     1
178
     0
271
     2
272
     2
276
     2
284
    12
289
     0
340
97
  0
ENDTAB
  0
TABLE
  2
BLOCK_RECORD
  5
1
330
0
100
AcDbSymbolTable
 70
     7
  0
BLOCK_RECORD
  5
1F
330
1
100
AcDbSymbolTableRecord
100
AcDbBlockTableRecord
  2
*Model_Space
340
22
  0
BLOCK_RECORD
  5
1B
330
1
100
AcDbSymbolTableRecord
100
AcDbBlockTableRecord
  2
*Paper_Space
340
1E
  0
BLOCK_RECORD
  5
23
330
1
100
AcDbSymbolTableRecord
100
AcDbBlockTableRecord
  2
*Paper_Space0
340
26
  0
BLOCK_RECORD
  5
82
330
1
100
AcDbSymbolTableRecord
100
AcDbBlockTableRecord
  2
블럭10
340
0
102
{BLKREFS
331
D8
102
}
  0
BLOCK_RECORD
  5
E1
330
1
100
AcDbSymbolTableRecord
100
AcDbBlockTableRecord
  2
_D
340
0
  0
BLOCK_RECORD
  5
EF
330
1
100
AcDbSymbolTableRecord
100
AcDbBlockTableRecord
  2
_D_1
340
0
  0
BLOCK_RECORD
  5
FA
330
1
100
AcDbSymbolTableRecord
100
AcDbBlockTableRecord
  2
_D_2
340
0
  0
BLOCK_RECORD
  5
107
330
1
100
AcDbSymbolTableRecord
100
AcDbBlockTableRecord
  2
_D_3
340
0
  0
BLOCK_RECORD
  5
110
330
1
100
AcDbSymbolTableRecord
100
AcDbBlockTableRecord
  2
SW_DOWELSYMBOL_0
340
0
102
{BLKREFS
331
116
102
}
  0
ENDTAB
  0
ENDSEC
  0
SECTION
  2
BLOCKS
  0
BLOCK
  5
20
330
1F
100
AcDbEntity
  8
0
100
AcDbBlockBegin
  2
*Model_Space
 70
     0
 10
0.0
 20
0.0
 30
0.0
  3
*Model_Space
  1

  0
ENDBLK
  5
21
330
1F
100
AcDbEntity
  8
0
100
AcDbBlockEnd
  0
BLOCK
  5
1C
330
1B
100
AcDbEntity
 67
     1
  8
0
100
AcDbBlockBegin
  2
*Paper_Space
 70
     0
 10
0.0
 20
0.0
 30
0.0
  3
*Paper_Space
  1

  0
ENDBLK
  5
1D
330
1B
100
AcDbEntity
 67
     1
  8
0
100
AcDbBlockEnd
  0
BLOCK
  5
24
330
23
100
AcDbEntity
  8
0
100
AcDbBlockBegin
  2
*Paper_Space0
 70
     0
 10
0.0
 20
0.0
 30
0.0
  3
*Paper_Space0
  1

  0
ENDBLK
  5
25
330
23
100
AcDbEntity
  8
0
100
AcDbBlockEnd
  0
BLOCK
  5
83
330
82
100
AcDbEntity
  8
0
100
AcDbBlockBegin
  2
블럭10
 70
     2
 10
0.0
 20
0.0
 30
0.0
  3
블럭10
  1

  0
ELLIPSE
  5
85
330
82
100
AcDbEntity
  8
중심선
100
AcDbEllipse
 10
20.54032771741204
 20
12.0471743016438
 30
0.0
 11
6.600054785286829
 21
-1.261213355974178E-13
 31
0.0
210
0.0
220
0.0
230
1.0
 40
0.636358354079598
 41
0.9219305317359503
 42
6.513795318482858
  0
ELLIPSE
  5
86
330
82
100
AcDbEntity
  8
중심선
100
AcDbEllipse
 10
20.54032771746488
 20
12.04717430159265
 30
0.0
 11
3.960054785062283
 21
1.540847449632565E-10
 31
0.0
210
0.0
220
0.0
230
1.0
 40
0.3939339440162632
 41
1.131841032648279
 42
5.62031148352944
  0
LINE
  5
87
330
82
100
AcDbEntity
  8
중심선
100
AcDbLine
 10
2.268634060543552
 20
16.24717430164393
 30
0.0
 11
5.714909304380834
 21
16.24717430164393
 31
0.0
  0
LINE
  5
88
330
82
100
AcDbEntity
  8
중심선
100
AcDbLine
 10
5.245725140726316
 20
7.84717430164391
 30
0.0
 11
8.692000384563599
 21
7.84717430164391
 31
0.0
  0
LINE
  5
89
330
82
100
AcDbEntity
  8
중심선
100
AcDbLine
 10
15.74043728645272
 20
16.24717430164393
 30
0.0
 11
8.692000384563599
 21
7.84717430164391
 31
0.0
  0
LINE
  5
8A
330
82
100
AcDbEntity
  8
중심선
100
AcDbLine
 10
0.1404042013395286
 20
13.71084872107135
 30
0.0
 11
3.58671253028996
 21
13.71088815037384
 31
0.0
  0
LINE
  5
8B
330
82
100
AcDbEntity
  8
중심선
100
AcDbLine
 10
2.750260043222114
 20
10.84717430164391
 30
0.0
 11
6.196535287059397
 21
10.84717430164391
 31
0.0
  0
LINE
  5
8C
330
82
100
AcDbEntity
  8
중심선
100
AcDbLine
 10
12.29416204261559
 20
16.24717430164393
 30
0.0
 11
5.245725140726316
 21
7.84717430164391
 31
0.0
  0
LINE
  5
8D
330
82
100
AcDbEntity
  8
중심선
100
AcDbLine
 10
10.72767329541681
 20
16.24717430164393
 30
0.0
 11
6.196535287059397
 21
10.84717430164391
 31
0.0
  0
LINE
  5
8E
330
82
100
AcDbEntity
  8
중심선
100
AcDbLine
 10
7.28139805157953
 20
16.24717430164393
 30
0.0
 11
2.750260043222114
 21
10.84717430164391
 31
0.0
  0
LINE
  5
8F
330
82
100
AcDbEntity
  8
중심선
100
AcDbLine
 10
5.714909304380834
 20
16.24717430164393
 30
0.0
 11
3.58671253028996
 21
13.71088815037384
 31
0.0
  0
LINE
  5
90
330
82
100
AcDbEntity
  8
중심선
100
AcDbLine
 10
2.268634060543552
 20
16.24717430164393
 30
0.0
 11
0.1404042013395286
 21
13.71084872107135
 31
0.0
  0
LINE
  5
91
330
82
100
AcDbEntity
  8
중심선
100
AcDbLine
 10
7.28139805157953
 20
16.24717430164393
 30
0.0
 11
10.72767329541681
 21
16.24717430164393
 31
0.0
  0
LINE
  5
92
330
82
100
AcDbEntity
  8
중심선
100
AcDbLine
 10
12.29416204261559
 20
16.24717430164393
 30
0.0
 11
15.74043728645272
 21
16.24717430164393
 31
0.0
  0
LINE
  5
93
330
82
100
AcDbEntity
  8
중심선
100
AcDbLine
 10
19.22036997980202
 20
11.08717430171403
 30
0.0
 11
23.66174974927406
 21
11.08717430171406
 31
0.0
  0
LINE
  5
94
330
82
100
AcDbEntity
  8
중심선
100
AcDbLine
 10
19.22039502424796
 20
13.00717430171391
 30
0.0
 11
19.22036997980202
 21
11.08717430171403
 31
0.0
  0
LINE
  5
95
330
82
100
AcDbEntity
  8
중심선
100
AcDbLine
 10
19.22039502424796
 20
13.00717430171391
 30
0.0
 11
26.96566020931264
 21
13.00717430171391
 31
0.0
  0
LINE
  5
96
330
82
100
AcDbEntity
  8
중심선
100
AcDbLine
 10
22.22332737316547
 20
13.45928029700563
 30
0.0
 11
24.52862924686651
 21
15.39360700705356
 31
0.0
  0
ATTDEF
  5
98
330
82
100
AcDbEntity
  8
FORMAT
 62
     2
100
AcDbText
 10
-16.11926103943555
 20
2.075366912832191
 30
0.0
 40
4.233333333333333
  1
SEME7208050E [ 4 FLUTE ]
 41
0.75
  7
SLDTEXTSTYLE0
 11
-16.11926103943555
 21
-0.0412997538344756
 31
0.0
100
AcDbAttributeDefinition
  3

  2
AUTOATTR0
 70
     0
 74
     1
  0
ENDBLK
  5
84
330
82
100
AcDbEntity
  8
0
100
AcDbBlockEnd
  0
BLOCK
  5
E2
330
E1
100
AcDbEntity
  8
0
100
AcDbBlockBegin
  2
_D
 70
     0
 10
0.0
 20
0.0
 30
0.0
  3
_D
  1

  0
LINE
  5
E4
330
E1
100
AcDbEntity
  8
치수문자_일반주서
 62
     0
370
    -2
100
AcDbLine
 10
60.06249999999998
 20
-4.000000000000012
 30
0.0
 11
75.31037054473516
 21
-3.999999999999956
 31
0.0
  0
LINE
  5
E5
330
E1
100
AcDbEntity
  8
치수문자_일반주서
 62
     0
370
    -2
100
AcDbLine
 10
60.06249999999998
 20
4.000000000000001
 30
0.0
 11
75.31037054473514
 21
4.000000000000059
 31
0.0
  0
LINE
  5
E6
330
E1
100
AcDbEntity
  8
치수문자_일반주서
 62
     0
370
    -2
100
AcDbLine
 10
75.31037054473516
 20
-3.999999999999956
 30
0.0
 11
75.3103705447351
 21
16.72900000000006
 31
0.0
  0
LINE
  5
E7
330
E1
100
AcDbEntity
  8
치수문자_일반주서
 62
     0
370
    -2
100
AcDbLine
 10
75.31037054473516
 20
-3.999999999999956
 30
0.0
 11
75.31037054473514
 21
4.000000000000059
 31
0.0
  0
LINE
  5
E8
330
E1
100
AcDbEntity
  8
치수문자_일반주서
 62
     0
370
    -2
100
AcDbLine
 10
75.31037054473518
 20
-7.301999999999955
 30
0.0
 11
75.31037054473519
 21
-10.60399999999995
 31
0.0
  0
LINE
  5
E9
330
E1
100
AcDbEntity
  8
치수문자_일반주서
 62
     0
370
    -2
100
AcDbLine
 10
75.31037054473512
 20
7.302000000000058
 30
0.0
 11
75.31037054473511
 21
10.60400000000006
 31
0.0
  0
SOLID
  5
EA
330
E1
100
AcDbEntity
  8
치수문자_일반주서
 62
     0
100
AcDbTrace
 10
75.8607038780685
 20
-7.301999999999953
 30
0.0
 11
74.76003721140185
 21
-7.301999999999957
 31
0.0
 12
75.31037054473516
 22
-3.999999999999956
 32
0.0
 13
75.31037054473516
 23
-3.999999999999956
 33
0.0
  0
SOLID
  5
EB
330
E1
100
AcDbEntity
  8
치수문자_일반주서
 62
     0
100
AcDbTrace
 10
74.7600372114018
 20
7.302000000000056
 30
0.0
 11
75.86070387806845
 21
7.30200000000006
 31
0.0
 12
75.31037054473514
 22
4.000000000000059
 32
0.0
 13
75.31037054473514
 23
4.000000000000059
 33
0.0
  0
MTEXT
  5
EC
330
E1
100
AcDbEntity
  8
치수문자_일반주서
 62
     0
100
AcDbMText
 10
70.93537054473511
 20
13.66650000000004
 30
0.0
 40
3.5
 41
0.0
 71
     2
 72
     1
  1
\A1;%%c8
  7
SLDTEXTSTYLE0
 11
-3.552713678800495E-15
 21
1.0
 31
0.0
 73
     1
 44
1.0
  0
POINT
  5
145
330
E1
100
AcDbEntity
  8
Defpoints
 62
     0
100
AcDbPoint
 10
59.99999999999998
 20
-4.000000000000012
 30
0.0
  0
POINT
  5
146
330
E1
100
AcDbEntity
  8
Defpoints
 62
     0
100
AcDbPoint
 10
59.99999999999998
 20
4.000000000000001
 30
0.0
  0
POINT
  5
147
330
E1
100
AcDbEntity
  8
Defpoints
 62
     0
100
AcDbPoint
 10
75.31037054473515
 20
4.000000000000058
 30
0.0
  0
ENDBLK
  5
E3
330
E1
100
AcDbEntity
  8
0
100
AcDbBlockEnd
  0
BLOCK
  5
F0
330
EF
100
AcDbEntity
  8
0
100
AcDbBlockBegin
  2
_D_1
 70
     0
 10
0.0
 20
0.0
 30
0.0
  3
_D_1
  1

  0
LINE
  5
F2
330
EF
100
AcDbEntity
  8
치수문자_일반주서
 62
     0
370
    -2
100
AcDbLine
 10
-40.00000000000002
 20
3.56249999999999
 30
0.0
 11
-40.00000000000001
 21
21.38913260158164
 31
0.0
  0
LINE
  5
F3
330
EF
100
AcDbEntity
  8
치수문자_일반주서
 62
     0
370
    -2
100
AcDbLine
 10
59.99999999999998
 20
4.062500000000005
 30
0.0
 11
59.99999999999999
 21
21.38913260158164
 31
0.0
  0
LINE
  5
F4
330
EF
100
AcDbEntity
  8
치수문자_일반주서
 62
     0
370
    -2
100
AcDbLine
 10
-36.69800000000001
 20
21.38913260158164
 30
0.0
 11
56.69799999999999
 21
21.38913260158164
 31
0.0
  0
SOLID
  5
F5
330
EF
100
AcDbEntity
  8
치수문자_일반주서
 62
     0
100
AcDbTrace
 10
-36.69800000000001
 20
21.93946593491497
 30
0.0
 11
-36.69800000000001
 21
20.83879926824831
 31
0.0
 12
-40.00000000000001
 22
21.38913260158164
 32
0.0
 13
-40.00000000000001
 23
21.38913260158164
 33
0.0
  0
SOLID
  5
F6
330
EF
100
AcDbEntity
  8
치수문자_일반주서
 62
     0
100
AcDbTrace
 10
56.69799999999999
 20
20.83879926824831
 30
0.0
 11
56.69799999999999
 21
21.93946593491497
 31
0.0
 12
59.99999999999999
 22
21.38913260158164
 32
0.0
 13
59.99999999999999
 23
21.38913260158164
 33
0.0
  0
MTEXT
  5
F7
330
EF
100
AcDbEntity
  8
치수문자_일반주서
 62
     0
100
AcDbMText
 10
9.999999999999982
 20
25.76413260158164
 30
0.0
 40
3.5
 41
0.0
 71
     2
 72
     1
  1
\A1;100
  7
SLDTEXTSTYLE0
 73
     1
 44
1.0
  0
POINT
  5
13C
330
EF
100
AcDbEntity
  8
Defpoints
 62
     0
100
AcDbPoint
 10
-40.00000000000002
 20
3.49999999999999
 30
0.0
  0
POINT
  5
13D
330
EF
100
AcDbEntity
  8
Defpoints
 62
     0
100
AcDbPoint
 10
59.99999999999998
 20
4.000000000000005
 30
0.0
  0
POINT
  5
13E
330
EF
100
AcDbEntity
  8
Defpoints
 62
     0
100
AcDbPoint
 10
59.99999999999998
 20
21.38913260158164
 30
0.0
  0
ENDBLK
  5
F1
330
EF
100
AcDbEntity
  8
0
100
AcDbBlockEnd
  0
BLOCK
  5
FB
330
FA
100
AcDbEntity
  8
0
100
AcDbBlockBegin
  2
_D_2
 70
     0
 10
0.0
 20
0.0
 30
0.0
  3
_D_2
  1

  0
LINE
  5
FD
330
FA
100
AcDbEntity
  8
치수문자_일반주서
 62
     0
370
    -2
100
AcDbLine
 10
-39.56250000000001
 20
3.999999999999998
 30
0.0
 11
-52.19542807744493
 21
3.99999999999995
 31
0.0
  0
LINE
  5
FE
330
FA
100
AcDbEntity
  8
치수문자_일반주서
 62
     0
370
    -2
100
AcDbLine
 10
-39.56250000000001
 20
-4.000000000000008
 30
0.0
 11
-52.1954280774449
 21
-4.000000000000057
 31
0.0
  0
LINE
  5
FF
330
FA
100
AcDbEntity
  8
치수문자_일반주서
 62
     0
370
    -2
100
AcDbLine
 10
-52.19542807744493
 20
3.99999999999995
 30
0.0
 11
-52.19542807744498
 21
16.72899999999995
 31
0.0
  0
LINE
  5
100
330
FA
100
AcDbEntity
  8
치수문자_일반주서
 62
     0
370
    -2
100
AcDbLine
 10
-52.19542807744493
 20
3.99999999999995
 30
0.0
 11
-52.1954280774449
 21
-4.000000000000057
 31
0.0
  0
LINE
  5
101
330
FA
100
AcDbEntity
  8
치수문자_일반주서
 62
     0
370
    -2
100
AcDbLine
 10
-52.19542807744494
 20
7.30199999999995
 30
0.0
 11
-52.19542807744496
 21
10.60399999999995
 31
0.0
  0
LINE
  5
102
330
FA
100
AcDbEntity
  8
치수문자_일반주서
 62
     0
370
    -2
100
AcDbLine
 10
-52.19542807744489
 20
-7.302000000000056
 30
0.0
 11
-52.19542807744487
 21
-10.60400000000006
 31
0.0
  0
SOLID
  5
103
330
FA
100
AcDbEntity
  8
치수문자_일반주서
 62
     0
100
AcDbTrace
 10
-52.74576141077828
 20
7.301999999999948
 30
0.0
 11
-51.64509474411161
 21
7.301999999999952
 31
0.0
 12
-52.19542807744493
 22
3.99999999999995
 32
0.0
 13
-52.19542807744493
 23
3.99999999999995
 33
0.0
  0
SOLID
  5
104
330
FA
100
AcDbEntity
  8
치수문자_일반주서
 62
     0
100
AcDbTrace
 10
-51.64509474411155
 20
-7.302000000000055
 30
0.0
 11
-52.74576141077822
 21
-7.302000000000058
 31
0.0
 12
-52.1954280774449
 22
-4.000000000000057
 32
0.0
 13
-52.1954280774449
 23
-4.000000000000057
 33
0.0
  0
MTEXT
  5
105
330
FA
100
AcDbEntity
  8
치수문자_일반주서
 62
     0
100
AcDbMText
 10
-56.57042807744497
 20
13.66649999999994
 30
0.0
 40
3.5
 41
0.0
 71
     2
 72
     1
  1
\A1;%%c8
  7
SLDTEXTSTYLE0
 11
-3.552713678800499E-15
 21
1.0
 31
0.0
 73
     1
 44
1.0
  0
POINT
  5
142
330
FA
100
AcDbEntity
  8
Defpoints
 62
     0
100
AcDbPoint
 10
-39.50000000000001
 20
3.999999999999999
 30
0.0
  0
POINT
  5
143
330
FA
100
AcDbEntity
  8
Defpoints
 62
     0
100
AcDbPoint
 10
-39.50000000000001
 20
-4.000000000000008
 30
0.0
  0
POINT
  5
144
330
FA
100
AcDbEntity
  8
Defpoints
 62
     0
100
AcDbPoint
 10
-52.1954280774449
 20
-4.000000000000055
 30
0.0
  0
ENDBLK
  5
FC
330
FA
100
AcDbEntity
  8
0
100
AcDbBlockEnd
  0
BLOCK
  5
108
330
107
100
AcDbEntity
  8
0
100
AcDbBlockBegin
  2
_D_3
 70
     0
 10
0.0
 20
0.0
 30
0.0
  3
_D_3
  1

  0
LINE
  5
10A
330
107
100
AcDbEntity
  8
치수문자_일반주서
 62
     0
370
    -2
100
AcDbLine
 10
9.99999999999998
 20
3.724775851331745
 30
0.0
 11
9.999999999999979
 21
14.50819415391939
 31
0.0
  0
LINE
  5
10B
330
107
100
AcDbEntity
  8
치수문자_일반주서
 62
     0
370
    -2
100
AcDbLine
 10
59.99999999999998
 20
4.062500000000005
 30
0.0
 11
59.99999999999998
 21
14.50819415391939
 31
0.0
  0
LINE
  5
10C
330
107
100
AcDbEntity
  8
치수문자_일반주서
 62
     0
370
    -2
100
AcDbLine
 10
13.30199999999998
 20
14.50819415391939
 30
0.0
 11
56.69799999999998
 21
14.50819415391939
 31
0.0
  0
SOLID
  5
10D
330
107
100
AcDbEntity
  8
치수문자_일반주서
 62
     0
100
AcDbTrace
 10
13.30199999999998
 20
15.05852748725273
 30
0.0
 11
13.30199999999998
 21
13.95786082058606
 31
0.0
 12
9.999999999999979
 22
14.50819415391939
 32
0.0
 13
9.999999999999979
 23
14.50819415391939
 33
0.0
  0
SOLID
  5
10E
330
107
100
AcDbEntity
  8
치수문자_일반주서
 62
     0
100
AcDbTrace
 10
56.69799999999998
 20
13.95786082058606
 30
0.0
 11
56.69799999999998
 21
15.05852748725273
 31
0.0
 12
59.99999999999998
 22
14.50819415391939
 32
0.0
 13
59.99999999999998
 23
14.50819415391939
 33
0.0
  0
MTEXT
  5
10F
330
107
100
AcDbEntity
  8
치수문자_일반주서
 62
     0
100
AcDbMText
 10
34.99999999999999
 20
18.88319415391939
 30
0.0
 40
3.5
 41
0.0
 71
     2
 72
     1
  1
\A1;50
  7
SLDTEXTSTYLE0
 73
     1
 44
1.0
  0
POINT
  5
13F
330
107
100
AcDbEntity
  8
Defpoints
 62
     0
100
AcDbPoint
 10
9.99999999999998
 20
3.662275851331745
 30
0.0
  0
POINT
  5
140
330
107
100
AcDbEntity
  8
Defpoints
 62
     0
100
AcDbPoint
 10
59.99999999999998
 20
4.000000000000005
 30
0.0
  0
POINT
  5
141
330
107
100
AcDbEntity
  8
Defpoints
 62
     0
100
AcDbPoint
 10
59.99999999999998
 20
14.50819415391939
 30
0.0
  0
ENDBLK
  5
109
330
107
100
AcDbEntity
  8
0
100
AcDbBlockEnd
  0
BLOCK
  5
111
330
110
100
AcDbEntity
  8
0
100
AcDbBlockBegin
  2
SW_DOWELSYMBOL_0
 70
     0
 10
0.0
 20
0.0
 30
0.0
  3
SW_DOWELSYMBOL_0
  1

  0
CIRCLE
  5
113
330
110
100
AcDbEntity
  8
해칭선
 62
     0
100
AcDbCircle
 10
0.0
 20
0.0
 30
0.0
 40
3.000000000000003
  0
HATCH
  5
114
330
110
100
AcDbEntity
  8
0
  6
Continuous
 62
     0
370
    18
100
AcDbHatch
 10
0.0
 20
0.0
 30
0.0
210
0.0
220
0.0
230
1.0
  2
SOLID
 70
     1
 71
     0
 91
        1
 92
        0
 93
        3
 72
     2
 10
-0.0000036648522359
 20
-0.0000000000000043
 40
3.000000000000003
 50
0.0
 51
90.0
 73
     1
 72
     1
 10
-0.0000036648522359
 20
2.999999999999998
 11
-0.0000036648522359
 21
-0.0000000000000044
 72
     1
 10
-0.0000036648522359
 20
-0.0000000000000043
 11
2.999996335147767
 21
-0.0000000000000043
 97
        0
 75
     0
 76
     1
 98
        1
 10
0.0
 20
0.0
  0
HATCH
  5
115
330
110
100
AcDbEntity
  8
0
  6
Continuous
 62
     0
370
    18
100
AcDbHatch
 10
0.0
 20
0.0
 30
0.0
210
0.0
220
0.0
230
1.0
  2
SOLID
 70
     1
 71
     0
 91
        1
 92
        0
 93
        3
 72
     2
 10
-0.0000036648522359
 20
-0.0000000000000043
 40
3.000000000000003
 50
180.0
 51
270.0000000000008
 73
     1
 72
     1
 10
-0.0000036648522359
 20
-3.000000000000007
 11
-0.0000036648522359
 21
-0.0000000000000044
 72
     1
 10
-0.0000036648522359
 20
-0.0000000000000043
 11
-3.000003664852239
 21
-0.0000000000000043
 97
        0
 75
     0
 76
     1
 98
        1
 10
0.0
 20
0.0
  0
ENDBLK
  5
112
330
110
100
AcDbEntity
  8
0
100
AcDbBlockEnd
  0
ENDSEC
  0
SECTION
  2
ENTITIES
  0
LINE
  5
99
330
1F
100
AcDbEntity
  8
0
  6
Continuous
 62
     4
370
    25
100
AcDbLine
 10
8.499822651964317
 20
3.999999999999995
 30
0.0
 11
-39.50000000000002
 21
3.999999999999992
 31
0.0
  0
LINE
  5
9A
330
1F
100
AcDbEntity
  8
0
  6
Continuous
 62
     4
370
    25
100
AcDbLine
 10
-39.50000000000002
 20
-4.000000000000007
 30
0.0
 11
8.49982265196432
 21
-4.000000000000004
 31
0.0
  0
LINE
  5
9B
330
1F
100
AcDbEntity
  8
0
  6
Continuous
 62
     4
370
    25
100
AcDbLine
 10
-39.50000000000002
 20
3.999999999999988
 30
0.0
 11
-40.00000000000002
 21
3.499999999999989
 31
0.0
  0
LINE
  5
9C
330
1F
100
AcDbEntity
  8
0
  6
Continuous
 62
     4
370
    25
100
AcDbLine
 10
-40.00000000000002
 20
-3.500000000000006
 30
0.0
 11
-39.50000000000002
 21
-4.000000000000003
 31
0.0
  0
LINE
  5
9D
330
1F
100
AcDbEntity
  8
0
  6
Continuous
 62
     1
370
    25
100
AcDbLine
 10
58.45231705923174
 20
-4.00000000000001
 30
0.0
 11
59.99999999999998
 21
-4.00000000000001
 31
0.0
  0
LINE
  5
9E
330
1F
100
AcDbEntity
  8
0
  6
Continuous
 62
     1
370
    25
100
AcDbLine
 10
14.92102369809727
 20
-4.00000000000001
 30
0.0
 11
18.01659188815835
 21
-4.00000000000001
 31
0.0
  0
LINE
  5
9F
330
1F
100
AcDbEntity
  8
0
  6
Continuous
 62
     1
370
    25
100
AcDbLine
 10
39.78139512620512
 20
4.000000000000001
 30
0.0
 11
36.68744148776992
 21
4.000000000000001
 31
0.0
  0
LINE
  5
A0
330
1F
100
AcDbEntity
  8
0
  6
Continuous
 62
     1
370
    25
100
AcDbLine
 10
25.80578994805401
 20
-4.00000000000001
 30
0.0
 11
28.90019146059846
 21
-4.00000000000001
 31
0.0
  0
LINE
  5
A1
330
1F
100
AcDbEntity
  8
0
  6
Continuous
 62
     1
370
    25
100
AcDbLine
 10
50.66299324444505
 20
4.000000000000001
 30
0.0
 11
47.56861712818895
 21
4.000000000000001
 31
0.0
  0
LINE
  5
A2
330
1F
100
AcDbEntity
  8
0
  6
Continuous
 62
     1
370
    25
100
AcDbLine
 10
47.56861712818886
 20
-4.00000000000001
 30
0.0
 11
50.66299324444505
 21
-4.00000000000001
 31
0.0
  0
LINE
  5
A3
330
1F
100
AcDbEntity
  8
0
  6
Continuous
 62
     1
370
    25
100
AcDbLine
 10
28.90019146059847
 20
4.000000000000001
 30
0.0
 11
25.80578994805396
 21
4.000000000000001
 31
0.0
  0
LINE
  5
A4
330
1F
100
AcDbEntity
  8
0
  6
Continuous
 62
     1
370
    25
100
AcDbLine
 10
36.68744148776992
 20
-4.00000000000001
 30
0.0
 11
39.78139512620506
 21
-4.00000000000001
 31
0.0
  0
LINE
  5
A5
330
1F
100
AcDbEntity
  8
0
  6
Continuous
 62
     1
370
    25
100
AcDbLine
 10
18.0165918881583
 20
4.000000000000001
 30
0.0
 11
14.92102369809723
 21
4.000000000000001
 31
0.0
  0
LINE
  5
A6
330
1F
100
AcDbEntity
  8
0
  6
Continuous
 62
     1
370
    25
100
AcDbLine
 10
59.99999999999998
 20
4.000000000000001
 30
0.0
 11
58.4523170592318
 21
4.000000000000001
 31
0.0
  0
SPLINE
  5
A7
330
1F
100
AcDbEntity
  8
0
  6
Continuous
 62
     4
370
    25
100
AcDbSpline
210
0.0
220
0.0
230
1.0
 70
     8
 71
     3
 72
    10
 73
     6
 74
     0
 42
0.000000001
 43
0.00000001
 40
0.0
 40
0.0
 40
0.0
 40
0.0
 40
0.5
 40
0.5
 40
1.0
 40
1.0
 40
1.0
 40
1.0
 10
8.903636734822351
 20
-1.011069103296642
 30
0.0
 10
8.777204150141996
 20
-0.9406146351927637
 30
0.0
 10
8.67358842026725
 20
-0.8366122330465042
 30
0.0
 10
8.534625161652087
 20
-0.5884408004710961
 30
0.0
 10
8.499822651964314
 20
-0.4445157051633666
 30
0.0
 10
8.499822651964314
 20
-0.2991753303137421
 30
0.0
  0
SPLINE
  5
A8
330
1F
100
AcDbEntity
  8
0
  6
Continuous
 62
     4
370
    25
100
AcDbSpline
210
0.0
220
0.0
230
1.0
 70
     8
 71
     3
 72
    16
 73
    12
 74
     0
 42
0.000000001
 43
0.00000001
 40
0.0
 40
0.0
 40
0.0
 40
0.0
 40
0.1250000000000002
 40
0.1250000000000002
 40
0.2500000000000004
 40
0.2500000000000004
 40
0.5000000000000003
 40
0.5000000000000003
 40
0.7500000000000002
 40
0.7500000000000002
 40
1.0
 40
1.0
 40
1.0
 40
1.0
 10
8.499822651964317
 20
2.17074227062907
 30
0.0
 10
8.499822651964317
 20
2.230702341753751
 30
0.0
 10
8.507781367018893
 20
2.288501553459716
 30
0.0
 10
8.540819164846319
 20
2.399860439806667
 30
0.0
 10
8.566253999652725
 20
2.453395601853023
 30
0.0
 10
8.665867048140573
 20
2.598547001517168
 30
0.0
 10
8.765618822938082
 20
2.6780313795534
 30
0.0
 10
9.009762219871483
 20
2.786361087479949
 30
0.0
 10
9.15017392446136
 20
2.81413421617694
 30
0.0
 10
9.432273179967352
 20
2.816301931909165
 30
0.0
 10
9.574109927450916
 20
2.790569921120838
 30
0.0
 10
9.697823752940316
 20
2.738314653965627
 30
0.0
  0
LINE
  5
A9
330
1F
100
AcDbEntity
  8
0
  6
Continuous
 62
     4
370
    25
100
AcDbLine
 10
8.499822651964317
 20
3.999999999999995
 30
0.0
 11
8.499822651964314
 21
3.98879607422235
 31
0.0
  0
SPLINE
  5
AA
330
1F
100
AcDbEntity
  8
0
  6
Continuous
 62
     4
370
    25
100
AcDbSpline
210
0.0
220
0.0
230
1.0
 70
     8
 71
     3
 72
    10
 73
     6
 74
     0
 42
0.000000001
 43
0.00000001
 40
0.0
 40
0.0
 40
0.0
 40
0.0
 40
0.5
 40
0.5
 40
1.0
 40
1.0
 40
1.0
 40
1.0
 10
8.903636734822351
 20
3.870108431085481
 30
0.0
 10
8.777204150141996
 20
3.888514720510568
 30
0.0
 10
8.67358842026725
 20
3.913563825463862
 30
0.0
 10
8.534625161652087
 20
3.958489518592076
 30
0.0
 10
8.499822651964314
 20
3.977894976787322
 30
0.0
 10
8.499822651964314
 20
3.988796074222351
 30
0.0
  0
SPLINE
  5
AB
330
1F
100
AcDbEntity
  8
0
  6
Continuous
 62
     4
370
    25
100
AcDbSpline
210
0.0
220
0.0
230
1.0
 70
     8
 71
     3
 72
     8
 73
     4
 74
     0
 42
0.000000001
 43
0.00000001
 40
0.0
 40
0.0
 40
0.0
 40
0.0
 40
1.0
 40
1.0
 40
1.0
 40
1.0
 10
10.00000000001137
 20
3.662275851329099
 30
0.0
 10
9.635012311984347
 20
3.747142204288813
 30
0.0
 10
9.270736310915247
 20
3.816665396107788
 30
0.0
 10
8.903636734822351
 20
3.870108431085482
 30
0.0
  0
LINE
  5
AC
330
1F
100
AcDbEntity
  8
0
  6
Continuous
 62
     4
370
    25
100
AcDbLine
 10
9.99999999999998
 20
3.662275851331747
 30
0.0
 11
9.999999999999979
 21
2.608134892575113
 31
0.0
  0
SPLINE
  5
AD
330
1F
100
AcDbEntity
  8
0
  6
Continuous
 62
     4
370
    25
100
AcDbSpline
210
0.0
220
0.0
230
1.0
 70
     8
 71
     3
 72
     8
 73
     4
 74
     0
 42
0.000000001
 43
0.00000001
 40
0.0
 40
0.0
 40
0.0
 40
0.0
 40
1.0
 40
1.0
 40
1.0
 40
1.0
 10
10.00000000001145
 20
2.608134892569988
 30
0.0
 10
9.898982895486391
 20
2.652417207356681
 30
0.0
 10
9.798505601361859
 20
2.695787823466827
 30
0.0
 10
9.697823752935747
 20
2.738314653967547
 30
0.0
  0
SPLINE
  5
AE
330
1F
100
AcDbEntity
  8
0
  6
Continuous
 62
     4
370
    25
100
AcDbSpline
210
0.0
220
0.0
230
1.0
 70
     8
 71
     3
 72
     8
 73
     4
 74
     0
 42
0.000000001
 43
0.00000001
 40
0.0
 40
0.0
 40
0.0
 40
0.0
 40
1.0
 40
1.0
 40
1.0
 40
1.0
 10
10.00000000001138
 20
-1.60864402176857
 30
0.0
 10
9.635012311984347
 20
-1.415435337417737
 30
0.0
 10
9.270736310915247
 20
-1.215635081601781
 30
0.0
 10
8.903636734822351
 20
-1.011069103296642
 30
0.0
  0
LINE
  5
AF
330
1F
100
AcDbEntity
  8
0
  6
Continuous
 62
     4
370
    25
100
AcDbLine
 10
9.99999999999998
 20
-1.60864402176254
 30
0.0
 11
9.999999999999979
 21
-3.032759862259634
 31
0.0
  0
SPLINE
  5
B0
330
1F
100
AcDbEntity
  8
0
  6
Continuous
 62
     4
370
    25
100
AcDbSpline
210
0.0
220
0.0
230
1.0
 70
     8
 71
     3
 72
     8
 73
     4
 74
     0
 42
0.000000001
 43
0.00000001
 40
0.0
 40
0.0
 40
0.0
 40
0.0
 40
1.0
 40
1.0
 40
1.0
 40
1.0
 10
10.00000000001145
 20
-3.032759862263874
 30
0.0
 10
9.898982895486395
 20
-2.994677634997543
 30
0.0
 10
9.798505601361859
 20
-2.955694783167123
 30
0.0
 10
9.697823752935747
 20
-2.915755966446171
 30
0.0
  0
SPLINE
  5
B1
330
1F
100
AcDbEntity
  8
0
  6
Continuous
 62
     4
370
    25
100
AcDbSpline
210
0.0
220
0.0
230
1.0
 70
     8
 71
     3
 72
    16
 73
    12
 74
     0
 42
0.000000001
 43
0.00000001
 40
0.0
 40
0.0
 40
0.0
 40
0.0
 40
0.125
 40
0.125
 40
0.25
 40
0.25
 40
0.5
 40
0.5
 40
0.7499999999999999
 40
0.7499999999999999
 40
1.0
 40
1.0
 40
1.0
 40
1.0
 10
8.499822651964317
 20
-3.359743739409915
 30
0.0
 10
8.499822651964317
 20
-3.321003326141631
 30
0.0
 10
8.507781367018893
 20
-3.281384248932151
 30
0.0
 10
8.540819164846319
 20
-3.200842360813554
 30
0.0
 10
8.566253999652725
 20
-3.15985682568781
 30
0.0
 10
8.665867048140573
 20
-3.043506864302539
 30
0.0
 10
8.765618822938082
 20
-2.972145306503523
 30
0.0
 10
9.009762219871487
 20
-2.870834666611989
 30
0.0
 10
9.150173924461363
 20
-2.842648578552489
 30
0.0
 10
9.432273179967352
 20
-2.840500969218107
 30
0.0
 10
9.57410992745092
 20
-2.866680747038488
 30
0.0
 10
9.697823752940316
 20
-2.915755966447991
 30
0.0
  0
LINE
  5
B2
330
1F
100
AcDbEntity
  8
0
  6
Continuous
 62
     4
370
    25
100
AcDbLine
 10
8.499822651964317
 20
-3.359743739409915
 30
0.0
 11
8.499822651964317
 21
-4.000000000000004
 31
0.0
  0
SPLINE
  5
B3
330
1F
100
AcDbEntity
  8
0
  6
Continuous
 62
     4
370
    25
100
AcDbSpline
210
0.0
220
0.0
230
1.0
 70
     8
 71
     3
 72
    10
 73
     6
 74
     0
 42
0.000000001
 43
0.00000001
 40
0.0
 40
0.0
 40
0.0
 40
0.0
 40
0.5
 40
0.5
 40
1.0
 40
1.0
 40
1.0
 40
1.0
 10
8.903636734822351
 20
-3.870108431085491
 30
0.0
 10
8.777204150141996
 20
-3.888514720510578
 30
0.0
 10
8.67358842026725
 20
-3.913563825463871
 30
0.0
 10
8.534625161652087
 20
-3.958489518592085
 30
0.0
 10
8.499822651964314
 20
-3.977894976787332
 30
0.0
 10
8.499822651964314
 20
-3.988796074222361
 30
0.0
  0
SPLINE
  5
B4
330
1F
100
AcDbEntity
  8
0
  6
Continuous
 62
     4
370
    25
100
AcDbSpline
210
0.0
220
0.0
230
1.0
 70
     8
 71
     3
 72
     8
 73
     4
 74
     0
 42
0.000000001
 43
0.00000001
 40
0.0
 40
0.0
 40
0.0
 40
0.0
 40
1.0
 40
1.0
 40
1.0
 40
1.0
 10
10.00000000001138
 20
-3.662275851329109
 30
0.0
 10
9.635012311984347
 20
-3.747142204288823
 30
0.0
 10
9.270736310915247
 20
-3.816665396107798
 30
0.0
 10
8.903636734822351
 20
-3.870108431085492
 30
0.0
  0
LINE
  5
B5
330
1F
100
AcDbEntity
  8
0
  6
Continuous
 62
     4
370
    25
100
AcDbLine
 10
-39.50000000000002
 20
3.999999999999988
 30
0.0
 11
-39.50000000000002
 21
-4.000000000000003
 31
0.0
  0
LINE
  5
B6
330
1F
100
AcDbEntity
  8
0
  6
Continuous
 62
     4
370
    25
100
AcDbLine
 10
8.499822651964317
 20
2.17074227062907
 30
0.0
 11
8.499822651964314
 21
-0.2991753303137422
 31
0.0
  0
LINE
  5
B7
330
1F
100
AcDbEntity
  8
0
  6
Continuous
 62
     4
370
    25
100
AcDbLine
 10
-40.00000000000002
 20
3.49999999999999
 30
0.0
 11
-40.00000000000002
 21
-3.500000000000008
 31
0.0
  0
SPLINE
  5
B8
330
1F
100
AcDbEntity
  8
0
  6
Continuous
 62
     4
370
    25
100
AcDbSpline
210
0.0
220
0.0
230
1.0
 70
    24
 71
     3
 72
    20
 73
    16
 74
     0
 42
0.000000001
 43
0.00000001
 40
0.0
 40
0.0
 40
0.0
 40
0.0
 40
0.125
 40
0.125
 40
0.2499999999999999
 40
0.2499999999999999
 40
0.4999999999999999
 40
0.4999999999999999
 40
0.625
 40
0.625
 40
0.75
 40
0.75
 40
0.875
 40
0.875
 40
1.0
 40
1.0
 40
1.0
 40
1.0
 10
9.999999999999979
 20
2.608134892575117
 30
0.0
 10
9.999999999999979
 20
2.502077825659142
 30
0.0
 10
9.999999999999979
 20
2.401317654600379
 30
0.0
 10
9.999999999999979
 20
2.168095385135365
 30
0.0
 10
9.999999999999979
 20
2.037698488034437
 30
0.0
 10
9.99999999999998
 20
1.600072264696198
 30
0.0
 10
9.99999999999998
 20
1.242978367529962
 30
0.0
 10
9.99999999999998
 20
0.6269178745511149
 30
0.0
 10
9.99999999999998
 20
0.4089195947882588
 30
0.0
 10
9.99999999999998
 20
-0.0369556404626081
 30
0.0
 10
9.99999999999998
 20
-0.2647431057228151
 30
0.0
 10
9.99999999999998
 20
-0.7056532139422781
 30
0.0
 10
9.99999999999998
 20
-0.9184849658019926
 30
0.0
 10
9.99999999999998
 20
-1.301351891643013
 30
0.0
 10
9.99999999999998
 20
-1.471038510995486
 30
0.0
 10
9.99999999999998
 20
-1.608644021762541
 30
0.0
  0
SPLINE
  5
B9
330
1F
100
AcDbEntity
  8
0
  6
Continuous
 62
     4
370
    25
100
AcDbSpline
210
0.0
220
0.0
230
1.0
 70
    24
 71
     3
 72
    10
 73
     6
 74
     0
 42
0.000000001
 43
0.00000001
 40
0.0
 40
0.0
 40
0.0
 40
0.0
 40
0.356934415698725
 40
0.6773111627860388
 40
1.0
 40
1.0
 40
1.0
 40
1.0
 10
9.999999999999984
 20
-3.101481144176329
 30
0.0
 10
9.999999999999984
 20
-3.160036859613854
 30
0.0
 10
9.999999999999984
 20
-3.271150940986818
 30
0.0
 10
9.999999999999984
 20
-3.464305950212219
 30
0.0
 10
9.999999999999984
 20
-3.596127899251563
 30
0.0
 10
9.99999999999998
 20
-3.662275851331757
 30
0.0
  0
SPLINE
  5
BA
330
1F
100
AcDbEntity
  8
0
  6
Continuous
 62
     1
370
    25
100
AcDbSpline
210
0.0
220
0.0
230
1.0
 70
     8
 71
     3
 72
    11
 73
     7
 74
     0
 42
0.000000001
 43
0.00000001
 40
0.0
 40
0.0
 40
0.0
 40
0.0
 40
0.3302346929349906
 40
0.6604778354053588
 40
0.9907300514493461
 40
1.0
 40
1.0
 40
1.0
 40
1.0
 10
10.00000000001144
 20
-3.032759862263871
 30
0.0
 10
10.54169405703155
 20
-3.22188615080302
 30
0.0
 10
11.62509603110283
 20
-3.600143566952742
 30
0.0
 10
13.25023224266072
 20
-3.901862032671572
 30
0.0
 10
14.34887921417163
 20
-4.034372666905169
 30
0.0
 10
14.90581764919408
 20
-3.99800381070126
 30
0.0
 10
14.92102369809727
 20
-3.997010834509974
 30
0.0
  0
SPLINE
  5
BB
330
1F
100
AcDbEntity
  8
0
  6
Continuous
 62
     1
370
    25
100
AcDbSpline
210
0.0
220
0.0
230
1.0
 70
     8
 71
     3
 72
    24
 73
    20
 74
     0
 42
0.000000001
 43
0.00000001
 40
0.0
 40
0.0
 40
0.0
 40
0.0
 40
0.0567709187198784
 40
0.1194872252184207
 40
0.1822029427843818
 40
0.2449183507978512
 40
0.3076337287692789
 40
0.3703493562217682
 40
0.4330655125733556
 40
0.495782477019384
 40
0.5585005284150796
 40
0.6209143068566706
 40
0.6833301914275601
 40
0.7457485720937936
 40
0.8082079327803525
 40
0.871542913368259
 40
0.9348795144738474
 40
0.9982178557800305
 40
0.9999999999999999
 40
0.9999999999999999
 40
0.9999999999999999
 40
0.9999999999999999
 10
32.79458915720228
 20
3.376805442929603
 30
0.0
 10
33.28012186974078
 20
3.515020960293589
 30
0.0
 10
34.30203516412057
 20
3.805926744880945
 30
0.0
 10
35.86031814048572
 20
4.004633598911029
 30
0.0
 10
37.46943859847048
 20
4.011181055468407
 30
0.0
 10
39.07854938274313
 20
3.797876472440477
 30
0.0
 10
40.6876593050204
 20
3.381765788240537
 30
0.0
 10
42.29677679991614
 20
2.783699859532408
 30
0.0
 10
43.90591094793909
 20
2.036201039615418
 30
0.0
 10
45.51506860280687
 20
1.179305695060711
 30
0.0
 10
47.1216508562698
 20
0.2605687307453872
 30
0.0
 10
48.72564609502709
 20
-0.670548057802786
 30
0.0
 10
50.32709439082054
 20
-1.564385425984352
 30
0.0
 10
51.92894540293839
 20
-2.375565567536232
 30
0.0
 10
53.53866648089991
 20
-3.062223119792837
 30
0.0
 10
55.15628438534917
 20
-3.592028717010763
 30
0.0
 10
56.78140988326376
 20
-3.907310497507877
 30
0.0
 10
57.88011503357161
 20
-4.026894517283479
 30
0.0
 10
58.43707481036121
 20
-3.998420834286285
 30
0.0
 10
58.45231705923175
 20
-3.997641598548641
 30
0.0
  0
SPLINE
  5
BC
330
1F
100
AcDbEntity
  8
0
  6
Continuous
 62
     1
370
    25
100
AcDbSpline
210
0.0
220
0.0
230
1.0
 70
     8
 71
     3
 72
    20
 73
    16
 74
     0
 42
0.000000001
 43
0.00000001
 40
0.0
 40
0.0
 40
0.0
 40
0.0
 40
0.079614564534047
 40
0.1592249519322878
 40
0.2388315073264026
 40
0.318434577446743
 40
0.398034510480098
 40
0.4776316559261702
 40
0.5572263644528709
 40
0.6368189877505727
 40
0.7164098783854497
 40
0.7959993896520237
 40
0.8755878754250618
 40
0.9551756900109488
 40
1.0
 40
1.0
 40
1.0
 40
1.0
 10
59.99999999999998
 20
-3.900662793421047
 30
0.0
 10
59.46341069310107
 20
-3.811716251303821
 30
0.0
 10
58.39026023252398
 20
-3.63382783382586
 30
0.0
 10
56.78059617405697
 20
-3.115619669241044
 30
0.0
 10
55.17102373914489
 20
-2.44509039218885
 30
0.0
 10
53.5615361832288
 20
-1.63919173570149
 30
0.0
 10
51.95212462186434
 20
-0.7463357172060198
 30
0.0
 10
50.34278070073017
 20
0.1869012949368684
 30
0.0
 10
48.73349588512561
 20
1.109957975796305
 30
0.0
 10
47.1242616541309
 20
1.973598666510011
 30
0.0
 10
45.51506945658255
 20
2.730497384356877
 30
0.0
 10
43.90591071531858
 20
3.343422402675898
 30
0.0
 10
42.29677687663963
 20
3.766720995726992
 30
0.0
 10
40.92194122668997
 20
3.987551083156595
 30
0.0
 10
40.08348251120972
 20
3.977211262185983
 30
0.0
 10
39.78139512620512
 20
3.973485939256232
 30
0.0
  0
SPLINE
  5
BD
330
1F
100
AcDbEntity
  8
0
  6
Continuous
 62
     1
370
    25
100
AcDbSpline
210
0.0
220
0.0
230
1.0
 70
     8
 71
     3
 72
    16
 73
    12
 74
     0
 42
0.000000001
 43
0.00000001
 40
0.0
 40
0.0
 40
0.0
 40
0.0
 40
0.0449460651224084
 40
0.1822465017782658
 40
0.3195494524490578
 40
0.4569367426884206
 40
0.5920754280784597
 40
0.7272070231497254
 40
0.8623321137327354
 40
0.9974512883716106
 40
1.0
 40
1.0
 40
1.0
 40
1.0
 10
21.91180038814261
 20
-3.364373551538084
 30
0.0
 10
21.73333891893438
 20
-3.424750878157724
 30
0.0
 10
21.00971654227397
 20
-3.669567783334755
 30
0.0
 10
19.74089810905148
 20
-3.904922487181096
 30
0.0
 10
18.10503586309691
 20
-4.039150738592758
 30
0.0
 10
16.47773920092935
 20
-3.937072734554114
 30
0.0
 10
14.85909095699861
 20
-3.624528060056493
 30
0.0
 10
13.2493539574014
 20
-3.118134572950726
 30
0.0
 10
11.64005341769935
 20
-2.444329912760295
 30
0.0
 10
10.55623726746846
 20
-1.902852565020722
 30
0.0
 10
10.01011070310516
 20
-1.613991838972679
 30
0.0
 10
9.99999999999998
 20
-1.608644021762539
 30
0.0
  0
LINE
  5
BE
330
1F
100
AcDbEntity
  8
0
  6
Continuous
 62
     1
370
    25
100
AcDbLine
 10
59.99999999999998
 20
-4.000000000000014
 30
0.0
 11
59.99999999999998
 21
-3.900662793421056
 31
0.0
  0
SPLINE
  5
BF
330
1F
100
AcDbEntity
  8
0
  6
Continuous
 62
     1
370
    25
100
AcDbSpline
210
0.0
220
0.0
230
1.0
 70
     8
 71
     3
 72
    24
 73
    20
 74
     0
 42
0.000000001
 43
0.00000001
 40
0.0
 40
0.0
 40
0.0
 40
0.0
 40
0.0388090958775873
 40
0.1015354804228289
 40
0.1642596682919528
 40
0.2269819358184864
 40
0.289702560141677
 40
0.352421819090922
 40
0.4151399910695717
 40
0.4778573549382214
 40
0.5405741898975901
 40
0.6032907753710935
 40
0.6660073908872168
 40
0.7287243159617923
 40
0.7914418299802881
 40
0.8541602120802145
 40
0.9168797410337558
 40
0.9796006951307262
 40
0.9999999999999999
 40
0.9999999999999999
 40
0.9999999999999999
 40
0.9999999999999999
 10
54.55727381165727
 20
-3.363049609462083
 30
0.0
 10
54.22535448053265
 20
-3.466960004693401
 30
0.0
 10
53.3569604098832
 20
-3.738818744562447
 30
0.0
 10
51.9521249829255
 20
-3.961673858405956
 30
0.0
 10
50.34278060400802
 20
-4.033108851445613
 30
0.0
 10
48.73349591096925
 20
-3.880150844910755
 30
0.0
 10
47.12426164747473
 20
-3.520853988494963
 30
0.0
 10
45.5150694573644
 20
-2.97188827853476
 30
0.0
 10
43.90591071884707
 20
-2.263449562833514
 30
0.0
 10
42.29677686174404
 20
-1.433399771702111
 30
0.0
 10
40.6876592867976
 20
-0.5263796193700565
 30
0.0
 10
39.0785493938069
 20
0.4089351256199883
 30
0.0
 10
37.46943857243816
 20
1.32220715055021
 30
0.0
 10
35.86031823355214
 20
2.164754710192382
 30
0.0
 10
34.25117971580585
 20
2.889948823941393
 30
0.0
 10
32.64201465064436
 20
3.463970196638244
 30
0.0
 10
31.03281361839952
 20
3.836829306021944
 30
0.0
 10
29.78553651777702
 20
4.009791248922816
 30
0.0
 10
29.07465533067994
 20
3.982943032769591
 30
0.0
 10
28.90019146059847
 20
3.976353965876426
 30
0.0
  0
SPLINE
  5
C0
330
1F
100
AcDbEntity
  8
0
  6
Continuous
 62
     1
370
    25
100
AcDbSpline
210
0.0
220
0.0
230
1.0
 70
     8
 71
     3
 72
     9
 73
     5
 74
     0
 42
0.000000001
 43
0.00000001
 40
0.0
 40
0.0
 40
0.0
 40
0.0
 40
0.9704134470886376
 40
0.9999999999999999
 40
0.9999999999999999
 40
0.9999999999999999
 40
0.9999999999999999
 10
11.02608907003604
 20
-3.363049609462088
 30
0.0
 10
10.69402780925047
 20
-3.470085577265059
 30
0.0
 10
10.35184246363124
 20
-3.580384922481358
 30
0.0
 10
10.01011066591462
 20
-3.659922605465693
 30
0.0
 10
9.999999999999984
 20
-3.662275851331755
 30
0.0
  0
SPLINE
  5
C1
330
1F
100
AcDbEntity
  8
0
  6
Continuous
 62
     4
370
    25
100
AcDbSpline
210
0.0
220
0.0
230
1.0
 70
    24
 71
     3
 72
     9
 73
     5
 74
     0
 42
0.000000001
 43
0.00000001
 40
0.0
 40
0.0
 40
0.0
 40
0.0
 40
0.3571405724097008
 40
1.0
 40
1.0
 40
1.0
 40
1.0
 10
9.99999999999998
 20
-3.101481144176329
 30
0.0
 10
9.99999999999998
 20
-3.160089329056137
 30
0.0
 10
9.99999999999998
 20
-3.324193296534171
 30
0.0
 10
9.99999999999998
 20
-3.529982391522946
 30
0.0
 10
9.99999999999998
 20
-3.662275851331755
 30
0.0
  0
SPLINE
  5
C2
330
1F
100
AcDbEntity
  8
0
  6
Continuous
 62
     1
370
    25
100
AcDbSpline
210
0.0
220
0.0
230
1.0
 70
     8
 71
     3
 72
    13
 73
     9
 74
     0
 42
0.000000001
 43
0.00000001
 40
0.0
 40
0.0
 40
0.0
 40
0.0
 40
0.1724029967037906
 40
0.3447969479429122
 40
0.5171826010898621
 40
0.6895607069790137
 40
0.8619320195986129
 40
1.0
 40
1.0
 40
1.0
 40
1.0
 10
59.99999999999998
 20
0.8859061869186681
 30
0.0
 10
59.46341069195797
 20
1.18335533998842
 30
0.0
 10
58.39026022909466
 20
1.778238039869004
 30
0.0
 10
56.78059618777307
 20
2.56186142348112
 30
0.0
 10
55.17102368771316
 20
3.212971472032436
 30
0.0
 10
53.56153637522838
 20
3.684125200481395
 30
0.0
 10
52.05886714059577
 20
3.961886192680223
 30
0.0
 10
51.09269751270794
 20
3.976389447988943
 30
0.0
 10
50.66299324444505
 20
3.982839775685011
 30
0.0
  0
SPLINE
  5
C3
330
1F
100
AcDbEntity
  8
0
  6
Continuous
 62
     1
370
    25
100
AcDbSpline
210
0.0
220
0.0
230
1.0
 70
     8
 71
     3
 72
    23
 73
    19
 74
     0
 42
0.000000001
 43
0.00000001
 40
0.0
 40
0.0
 40
0.0
 40
0.0
 40
0.0066933108529898
 40
0.0772912185666891
 40
0.1478907304401448
 40
0.2184921590457335
 40
0.2890958161509672
 40
0.359702012588568
 40
0.4303110581273786
 40
0.5009232613442256
 40
0.5726715172696899
 40
0.6444210869286812
 40
0.7162147294041752
 40
0.7868333320900369
 40
0.8574482296310473
 40
0.9280597281611048
 40
0.9986681352321388
 40
1.0
 40
1.0
 40
1.0
 40
1.0
 10
32.79458915720228
 20
-3.37680544292961
 30
0.0
 10
32.74373390095271
 20
-3.394903921178766
 30
0.0
 10
32.15648122251238
 20
-3.60389667062729
 30
0.0
 10
31.03281367923834
 20
-3.83488030453519
 30
0.0
 10
29.42356973829844
 20
-4.027660243591486
 30
0.0
 10
27.81427283067491
 20
-3.985884454100794
 30
0.0
 10
26.20491507142142
 20
-3.734882287162515
 30
0.0
 10
24.59548805952975
 20
-3.281942039396134
 30
0.0
 10
22.98598230616177
 20
-2.653034426984084
 30
0.0
 10
21.36778769246274
 20
-1.877399423605215
 30
0.0
 10
19.74089902149997
 20
-0.9945776007492888
 30
0.0
 10
18.10503561830308
 20
-0.0517407812217092
 30
0.0
 10
16.47773926534601
 20
0.8890396912107156
 30
0.0
 10
14.8590909398541
 20
1.776010843072949
 30
0.0
 10
13.24935396201595
 20
2.562744635456384
 30
0.0
 10
11.64005341638447
 20
3.211665746733578
 30
0.0
 10
10.55623726747266
 20
3.532536093143132
 30
0.0
 10
10.01011070310523
 20
3.659917576809881
 30
0.0
 10
9.99999999999998
 20
3.662275851331745
 30
0.0
  0
SPLINE
  5
C4
330
1F
100
AcDbEntity
  8
0
  6
Continuous
 62
     1
370
    25
100
AcDbSpline
210
0.0
220
0.0
230
1.0
 70
     8
 71
     3
 72
    24
 73
    20
 74
     0
 42
0.000000001
 43
0.00000001
 40
0.0
 40
0.0
 40
0.0
 40
0.0
 40
0.0233420433497016
 40
0.0866710412401135
 40
0.1500017791222183
 40
0.2133343762453247
 40
0.2766686995791668
 40
0.3400018774173884
 40
0.4033331603406592
 40
0.4660566511677291
 40
0.5287773370888438
 40
0.5914954922069889
 40
0.6542113916839958
 40
0.7169253116267199
 40
0.7796375289723735
 40
0.8423483213731139
 40
0.9050579670799918
 40
0.967766744826358
 40
0.9999999999999999
 40
0.9999999999999999
 40
0.9999999999999999
 40
0.9999999999999999
 10
11.02608907003604
 20
3.363049609462078
 30
0.0
 10
11.22575395495091
 20
3.430074390852433
 30
0.0
 10
11.96712707363635
 20
3.678943245432265
 30
0.0
 10
13.25023171716745
 20
3.912502790014903
 30
0.0
 10
14.8754199479917
 20
4.038772867044535
 30
0.0
 10
16.50066279690488
 20
3.931882056938092
 30
0.0
 10
18.12594015864096
 20
3.612876554320519
 30
0.0
 10
19.75119565230051
 20
3.095153733602059
 30
0.0
 10
21.37121977923235
 20
2.410339880754514
 30
0.0
 10
22.98598255748495
 20
1.59730581267341
 30
0.0
 10
24.59548799384721
 20
0.7010940604494658
 30
0.0
 10
26.20491508284337
 20
-0.2327814073326226
 30
0.0
 10
27.81427285066484
 20
-1.1540820636882
 30
0.0
 10
29.42356964692138
 20
-2.013589748084941
 30
0.0
 10
31.03281402474403
 20
-2.764143742201037
 30
0.0
 10
32.64201455998734
 20
-3.369153327712851
 30
0.0
 10
34.25117967210249
 20
-3.782246862159284
 30
0.0
 10
35.59965150208005
 20
-3.992413710005691
 30
0.0
 10
36.41173531316896
 20
-3.977976526790116
 30
0.0
 10
36.68744148776991
 20
-3.973075036941375
 30
0.0
  0
SPLINE
  5
C5
330
1F
100
AcDbEntity
  8
0
  6
Continuous
 62
     1
370
    25
100
AcDbSpline
210
0.0
220
0.0
230
1.0
 70
     8
 71
     3
 72
    11
 73
     7
 74
     0
 42
0.000000001
 43
0.00000001
 40
0.0
 40
0.0
 40
0.0
 40
0.0
 40
0.1165767875617246
 40
0.4328597720015528
 40
0.7491514464536004
 40
1.0
 40
1.0
 40
1.0
 40
1.0
 10
54.55727381165727
 20
3.363049609462078
 30
0.0
 10
54.75693875290467
 20
3.430113936244415
 30
0.0
 10
55.49831208075774
 20
3.679129626311099
 30
0.0
 10
56.7814130538063
 20
3.910112495289848
 30
0.0
 10
58.2945122638281
 20
4.037986982649364
 30
0.0
 10
59.26585709205737
 20
3.967206966936025
 30
0.0
 10
59.69548707266376
 20
3.935900662630396
 30
0.0
  0
SPLINE
  5
C6
330
1F
100
AcDbEntity
  8
0
  6
Continuous
 62
     1
370
    25
100
AcDbSpline
210
0.0
220
0.0
230
1.0
 70
     8
 71
     3
 72
    18
 73
    14
 74
     0
 42
0.000000001
 43
0.00000001
 40
0.0
 40
0.0
 40
0.0
 40
0.0
 40
0.2500000000000012
 40
0.2500000000000012
 40
0.3750000000000018
 40
0.3750000000000018
 40
0.5000000000000024
 40
0.5000000000000024
 40
0.6250000000000031
 40
0.6250000000000031
 40
0.7500000000000037
 40
0.7500000000000037
 40
1.0
 40
1.0
 40
1.0
 40
1.0
 10
59.69548707266376
 20
3.935900662630401
 30
0.0
 10
59.70297875298806
 20
3.670631489969646
 30
0.0
 10
59.68247227355725
 20
3.410206251279687
 30
0.0
 10
59.59321355482392
 20
3.029689247395052
 30
0.0
 10
59.55315639020176
 20
2.904661764890818
 30
0.0
 10
59.45343788869683
 20
2.671161901843162
 30
0.0
 10
59.39283571894089
 20
2.560198376270182
 30
0.0
 10
59.25167981840416
 20
2.358081368929664
 30
0.0
 10
59.17269004411774
 20
2.268708753570052
 30
0.0
 10
58.99834265079014
 20
2.112702087671114
 30
0.0
 10
58.90245269895234
 20
2.046221189136296
 30
0.0
 10
58.60504806713849
 20
1.888787309562157
 30
0.0
 10
58.38787379522096
 20
1.835995677645667
 30
0.0
 10
58.17131541104551
 20
1.82868458895451
 30
0.0
  0
LINE
  5
C7
330
1F
100
AcDbEntity
  8
0
  6
Continuous
 62
     1
370
    25
100
AcDbLine
 10
59.99999999999998
 20
0.8893561894564718
 30
0.0
 11
59.99999999999998
 21
0.940474845266442
 31
0.0
  0
SPLINE
  5
C8
330
1F
100
AcDbEntity
  8
0
  6
Continuous
 62
     4
370
    25
100
AcDbSpline
210
0.0
220
0.0
230
1.0
 70
    24
 71
     3
 72
    20
 73
    16
 74
     0
 42
0.000000001
 43
0.00000001
 40
0.0
 40
0.0
 40
0.0
 40
0.0
 40
0.1249999999999999
 40
0.1249999999999999
 40
0.2499999999999998
 40
0.2499999999999998
 40
0.4999999999999999
 40
0.4999999999999999
 40
0.6249999999999999
 40
0.6249999999999999
 40
0.75
 40
0.75
 40
0.875
 40
0.875
 40
1.0
 40
1.0
 40
1.0
 40
1.0
 10
9.999999999999979
 20
2.608134892575116
 30
0.0
 10
9.999999999999979
 20
2.502077825659142
 30
0.0
 10
9.999999999999979
 20
2.401317654600377
 30
0.0
 10
9.999999999999979
 20
2.168095385135363
 30
0.0
 10
9.999999999999979
 20
2.037698488034437
 30
0.0
 10
9.99999999999998
 20
1.600072264696198
 30
0.0
 10
9.99999999999998
 20
1.242978367529962
 30
0.0
 10
9.99999999999998
 20
0.6269178745511149
 30
0.0
 10
9.99999999999998
 20
0.4089195947882587
 30
0.0
 10
9.99999999999998
 20
-0.0369556404626081
 30
0.0
 10
9.99999999999998
 20
-0.2647431057228126
 30
0.0
 10
9.99999999999998
 20
-0.7056532139422754
 30
0.0
 10
9.99999999999998
 20
-0.9184849658019907
 30
0.0
 10
9.99999999999998
 20
-1.301351891643011
 30
0.0
 10
9.99999999999998
 20
-1.471038510995484
 30
0.0
 10
9.99999999999998
 20
-1.608644021762539
 30
0.0
  0
SPLINE
  5
C9
330
1F
100
AcDbEntity
  8
0
  6
Continuous
 62
     1
370
    25
100
AcDbSpline
210
0.0
220
0.0
230
1.0
 70
     8
 71
     3
 72
    17
 73
    13
 74
     0
 42
0.000000001
 43
0.00000001
 40
0.0
 40
0.0
 40
0.0
 40
0.0
 40
0.1028164480617465
 40
0.2056355268319979
 40
0.3084574306010476
 40
0.4112823529785288
 40
0.5141100779804558
 40
0.6169359431897383
 40
0.7197587318714259
 40
0.821594727369944
 40
0.9234261689065179
 40
1.0
 40
1.0
 40
1.0
 40
1.0
 10
10.00000000001144
 20
2.608134892569994
 30
0.0
 10
10.54169412042325
 20
2.357158385311829
 30
0.0
 10
11.62509622127956
 20
1.855198949196187
 30
0.0
 10
13.25023148192238
 20
0.9624008927686125
 30
0.0
 10
14.87542001135311
 20
0.0271333758398704
 30
0.0
 10
16.50066277871374
 20
-0.9123419587753662
 30
0.0
 10
18.12594016804141
 20
-1.801245277680888
 30
0.0
 10
19.75119563289041
 20
-2.591193844022024
 30
0.0
 10
21.37121984719007
 20
-3.239036485317887
 30
0.0
 10
22.98598230767697
 20
-3.702168241306102
 30
0.0
 10
24.46244023964814
 20
-3.967474094546745
 30
0.0
 10
25.40236303122525
 20
-3.976177382823858
 30
0.0
 10
25.80578994805401
 20
-3.97991294577368
 30
0.0
  0
SPLINE
  5
CA
330
1F
100
AcDbEntity
  8
0
  6
Continuous
 62
     1
370
    25
100
AcDbSpline
210
0.0
220
0.0
230
1.0
 70
     8
 71
     3
 72
    18
 73
    14
 74
     0
 42
0.000000001
 43
0.00000001
 40
0.0
 40
0.0
 40
0.0
 40
0.0
 40
0.0144676337724962
 40
0.1149080857004123
 40
0.2153502783649338
 40
0.3153051816127936
 40
0.4152634578009803
 40
0.5152257314553488
 40
0.6152536341113416
 40
0.7166838313360407
 40
0.8181166237999992
 40
0.919552203173938
 40
1.0
 40
1.0
 40
1.0
 40
1.0
 10
43.6741191204048
 20
3.373389744833767
 30
0.0
 10
43.75138090574248
 20
3.400635427088676
 30
0.0
 10
44.36502678526622
 20
3.617032195264069
 30
0.0
 10
45.51506877584126
 20
3.8494428416551
 30
0.0
 10
47.12165081101081
 20
4.030349200319452
 30
0.0
 10
48.72564610395625
 20
3.978933724079072
 30
0.0
 10
50.32709440027713
 20
3.720423106250165
 30
0.0
 10
51.92894535616798
 20
3.262685732477151
 30
0.0
 10
53.53866665970249
 20
2.628598151821631
 30
0.0
 10
55.15628370678375
 20
1.848629744458799
 30
0.0
 10
56.78141241485299
 20
0.9646028585920399
 30
0.0
 10
58.29451238564396
 20
0.0897149195870616
 30
0.0
 10
59.26585712941401
 20
-0.4669894975344121
 30
0.0
 10
59.69548707266375
 20
-0.7132222472031494
 30
0.0
  0
SPLINE
  5
CB
330
1F
100
AcDbEntity
  8
0
  6
Continuous
 62
     1
370
    25
100
AcDbSpline
210
0.0
220
0.0
230
1.0
 70
     8
 71
     3
 72
     8
 73
     4
 74
     0
 42
0.000000001
 43
0.00000001
 40
0.0
 40
0.0
 40
0.0
 40
0.0
 40
1.0
 40
1.0
 40
1.0
 40
1.0
 10
59.99999999999998
 20
-3.083933400934673
 30
0.0
 10
59.35788832274967
 20
-2.721896529077739
 30
0.0
 10
58.7532988967926
 20
-2.276337367750766
 30
0.0
 10
58.17131541104538
 20
-1.780458734193958
 30
0.0
  0
LINE
  5
CC
330
1F
100
AcDbEntity
  8
0
  6
Continuous
 62
     1
370
    25
100
AcDbLine
 10
59.99999999999998
 20
-3.900662793421056
 30
0.0
 11
59.99999999999998
 21
-3.083933400934672
 31
0.0
  0
SPLINE
  5
CD
330
1F
100
AcDbEntity
  8
0
  6
Continuous
 62
     1
370
    25
100
AcDbSpline
210
0.0
220
0.0
230
1.0
 70
    24
 71
     3
 72
    12
 73
     8
 74
     0
 42
0.000000001
 43
0.00000001
 40
0.0
 40
0.0
 40
0.0
 40
0.0
 40
0.0840414671915745
 40
0.3303887850558644
 40
0.5774870645955794
 40
0.8117665592154807
 40
0.9999999999999999
 40
0.9999999999999999
 40
0.9999999999999999
 40
0.9999999999999999
 10
59.62982583670782
 20
-0.7591987395876598
 30
0.0
 10
59.61829315635308
 20
-0.7672740093077993
 30
0.0
 10
59.57295520143436
 20
-0.799019987108896
 30
0.0
 10
59.3725314474116
 20
-0.9393582105119463
 30
0.0
 10
59.00312424965971
 20
-1.198019915046756
 30
0.0
 10
58.57939809924078
 20
-1.494716159706641
 30
0.0
 10
58.29708743609275
 20
-1.692392214159891
 30
0.0
 10
58.17131541104538
 20
-1.780458734193952
 30
0.0
  0
SPLINE
  5
CE
330
1F
100
AcDbEntity
  8
0
  6
Continuous
 62
     1
370
    25
100
AcDbSpline
210
0.0
220
0.0
230
1.0
 70
     8
 71
     3
 72
    24
 73
    20
 74
     0
 42
0.000000001
 43
0.00000001
 40
0.0
 40
0.0
 40
0.0
 40
0.0
 40
0.0536829668860853
 40
0.1163993904068577
 40
0.1791155644434015
 40
0.2418317685223681
 40
0.3045482821577559
 40
0.3672653847332005
 40
0.429983355384381
 40
0.4927024728816526
 40
0.555423015513004
 40
0.6181452609674525
 40
0.6808694862189744
 40
0.7435959674110795
 40
0.8063249797421279
 40
0.8690567973514941
 40
0.9327978831618926
 40
0.9965401360919711
 40
1.0
 40
1.0
 40
1.0
 40
1.0
 10
43.67411912040474
 20
-3.37338974483377
 30
0.0
 10
43.21500350839041
 20
-3.506402988475808
 30
0.0
 10
42.21951498633945
 20
-3.794812168781102
 30
0.0
 10
40.68765935090939
 20
-3.998575226941584
 30
0.0
 10
39.07854937610009
 20
-4.01618862068014
 30
0.0
 10
37.46943857915365
 20
-3.813174665652649
 30
0.0
 10
35.86031822439694
 20
-3.406667576854719
 30
0.0
 10
34.25117974571158
 20
-2.816829069219267
 30
0.0
 10
32.64201454017422
 20
-2.075785090220977
 30
0.0
 10
31.03281403038577
 20
-1.223211912871911
 30
0.0
 10
29.42356964416819
 20
-0.3049435069470495
 30
0.0
 10
27.81427285603599
 20
0.6297502450399591
 30
0.0
 10
26.20491506411122
 20
1.530503010372215
 30
0.0
 10
24.5954880634084
 20
2.349520159491763
 30
0.0
 10
22.98598229795726
 20
3.040597664276563
 30
0.0
 10
21.36778772160244
 20
3.577689552579767
 30
0.0
 10
19.74089891126559
 20
3.897306654032779
 30
0.0
 10
18.62095846534657
 20
4.032775628605646
 30
0.0
 10
18.04618384249573
 20
3.996182421870456
 30
0.0
 10
18.0165918881583
 20
3.994298440811243
 30
0.0
  0
SPLINE
  5
CF
330
1F
100
AcDbEntity
  8
0
  6
Continuous
 62
     1
370
    25
100
AcDbSpline
210
0.0
220
0.0
230
1.0
 70
     8
 71
     3
 72
    24
 73
    20
 74
     0
 42
0.000000001
 43
0.00000001
 40
0.0
 40
0.0
 40
0.0
 40
0.0
 40
0.0418666218221404
 40
0.1045968400340177
 40
0.1673245270582939
 40
0.2300499580986195
 40
0.2927734093038126
 40
0.3554951576531745
 40
0.4182154808410601
 40
0.4809346571608085
 40
0.5436529653881329
 40
0.606370684664079
 40
0.6690880943776533
 40
0.7318054740482269
 40
0.794523103207825
 40
0.8572412612834023
 40
0.9199602274792126
 40
0.9826802806593824
 40
1.0
 40
1.0
 40
1.0
 40
1.0
 10
21.91180038814256
 20
3.364373551538076
 30
0.0
 10
22.26986896204452
 20
3.474794657657843
 30
0.0
 10
23.16444415621089
 20
3.750663554418953
 30
0.0
 10
24.59548755154236
 20
3.970316375821191
 30
0.0
 10
26.20491520125791
 20
4.030612640762679
 30
0.0
 10
27.81427281928827
 20
3.867287380857155
 30
0.0
 10
29.42356965401861
 20
3.498136522088728
 30
0.0
 10
31.03281402773026
 20
2.940579935255997
 30
0.0
 10
32.64201454094601
 20
2.225218021467679
 30
0.0
 10
34.25117974527978
 20
1.390301647283803
 30
0.0
 10
35.86031822535231
 20
0.480730447704098
 30
0.0
 10
37.46943857576399
 20
-0.4546830521453241
 30
0.0
 10
39.07854938870329
 20
-1.365588424153843
 30
0.0
 10
40.68765930388621
 20
-2.203460734674033
 30
0.0
 10
42.29677679849269
 20
-2.921812947558203
 30
0.0
 10
43.90591095476717
 20
-3.487604851278682
 30
0.0
 10
45.51506857691744
 20
-3.849758862006738
 30
0.0
 10
46.73597794930764
 20
-4.013842638194332
 30
0.0
 10
47.42049518738464
 20
-3.984880421889891
 30
0.0
 10
47.56861712818886
 20
-3.978613319397254
 30
0.0
  0
LINE
  5
D0
330
1F
100
AcDbEntity
  8
0
  6
Continuous
 62
     1
370
    25
100
AcDbLine
 10
59.99999999999998
 20
-0.5000000000000155
 30
0.0
 11
59.99999999999998
 21
0.8859061869186686
 31
0.0
  0
LINE
  5
D1
330
1F
100
AcDbEntity
  8
0
  6
Continuous
 62
     1
370
    25
100
AcDbLine
 10
59.99999999999998
 20
-0.5000000000000185
 30
0.0
 11
59.69548707266376
 21
-0.7132222472031559
 31
0.0
  0
LINE
  5
D2
330
1F
100
AcDbEntity
  8
0
  6
Continuous
 62
     1
370
    25
100
AcDbLine
 10
59.99999999999998
 20
3.968626966596891
 30
0.0
 11
59.99999999999998
 21
4.000000000000005
 31
0.0
  0
ELLIPSE
  5
D3
330
1F
100
AcDbEntity
  8
0
  6
Continuous
 62
     1
370
    25
100
AcDbEllipse
 10
60.71407400337104
 20
-0.0000000000000048
 30
0.0
 11
5.712592026968444
 21
0.0
 31
0.0
210
0.0
220
0.0
230
1.0
 40
0.7002075382097124
 41
1.696124157962962
 42
1.750060474925947
  0
LINE
  5
D4
330
1F
100
AcDbEntity
  8
0
  6
Continuous
 62
     1
370
    25
100
AcDbLine
 10
59.99999999999998
 20
0.940474845266442
 30
0.0
 11
59.99999999999998
 21
3.968626966596891
 31
0.0
  0
LINE
  5
D5
330
1F
100
AcDbEntity
  8
0
  6
Continuous
 62
     1
370
    25
100
AcDbLine
 10
59.99999999999998
 20
-0.5000000000000017
 30
0.0
 11
59.99999999999998
 21
-3.083933400934672
 31
0.0
  0
LINE
  5
D6
330
1F
100
AcDbEntity
  8
중심선
100
AcDbLine
 10
-43.00000000000001
 20
-0.0000000000000096
 30
0.0
 11
63.00000000000001
 21
0.0000000000000096
 31
0.0
  0
CIRCLE
  5
D7
330
1F
100
AcDbEntity
  8
해칭선
100
AcDbCircle
 10
-0.0000036648522359
 20
-0.0000000000000043
 30
0.0
 40
3.000000000000003
  0
INSERT
  5
D8
330
1F
100
AcDbEntity
  8
0
  6
Continuous
 62
     7
100
AcDbBlockReference
 66
     1
  2
블럭10
 10
-2.440099248941778
 20
-52.04717430164393
 30
0.0
  0
ATTRIB
  5
D9
330
D8
100
AcDbEntity
  8
FORMAT
 62
     2
100
AcDbText
 10
-18.55936028837733
 20
-49.97180738881174
 30
0.0
 40
4.233333333333333
  1
SEME7208050E [ 4 FLUTE ]
 41
0.75
  7
SLDTEXTSTYLE0
 11
-18.55936028837733
 21
-52.08847405547841
 31
0.0
100
AcDbAttribute
  2
AUTOATTR0
 70
     0
 74
     1
  0
SEQEND
  5
DA
330
D8
100
AcDbEntity
  8
0
  6
Continuous
 62
     7
  0
HATCH
  5
DB
330
1F
100
AcDbEntity
  8
중심선
100
AcDbHatch
 10
0.0
 20
0.0
 30
0.0
210
0.0
220
0.0
230
1.0
  2
SOLID
 70
     1
 71
     0
 91
        1
 92
        0
 93
        4
 72
     1
 10
3.274810055439059
 20
-35.8
 11
-0.1714651883982232
 21
-35.8
 72
     1
 10
-0.1714651883982232
 20
-35.8
 11
-2.299695047602246
 21
-38.33632558057257
 72
     1
 10
-2.299695047602246
 20
-38.33632558057257
 11
1.146613281348186
 21
-38.33628615127008
 72
     1
 10
1.146613281348186
 20
-38.33628615127008
 11
3.274810055439059
 21
-35.8
 97
        0
 75
     0
 76
     1
 98
        1
 10
0.0
 20
0.0
  0
HATCH
  5
DC
330
1F
100
AcDbEntity
  8
중심선
100
AcDbHatch
 10
0.0
 20
0.0
 30
0.0
210
0.0
220
0.0
230
1.0
  2
SOLID
 70
     1
 71
     0
 91
        1
 92
        0
 93
        4
 72
     1
 10
8.287574046475065
 20
-35.79999999999997
 11
4.841298802637755
 21
-35.79999999999997
 72
     1
 10
4.841298802637755
 20
-35.79999999999997
 11
0.3101607942803399
 21
-41.20000000000002
 72
     1
 10
0.3101607942803397
 20
-41.20000000000002
 11
3.756436038117622
 21
-41.20000000000002
 72
     1
 10
3.756436038117622
 20
-41.20000000000002
 11
8.287574046475065
 21
-35.79999999999997
 97
        0
 75
     0
 76
     1
 98
        1
 10
0.0
 20
0.0
  0
HATCH
  5
DD
330
1F
100
AcDbEntity
  8
중심선
100
AcDbHatch
 10
0.0
 20
0.0
 30
0.0
210
0.0
220
0.0
230
1.0
  2
SOLID
 70
     1
 71
     0
 91
        1
 92
        0
 93
        4
 72
     1
 10
13.30033803751093
 20
-35.79999999999997
 11
9.854062793673817
 21
-35.79999999999997
 72
     1
 10
9.854062793673817
 20
-35.79999999999997
 11
2.805625891784541
 21
-44.20000000000002
 72
     1
 10
2.805625891784541
 20
-44.20000000000002
 11
6.251901135621823
 21
-44.20000000000002
 72
     1
 10
6.251901135621823
 20
-44.20000000000002
 11
13.30033803751093
 21
-35.79999999999997
 97
        0
 75
     0
 76
     1
 98
        1
 10
0.0
 20
0.0
  0
HATCH
  5
DE
330
1F
100
AcDbEntity
  8
중심선
100
AcDbHatch
 10
0.0
 20
0.0
 30
0.0
210
0.0
220
0.0
230
1.0
  2
SOLID
 70
     1
 71
     0
 91
        1
 92
        0
 93
        6
 72
     3
 10
18.10022846852311
 20
-40.00000000005127
 11
3.960054785062284
 21
1.540850780301639E-10
 40
0.3939339440162633
 50
17.09539180608434
 51
320.0019657685081
 73
     0
 72
     1
 10
19.78322812422367
 20
-38.58789400463833
 11
22.08852999792474
 21
-36.65356729459038
 72
     3
 10
18.10022846847026
 20
-40.00000000000015
 11
6.600054785286829
 21
-1.249000902703301E-13
 40
0.6363583540795982
 50
39.9987384933741
 51
368.4976242363725
 73
     1
 72
     1
 10
24.52556096037087
 20
-39.03999999993002
 11
16.78029577530618
 21
-39.03999999993002
 72
     1
 10
16.78029577530618
 20
-39.03999999993002
 11
16.78027073086025
 21
-40.95999999992991
 72
     1
 10
16.78027073086025
 20
-40.95999999992991
 11
21.22165050033228
 21
-40.95999999992988
 97
        0
 75
     0
 76
     1
 98
        1
 10
0.0
 20
0.0
  0
DIMENSION
  5
DF
330
1F
100
AcDbEntity
  8
치수문자_일반주서
100
AcDbDimension
  2
_D
 10
75.31037054473514
 20
4.000000000000059
 30
0.0
 11
75.31037054473511
 21
13.66650000000006
 31
0.0
 70
   160
  1
%%c<>
 71
     2
 42
8.000000000000012
 52
-270.0
  3
SLDDIMSTYLE0
100
AcDbAlignedDimension
 13
59.99999999999998
 23
-4.000000000000012
 33
0.0
 14
59.99999999999998
 24
4.000000000000001
 34
0.0
 50
90.0000000000002
100
AcDbRotatedDimension
  0
DIMENSION
  5
ED
330
1F
100
AcDbEntity
  8
치수문자_일반주서
100
AcDbDimension
  2
_D_1
 10
59.99999999999999
 20
21.38913260158164
 30
0.0
 11
9.999999999999982
 21
21.38913260158164
 31
0.0
 70
   160
  1
<>
 71
     2
 42
100.0
  3
SLDDIMSTYLE1
100
AcDbAlignedDimension
 13
-40.00000000000002
 23
3.49999999999999
 33
0.0
 14
59.99999999999998
 24
4.000000000000005
 34
0.0
 50
-0.0000000000000041
100
AcDbRotatedDimension
  0
DIMENSION
  5
F8
330
1F
100
AcDbEntity
  8
치수문자_일반주서
100
AcDbDimension
  2
_D_2
 10
-52.1954280774449
 20
-4.000000000000057
 30
0.0
 11
-52.19542807744497
 21
13.66649999999995
 31
0.0
 70
   160
  1
%%c<>
 71
     2
 42
8.000000000000007
 52
-270.0
  3
SLDDIMSTYLE2
100
AcDbAlignedDimension
 13
-39.50000000000001
 23
3.999999999999999
 33
0.0
 14
-39.50000000000001
 24
-4.000000000000008
 34
0.0
 50
90.0000000000002
100
AcDbRotatedDimension
  0
DIMENSION
  5
106
330
1F
100
AcDbEntity
  8
치수문자_일반주서
100
AcDbDimension
  2
_D_3
 10
59.99999999999998
 20
14.50819415391939
 30
0.0
 11
34.99999999999999
 21
14.50819415391939
 31
0.0
 70
   160
  1
<>
 71
     2
 42
50.0
  3
SLDDIMSTYLE1
100
AcDbAlignedDimension
 13
9.99999999999998
 23
3.662275851331745
 33
0.0
 14
59.99999999999998
 24
4.000000000000005
 34
0.0
 50
-0.0000000000000041
100
AcDbRotatedDimension
  0
INSERT
  5
116
330
1F
100
AcDbEntity
  8
해칭선
100
AcDbBlockReference
  2
SW_DOWELSYMBOL_0
 10
-0.0000036648522359
 20
-0.0000000000000043
 30
0.0
  0
ENDSEC
  0
SECTION
  2
OBJECTS
  0
DICTIONARY
  5
C
330
0
100
AcDbDictionary
281
     1
  3
ACAD_GROUP
350
D
  3
ACAD_IMAGE_VARS
350
13A
  3
ACAD_LAYOUT
350
1A
  3
ACAD_MLINESTYLE
350
17
  3
ACAD_PLOTSETTINGS
350
19
  3
ACAD_PLOTSTYLENAME
350
E
  3
ACAD_SCALELIST
350
47
  3
APPDATA
350
138
  3
DWGPROPS
350
14A
  0
DICTIONARY
  5
D
102
{ACAD_REACTORS
330
C
102
}
330
C
100
AcDbDictionary
281
     1
  0
RASTERVARIABLES
  5
13A
102
{ACAD_REACTORS
330
C
102
}
330
C
100
AcDbRasterVariables
 90
        0
 70
     1
 71
     1
 72
     1
  0
DICTIONARY
  5
1A
102
{ACAD_REACTORS
330
C
102
}
330
C
100
AcDbDictionary
281
     1
  3
Layout1
350
1E
  3
Layout2
350
26
  3
Model
350
22
  0
DICTIONARY
  5
17
102
{ACAD_REACTORS
330
C
102
}
330
C
100
AcDbDictionary
281
     1
  3
Standard
350
18
  0
DICTIONARY
  5
19
102
{ACAD_REACTORS
330
C
102
}
330
C
100
AcDbDictionary
281
     1
  0
ACDBDICTIONARYWDFLT
  5
E
102
{ACAD_REACTORS
330
C
102
}
330
C
100
AcDbDictionary
281
     1
  3
Normal
350
F
100
AcDbDictionaryWithDefault
340
F
  0
DICTIONARY
  5
47
102
{ACAD_REACTORS
330
C
102
}
330
C
100
AcDbDictionary
281
     1
  3
A0
350
48
  3
A1
350
49
  3
A2
350
4A
  3
A3
350
4B
  3
A4
350
4C
  3
A5
350
4D
  3
A6
350
4E
  3
A7
350
4F
  3
A8
350
50
  3
A9
350
51
  3
B0
350
52
  3
B1
350
53
  3
B2
350
54
  3
B3
350
55
  3
B4
350
56
  3
B5
350
57
  3
B6
350
58
  3
B7
350
59
  3
B8
350
5A
  3
B9
350
5B
  3
C0
350
5C
  3
C1
350
5D
  3
C2
350
5E
  3
C3
350
5F
  3
C4
350
60
  3
C5
350
61
  3
C6
350
62
  3
C7
350
63
  3
C8
350
64
  3
C9
350
65
  3
D0
350
66
  3
D1
350
67
  3
D2
350
68
  0
DICTIONARY
  5
138
102
{ACAD_REACTORS
330
C
102
}
330
C
100
AcDbDictionary
281
     1
  0
XRECORD
  5
14A
102
{ACAD_REACTORS
330
C
102
}
330
C
100
AcDbXrecord
280
     1
  1
DWGPROPS COOKIE
  2

  3

  4

  6

  7

  8
12014102
  9

300
=
301
=
302
=
303
=
304
=
305
=
306
=
307
=
308
=
309
=
 40
0.0
 41
2458260.202402674
 42
2458268.203632928
  1

 90
        0
  0
LAYOUT
  5
1E
102
{ACAD_REACTORS
330
1A
102
}
330
1A
100
AcDbPlotSettings
  1

  2
none_device
  4

  6

 40
0.0
 41
0.0
 42
0.0
 43
0.0
 44
0.0
 45
0.0
 46
0.0
 47
0.0
 48
0.0
 49
0.0
140
0.0
141
0.0
142
1.0
143
1.0
 70
   688
 72
     1
 73
     0
 74
     5
  7

 75
    16
147
1.0
148
0.0
149
0.0
100
AcDbLayout
  1
Layout1
 70
     1
 71
     1
 10
0.0
 20
0.0
 11
420.0
 21
297.0
 12
0.0
 22
0.0
 32
0.0
 14
1.000000000000000E+20
 24
1.000000000000000E+20
 34
1.000000000000000E+20
 15
-1.000000000000000E+20
 25
-1.000000000000000E+20
 35
-1.000000000000000E+20
146
0.0
 13
0.0
 23
0.0
 33
0.0
 16
1.0
 26
0.0
 36
0.0
 17
0.0
 27
1.0
 37
0.0
 76
     0
330
1B
  0
LAYOUT
  5
26
102
{ACAD_REACTORS
330
1A
102
}
330
1A
100
AcDbPlotSettings
  1

  2
none_device
  4

  6

 40
0.0
 41
0.0
 42
0.0
 43
0.0
 44
0.0
 45
0.0
 46
0.0
 47
0.0
 48
0.0
 49
0.0
140
0.0
141
0.0
142
1.0
143
1.0
 70
   688
 72
     1
 73
     0
 74
     5
  7

 75
    16
147
1.0
148
0.0
149
0.0
100
AcDbLayout
  1
Layout2
 70
     1
 71
     2
 10
0.0
 20
0.0
 11
0.0
 21
0.0
 12
0.0
 22
0.0
 32
0.0
 14
0.0
 24
0.0
 34
0.0
 15
0.0
 25
0.0
 35
0.0
146
0.0
 13
0.0
 23
0.0
 33
0.0
 16
1.0
 26
0.0
 36
0.0
 17
0.0
 27
1.0
 37
0.0
 76
     0
330
23
  0
LAYOUT
  5
22
102
{ACAD_REACTORS
330
1A
102
}
330
1A
100
AcDbPlotSettings
  1

  2
none_device
  4
ANSI_A_(11.00_x_8.50_Inches)
  6

 40
6.35
 41
19.05
 42
6.35000508
 43
19.05000254
 44
279.4
 45
215.9
 46
111.0478719131386
 47
114.347919909107
 48
0.0
 49
0.0
140
0.0
141
0.0
142
0.0807487851913164
143
1.0
 70
  1696
 72
     0
 73
     0
 74
     0
  7

 75
     0
147
0.0235690232323232
148
0.0
149
0.0
100
AcDbLayout
  1
Model
 70
     1
 71
     0
 10
0.0
 20
0.0
 11
420.0
 21
297.0
 12
0.0
 22
0.0
 32
0.0
 14
-56.57042807744497
 24
-49.97180738881174
 34
0.0
 15
75.8607038780685
 25
25.76413260158164
 35
0.0
146
0.0
 13
0.0
 23
0.0
 33
0.0
 16
1.0
 26
0.0
 36
0.0
 17
0.0
 27
1.0
 37
0.0
 76
     0
330
1F
331
29
  0
MLINESTYLE
  5
18
102
{ACAD_REACTORS
330
17
102
}
330
17
100
AcDbMlineStyle
  2
Standard
 70
     0
  3

 62
   256
 51
90.0
 52
90.0
 71
     2
 49
0.5
 62
   256
  6
BYLAYER
 49
-0.5
 62
   256
  6
BYLAYER
  0
ACDBPLACEHOLDER
  5
F
102
{ACAD_REACTORS
330
E
102
}
330
E
  0
SCALE
  5
48
102
{ACAD_REACTORS
330
47
102
}
330
47
100
AcDbScale
 70
     0
300
1:1
140
1.0
141
1.0
290
     1
  0
SCALE
  5
49
102
{ACAD_REACTORS
330
47
102
}
330
47
100
AcDbScale
 70
     0
300
1:2
140
1.0
141
2.0
290
     0
  0
SCALE
  5
4A
102
{ACAD_REACTORS
330
47
102
}
330
47
100
AcDbScale
 70
     0
300
1:4
140
1.0
141
4.0
290
     0
  0
SCALE
  5
4B
102
{ACAD_REACTORS
330
47
102
}
330
47
100
AcDbScale
 70
     0
300
1:5
140
1.0
141
5.0
290
     0
  0
SCALE
  5
4C
102
{ACAD_REACTORS
330
47
102
}
330
47
100
AcDbScale
 70
     0
300
1:8
140
1.0
141
8.0
290
     0
  0
SCALE
  5
4D
102
{ACAD_REACTORS
330
47
102
}
330
47
100
AcDbScale
 70
     0
300
1:10
140
1.0
141
10.0
290
     0
  0
SCALE
  5
4E
102
{ACAD_REACTORS
330
47
102
}
330
47
100
AcDbScale
 70
     0
300
1:16
140
1.0
141
16.0
290
     0
  0
SCALE
  5
4F
102
{ACAD_REACTORS
330
47
102
}
330
47
100
AcDbScale
 70
     0
300
1:20
140
1.0
141
20.0
290
     0
  0
SCALE
  5
50
102
{ACAD_REACTORS
330
47
102
}
330
47
100
AcDbScale
 70
     0
300
1:30
140
1.0
141
30.0
290
     0
  0
SCALE
  5
51
102
{ACAD_REACTORS
330
47
102
}
330
47
100
AcDbScale
 70
     0
300
1:40
140
1.0
141
40.0
290
     0
  0
SCALE
  5
52
102
{ACAD_REACTORS
330
47
102
}
330
47
100
AcDbScale
 70
     0
300
1:50
140
1.0
141
50.0
290
     0
  0
SCALE
  5
53
102
{ACAD_REACTORS
330
47
102
}
330
47
100
AcDbScale
 70
     0
300
1:100
140
1.0
141
100.0
290
     0
  0
SCALE
  5
54
102
{ACAD_REACTORS
330
47
102
}
330
47
100
AcDbScale
 70
     0
300
2:1
140
2.0
141
1.0
290
     0
  0
SCALE
  5
55
102
{ACAD_REACTORS
330
47
102
}
330
47
100
AcDbScale
 70
     0
300
4:1
140
4.0
141
1.0
290
     0
  0
SCALE
  5
56
102
{ACAD_REACTORS
330
47
102
}
330
47
100
AcDbScale
 70
     0
300
8:1
140
8.0
141
1.0
290
     0
  0
SCALE
  5
57
102
{ACAD_REACTORS
330
47
102
}
330
47
100
AcDbScale
 70
     0
300
10:1
140
10.0
141
1.0
290
     0
  0
SCALE
  5
58
102
{ACAD_REACTORS
330
47
102
}
330
47
100
AcDbScale
 70
     0
300
100:1
140
100.0
141
1.0
290
     0
  0
SCALE
  5
59
102
{ACAD_REACTORS
330
47
102
}
330
47
100
AcDbScale
 70
     0
300
1/128" = 1'-0"
140
0.0078125
141
12.0
290
     0
  0
SCALE
  5
5A
102
{ACAD_REACTORS
330
47
102
}
330
47
100
AcDbScale
 70
     0
300
1/64" = 1'-0"
140
0.015625
141
12.0
290
     0
  0
SCALE
  5
5B
102
{ACAD_REACTORS
330
47
102
}
330
47
100
AcDbScale
 70
     0
300
1/32" = 1'-0"
140
0.03125
141
12.0
290
     0
  0
SCALE
  5
5C
102
{ACAD_REACTORS
330
47
102
}
330
47
100
AcDbScale
 70
     0
300
1/16" = 1'-0"
140
0.0625
141
12.0
290
     0
  0
SCALE
  5
5D
102
{ACAD_REACTORS
330
47
102
}
330
47
100
AcDbScale
 70
     0
300
3/32" = 1'-0"
140
0.09375
141
12.0
290
     0
  0
SCALE
  5
5E
102
{ACAD_REACTORS
330
47
102
}
330
47
100
AcDbScale
 70
     0
300
1/8" = 1'-0"
140
0.125
141
12.0
290
     0
  0
SCALE
  5
5F
102
{ACAD_REACTORS
330
47
102
}
330
47
100
AcDbScale
 70
     0
300
3/16" = 1'-0"
140
0.1875
141
12.0
290
     0
  0
SCALE
  5
60
102
{ACAD_REACTORS
330
47
102
}
330
47
100
AcDbScale
 70
     0
300
1/4" = 1'-0"
140
0.25
141
12.0
290
     0
  0
SCALE
  5
61
102
{ACAD_REACTORS
330
47
102
}
330
47
100
AcDbScale
 70
     0
300
3/8" = 1'-0"
140
0.375
141
12.0
290
     0
  0
SCALE
  5
62
102
{ACAD_REACTORS
330
47
102
}
330
47
100
AcDbScale
 70
     0
300
1/2" = 1'-0"
140
0.5
141
12.0
290
     0
  0
SCALE
  5
63
102
{ACAD_REACTORS
330
47
102
}
330
47
100
AcDbScale
 70
     0
300
3/4" = 1'-0"
140
0.75
141
12.0
290
     0
  0
SCALE
  5
64
102
{ACAD_REACTORS
330
47
102
}
330
47
100
AcDbScale
 70
     0
300
1" = 1'-0"
140
1.0
141
12.0
290
     0
  0
SCALE
  5
65
102
{ACAD_REACTORS
330
47
102
}
330
47
100
AcDbScale
 70
     0
300
1-1/2" = 1'-0"
140
1.5
141
12.0
290
     0
  0
SCALE
  5
66
102
{ACAD_REACTORS
330
47
102
}
330
47
100
AcDbScale
 70
     0
300
3" = 1'-0"
140
3.0
141
12.0
290
     0
  0
SCALE
  5
67
102
{ACAD_REACTORS
330
47
102
}
330
47
100
AcDbScale
 70
     0
300
6" = 1'-0"
140
6.0
141
12.0
290
     0
  0
SCALE
  5
68
102
{ACAD_REACTORS
330
47
102
}
330
47
100
AcDbScale
 70
     0
300
1'-0" = 1'-0"
140
12.0
141
12.0
290
     0
  0
ENDSEC
  0
EOF
