  0
SECTION
  2
HEADER
  9
$ACADVER
  1
AC1015
  9
$ACADMAINTVER
 70
     6
  9
$DWGCODEPAGE
  3
ANSI_949
  9
$INSBASE
 10
0.0
 20
0.0
 30
0.0
  9
$EXTMIN
 10
-105.5918698903624
 20
-49.97180738881174
 30
0.0
  9
$EXTMAX
 10
73.55898937000241
 20
26.76413260158163
 30
0.0
  9
$LIMMIN
 10
0.0
 20
0.0
  9
$LIMMAX
 10
420.0
 20
297.0
  9
$ORTHOMODE
 70
     0
  9
$REGENMODE
 70
     1
  9
$FILLMODE
 70
     1
  9
$QTEXTMODE
 70
     0
  9
$MIRRTEXT
 70
     1
  9
$LTSCALE
 40
1.0
  9
$ATTMODE
 70
     1
  9
$TEXTSIZE
 40
3.5
  9
$TRACEWID
 40
1.0
  9
$TEXTSTYLE
  7
Standard
  9
$CLAYER
  8
0
  9
$CELTYPE
  6
ByLayer
  9
$CECOLOR
 62
   256
  9
$CELTSCALE
 40
1.0
  9
$DISPSILH
 70
     0
  9
$DIMSCALE
 40
1.0
  9
$DIMASZ
 40
3.302
  9
$DIMEXO
 40
1.0
  9
$DIMDLI
 40
3.75
  9
$DIMRND
 40
0.0
  9
$DIMDLE
 40
0.0
  9
$DIMEXE
 40
1.0
  9
$DIMTP
 40
0.0
  9
$DIMTM
 40
0.0
  9
$DIMTXT
 40
3.5
  9
$DIMCEN
 40
2.5
  9
$DIMTSZ
 40
0.0
  9
$DIMTOL
 70
     0
  9
$DIMLIM
 70
     0
  9
$DIMTIH
 70
     1
  9
$DIMTOH
 70
     1
  9
$DIMSE1
 70
     0
  9
$DIMSE2
 70
     0
  9
$DIMTAD
 70
     1
  9
$DIMZIN
 70
     0
  9
$DIMBLK
  1

  9
$DIMASO
 70
     1
  9
$DIMSHO
 70
     1
  9
$DIMPOST
  1

  9
$DIMAPOST
  1

  9
$DIMALT
 70
     0
  9
$DIMALTD
 70
     3
  9
$DIMALTF
 40
0.0393700787401575
  9
$DIMLFAC
 40
1.0
  9
$DIMTOFL
 70
     1
  9
$DIMTVP
 40
0.0
  9
$DIMTIX
 70
     0
  9
$DIMSOXD
 70
     0
  9
$DIMSAH
 70
     0
  9
$DIMBLK1
  1

  9
$DIMBLK2
  1

  9
$DIMSTYLE
  2
ISO-25
  9
$DIMCLRD
 70
     0
  9
$DIMCLRE
 70
     0
  9
$DIMCLRT
 70
     0
  9
$DIMTFAC
 40
1.0
  9
$DIMGAP
 40
1.524
  9
$DIMJUST
 70
     0
  9
$DIMSD1
 70
     0
  9
$DIMSD2
 70
     0
  9
$DIMTOLJ
 70
     0
  9
$DIMTZIN
 70
     0
  9
$DIMALTZ
 70
     0
  9
$DIMALTTZ
 70
     0
  9
$DIMUPT
 70
     0
  9
$DIMDEC
 70
     2
  9
$DIMTDEC
 70
     2
  9
$DIMALTU
 70
     2
  9
$DIMALTTD
 70
     3
  9
$DIMTXSTY
  7
Standard
  9
$DIMAUNIT
 70
     0
  9
$DIMADEC
 70
     2
  9
$DIMALTRND
 40
0.0
  9
$DIMAZIN
 70
     0
  9
$DIMDSEP
 70
    44
  9
$DIMATFIT
 70
     3
  9
$DIMFRAC
 70
     0
  9
$DIMLDRBLK
  1

  9
$DIMLUNIT
 70
     2
  9
$DIMLWD
 70
    -2
  9
$DIMLWE
 70
    -2
  9
$DIMTMOVE
 70
     0
  9
$LUNITS
 70
     2
  9
$LUPREC
 70
     2
  9
$SKETCHINC
 40
1.0
  9
$FILLETRAD
 40
10.0
  9
$AUNITS
 70
     0
  9
$AUPREC
 70
     2
  9
$MENU
  1
.
  9
$ELEVATION
 40
0.0
  9
$PELEVATION
 40
0.0
  9
$THICKNESS
 40
0.0
  9
$LIMCHECK
 70
     0
  9
$CHAMFERA
 40
0.0
  9
$CHAMFERB
 40
0.0
  9
$CHAMFERC
 40
0.0
  9
$CHAMFERD
 40
0.0
  9
$SKPOLY
 70
     0
  9
$TDCREATE
 40
2458260.578725972
  9
$TDUCREATE
 40
2458260.203725972
  9
$TDUPDATE
 40
2458268.646559815
  9
$TDUUPDATE
 40
2458268.271559815
  9
$TDINDWG
 40
0.0007815278
  9
$TDUSRTIMER
 40
2458268.270778322
  9
$USRTIMER
 70
     1
  9
$ANGBASE
 50
0.0
  9
$ANGDIR
 70
     0
  9
$PDMODE
 70
     0
  9
$PDSIZE
 40
-1.0
  9
$PLINEWID
 40
0.0
  9
$SPLFRAME
 70
     0
  9
$SPLINETYPE
 70
     6
  9
$SPLINESEGS
 70
     8
  9
$HANDSEED
  5
145
  9
$SURFTAB1
 70
     6
  9
$SURFTAB2
 70
     6
  9
$SURFTYPE
 70
     6
  9
$SURFU
 70
     6
  9
$SURFV
 70
     6
  9
$UCSBASE
  2

  9
$UCSNAME
  2

  9
$UCSORG
 10
0.0
 20
0.0
 30
0.0
  9
$UCSXDIR
 10
1.0
 20
0.0
 30
0.0
  9
$UCSYDIR
 10
0.0
 20
1.0
 30
0.0
  9
$UCSORTHOREF
  2

  9
$UCSORTHOVIEW
 70
     0
  9
$UCSORGTOP
 10
0.0
 20
0.0
 30
0.0
  9
$UCSORGBOTTOM
 10
0.0
 20
0.0
 30
0.0
  9
$UCSORGLEFT
 10
0.0
 20
0.0
 30
0.0
  9
$UCSORGRIGHT
 10
0.0
 20
0.0
 30
0.0
  9
$UCSORGFRONT
 10
0.0
 20
0.0
 30
0.0
  9
$UCSORGBACK
 10
0.0
 20
0.0
 30
0.0
  9
$PUCSBASE
  2

  9
$PUCSNAME
  2

  9
$PUCSORG
 10
0.0
 20
0.0
 30
0.0
  9
$PUCSXDIR
 10
1.0
 20
0.0
 30
0.0
  9
$PUCSYDIR
 10
0.0
 20
1.0
 30
0.0
  9
$PUCSORTHOREF
  2

  9
$PUCSORTHOVIEW
 70
     0
  9
$PUCSORGTOP
 10
0.0
 20
0.0
 30
0.0
  9
$PUCSORGBOTTOM
 10
0.0
 20
0.0
 30
0.0
  9
$PUCSORGLEFT
 10
0.0
 20
0.0
 30
0.0
  9
$PUCSORGRIGHT
 10
0.0
 20
0.0
 30
0.0
  9
$PUCSORGFRONT
 10
0.0
 20
0.0
 30
0.0
  9
$PUCSORGBACK
 10
0.0
 20
0.0
 30
0.0
  9
$USERI1
 70
     0
  9
$USERI2
 70
     0
  9
$USERI3
 70
     0
  9
$USERI4
 70
     0
  9
$USERI5
 70
     0
  9
$USERR1
 40
0.0
  9
$USERR2
 40
0.0
  9
$USERR3
 40
0.0
  9
$USERR4
 40
0.0
  9
$USERR5
 40
0.0
  9
$WORLDVIEW
 70
     1
  9
$SHADEDGE
 70
     3
  9
$SHADEDIF
 70
    70
  9
$TILEMODE
 70
     1
  9
$MAXACTVP
 70
    64
  9
$PINSBASE
 10
0.0
 20
0.0
 30
0.0
  9
$PLIMCHECK
 70
     0
  9
$PEXTMIN
 10
1.000000000000000E+20
 20
1.000000000000000E+20
 30
1.000000000000000E+20
  9
$PEXTMAX
 10
-1.000000000000000E+20
 20
-1.000000000000000E+20
 30
-1.000000000000000E+20
  9
$PLIMMIN
 10
0.0
 20
0.0
  9
$PLIMMAX
 10
0.0
 20
0.0
  9
$UNITMODE
 70
     0
  9
$VISRETAIN
 70
     1
  9
$PLINEGEN
 70
     0
  9
$PSLTSCALE
 70
     1
  9
$TREEDEPTH
 70
  3020
  9
$CMLSTYLE
  2
Standard
  9
$CMLJUST
 70
     0
  9
$CMLSCALE
 40
20.0
  9
$PROXYGRAPHICS
 70
     1
  9
$MEASUREMENT
 70
     1
  9
$CELWEIGHT
370
    -1
  9
$ENDCAPS
280
     0
  9
$JOINSTYLE
280
     0
  9
$LWDISPLAY
290
     1
  9
$INSUNITS
 70
     4
  9
$HYPERLINKBASE
  1

  9
$STYLESHEET
  1

  9
$XEDIT
290
     1
  9
$CEPSNTYPE
380
     0
  9
$PSTYLEMODE
290
     1
  9
$FINGERPRINTGUID
  2
{78B18C8B-05FC-40CA-90F5-FCF7C52129D7}
  9
$VERSIONGUID
  2
{FAEB1C32-E019-11D5-929B-00C0DF256EC4}
  9
$EXTNAMES
290
     1
  9
$PSVPSCALE
 40
0.0
  9
$OLESTARTUP
290
     0
  0
ENDSEC
  0
SECTION
  2
CLASSES
  0
CLASS
  1
ACDBDICTIONARYWDFLT
  2
AcDbDictionaryWithDefault
  3
ObjectDBX Classes
 90
        0
280
     0
281
     0
  0
CLASS
  1
VISUALSTYLE
  2
AcDbVisualStyle
  3
ObjectDBX Classes
 90
     4095
280
     0
281
     0
  0
CLASS
  1
MATERIAL
  2
AcDbMaterial
  3
ObjectDBX Classes
 90
     1153
280
     0
281
     0
  0
CLASS
  1
SCALE
  2
AcDbScale
  3
ObjectDBX Classes
 90
     1153
280
     0
281
     0
  0
CLASS
  1
TABLESTYLE
  2
AcDbTableStyle
  3
ObjectDBX Classes
 90
     4095
280
     0
281
     0
  0
CLASS
  1
MLEADERSTYLE
  2
AcDbMLeaderStyle
  3
ACDB_MLEADERSTYLE_CLASS
 90
     4095
280
     0
281
     0
  0
CLASS
  1
SUN
  2
AcDbSun
  3
SCENEOE
 90
     1153
280
     0
281
     0
  0
CLASS
  1
ACDBPLACEHOLDER
  2
AcDbPlaceHolder
  3
ObjectDBX Classes
 90
        0
280
     0
281
     0
  0
CLASS
  1
LAYOUT
  2
AcDbLayout
  3
ObjectDBX Classes
 90
        0
280
     0
281
     0
  0
CLASS
  1
RASTERVARIABLES
  2
AcDbRasterVariables
  3
ISM
 90
        0
280
     0
281
     0
  0
ENDSEC
  0
SECTION
  2
TABLES
  0
TABLE
  2
VPORT
  5
8
330
0
100
AcDbSymbolTable
 70
     1
  0
VPORT
  5
29
330
8
100
AcDbSymbolTableRecord
100
AcDbViewportTableRecord
  2
*Active
 70
     0
 10
0.0
 20
0.0
 11
1.0
 21
1.0
 12
-16.01644026018
 22
-11.60383739361505
 13
0.0
 23
0.0
 14
10.0
 24
10.0
 15
10.0
 25
10.0
 16
0.0
 26
0.0
 36
1.0
 17
0.0
 27
0.0
 37
0.0
 40
105.4705595591893
 41
1.732558139534884
 42
50.0
 43
0.0
 44
0.0
 50
0.0
 51
0.0
 71
    16
 72
  2000
 73
     1
 74
     3
 75
     0
 76
     0
 77
     0
 78
     0
281
     0
 65
     1
110
0.0
120
0.0
130
0.0
111
1.0
121
0.0
131
0.0
112
0.0
122
1.0
132
0.0
 79
     0
146
0.0
  0
ENDTAB
  0
TABLE
  2
LTYPE
  5
5
330
0
100
AcDbSymbolTable
 70
     6
  0
LTYPE
  5
14
330
5
100
AcDbSymbolTableRecord
100
AcDbLinetypeTableRecord
  2
ByBlock
 70
     0
  3

 72
    65
 73
     0
 40
0.0
  0
LTYPE
  5
15
330
5
100
AcDbSymbolTableRecord
100
AcDbLinetypeTableRecord
  2
ByLayer
 70
     0
  3

 72
    65
 73
     0
 40
0.0
  0
LTYPE
  5
16
330
5
100
AcDbSymbolTableRecord
100
AcDbLinetypeTableRecord
  2
Continuous
 70
     0
  3
Solid line
 72
    65
 73
     0
 40
0.0
  0
LTYPE
  5
6E
330
5
100
AcDbSymbolTableRecord
100
AcDbLinetypeTableRecord
  2
HIDDEN
 70
     0
  3
Hidden __ __ __ __ __ __ __ __ __ __ __ __ __ __
 72
    65
 73
     2
 40
1.905
 49
1.27
 74
     0
 49
-0.635
 74
     0
  0
LTYPE
  5
6F
330
5
100
AcDbSymbolTableRecord
100
AcDbLinetypeTableRecord
  2
PHANTOM
 70
     0
  3
Phantom ______  __  __  ______  __  __  ______
 72
    65
 73
     6
 40
12.7
 49
6.35
 74
     0
 49
-1.27
 74
     0
 49
1.27
 74
     0
 49
-1.27
 74
     0
 49
1.27
 74
     0
 49
-1.27
 74
     0
  0
LTYPE
  5
70
330
5
100
AcDbSymbolTableRecord
100
AcDbLinetypeTableRecord
  2
CENTER
 70
     0
  3
Center ____ _ ____ _ ____ _ ____ _ ____ _ ____
 72
    65
 73
     4
 40
10.16
 49
6.35
 74
     0
 49
-1.27
 74
     0
 49
1.27
 74
     0
 49
-1.27
 74
     0
  0
LTYPE
  5
71
330
5
100
AcDbSymbolTableRecord
100
AcDbLinetypeTableRecord
  2
CENTERX2
 70
     0
  3
Center (2x) ________  __  ________  __  _____
 72
    65
 73
     4
 40
20.32
 49
12.7
 74
     0
 49
-2.54
 74
     0
 49
2.54
 74
     0
 49
-2.54
 74
     0
  0
LTYPE
  5
72
330
5
100
AcDbSymbolTableRecord
100
AcDbLinetypeTableRecord
  2
DOT2
 70
     0
  3
Dot (.5x) ........................................
 72
    65
 73
     2
 40
0.635
 49
0.0
 74
     0
 49
-0.635
 74
     0
  0
ENDTAB
  0
TABLE
  2
LAYER
  5
2
330
0
100
AcDbSymbolTable
 70
    17
  0
LAYER
  5
10
330
2
100
AcDbSymbolTableRecord
100
AcDbLayerTableRecord
  2
0
 70
     0
 62
     7
  6
Continuous
370
    -3
390
F
  0
LAYER
  5
73
330
2
100
AcDbSymbolTableRecord
100
AcDbLayerTableRecord
  2
FORMAT
 70
     0
 62
     2
  6
Continuous
370
    -3
390
F
  0
LAYER
  5
74
330
2
100
AcDbSymbolTableRecord
100
AcDbLayerTableRecord
  2
외형선
 70
     0
 62
   100
  6
Continuous
370
    35
390
F
  0
LAYER
  5
75
330
2
100
AcDbSymbolTableRecord
100
AcDbLayerTableRecord
  2
숨은선
 70
     0
 62
     2
  6
HIDDEN
370
    25
390
F
  0
LAYER
  5
76
330
2
100
AcDbSymbolTableRecord
100
AcDbLayerTableRecord
  2
중심선
 70
     0
 62
     1
  6
CENTERX2
370
    -3
390
F
  0
LAYER
  5
77
330
2
100
AcDbSymbolTableRecord
100
AcDbLayerTableRecord
  2
파단선
 70
     0
 62
     4
  6
Continuous
370
    -3
390
F
  0
LAYER
  5
78
330
2
100
AcDbSymbolTableRecord
100
AcDbLayerTableRecord
  2
해칭선
 70
     0
 62
   100
  6
Continuous
370
    -3
390
F
  0
LAYER
  5
79
330
2
100
AcDbSymbolTableRecord
100
AcDbLayerTableRecord
  2
가는실선
 70
     0
 62
     4
  6
Continuous
370
    -3
390
F
  0
LAYER
  5
7A
330
2
100
AcDbSymbolTableRecord
100
AcDbLayerTableRecord
  2
치수_보조선
 70
     0
 62
     4
  6
Continuous
370
    -3
390
F
  0
LAYER
  5
7B
330
2
100
AcDbSymbolTableRecord
100
AcDbLayerTableRecord
  2
치수문자_일반주서
 70
     0
 62
     7
  6
Continuous
370
    25
390
F
  0
LAYER
  5
7C
330
2
100
AcDbSymbolTableRecord
100
AcDbLayerTableRecord
  2
개별주서
 70
     0
 62
   100
  6
Continuous
370
    35
390
F
  0
LAYER
  5
7D
330
2
100
AcDbSymbolTableRecord
100
AcDbLayerTableRecord
  2
중간선
 70
     0
 62
     2
  6
Continuous
370
    25
390
F
  0
LAYER
  5
7E
330
2
100
AcDbSymbolTableRecord
100
AcDbLayerTableRecord
  2
윤곽선
 70
     0
 62
     3
  6
Continuous
370
    50
390
F
  0
LAYER
  5
7F
330
2
100
AcDbSymbolTableRecord
100
AcDbLayerTableRecord
  2
중심마크
 70
     0
 62
   100
  6
Continuous
370
    35
390
F
  0
LAYER
  5
80
330
2
100
AcDbSymbolTableRecord
100
AcDbLayerTableRecord
  2
가상선
 70
     0
 62
     4
  6
PHANTOM
370
    -3
390
F
  0
LAYER
  5
81
330
2
100
AcDbSymbolTableRecord
100
AcDbLayerTableRecord
  2
특수지정선
 70
     0
 62
     5
  6
CENTERX2
370
    70
390
F
  0
LAYER
  5
136
330
2
100
AcDbSymbolTableRecord
100
AcDbLayerTableRecord
  2
Defpoints
 70
     0
 62
     7
  6
Continuous
290
     0
370
    -3
390
F
  0
ENDTAB
  0
TABLE
  2
STYLE
  5
3
330
0
100
AcDbSymbolTable
 70
     2
  0
STYLE
  5
11
330
3
100
AcDbSymbolTableRecord
100
AcDbTextStyleTableRecord
  2
Standard
 70
     0
 40
0.0
 41
1.0
 50
0.0
 71
     0
 42
3.5
  3
txt
  4

  0
STYLE
  5
97
330
3
100
AcDbSymbolTableRecord
100
AcDbTextStyleTableRecord
  2
SLDTEXTSTYLE0
 70
     0
 40
0.0
 41
0.75
 50
0.0
 71
     0
 42
3.5
  3
TXT
  4

  0
ENDTAB
  0
TABLE
  2
VIEW
  5
6
330
0
100
AcDbSymbolTable
 70
     0
  0
ENDTAB
  0
TABLE
  2
UCS
  5
7
330
0
100
AcDbSymbolTable
 70
     0
  0
ENDTAB
  0
TABLE
  2
APPID
  5
9
330
0
100
AcDbSymbolTable
 70
     1
  0
APPID
  5
12
330
9
100
AcDbSymbolTableRecord
100
AcDbRegAppTableRecord
  2
ACAD
 70
     0
  0
ENDTAB
  0
TABLE
  2
DIMSTYLE
  5
A
330
0
100
AcDbSymbolTable
 70
     4
100
AcDbDimStyleTable
  0
DIMSTYLE
105
27
330
A
100
AcDbSymbolTableRecord
100
AcDbDimStyleTableRecord
  2
ISO-25
 70
     0
 41
2.5
 42
0.625
 43
3.75
 44
1.25
 73
     0
 74
     0
 77
     1
 78
     8
140
2.5
141
2.5
143
0.03937007874016
147
0.625
171
     3
172
     1
178
     0
271
     2
272
     2
274
     3
278
    44
283
     0
284
     8
340
11
  0
DIMSTYLE
105
DB
102
{ACAD_REACTORS
330
DA
102
}
330
A
100
AcDbSymbolTableRecord
100
AcDbDimStyleTableRecord
  2
SLDDIMSTYLE0
 70
     0
 41
3.302
 44
0.0
 45
0.000000001
 73
     0
 74
     0
 77
     1
 78
    12
 79
     3
140
3.5
147
0.875
172
     1
173
     1
178
     0
271
     1
272
     1
276
     2
284
    12
289
     0
340
97
  0
DIMSTYLE
105
E9
102
{ACAD_REACTORS
330
E8
330
101
102
}
330
A
100
AcDbSymbolTableRecord
100
AcDbDimStyleTableRecord
  2
SLDDIMSTYLE1
 70
     0
 41
3.302
 44
0.0
 45
0.000000001
 73
     0
 74
     0
 77
     1
 78
    12
 79
     3
140
3.5
147
0.875
173
     1
178
     0
271
     2
272
     2
276
     2
284
    12
340
97
  0
DIMSTYLE
105
F4
102
{ACAD_REACTORS
330
F3
102
}
330
A
100
AcDbSymbolTableRecord
100
AcDbDimStyleTableRecord
  2
SLDDIMSTYLE2
 70
     0
 41
3.302
 44
0.0
 45
0.000000001
 73
     0
 74
     0
 77
     1
 78
    12
 79
     3
140
3.5
147
0.875
172
     1
173
     1
178
     0
271
     2
272
     2
276
     2
284
    12
289
     0
340
97
  0
ENDTAB
  0
TABLE
  2
BLOCK_RECORD
  5
1
330
0
100
AcDbSymbolTable
 70
     7
  0
BLOCK_RECORD
  5
1F
330
1
100
AcDbSymbolTableRecord
100
AcDbBlockTableRecord
  2
*Model_Space
340
22
  0
BLOCK_RECORD
  5
1B
330
1
100
AcDbSymbolTableRecord
100
AcDbBlockTableRecord
  2
*Paper_Space
340
1E
  0
BLOCK_RECORD
  5
23
330
1
100
AcDbSymbolTableRecord
100
AcDbBlockTableRecord
  2
*Paper_Space0
340
26
  0
BLOCK_RECORD
  5
82
330
1
100
AcDbSymbolTableRecord
100
AcDbBlockTableRecord
  2
블럭10
340
0
102
{BLKREFS
331
D3
102
}
  0
BLOCK_RECORD
  5
DC
330
1
100
AcDbSymbolTableRecord
100
AcDbBlockTableRecord
  2
_D
340
0
  0
BLOCK_RECORD
  5
EA
330
1
100
AcDbSymbolTableRecord
100
AcDbBlockTableRecord
  2
_D_1
340
0
  0
BLOCK_RECORD
  5
F5
330
1
100
AcDbSymbolTableRecord
100
AcDbBlockTableRecord
  2
_D_2
340
0
  0
BLOCK_RECORD
  5
102
330
1
100
AcDbSymbolTableRecord
100
AcDbBlockTableRecord
  2
_D_3
340
0
  0
BLOCK_RECORD
  5
10B
330
1
100
AcDbSymbolTableRecord
100
AcDbBlockTableRecord
  2
SW_DOWELSYMBOL_0
340
0
102
{BLKREFS
331
111
102
}
  0
ENDTAB
  0
ENDSEC
  0
SECTION
  2
BLOCKS
  0
BLOCK
  5
20
330
1F
100
AcDbEntity
  8
0
100
AcDbBlockBegin
  2
*Model_Space
 70
     0
 10
0.0
 20
0.0
 30
0.0
  3
*Model_Space
  1

  0
ENDBLK
  5
21
330
1F
100
AcDbEntity
  8
0
100
AcDbBlockEnd
  0
BLOCK
  5
1C
330
1B
100
AcDbEntity
 67
     1
  8
0
100
AcDbBlockBegin
  2
*Paper_Space
 70
     0
 10
0.0
 20
0.0
 30
0.0
  3
*Paper_Space
  1

  0
ENDBLK
  5
1D
330
1B
100
AcDbEntity
 67
     1
  8
0
100
AcDbBlockEnd
  0
BLOCK
  5
24
330
23
100
AcDbEntity
  8
0
100
AcDbBlockBegin
  2
*Paper_Space0
 70
     0
 10
0.0
 20
0.0
 30
0.0
  3
*Paper_Space0
  1

  0
ENDBLK
  5
25
330
23
100
AcDbEntity
  8
0
100
AcDbBlockEnd
  0
BLOCK
  5
83
330
82
100
AcDbEntity
  8
0
100
AcDbBlockBegin
  2
블럭10
 70
     2
 10
0.0
 20
0.0
 30
0.0
  3
블럭10
  1

  0
ELLIPSE
  5
85
330
82
100
AcDbEntity
  8
중심선
100
AcDbEllipse
 10
20.54032771741204
 20
12.0471743016438
 30
0.0
 11
6.600054785286829
 21
-1.261213355974178E-13
 31
0.0
210
0.0
220
0.0
230
1.0
 40
0.636358354079598
 41
0.9219305317359503
 42
6.513795318482858
  0
ELLIPSE
  5
86
330
82
100
AcDbEntity
  8
중심선
100
AcDbEllipse
 10
20.54032771746488
 20
12.04717430159265
 30
0.0
 11
3.960054785062283
 21
1.540847449632565E-10
 31
0.0
210
0.0
220
0.0
230
1.0
 40
0.3939339440162632
 41
1.131841032648279
 42
5.62031148352944
  0
LINE
  5
87
330
82
100
AcDbEntity
  8
중심선
100
AcDbLine
 10
2.268634060543552
 20
16.24717430164393
 30
0.0
 11
5.714909304380834
 21
16.24717430164393
 31
0.0
  0
LINE
  5
88
330
82
100
AcDbEntity
  8
중심선
100
AcDbLine
 10
5.245725140726316
 20
7.84717430164391
 30
0.0
 11
8.692000384563599
 21
7.84717430164391
 31
0.0
  0
LINE
  5
89
330
82
100
AcDbEntity
  8
중심선
100
AcDbLine
 10
15.74043728645272
 20
16.24717430164393
 30
0.0
 11
8.692000384563599
 21
7.84717430164391
 31
0.0
  0
LINE
  5
8A
330
82
100
AcDbEntity
  8
중심선
100
AcDbLine
 10
0.1404042013395286
 20
13.71084872107135
 30
0.0
 11
3.58671253028996
 21
13.71088815037384
 31
0.0
  0
LINE
  5
8B
330
82
100
AcDbEntity
  8
중심선
100
AcDbLine
 10
2.750260043222114
 20
10.84717430164391
 30
0.0
 11
6.196535287059397
 21
10.84717430164391
 31
0.0
  0
LINE
  5
8C
330
82
100
AcDbEntity
  8
중심선
100
AcDbLine
 10
12.29416204261559
 20
16.24717430164393
 30
0.0
 11
5.245725140726316
 21
7.84717430164391
 31
0.0
  0
LINE
  5
8D
330
82
100
AcDbEntity
  8
중심선
100
AcDbLine
 10
10.72767329541681
 20
16.24717430164393
 30
0.0
 11
6.196535287059397
 21
10.84717430164391
 31
0.0
  0
LINE
  5
8E
330
82
100
AcDbEntity
  8
중심선
100
AcDbLine
 10
7.28139805157953
 20
16.24717430164393
 30
0.0
 11
2.750260043222114
 21
10.84717430164391
 31
0.0
  0
LINE
  5
8F
330
82
100
AcDbEntity
  8
중심선
100
AcDbLine
 10
5.714909304380834
 20
16.24717430164393
 30
0.0
 11
3.58671253028996
 21
13.71088815037384
 31
0.0
  0
LINE
  5
90
330
82
100
AcDbEntity
  8
중심선
100
AcDbLine
 10
2.268634060543552
 20
16.24717430164393
 30
0.0
 11
0.1404042013395286
 21
13.71084872107135
 31
0.0
  0
LINE
  5
91
330
82
100
AcDbEntity
  8
중심선
100
AcDbLine
 10
7.28139805157953
 20
16.24717430164393
 30
0.0
 11
10.72767329541681
 21
16.24717430164393
 31
0.0
  0
LINE
  5
92
330
82
100
AcDbEntity
  8
중심선
100
AcDbLine
 10
12.29416204261559
 20
16.24717430164393
 30
0.0
 11
15.74043728645272
 21
16.24717430164393
 31
0.0
  0
LINE
  5
93
330
82
100
AcDbEntity
  8
중심선
100
AcDbLine
 10
19.22036997980202
 20
11.08717430171403
 30
0.0
 11
23.66174974927406
 21
11.08717430171406
 31
0.0
  0
LINE
  5
94
330
82
100
AcDbEntity
  8
중심선
100
AcDbLine
 10
19.22039502424796
 20
13.00717430171391
 30
0.0
 11
19.22036997980202
 21
11.08717430171403
 31
0.0
  0
LINE
  5
95
330
82
100
AcDbEntity
  8
중심선
100
AcDbLine
 10
19.22039502424796
 20
13.00717430171391
 30
0.0
 11
26.96566020931264
 21
13.00717430171391
 31
0.0
  0
LINE
  5
96
330
82
100
AcDbEntity
  8
중심선
100
AcDbLine
 10
22.22332737316547
 20
13.45928029700563
 30
0.0
 11
24.52862924686651
 21
15.39360700705356
 31
0.0
  0
ATTDEF
  5
98
330
82
100
AcDbEntity
  8
FORMAT
 62
     2
100
AcDbText
 10
-20.85824753159254
 20
2.075366912832191
 30
0.0
 40
4.233333333333333
  1
SEME7210050150E [ 4 FLUTE ]
 41
0.75
  7
SLDTEXTSTYLE0
 11
-20.85824753159254
 21
-0.0412997538344756
 31
0.0
100
AcDbAttributeDefinition
  3

  2
AUTOATTR0
 70
     0
 74
     1
  0
ENDBLK
  5
84
330
82
100
AcDbEntity
  8
0
100
AcDbBlockEnd
  0
BLOCK
  5
DD
330
DC
100
AcDbEntity
  8
0
100
AcDbBlockBegin
  2
_D
 70
     0
 10
0.0
 20
0.0
 30
0.0
  3
_D
  1

  0
LINE
  5
DF
330
DC
100
AcDbEntity
  8
치수문자_일반주서
 62
     0
370
    -2
100
AcDbLine
 10
60.06249999999999
 20
-5.000000000000012
 30
0.0
 11
73.00865603666907
 21
-4.999999999999961
 31
0.0
  0
LINE
  5
E0
330
DC
100
AcDbEntity
  8
치수문자_일반주서
 62
     0
370
    -2
100
AcDbLine
 10
60.06249999999999
 20
4.999999999999996
 30
0.0
 11
73.00865603666904
 21
5.000000000000044
 31
0.0
  0
LINE
  5
E1
330
DC
100
AcDbEntity
  8
치수문자_일반주서
 62
     0
370
    -2
100
AcDbLine
 10
73.00865603666907
 20
-4.999999999999961
 30
0.0
 11
73.008656036669
 21
19.04150000000005
 31
0.0
  0
LINE
  5
E2
330
DC
100
AcDbEntity
  8
치수문자_일반주서
 62
     0
370
    -2
100
AcDbLine
 10
73.00865603666907
 20
-4.999999999999961
 30
0.0
 11
73.00865603666904
 21
5.000000000000044
 31
0.0
  0
LINE
  5
E3
330
DC
100
AcDbEntity
  8
치수문자_일반주서
 62
     0
370
    -2
100
AcDbLine
 10
73.00865603666908
 20
-8.30199999999996
 30
0.0
 11
73.0086560366691
 21
-11.60399999999996
 31
0.0
  0
LINE
  5
E4
330
DC
100
AcDbEntity
  8
치수문자_일반주서
 62
     0
370
    -2
100
AcDbLine
 10
73.00865603666902
 20
8.302000000000044
 30
0.0
 11
73.00865603666901
 21
11.60400000000004
 31
0.0
  0
SOLID
  5
E5
330
DC
100
AcDbEntity
  8
치수문자_일반주서
 62
     0
100
AcDbTrace
 10
73.55898937000241
 20
-8.301999999999959
 30
0.0
 11
72.45832270333575
 21
-8.301999999999962
 31
0.0
 12
73.00865603666907
 22
-4.999999999999961
 32
0.0
 13
73.00865603666907
 23
-4.999999999999961
 33
0.0
  0
SOLID
  5
E6
330
DC
100
AcDbEntity
  8
치수문자_일반주서
 62
     0
100
AcDbTrace
 10
72.4583227033357
 20
8.302000000000042
 30
0.0
 11
73.55898937000235
 21
8.302000000000046
 31
0.0
 12
73.00865603666904
 22
5.000000000000044
 32
0.0
 13
73.00865603666904
 23
5.000000000000044
 33
0.0
  0
MTEXT
  5
E7
330
DC
100
AcDbEntity
  8
치수문자_일반주서
 62
     0
100
AcDbMText
 10
68.63365603666901
 20
15.32275000000003
 30
0.0
 40
3.5
 41
0.0
 71
     2
 72
     1
  1
\A1;%%c10
  7
SLDTEXTSTYLE0
 11
-2.842170943040398E-15
 21
1.0
 31
0.0
 73
     1
 44
1.0
  0
POINT
  5
140
330
DC
100
AcDbEntity
  8
Defpoints
 62
     0
100
AcDbPoint
 10
59.99999999999999
 20
-5.000000000000012
 30
0.0
  0
POINT
  5
141
330
DC
100
AcDbEntity
  8
Defpoints
 62
     0
100
AcDbPoint
 10
59.99999999999999
 20
4.999999999999996
 30
0.0
  0
POINT
  5
142
330
DC
100
AcDbEntity
  8
Defpoints
 62
     0
100
AcDbPoint
 10
73.00865603666907
 20
5.000000000000045
 30
0.0
  0
ENDBLK
  5
DE
330
DC
100
AcDbEntity
  8
0
100
AcDbBlockEnd
  0
BLOCK
  5
EB
330
EA
100
AcDbEntity
  8
0
100
AcDbBlockBegin
  2
_D_1
 70
     0
 10
0.0
 20
0.0
 30
0.0
  3
_D_1
  1

  0
LINE
  5
ED
330
EA
100
AcDbEntity
  8
치수문자_일반주서
 62
     0
370
    -2
100
AcDbLine
 10
-90.00000000000001
 20
4.56249999999998
 30
0.0
 11
-90.00000000000001
 21
22.38913260158163
 31
0.0
  0
LINE
  5
EE
330
EA
100
AcDbEntity
  8
치수문자_일반주서
 62
     0
370
    -2
100
AcDbLine
 10
59.99999999999999
 20
5.062499999999997
 30
0.0
 11
59.99999999999999
 21
22.38913260158163
 31
0.0
  0
LINE
  5
EF
330
EA
100
AcDbEntity
  8
치수문자_일반주서
 62
     0
370
    -2
100
AcDbLine
 10
-86.69800000000001
 20
22.38913260158163
 30
0.0
 11
56.69799999999999
 21
22.38913260158163
 31
0.0
  0
SOLID
  5
F0
330
EA
100
AcDbEntity
  8
치수문자_일반주서
 62
     0
100
AcDbTrace
 10
-86.69800000000001
 20
22.93946593491496
 30
0.0
 11
-86.69800000000001
 21
21.83879926824829
 31
0.0
 12
-90.00000000000001
 22
22.38913260158163
 32
0.0
 13
-90.00000000000001
 23
22.38913260158163
 33
0.0
  0
SOLID
  5
F1
330
EA
100
AcDbEntity
  8
치수문자_일반주서
 62
     0
100
AcDbTrace
 10
56.69799999999999
 20
21.83879926824829
 30
0.0
 11
56.69799999999999
 21
22.93946593491496
 31
0.0
 12
59.99999999999999
 22
22.38913260158163
 32
0.0
 13
59.99999999999999
 23
22.38913260158163
 33
0.0
  0
MTEXT
  5
F2
330
EA
100
AcDbEntity
  8
치수문자_일반주서
 62
     0
100
AcDbMText
 10
-15.0
 20
26.76413260158163
 30
0.0
 40
3.5
 41
0.0
 71
     2
 72
     1
  1
\A1;150
  7
SLDTEXTSTYLE0
 73
     1
 44
1.0
  0
POINT
  5
137
330
EA
100
AcDbEntity
  8
Defpoints
 62
     0
100
AcDbPoint
 10
-90.00000000000001
 20
4.49999999999998
 30
0.0
  0
POINT
  5
138
330
EA
100
AcDbEntity
  8
Defpoints
 62
     0
100
AcDbPoint
 10
59.99999999999999
 20
4.999999999999997
 30
0.0
  0
POINT
  5
139
330
EA
100
AcDbEntity
  8
Defpoints
 62
     0
100
AcDbPoint
 10
59.99999999999999
 20
22.38913260158163
 30
0.0
  0
ENDBLK
  5
EC
330
EA
100
AcDbEntity
  8
0
100
AcDbBlockEnd
  0
BLOCK
  5
F6
330
F5
100
AcDbEntity
  8
0
100
AcDbBlockBegin
  2
_D_2
 70
     0
 10
0.0
 20
0.0
 30
0.0
  3
_D_2
  1

  0
LINE
  5
F8
330
F5
100
AcDbEntity
  8
치수문자_일반주서
 62
     0
370
    -2
100
AcDbLine
 10
-89.56249999999999
 20
4.999999999999997
 30
0.0
 11
-101.2168698903624
 21
4.999999999999952
 31
0.0
  0
LINE
  5
F9
330
F5
100
AcDbEntity
  8
치수문자_일반주서
 62
     0
370
    -2
100
AcDbLine
 10
-89.56249999999999
 20
-5.000000000000012
 30
0.0
 11
-101.2168698903624
 21
-5.000000000000053
 31
0.0
  0
LINE
  5
FA
330
F5
100
AcDbEntity
  8
치수문자_일반주서
 62
     0
370
    -2
100
AcDbLine
 10
-101.2168698903624
 20
4.999999999999952
 30
0.0
 11
-101.2168698903624
 21
19.04149999999995
 31
0.0
  0
LINE
  5
FB
330
F5
100
AcDbEntity
  8
치수문자_일반주서
 62
     0
370
    -2
100
AcDbLine
 10
-101.2168698903624
 20
4.999999999999952
 30
0.0
 11
-101.2168698903624
 21
-5.000000000000053
 31
0.0
  0
LINE
  5
FC
330
F5
100
AcDbEntity
  8
치수문자_일반주서
 62
     0
370
    -2
100
AcDbLine
 10
-101.2168698903624
 20
8.301999999999952
 30
0.0
 11
-101.2168698903624
 21
11.60399999999995
 31
0.0
  0
LINE
  5
FD
330
F5
100
AcDbEntity
  8
치수문자_일반주서
 62
     0
370
    -2
100
AcDbLine
 10
-101.2168698903623
 20
-8.302000000000053
 30
0.0
 11
-101.2168698903623
 21
-11.60400000000005
 31
0.0
  0
SOLID
  5
FE
330
F5
100
AcDbEntity
  8
치수문자_일반주서
 62
     0
100
AcDbTrace
 10
-101.7672032236957
 20
8.30199999999995
 30
0.0
 11
-100.6665365570291
 21
8.301999999999953
 31
0.0
 12
-101.2168698903624
 22
4.999999999999952
 32
0.0
 13
-101.2168698903624
 23
4.999999999999952
 33
0.0
  0
SOLID
  5
FF
330
F5
100
AcDbEntity
  8
치수문자_일반주서
 62
     0
100
AcDbTrace
 10
-100.666536557029
 20
-8.302000000000051
 30
0.0
 11
-101.7672032236957
 21
-8.302000000000055
 31
0.0
 12
-101.2168698903624
 22
-5.000000000000053
 32
0.0
 13
-101.2168698903624
 23
-5.000000000000053
 33
0.0
  0
MTEXT
  5
100
330
F5
100
AcDbEntity
  8
치수문자_일반주서
 62
     0
100
AcDbMText
 10
-105.5918698903624
 20
15.32274999999994
 30
0.0
 40
3.5
 41
0.0
 71
     2
 72
     1
  1
\A1;%%c10
  7
SLDTEXTSTYLE0
 11
-2.842170943040398E-15
 21
1.0
 31
0.0
 73
     1
 44
1.0
  0
POINT
  5
13D
330
F5
100
AcDbEntity
  8
Defpoints
 62
     0
100
AcDbPoint
 10
-89.49999999999999
 20
4.999999999999997
 30
0.0
  0
POINT
  5
13E
330
F5
100
AcDbEntity
  8
Defpoints
 62
     0
100
AcDbPoint
 10
-89.49999999999999
 20
-5.000000000000012
 30
0.0
  0
POINT
  5
13F
330
F5
100
AcDbEntity
  8
Defpoints
 62
     0
100
AcDbPoint
 10
-101.2168698903623
 20
-5.000000000000055
 30
0.0
  0
ENDBLK
  5
F7
330
F5
100
AcDbEntity
  8
0
100
AcDbBlockEnd
  0
BLOCK
  5
103
330
102
100
AcDbEntity
  8
0
100
AcDbBlockBegin
  2
_D_3
 70
     0
 10
0.0
 20
0.0
 30
0.0
  3
_D_3
  1

  0
LINE
  5
105
330
102
100
AcDbEntity
  8
치수문자_일반주서
 62
     0
370
    -2
100
AcDbLine
 10
9.99999999999999
 20
4.858779735592964
 30
0.0
 11
9.999999999999986
 21
15.64219803818061
 31
0.0
  0
LINE
  5
106
330
102
100
AcDbEntity
  8
치수문자_일반주서
 62
     0
370
    -2
100
AcDbLine
 10
59.99999999999999
 20
5.062499999999997
 30
0.0
 11
59.99999999999999
 21
15.64219803818061
 31
0.0
  0
LINE
  5
107
330
102
100
AcDbEntity
  8
치수문자_일반주서
 62
     0
370
    -2
100
AcDbLine
 10
13.30199999999999
 20
15.64219803818061
 30
0.0
 11
56.69799999999999
 21
15.64219803818061
 31
0.0
  0
SOLID
  5
108
330
102
100
AcDbEntity
  8
치수문자_일반주서
 62
     0
100
AcDbTrace
 10
13.30199999999999
 20
16.19253137151395
 30
0.0
 11
13.30199999999999
 21
15.09186470484728
 31
0.0
 12
9.999999999999986
 22
15.64219803818061
 32
0.0
 13
9.999999999999986
 23
15.64219803818061
 33
0.0
  0
SOLID
  5
109
330
102
100
AcDbEntity
  8
치수문자_일반주서
 62
     0
100
AcDbTrace
 10
56.69799999999999
 20
15.09186470484728
 30
0.0
 11
56.69799999999999
 21
16.19253137151395
 31
0.0
 12
59.99999999999999
 22
15.64219803818061
 32
0.0
 13
59.99999999999999
 23
15.64219803818061
 33
0.0
  0
MTEXT
  5
10A
330
102
100
AcDbEntity
  8
치수문자_일반주서
 62
     0
100
AcDbMText
 10
35.0
 20
20.01719803818061
 30
0.0
 40
3.5
 41
0.0
 71
     2
 72
     1
  1
\A1;50
  7
SLDTEXTSTYLE0
 73
     1
 44
1.0
  0
POINT
  5
13A
330
102
100
AcDbEntity
  8
Defpoints
 62
     0
100
AcDbPoint
 10
9.99999999999999
 20
4.796279735592964
 30
0.0
  0
POINT
  5
13B
330
102
100
AcDbEntity
  8
Defpoints
 62
     0
100
AcDbPoint
 10
59.99999999999999
 20
4.999999999999997
 30
0.0
  0
POINT
  5
13C
330
102
100
AcDbEntity
  8
Defpoints
 62
     0
100
AcDbPoint
 10
59.99999999999999
 20
15.64219803818061
 30
0.0
  0
ENDBLK
  5
104
330
102
100
AcDbEntity
  8
0
100
AcDbBlockEnd
  0
BLOCK
  5
10C
330
10B
100
AcDbEntity
  8
0
100
AcDbBlockBegin
  2
SW_DOWELSYMBOL_0
 70
     0
 10
0.0
 20
0.0
 30
0.0
  3
SW_DOWELSYMBOL_0
  1

  0
CIRCLE
  5
10E
330
10B
100
AcDbEntity
  8
해칭선
 62
     0
100
AcDbCircle
 10
0.0
 20
0.0
 30
0.0
 40
3.0
  0
HATCH
  5
10F
330
10B
100
AcDbEntity
  8
0
  6
Continuous
 62
     0
370
    18
100
AcDbHatch
 10
0.0
 20
0.0
 30
0.0
210
0.0
220
0.0
230
1.0
  2
SOLID
 70
     1
 71
     0
 91
        1
 92
        0
 93
        3
 72
     2
 10
0.0
 20
0.0
 40
3.0
 50
0.0
 51
90.0
 73
     1
 72
     1
 10
0.0
 20
3.0
 11
0.0
 21
0.0
 72
     1
 10
0.0
 20
0.0
 11
3.0
 21
0.0
 97
        0
 75
     0
 76
     1
 98
        1
 10
0.0
 20
0.0
  0
HATCH
  5
110
330
10B
100
AcDbEntity
  8
0
  6
Continuous
 62
     0
370
    18
100
AcDbHatch
 10
0.0
 20
0.0
 30
0.0
210
0.0
220
0.0
230
1.0
  2
SOLID
 70
     1
 71
     0
 91
        1
 92
        0
 93
        3
 72
     2
 10
0.0
 20
0.0
 40
3.0
 50
180.0
 51
270.0000000000008
 73
     1
 72
     1
 10
0.0
 20
-3.0
 11
0.0
 21
0.0
 72
     1
 10
0.0
 20
0.0
 11
-3.0
 21
0.0
 97
        0
 75
     0
 76
     1
 98
        1
 10
0.0
 20
0.0
  0
ENDBLK
  5
10D
330
10B
100
AcDbEntity
  8
0
100
AcDbBlockEnd
  0
ENDSEC
  0
SECTION
  2
ENTITIES
  0
LINE
  5
99
330
1F
100
AcDbEntity
  8
0
  6
Continuous
 62
     4
370
    25
100
AcDbLine
 10
8.501590206655829
 20
4.999999999999993
 30
0.0
 11
-89.49999999999999
 21
4.999999999999987
 31
0.0
  0
LINE
  5
9A
330
1F
100
AcDbEntity
  8
0
  6
Continuous
 62
     4
370
    25
100
AcDbLine
 10
-89.49999999999999
 20
-5.000000000000013
 30
0.0
 11
8.501590206655804
 21
-5.000000000000007
 31
0.0
  0
LINE
  5
9B
330
1F
100
AcDbEntity
  8
0
  6
Continuous
 62
     4
370
    25
100
AcDbLine
 10
-89.49999999999999
 20
4.999999999999979
 30
0.0
 11
-90.00000000000001
 21
4.49999999999998
 31
0.0
  0
LINE
  5
9C
330
1F
100
AcDbEntity
  8
0
  6
Continuous
 62
     4
370
    25
100
AcDbLine
 10
-90.00000000000001
 20
-4.500000000000007
 30
0.0
 11
-89.49999999999999
 21
-5.000000000000005
 31
0.0
  0
LINE
  5
9D
330
1F
100
AcDbEntity
  8
0
  6
Continuous
 62
     1
370
    25
100
AcDbLine
 10
58.06578055494207
 20
-5.000000000000012
 30
0.0
 11
59.99999999999999
 21
-5.000000000000012
 31
0.0
  0
LINE
  5
9E
330
1F
100
AcDbEntity
  8
0
  6
Continuous
 62
     1
370
    25
100
AcDbLine
 10
34.72678953478031
 20
4.999999999999997
 30
0.0
 11
30.85882426389795
 21
4.999999999999997
 31
0.0
  0
LINE
  5
9F
330
1F
100
AcDbEntity
  8
0
  6
Continuous
 62
     1
370
    25
100
AcDbLine
 10
44.46272329011505
 20
-5.000000000000012
 30
0.0
 11
48.3306623173593
 21
-5.000000000000012
 31
0.0
  0
LINE
  5
A0
330
1F
100
AcDbEntity
  8
0
  6
Continuous
 62
     1
370
    25
100
AcDbLine
 10
21.12403741371489
 20
4.999999999999997
 30
0.0
 11
17.25488398688751
 21
4.999999999999997
 31
0.0
  0
LINE
  5
A1
330
1F
100
AcDbEntity
  8
0
  6
Continuous
 62
     1
370
    25
100
AcDbLine
 10
17.25488398688757
 20
-5.000000000000012
 30
0.0
 11
21.12403741371491
 21
-5.000000000000012
 31
0.0
  0
LINE
  5
A2
330
1F
100
AcDbEntity
  8
0
  6
Continuous
 62
     1
370
    25
100
AcDbLine
 10
48.33066231735928
 20
4.999999999999997
 30
0.0
 11
44.46272329011511
 21
4.999999999999997
 31
0.0
  0
LINE
  5
A3
330
1F
100
AcDbEntity
  8
0
  6
Continuous
 62
     1
370
    25
100
AcDbLine
 10
30.85882426389795
 20
-5.000000000000012
 30
0.0
 11
34.72678953478027
 21
-5.000000000000012
 31
0.0
  0
LINE
  5
A4
330
1F
100
AcDbEntity
  8
0
  6
Continuous
 62
     1
370
    25
100
AcDbLine
 10
59.99999999999999
 20
4.999999999999997
 30
0.0
 11
58.06578055494202
 21
4.999999999999997
 31
0.0
  0
SPLINE
  5
A5
330
1F
100
AcDbEntity
  8
0
  6
Continuous
 62
     4
370
    25
100
AcDbSpline
210
0.0
220
0.0
230
1.0
 70
     8
 71
     3
 72
    14
 73
    10
 74
     0
 42
0.000000001
 43
0.00000001
 40
0.0
 40
0.0
 40
0.0
 40
0.0
 40
0.25
 40
0.25
 40
0.5
 40
0.5
 40
0.75
 40
0.75
 40
1.0
 40
1.0
 40
1.0
 40
1.0
 10
9.004016425262218
 20
-0.8521138215592656
 30
0.0
 10
8.925100552046983
 20
-0.807236954560224
 30
0.0
 10
8.85418888253277
 20
-0.752751053600518
 30
0.0
 10
8.72790391557712
 20
-0.6248394888959086
 30
0.0
 10
8.673504874584445
 20
-0.5518009570031983
 30
0.0
 10
8.586790529695365
 20
-0.3949772212238801
 30
0.0
 10
8.553607212677942
 20
-0.3093423457957995
 30
0.0
 10
8.51054960760252
 20
-0.1348847618721919
 30
0.0
 10
8.499999493707028
 20
-0.0443969175460657
 30
0.0
 10
8.499999493707028
 20
0.0466169912732676
 30
0.0
  0
SPLINE
  5
A6
330
1F
100
AcDbEntity
  8
0
  6
Continuous
 62
     4
370
    25
100
AcDbSpline
210
0.0
220
0.0
230
1.0
 70
     8
 71
     3
 72
    20
 73
    16
 74
     0
 42
0.000000001
 43
0.00000001
 40
0.0
 40
0.0
 40
0.0
 40
0.0
 40
0.125
 40
0.125
 40
0.25
 40
0.25
 40
0.375
 40
0.375
 40
0.5
 40
0.5
 40
0.625
 40
0.625
 40
0.75
 40
0.75
 40
1.0
 40
1.0
 40
1.0
 40
1.0
 10
8.499999493707032
 20
3.056017633004901
 30
0.0
 10
8.499999493707032
 20
3.126582552474773
 30
0.0
 10
8.50992848506866
 20
3.194368950685865
 30
0.0
 10
8.551144857717038
 20
3.324534081755413
 30
0.0
 10
8.582878880605685
 20
3.386883251546058
 30
0.0
 10
8.665738063923794
 20
3.499230001752229
 30
0.0
 10
8.718086120172934
 20
3.550941853359031
 30
0.0
 10
8.839335562610147
 20
3.640255803086121
 30
0.0
 10
8.90779937798233
 20
3.678018842542326
 30
0.0
 10
9.060191191147677
 20
3.740243667637117
 30
0.0
 10
9.140884579229303
 20
3.763438981356162
 30
0.0
 10
9.311039694585899
 20
3.79541554423326
 30
0.0
 10
9.39975254859218
 20
3.803799683844157
 30
0.0
 10
9.663975253391852
 20
3.805899933904897
 30
0.0
 10
9.841173381300212
 20
3.776813858674514
 30
0.0
 10
9.995853653783735
 20
3.717130732084428
 30
0.0
  0
SPLINE
  5
A7
330
1F
100
AcDbEntity
  8
0
  6
Continuous
 62
     4
370
    25
100
AcDbSpline
210
0.0
220
0.0
230
1.0
 70
     8
 71
     3
 72
    14
 73
    10
 74
     0
 42
0.000000001
 43
0.00000001
 40
0.0
 40
0.0
 40
0.0
 40
0.0
 40
0.25
 40
0.25
 40
0.5
 40
0.5
 40
0.75
 40
0.75
 40
1.0
 40
1.0
 40
1.0
 40
1.0
 10
9.004016425262218
 20
4.926855187144803
 30
0.0
 10
8.925100552046983
 20
4.934616770789058
 30
0.0
 10
8.854188882532766
 20
4.943433555710573
 30
0.0
 10
8.72790391557712
 20
4.961224151511226
 30
0.0
 10
8.673504874584445
 20
4.970082467841266
 30
0.0
 10
8.586790529695365
 20
4.984997194383067
 30
0.0
 10
8.553607212677942
 20
4.991185352207334
 30
0.0
 10
8.51054960760252
 20
4.998942889052264
 30
0.0
 10
8.499999493707028
 20
5.000631276691547
 30
0.0
 10
8.499999493707028
 20
4.999782680889696
 30
0.0
  0
SPLINE
  5
A8
330
1F
100
AcDbEntity
  8
0
  6
Continuous
 62
     4
370
    25
100
AcDbSpline
210
0.0
220
0.0
230
1.0
 70
     8
 71
     3
 72
     8
 73
     4
 74
     0
 42
0.000000001
 43
0.00000001
 40
0.0
 40
0.0
 40
0.0
 40
0.0
 40
1.0
 40
1.0
 40
1.0
 40
1.0
 10
9.99999999999999
 20
4.796279735592964
 30
0.0
 10
9.666857379148933
 20
4.8505804891702
 30
0.0
 10
9.33697456794314
 20
4.89410787828077
 30
0.0
 10
9.004016425262218
 20
4.926855187144803
 30
0.0
  0
LINE
  5
A9
330
1F
100
AcDbEntity
  8
0
  6
Continuous
 62
     4
370
    25
100
AcDbLine
 10
9.99999999999999
 20
4.796279735592964
 30
0.0
 11
9.999999999999991
 21
3.715530465701584
 31
0.0
  0
LINE
  5
AA
330
1F
100
AcDbEntity
  8
0
  6
Continuous
 62
     4
370
    25
100
AcDbLine
 10
9.995853653783735
 20
3.717130732084417
 30
0.0
 11
9.999999999999991
 21
3.715530465701573
 31
0.0
  0
SPLINE
  5
AB
330
1F
100
AcDbEntity
  8
0
  6
Continuous
 62
     4
370
    25
100
AcDbSpline
210
0.0
220
0.0
230
1.0
 70
     8
 71
     3
 72
     8
 73
     4
 74
     0
 42
0.000000001
 43
0.00000001
 40
0.0
 40
0.0
 40
0.0
 40
0.0
 40
1.0
 40
1.0
 40
1.0
 40
1.0
 10
9.99999999999999
 20
-1.412692711784211
 30
0.0
 10
9.666857379148933
 20
-1.228334427893172
 30
0.0
 10
9.33697456794314
 20
-1.041456189280228
 30
0.0
 10
9.004016425262218
 20
-0.8521138215592657
 30
0.0
  0
LINE
  5
AC
330
1F
100
AcDbEntity
  8
0
  6
Continuous
 62
     4
370
    25
100
AcDbLine
 10
9.99999999999999
 20
-1.412692711784211
 30
0.0
 11
9.999999999999991
 21
-3.345868102367971
 31
0.0
  0
LINE
  5
AD
330
1F
100
AcDbEntity
  8
0
  6
Continuous
 62
     4
370
    25
100
AcDbLine
 10
9.995853653783735
 20
-3.344090178298652
 30
0.0
 11
9.999999999999991
 21
-3.345868102367963
 31
0.0
  0
SPLINE
  5
AE
330
1F
100
AcDbEntity
  8
0
  6
Continuous
 62
     4
370
    25
100
AcDbSpline
210
0.0
220
0.0
230
1.0
 70
     8
 71
     3
 72
    20
 73
    16
 74
     0
 42
0.000000001
 43
0.00000001
 40
0.0
 40
0.0
 40
0.0
 40
0.0
 40
0.125
 40
0.125
 40
0.25
 40
0.25
 40
0.375
 40
0.375
 40
0.5
 40
0.5
 40
0.625
 40
0.625
 40
0.75
 40
0.75
 40
1.0
 40
1.0
 40
1.0
 40
1.0
 10
8.499999493707032
 20
-3.95736733533333
 30
0.0
 10
8.499999493707032
 20
-3.902874633519654
 30
0.0
 10
8.50992848506866
 20
-3.847515173693714
 30
0.0
 10
8.551144857717038
 20
-3.735617638912738
 30
0.0
 10
8.582878880605685
 20
-3.678997541192694
 30
0.0
 10
8.665738063923794
 20
-3.572308841987515
 30
0.0
 10
8.718086120172934
 20
-3.520645106485043
 30
0.0
 10
8.839335562610147
 20
-3.428216402132715
 30
0.0
 10
8.90779937798233
 20
-3.387378031768701
 30
0.0
 10
9.060191191147673
 20
-3.318543331479345
 30
0.0
 10
9.140884579229303
 20
-3.291978645249678
 30
0.0
 10
9.311039694585899
 20
-3.255060247332385
 30
0.0
 10
9.39975254859218
 20
-3.245167041813629
 30
0.0
 10
9.663975253391852
 20
-3.242704172361054
 30
0.0
 10
9.841173381300212
 20
-3.277749268751848
 30
0.0
 10
9.995853653783735
 20
-3.34409017829866
 30
0.0
  0
LINE
  5
AF
330
1F
100
AcDbEntity
  8
0
  6
Continuous
 62
     4
370
    25
100
AcDbLine
 10
8.499999493707032
 20
-3.95736733533333
 30
0.0
 11
8.499999493707028
 21
-4.999782680889711
 31
0.0
  0
SPLINE
  5
B0
330
1F
100
AcDbEntity
  8
0
  6
Continuous
 62
     4
370
    25
100
AcDbSpline
210
0.0
220
0.0
230
1.0
 70
     8
 71
     3
 72
    14
 73
    10
 74
     0
 42
0.000000001
 43
0.00000001
 40
0.0
 40
0.0
 40
0.0
 40
0.0
 40
0.25
 40
0.25
 40
0.5
 40
0.5
 40
0.75
 40
0.75
 40
1.0
 40
1.0
 40
1.0
 40
1.0
 10
9.004016425262218
 20
-4.926855187144822
 30
0.0
 10
8.925100552046983
 20
-4.934616770789079
 30
0.0
 10
8.854188882532766
 20
-4.943433555710596
 30
0.0
 10
8.72790391557712
 20
-4.961224151511246
 30
0.0
 10
8.673504874584445
 20
-4.970082467841285
 30
0.0
 10
8.586790529695369
 20
-4.984997194383086
 30
0.0
 10
8.553607212677942
 20
-4.991185352207351
 30
0.0
 10
8.51054960760252
 20
-4.998942889052278
 30
0.0
 10
8.499999493707028
 20
-5.000631276691561
 30
0.0
 10
8.499999493707028
 20
-4.999782680889711
 30
0.0
  0
SPLINE
  5
B1
330
1F
100
AcDbEntity
  8
0
  6
Continuous
 62
     4
370
    25
100
AcDbSpline
210
0.0
220
0.0
230
1.0
 70
     8
 71
     3
 72
     8
 73
     4
 74
     0
 42
0.000000001
 43
0.00000001
 40
0.0
 40
0.0
 40
0.0
 40
0.0
 40
1.0
 40
1.0
 40
1.0
 40
1.0
 10
9.99999999999999
 20
-4.796279735592988
 30
0.0
 10
9.666857379148933
 20
-4.850580489170223
 30
0.0
 10
9.33697456794314
 20
-4.894107878280792
 30
0.0
 10
9.004016425262218
 20
-4.926855187144823
 30
0.0
  0
LINE
  5
B2
330
1F
100
AcDbEntity
  8
0
  6
Continuous
 62
     4
370
    25
100
AcDbLine
 10
-89.49999999999999
 20
4.999999999999979
 30
0.0
 11
-89.49999999999999
 21
-5.000000000000005
 31
0.0
  0
LINE
  5
B3
330
1F
100
AcDbEntity
  8
0
  6
Continuous
 62
     4
370
    25
100
AcDbLine
 10
8.499999493707032
 20
3.056017633004901
 30
0.0
 11
8.499999493707028
 21
0.0466169912732675
 31
0.0
  0
LINE
  5
B4
330
1F
100
AcDbEntity
  8
0
  6
Continuous
 62
     4
370
    25
100
AcDbLine
 10
-90.00000000000001
 20
4.49999999999998
 30
0.0
 11
-90.00000000000001
 21
-4.500000000000007
 31
0.0
  0
SPLINE
  5
B5
330
1F
100
AcDbEntity
  8
0
  6
Continuous
 62
     4
370
    25
100
AcDbSpline
210
0.0
220
0.0
230
1.0
 70
    24
 71
     3
 72
    24
 73
    20
 74
     0
 42
0.000000001
 43
0.00000001
 40
0.0
 40
0.0
 40
0.0
 40
0.0
 40
0.0624999999999999
 40
0.0624999999999999
 40
0.1249999999999998
 40
0.1249999999999998
 40
0.2499999999999999
 40
0.2499999999999999
 40
0.3749999999999999
 40
0.3749999999999999
 40
0.4999999999999999
 40
0.4999999999999999
 40
0.6249999999999999
 40
0.6249999999999999
 40
0.7499999999999999
 40
0.7499999999999999
 40
0.8749999999999999
 40
0.8749999999999999
 40
1.0
 40
1.0
 40
1.0
 40
1.0
 10
9.999999999999991
 20
3.715530465701599
 30
0.0
 10
9.999999999999991
 20
3.642435424224383
 30
0.0
 10
9.999999999999991
 20
3.570050782818885
 30
0.0
 10
9.999999999999991
 20
3.427430251174246
 30
0.0
 10
9.999999999999991
 20
3.354139651724986
 30
0.0
 10
9.999999999999991
 20
3.119356353955917
 30
0.0
 10
9.999999999999991
 20
2.946262872476725
 30
0.0
 10
9.999999999999991
 20
2.56421650807759
 30
0.0
 10
9.999999999999991
 20
2.355153150754088
 30
0.0
 10
9.999999999999995
 20
1.902908491655406
 30
0.0
 10
9.999999999999995
 20
1.659603754053828
 30
0.0
 10
9.999999999999995
 20
1.148880104661068
 30
0.0
 10
9.999999999999995
 20
0.8814108131339087
 30
0.0
 10
9.999999999999995
 20
0.3436332007422243
 30
0.0
 10
9.999999999999995
 20
0.073474321092094
 30
0.0
 10
9.999999999999995
 20
-0.4381439198638777
 30
0.0
 10
9.999999999999995
 20
-0.6792197846938576
 30
0.0
 10
9.999999999999995
 20
-1.098936449227828
 30
0.0
 10
9.999999999999995
 20
-1.277165012235942
 30
0.0
 10
9.999999999999995
 20
-1.412692711784216
 30
0.0
  0
SPLINE
  5
B6
330
1F
100
AcDbEntity
  8
0
  6
Continuous
 62
     4
370
    25
100
AcDbSpline
210
0.0
220
0.0
230
1.0
 70
    24
 71
     3
 72
    11
 73
     7
 74
     0
 42
0.000000001
 43
0.00000001
 40
0.0
 40
0.0
 40
0.0
 40
0.0
 40
0.3024969023870801
 40
0.6335643528800342
 40
0.9742327818653828
 40
0.9999999999999999
 40
0.9999999999999999
 40
0.9999999999999999
 40
0.9999999999999999
 10
9.99999999999999
 20
-3.448727795513696
 30
0.0
 10
9.99999999999999
 20
-3.5590466760991
 30
0.0
 10
9.99999999999999
 20
-3.790103951849659
 30
0.0
 10
9.999999999999991
 20
-4.235004557405653
 30
0.0
 10
9.999999999999982
 20
-4.588013374909317
 30
0.0
 10
9.99999999999999
 20
-4.782596906574502
 30
0.0
 10
9.999999999999991
 20
-4.796279735592989
 30
0.0
  0
SPLINE
  5
B7
330
1F
100
AcDbEntity
  8
0
  6
Continuous
 62
     1
370
    25
100
AcDbSpline
210
0.0
220
0.0
230
1.0
 70
     8
 71
     3
 72
    23
 73
    19
 74
     0
 42
0.000000001
 43
0.00000001
 40
0.0
 40
0.0
 40
0.0
 40
0.0
 40
0.0567251738010498
 40
0.1236456098005589
 40
0.190564325185329
 40
0.2574769894659288
 40
0.3243792881838133
 40
0.3912669342879793
 40
0.4581430436891579
 40
0.5250338953871206
 40
0.5919385627824789
 40
0.6588527525671641
 40
0.723272404288797
 40
0.7876930012189568
 40
0.8521135853135595
 40
0.916533198540928
 40
0.9809508838075818
 40
1.0
 40
1.0
 40
1.0
 40
1.0
 10
25.99268463884706
 20
4.214050386518179
 30
0.0
 10
26.5991627530738
 20
4.389525691518322
 30
0.0
 10
27.92112179241074
 20
4.772014622584059
 30
0.0
 10
29.95857076794448
 20
5.019676958774965
 30
0.0
 10
32.10492598300252
 20
5.00048317964185
 30
0.0
 10
34.25104964409827
 20
4.668719602229228
 30
0.0
 10
36.39677396152902
 20
4.053720605089879
 30
0.0
 10
38.54201531596011
 20
3.190683517000742
 30
0.0
 10
40.6870069484588
 20
2.13279078894677
 30
0.0
 10
42.83233877561331
 20
0.9447464207196548
 30
0.0
 10
44.978138671596
 20
-0.301114020262588
 30
0.0
 10
47.09764620178535
 20
-1.513244641051321
 30
0.0
 10
49.19039305142499
 20
-2.621224287363447
 30
0.0
 10
51.25654315405926
 20
-3.565134130986427
 30
0.0
 10
53.32267827355498
 20
-4.312733889371795
 30
0.0
 10
55.38877847891339
 20
-4.795155279177144
 30
0.0
 10
56.96981113361217
 20
-5.016256988264498
 30
0.0
 10
57.86213170383169
 20
-4.978941384287367
 30
0.0
 10
58.06578055494207
 20
-4.97042507284947
 30
0.0
  0
SPLINE
  5
B8
330
1F
100
AcDbEntity
  8
0
  6
Continuous
 62
     1
370
    25
100
AcDbSpline
210
0.0
220
0.0
230
1.0
 70
     8
 71
     3
 72
    19
 73
    15
 74
     0
 42
0.000000001
 43
0.00000001
 40
0.0
 40
0.0
 40
0.0
 40
0.0
 40
0.0848750017315101
 40
0.1697707728819814
 40
0.2546818909666937
 40
0.3396028929656527
 40
0.4245282896911733
 40
0.5094525803049932
 40
0.5943702669020914
 40
0.6792758690777061
 40
0.7641639383942178
 40
0.8490332989474293
 40
0.93391730019392
 40
1.0
 40
1.0
 40
1.0
 40
1.0
 10
60.0
 20
-4.875828491775114
 30
0.0
 10
59.28503134762542
 20
-4.755428601465002
 30
0.0
 10
57.85491908578427
 20
-4.514599358273776
 30
0.0
 10
55.70939369150028
 20
-3.797877385377816
 30
0.0
 10
53.56341272823356
 20
-2.870513943302794
 30
0.0
 10
51.41712971641536
 20
-1.762029674836452
 30
0.0
 10
49.27071415410929
 20
-0.5474034601538099
 30
0.0
 10
47.12433211300082
 20
0.7010193678794626
 30
0.0
 10
44.97814957206784
 20
1.906653238150219
 30
0.0
 10
42.83233575785378
 20
2.99510231426963
 30
0.0
 10
40.68700812172059
 20
3.903109315190036
 30
0.0
 10
38.54201363987515
 20
4.56327360030541
 30
0.0
 10
36.55531921452894
 20
4.949499723637501
 30
0.0
 10
35.28350232659321
 20
4.966251792411658
 30
0.0
 10
34.72678953478029
 20
4.973584680553315
 30
0.0
  0
SPLINE
  5
B9
330
1F
100
AcDbEntity
  8
0
  6
Continuous
 62
     1
370
    25
100
AcDbSpline
210
0.0
220
0.0
230
1.0
 70
     8
 71
     3
 72
     9
 73
     5
 74
     0
 42
0.000000001
 43
0.00000001
 40
0.0
 40
0.0
 40
0.0
 40
0.0
 40
0.0473651909654717
 40
1.0
 40
1.0
 40
1.0
 40
1.0
 10
12.38867956735829
 20
-4.223905903259584
 30
0.0
 10
12.3509654809934
 20
-4.237677159149707
 30
0.0
 10
11.55472491706563
 20
-4.528423498590452
 30
0.0
 10
10.75850592625879
 20
-4.66560032026899
 30
0.0
 10
10.00000000000184
 20
-4.796279735592688
 30
0.0
  0
LINE
  5
BA
330
1F
100
AcDbEntity
  8
0
  6
Continuous
 62
     1
370
    25
100
AcDbLine
 10
59.99999999999999
 20
-5.000000000000017
 30
0.0
 11
59.99999999999999
 21
-4.875828491776319
 31
0.0
  0
SPLINE
  5
BB
330
1F
100
AcDbEntity
  8
0
  6
Continuous
 62
     1
370
    25
100
AcDbSpline
210
0.0
220
0.0
230
1.0
 70
     8
 71
     3
 72
    22
 73
    18
 74
     0
 42
0.000000001
 43
0.00000001
 40
0.0
 40
0.0
 40
0.0
 40
0.0
 40
0.0674174733724616
 40
0.138349420399024
 40
0.2092498750103166
 40
0.2801295998987318
 40
0.3470288616669797
 40
0.4139393756643938
 40
0.4808568321811881
 40
0.5477769031209484
 40
0.6146952534553558
 40
0.6816075527186026
 40
0.7485094864756795
 40
0.8153967676989698
 40
0.882272512282207
 40
0.9491629990818073
 40
1.0
 40
1.0
 40
1.0
 40
1.0
 10
12.38867956735824
 20
4.223905903259573
 30
0.0
 10
13.1095632720372
 20
4.42303353550584
 30
0.0
 10
14.58891035712353
 20
4.831669325733396
 30
0.0
 10
16.8263262627013
 20
5.047599179497672
 30
0.0
 10
19.10051411402761
 20
4.944607027990114
 30
0.0
 10
21.331433400094
 20
4.504375158046247
 30
0.0
 10
23.51977014464584
 20
3.786285636226085
 30
0.0
 10
25.66582656284262
 20
2.850457000894909
 30
0.0
 10
27.81214778416849
 20
1.740583672127414
 30
0.0
 10
29.95857014452373
 20
0.5243157681305887
 30
0.0
 10
32.10492616043175
 20
-0.7239098614390478
 30
0.0
 10
34.25104955775225
 20
-1.928062509114551
 30
0.0
 10
36.39677412947496
 20
-3.013661589392394
 30
0.0
 10
38.54201473068008
 20
-3.917816489174533
 30
0.0
 10
40.68700912148708
 20
-4.572861723647709
 30
0.0
 10
42.66055891940699
 20
-4.952486759284084
 30
0.0
 10
43.9192124207156
 20
-4.966154273352571
 30
0.0
 10
44.46272329011505
 20
-4.972056169661739
 30
0.0
  0
SPLINE
  5
BC
330
1F
100
AcDbEntity
  8
0
  6
Continuous
 62
     1
370
    25
100
AcDbSpline
210
0.0
220
0.0
230
1.0
 70
     8
 71
     3
 72
    23
 73
    19
 74
     0
 42
0.000000001
 43
0.00000001
 40
0.0
 40
0.0
 40
0.0
 40
0.0
 40
0.0549524475235314
 40
0.1219122682035855
 40
0.1888712167647682
 40
0.2558249583585124
 40
0.322769171934411
 40
0.3896995616466973
 40
0.4566152003482845
 40
0.5235423825720029
 40
0.5904842260703439
 40
0.6574364412583033
 40
0.7243947111271349
 40
0.7913547026277312
 40
0.8583120781457512
 40
0.9252625070028941
 40
0.9922016769184557
 40
1.0
 40
1.0
 40
1.0
 40
1.0
 10
53.17869514331008
 20
-4.217240175885144
 30
0.0
 10
52.59151928597507
 20
-4.388233313306806
 30
0.0
 10
51.28886683229793
 20
-4.767582408201908
 30
0.0
 10
49.27071335504503
 20
-5.0169562404707
 30
0.0
 10
47.12433233410121
 20
-5.003818999106288
 30
0.0
 10
44.97814948667593
 20
-4.677481398097836
 30
0.0
 10
42.83233587833142
 20
-4.067473731982103
 30
0.0
 10
40.68700772530508
 20
-3.208575450063761
 30
0.0
 10
38.54201510485645
 20
-2.15372993616318
 30
0.0
 10
36.39677402904745
 20
-0.9674409887208432
 30
0.0
 10
34.25104958517662
 20
0.2780280403828835
 30
0.0
 10
32.10492615118652
 20
1.506428314235162
 30
0.0
 10
29.95857015407665
 20
2.643475285422981
 30
0.0
 10
27.8121477552026
 20
3.616704466820964
 30
0.0
 10
25.66582666914399
 20
4.377711561795457
 30
0.0
 10
23.51976974847722
 20
4.838687228787632
 30
0.0
 10
22.00588769659221
 20
5.04118932574327
 30
0.0
 10
21.20735825237814
 20
4.988674488703568
 30
0.0
 10
21.1240374137149
 20
4.98319494089714
 30
0.0
  0
SPLINE
  5
BD
330
1F
100
AcDbEntity
  8
0
  6
Continuous
 62
     1
370
    25
100
AcDbSpline
210
0.0
220
0.0
230
1.0
 70
     8
 71
     3
 72
    21
 73
    17
 74
     0
 42
0.000000001
 43
0.00000001
 40
0.0
 40
0.0
 40
0.0
 40
0.0
 40
0.0355743125242205
 40
0.1080662455628309
 40
0.1805740589075124
 40
0.2530931063099315
 40
0.3256187118178285
 40
0.3981461821048848
 40
0.470670818899966
 40
0.5431879314446839
 40
0.6156928489079408
 40
0.692511762405895
 40
0.7693531426218152
 40
0.8462286540808835
 40
0.923117803397426
 40
1.0
 40
1.0
 40
1.0
 40
1.0
 10
39.59480647126081
 20
-4.198364190435401
 30
0.0
 10
39.24391168486029
 20
-4.312794046407523
 30
0.0
 10
38.17797732202311
 20
-4.6604045562883
 30
0.0
 10
36.39677444341804
 20
-4.949311360503257
 30
0.0
 10
34.25104947358895
 20
-5.046074833088388
 30
0.0
 10
32.10492618306344
 20
-4.820928129706042
 30
0.0
 10
29.95857013817377
 20
-4.304941450357854
 30
0.0
 10
27.81214778693511
 20
-3.524976954134284
 30
0.0
 10
25.66582655812645
 20
-2.529955055463592
 30
0.0
 10
23.51977016074132
 20
-1.380350935287692
 30
0.0
 10
21.33143333893621
 20
-0.1220176494771436
 30
0.0
 10
19.10051435735128
 20
1.170805209374883
 30
0.0
 10
16.826325355918
 20
2.409535975025711
 30
0.0
 10
14.55120048872021
 20
3.476693647463535
 30
0.0
 10
12.27559231671944
 20
4.329047164044515
 30
0.0
 10
10.75850790743941
 20
4.640540239757639
 30
0.0
 10
10.00000000000184
 20
4.796279735592666
 30
0.0
  0
SPLINE
  5
BE
330
1F
100
AcDbEntity
  8
0
  6
Continuous
 62
     4
370
    25
100
AcDbSpline
210
0.0
220
0.0
230
1.0
 70
    24
 71
     3
 72
    11
 73
     7
 74
     0
 42
0.000000001
 43
0.00000001
 40
0.0
 40
0.0
 40
0.0
 40
0.0
 40
0.3024969023819256
 40
0.6335643528692412
 40
0.9742327818487863
 40
0.9999999999999999
 40
0.9999999999999999
 40
0.9999999999999999
 40
0.9999999999999999
 10
9.99999999999999
 20
-3.448727795513696
 30
0.0
 10
9.99999999999999
 20
-3.559046676099096
 30
0.0
 10
9.99999999999999
 20
-3.790103951849648
 30
0.0
 10
9.99999999999999
 20
-4.235004557405691
 30
0.0
 10
9.999999999999986
 20
-4.58801337491785
 30
0.0
 10
9.99999999999999
 20
-4.78259690659261
 30
0.0
 10
9.99999999999999
 20
-4.796279735620179
 30
0.0
  0
SPLINE
  5
BF
330
1F
100
AcDbEntity
  8
0
  6
Continuous
 62
     1
370
    25
100
AcDbSpline
210
0.0
220
0.0
230
1.0
 70
     8
 71
     3
 72
    11
 73
     7
 74
     0
 42
0.000000001
 43
0.00000001
 40
0.0
 40
0.0
 40
0.0
 40
0.0
 40
0.3136540309659097
 40
0.6273364267140297
 40
0.9409631844970613
 40
1.0
 40
1.0
 40
1.0
 40
1.0
 10
9.999999999999991
 20
-3.345868102367963
 30
0.0
 10
10.75850887746689
 20
-3.650464422503099
 30
0.0
 10
12.2755952268933
 20
-4.259684608436521
 30
0.0
 10
14.55118884764989
 20
-4.79124904915928
 30
0.0
 10
16.21101692335833
 20
-5.034031941285712
 30
0.0
 10
17.11213084410709
 20
-4.981968818272636
 30
0.0
 10
17.25488398688757
 20
-4.973721054852327
 30
0.0
  0
SPLINE
  5
C0
330
1F
100
AcDbEntity
  8
0
  6
Continuous
 62
     1
370
    25
100
AcDbSpline
210
0.0
220
0.0
230
1.0
 70
     8
 71
     3
 72
    17
 73
    13
 74
     0
 42
0.000000001
 43
0.00000001
 40
0.0
 40
0.0
 40
0.0
 40
0.0
 40
0.0548099217568678
 40
0.1624770394859149
 40
0.2701663948794593
 40
0.3778710774543251
 40
0.4815605663742055
 40
0.585251576696118
 40
0.6889425663579949
 40
0.7926319933177361
 40
0.8963183170433574
 40
1.0
 40
1.0
 40
1.0
 40
1.0
 10
39.59480647126088
 20
4.198364190435391
 30
0.0
 10
39.958827128663
 20
4.316434380370175
 30
0.0
 10
41.03792005254593
 20
4.666438436154828
 30
0.0
 10
42.83233923019105
 20
4.953941298524118
 30
0.0
 10
44.97813854869702
 20
5.044686162554781
 30
0.0
 10
47.09764623670851
 20
4.816851493047359
 30
0.0
 10
49.19039303026607
 20
4.313980294383009
 30
0.0
 10
51.25654320448672
 20
3.572371087545129
 30
0.0
 10
53.32267809300555
 20
2.628433014070972
 30
0.0
 10
55.38877915066435
 20
1.536484976968562
 30
0.0
 10
57.45480673163446
 20
0.3541553940129132
 30
0.0
 10
58.83211789946066
 20
-0.4389999926618447
 30
0.0
 10
59.52075807168357
 20
-0.8355688108333468
 30
0.0
  0
SPLINE
  5
C1
330
1F
100
AcDbEntity
  8
0
  6
Continuous
 62
     1
370
    25
100
AcDbSpline
210
0.0
220
0.0
230
1.0
 70
     8
 71
     3
 72
     8
 73
     4
 74
     0
 42
0.000000001
 43
0.00000001
 40
0.0
 40
0.0
 40
0.0
 40
0.0
 40
1.0
 40
1.0
 40
1.0
 40
1.0
 10
59.99999999999999
 20
-3.77812854640489
 30
0.0
 10
59.18469570654707
 20
-3.319047671130702
 30
0.0
 10
58.41618671949519
 20
-2.755421905771479
 30
0.0
 10
57.67680798191736
 20
-2.126716563770115
 30
0.0
  0
LINE
  5
C2
330
1F
100
AcDbEntity
  8
0
  6
Continuous
 62
     1
370
    25
100
AcDbLine
 10
59.99999999999999
 20
-4.875828491776319
 30
0.0
 11
59.99999999999999
 21
-3.778128546404891
 31
0.0
  0
SPLINE
  5
C3
330
1F
100
AcDbEntity
  8
0
  6
Continuous
 62
     1
370
    25
100
AcDbSpline
210
0.0
220
0.0
230
1.0
 70
    24
 71
     3
 72
    15
 73
    11
 74
     0
 42
0.000000001
 43
0.00000001
 40
0.0
 40
0.0
 40
0.0
 40
0.0
 40
0.0822795943322082
 40
0.2093677235686493
 40
0.3399134868635422
 40
0.4671109121849391
 40
0.5984054009306143
 40
0.7199059643606348
 40
0.8443590281389344
 40
1.0
 40
1.0
 40
1.0
 40
1.0
 10
59.42662227483702
 20
-0.901483405400674
 30
0.0
 10
59.41255351171478
 20
-0.911334459392151
 30
0.0
 10
59.37675429646296
 20
-0.936401339773451
 30
0.0
 10
59.25392521272961
 20
-1.022407190114976
 30
0.0
 10
59.08174087422593
 20
-1.142971961896871
 30
0.0
 10
58.86126167286112
 20
-1.297353160710993
 30
0.0
 10
58.61098473908662
 20
-1.472598956379868
 30
0.0
 10
58.3364931339478
 20
-1.664800047473399
 30
0.0
 10
58.02650584307949
 20
-1.881855485288495
 30
0.0
 10
57.80171719057039
 20
-2.039254194279755
 30
0.0
 10
57.67680798191842
 20
-2.126716563769902
 30
0.0
  0
SPLINE
  5
C4
330
1F
100
AcDbEntity
  8
0
  6
Continuous
 62
     1
370
    25
100
AcDbSpline
210
0.0
220
0.0
230
1.0
 70
     8
 71
     3
 72
    13
 73
     9
 74
     0
 42
0.000000001
 43
0.00000001
 40
0.0
 40
0.0
 40
0.0
 40
0.0
 40
0.1838229118652975
 40
0.3676908062931082
 40
0.5515919392255767
 40
0.7355144788132485
 40
0.9194465365324895
 40
1.0
 40
1.0
 40
1.0
 40
1.0
 10
60.0
 20
1.107382733648237
 30
0.0
 10
59.28503134365164
 20
1.503531667061641
 30
0.0
 10
57.85491907386199
 20
2.295926473894355
 30
0.0
 10
55.70939373920666
 20
3.324887968806813
 30
0.0
 10
53.56341254929126
 20
4.160440115469298
 30
0.0
 10
51.41713038456345
 20
4.722860734193246
 30
0.0
 10
49.67284094294045
 20
4.999505383121376
 30
0.0
 10
48.64400991485167
 20
4.970957474344535
 30
0.0
 10
48.33066231735927
 20
4.962262734018447
 30
0.0
  0
SPLINE
  5
C5
330
1F
100
AcDbEntity
  8
0
  6
Continuous
 62
     1
370
    25
100
AcDbSpline
210
0.0
220
0.0
230
1.0
 70
     8
 71
     3
 72
    15
 73
    11
 74
     0
 42
0.000000001
 43
0.00000001
 40
0.0
 40
0.0
 40
0.0
 40
0.0
 40
0.0204425403521174
 40
0.1546400890262368
 40
0.2888150699231717
 40
0.4309733760316454
 40
0.5731732582367397
 40
0.7154363024873561
 40
0.8577245844643239
 40
1.0
 40
1.0
 40
1.0
 40
1.0
 10
25.99268463884708
 20
-4.214050386518192
 30
0.0
 10
25.88370944509004
 20
-4.252716529291216
 30
0.0
 10
25.05935330470975
 20
-4.545211280810796
 30
0.0
 10
23.51977211060955
 20
-4.844412027649361
 30
0.0
 10
21.33143278180062
 20
-5.057341432007313
 30
0.0
 10
19.10051451030828
 20
-4.919150480672892
 30
0.0
 10
16.82632531492226
 20
-4.448183767060963
 30
0.0
 10
14.55120049965665
 20
-3.668424410824985
 30
0.0
 10
12.27559231398542
 20
-2.644402996108369
 30
0.0
 10
10.75850790652809
 20
-1.823250430524103
 30
0.0
 10
10.00000000000184
 20
-1.412692711785237
 30
0.0
  0
SPLINE
  5
C6
330
1F
100
AcDbEntity
  8
0
  6
Continuous
 62
     4
370
    25
100
AcDbSpline
210
0.0
220
0.0
230
1.0
 70
    24
 71
     3
 72
    24
 73
    20
 74
     0
 42
0.000000001
 43
0.00000001
 40
0.0
 40
0.0
 40
0.0
 40
0.0
 40
0.0625000000000001
 40
0.0625000000000001
 40
0.1250000000000003
 40
0.1250000000000003
 40
0.2500000000000002
 40
0.2500000000000002
 40
0.3750000000000002
 40
0.3750000000000002
 40
0.5000000000000002
 40
0.5000000000000002
 40
0.6250000000000001
 40
0.6250000000000001
 40
0.75
 40
0.75
 40
0.875
 40
0.875
 40
1.0
 40
1.0
 40
1.0
 40
1.0
 10
9.999999999999991
 20
3.715530465701601
 30
0.0
 10
9.999999999999991
 20
3.642435424224103
 30
0.0
 10
9.999999999999991
 20
3.570050782818334
 30
0.0
 10
9.999999999999991
 20
3.42743025117316
 30
0.0
 10
9.999999999999991
 20
3.35413965172355
 30
0.0
 10
9.999999999999991
 20
3.119356353953394
 30
0.0
 10
9.999999999999991
 20
2.946262872473338
 30
0.0
 10
9.999999999999991
 20
2.564216508072195
 30
0.0
 10
9.999999999999991
 20
2.355153150747544
 30
0.0
 10
9.999999999999991
 20
1.902908491646357
 30
0.0
 10
9.999999999999995
 20
1.659603754043423
 30
0.0
 10
9.999999999999995
 20
1.148880104647994
 30
0.0
 10
9.999999999999995
 20
0.8814108131195217
 30
0.0
 10
9.999999999999995
 20
0.3436332007257044
 30
0.0
 10
9.999999999999995
 20
0.0734743210747594
 30
0.0
 10
9.999999999999995
 20
-0.4381439198818296
 30
0.0
 10
9.999999999999995
 20
-0.6792197847116004
 30
0.0
 10
9.999999999999995
 20
-1.098936449243856
 30
0.0
 10
9.999999999999995
 20
-1.27716501225046
 30
0.0
 10
9.999999999999995
 20
-1.412692711796679
 30
0.0
  0
SPLINE
  5
C7
330
1F
100
AcDbEntity
  8
0
  6
Continuous
 62
     1
370
    25
100
AcDbSpline
210
0.0
220
0.0
230
1.0
 70
     8
 71
     3
 72
    17
 73
    13
 74
     0
 42
0.000000001
 43
0.00000001
 40
0.0
 40
0.0
 40
0.0
 40
0.0
 40
0.1090837341047694
 40
0.2181773330161571
 40
0.3272515819546747
 40
0.4362774040321402
 40
0.5452713493735462
 40
0.6481444134553818
 40
0.7510347804380489
 40
0.853935823147506
 40
0.9568408861360248
 40
1.0
 40
1.0
 40
1.0
 40
1.0
 10
9.999999999999991
 20
3.715530465701573
 30
0.0
 10
10.7585079074678
 20
3.397730686145426
 30
0.0
 10
12.27559231680833
 20
2.762102387337023
 30
0.0
 10
14.55120048835755
 20
1.55100026439912
 30
0.0
 10
16.82632535727247
 20
0.2518633065380626
 30
0.0
 10
19.10051435229446
 20
-1.069330328265529
 30
0.0
 10
21.33143335735383
 20
-2.292994754353764
 30
0.0
 10
23.51977009628271
 20
-3.343035869908819
 30
0.0
 10
25.66582679920929
 20
-4.173421172876089
 30
0.0
 10
27.81214688696343
 20
-4.730587383469977
 30
0.0
 10
29.54318290535457
 20
-5.001938210318811
 30
0.0
 10
30.55874537306727
 20
-4.971626460036024
 30
0.0
 10
30.85882426389795
 20
-4.962669929351622
 30
0.0
  0
SPLINE
  5
C8
330
1F
100
AcDbEntity
  8
0
  6
Continuous
 62
     1
370
    25
100
AcDbSpline
210
0.0
220
0.0
230
1.0
 70
     8
 71
     3
 72
    11
 73
     7
 74
     0
 42
0.000000001
 43
0.00000001
 40
0.0
 40
0.0
 40
0.0
 40
0.0
 40
0.0227042013957733
 40
0.3484808277279403
 40
0.674247704163982
 40
1.0
 40
1.0
 40
1.0
 40
1.0
 10
53.17869514331008
 20
4.217240175885135
 30
0.0
 10
53.22669277314853
 20
4.23450384246076
 30
0.0
 10
53.96339579491598
 20
4.49947932928907
 30
0.0
 10
55.38877867834282
 20
4.78914578984694
 30
0.0
 10
57.45480684970718
 20
5.051584917219352
 30
0.0
 10
58.83211793881763
 20
4.970319766122859
 30
0.0
 10
59.52075807168357
 20
4.929688099906766
 30
0.0
  0
SPLINE
  5
C9
330
1F
100
AcDbEntity
  8
0
  6
Continuous
 62
     1
370
    25
100
AcDbSpline
210
0.0
220
0.0
230
1.0
 70
     8
 71
     3
 72
    18
 73
    14
 74
     0
 42
0.000000001
 43
0.00000001
 40
0.0
 40
0.0
 40
0.0
 40
0.0
 40
0.2499999999999991
 40
0.2499999999999991
 40
0.3749999999999986
 40
0.3749999999999986
 40
0.4999999999999981
 40
0.4999999999999981
 40
0.6249999999999977
 40
0.6249999999999977
 40
0.7499999999999971
 40
0.7499999999999971
 40
1.0
 40
1.0
 40
1.0
 40
1.0
 10
59.52075807168357
 20
4.929688099906775
 30
0.0
 10
59.52699347436379
 20
4.606851837981958
 30
0.0
 10
59.49969480875363
 20
4.290337705371864
 30
0.0
 10
59.39005607498703
 20
3.82851667128182
 30
0.0
 10
59.3412574328638
 20
3.676235446349216
 30
0.0
 10
59.22075046690129
 20
3.391480187959261
 30
0.0
 10
59.1485608095864
 20
3.256893544584266
 30
0.0
 10
58.97862368036401
 20
3.007383037770178
 30
0.0
 10
58.88382477663744
 20
2.896667102584316
 30
0.0
 10
58.67533102073345
 20
2.702221710530224
 30
0.0
 10
58.56025913724946
 20
2.617982717210617
 30
0.0
 10
58.20199878948114
 20
2.415034884755323
 30
0.0
 10
57.93943782007098
 20
2.341734955811779
 30
0.0
 10
57.67680798191736
 20
2.323192018082631
 30
0.0
  0
LINE
  5
CA
330
1F
100
AcDbEntity
  8
0
  6
Continuous
 62
     1
370
    25
100
AcDbLine
 10
59.99999999999999
 20
1.111809155663539
 30
0.0
 11
59.99999999999999
 21
1.193141214989691
 31
0.0
  0
LINE
  5
CB
330
1F
100
AcDbEntity
  8
0
  6
Continuous
 62
     1
370
    25
100
AcDbLine
 10
59.99999999999999
 20
-0.5000000000000216
 30
0.0
 11
59.99999999999999
 21
1.107382733648333
 31
0.0
  0
LINE
  5
CC
330
1F
100
AcDbEntity
  8
0
  6
Continuous
 62
     1
370
    25
100
AcDbLine
 10
60.0
 20
-0.5000000000000244
 30
0.0
 11
59.52075807168357
 21
-0.8355688108333476
 31
0.0
  0
LINE
  5
CD
330
1F
100
AcDbEntity
  8
0
  6
Continuous
 62
     1
370
    25
100
AcDbLine
 10
59.99999999999999
 20
4.974937185533102
 30
0.0
 11
59.99999999999999
 21
5.000000000000003
 31
0.0
  0
ELLIPSE
  5
CE
330
1F
100
AcDbEntity
  8
0
  6
Continuous
 62
     1
370
    25
100
AcDbEllipse
 10
60.71407400337105
 20
-0.0000000000000074
 30
0.0
 11
7.14074003371055
 21
0.0
 31
0.0
210
0.0
220
0.0
230
1.0
 40
0.7002075382097126
 41
1.670963747956457
 42
1.738697861005222
  0
LINE
  5
CF
330
1F
100
AcDbEntity
  8
0
  6
Continuous
 62
     1
370
    25
100
AcDbLine
 10
59.99999999999999
 20
1.193141214989691
 30
0.0
 11
59.99999999999999
 21
4.974937185533102
 31
0.0
  0
LINE
  5
D0
330
1F
100
AcDbEntity
  8
0
  6
Continuous
 62
     1
370
    25
100
AcDbLine
 10
59.99999999999999
 20
-0.5000000000000043
 30
0.0
 11
59.99999999999999
 21
-3.778128546404887
 31
0.0
  0
LINE
  5
D1
330
1F
100
AcDbEntity
  8
중심선
100
AcDbLine
 10
-93.0
 20
-0.0000000000000126
 30
0.0
 11
63.0
 21
0.0000000000000065
 31
0.0
  0
CIRCLE
  5
D2
330
1F
100
AcDbEntity
  8
해칭선
100
AcDbCircle
 10
0.0001731768904684
 20
-0.0000000000000043
 30
0.0
 40
3.0
  0
INSERT
  5
D3
330
1F
100
AcDbEntity
  8
0
  6
Continuous
 62
     7
100
AcDbBlockReference
 66
     1
  2
블럭10
 10
-27.44009924894177
 20
-52.04717430164393
 30
0.0
  0
ATTRIB
  5
D4
330
D3
100
AcDbEntity
  8
FORMAT
 62
     2
100
AcDbText
 10
-48.29834678053431
 20
-49.97180738881174
 30
0.0
 40
4.233333333333333
  1
SEME7210050150E [ 4 FLUTE ]
 41
0.75
  7
SLDTEXTSTYLE0
 11
-48.29834678053431
 21
-52.08847405547841
 31
0.0
100
AcDbAttribute
  2
AUTOATTR0
 70
     0
 74
     1
  0
SEQEND
  5
D5
330
D3
100
AcDbEntity
  8
0
  6
Continuous
 62
     7
  0
HATCH
  5
D6
330
1F
100
AcDbEntity
  8
중심선
100
AcDbHatch
 10
0.0
 20
0.0
 30
0.0
210
0.0
220
0.0
230
1.0
  2
SOLID
 70
     1
 71
     0
 91
        1
 92
        0
 93
        4
 72
     1
 10
-21.72518994456093
 20
-35.8
 11
-25.17146518839822
 21
-35.8
 72
     1
 10
-25.17146518839822
 20
-35.8
 11
-27.29969504760224
 21
-38.33632558057259
 72
     1
 10
-27.29969504760224
 20
-38.33632558057259
 11
-23.85338671865181
 21
-38.3362861512701
 72
     1
 10
-23.85338671865181
 20
-38.3362861512701
 11
-21.72518994456093
 21
-35.8
 97
        0
 75
     0
 76
     1
 98
        1
 10
0.0
 20
0.0
  0
HATCH
  5
D7
330
1F
100
AcDbEntity
  8
중심선
100
AcDbHatch
 10
0.0
 20
0.0
 30
0.0
210
0.0
220
0.0
230
1.0
  2
SOLID
 70
     1
 71
     0
 91
        1
 92
        0
 93
        4
 72
     1
 10
-16.71242595352498
 20
-35.8
 11
-20.15870119736224
 21
-35.8
 72
     1
 10
-20.15870119736224
 20
-35.8
 11
-24.68983920571965
 21
-41.20000000000002
 72
     1
 10
-24.68983920571965
 20
-41.20000000000002
 11
-21.24356396188237
 21
-41.20000000000002
 72
     1
 10
-21.24356396188237
 20
-41.20000000000002
 11
-16.71242595352498
 21
-35.8
 97
        0
 75
     0
 76
     1
 98
        1
 10
0.0
 20
0.0
  0
HATCH
  5
D8
330
1F
100
AcDbEntity
  8
중심선
100
AcDbHatch
 10
0.0
 20
0.0
 30
0.0
210
0.0
220
0.0
230
1.0
  2
SOLID
 70
     1
 71
     0
 91
        1
 92
        0
 93
        4
 72
     1
 10
-11.69966196248909
 20
-35.8
 11
-15.1459372063262
 21
-35.8
 72
     1
 10
-15.1459372063262
 20
-35.8
 11
-22.19437410821545
 21
-44.20000000000002
 72
     1
 10
-22.19437410821545
 20
-44.20000000000002
 11
-18.74809886437817
 21
-44.20000000000002
 72
     1
 10
-18.74809886437817
 20
-44.20000000000002
 11
-11.69966196248909
 21
-35.8
 97
        0
 75
     0
 76
     1
 98
        1
 10
0.0
 20
0.0
  0
HATCH
  5
D9
330
1F
100
AcDbEntity
  8
중심선
100
AcDbHatch
 10
0.0
 20
0.0
 30
0.0
210
0.0
220
0.0
230
1.0
  2
SOLID
 70
     1
 71
     0
 91
        1
 92
        0
 93
        6
 72
     3
 10
-6.899771531476889
 20
-40.00000000005127
 11
3.960054785062284
 21
1.540850780301639E-10
 40
0.3939339440162633
 50
17.09539180608433
 51
320.0019657685086
 73
     0
 72
     1
 10
-5.216771875776294
 20
-38.58789400463833
 11
-2.911470002075256
 21
-36.65356729459038
 72
     3
 10
-6.899771531529736
 20
-40.00000000000015
 11
6.600054785286829
 21
-1.249000902703301E-13
 40
0.6363583540795982
 50
39.99873849337408
 51
368.4976242363725
 73
     1
 72
     1
 10
-0.4744390396291265
 20
-39.03999999993002
 11
-8.219704224693814
 21
-39.03999999993002
 72
     1
 10
-8.219704224693814
 20
-39.03999999993002
 11
-8.219729269139748
 21
-40.95999999992991
 72
     1
 10
-8.219729269139748
 20
-40.95999999992991
 11
-3.77834949966771
 21
-40.95999999992988
 97
        0
 75
     0
 76
     1
 98
        1
 10
0.0
 20
0.0
  0
DIMENSION
  5
DA
330
1F
100
AcDbEntity
  8
치수문자_일반주서
100
AcDbDimension
  2
_D
 10
73.00865603666904
 20
5.000000000000044
 30
0.0
 11
73.00865603666901
 21
15.32275000000005
 31
0.0
 70
   160
  1
%%c<>
 71
     2
 42
10.00000000000001
 52
-270.0
  3
SLDDIMSTYLE0
100
AcDbAlignedDimension
 13
59.99999999999999
 23
-5.000000000000012
 33
0.0
 14
59.99999999999999
 24
4.999999999999996
 34
0.0
 50
90.0000000000002
100
AcDbRotatedDimension
  0
DIMENSION
  5
E8
330
1F
100
AcDbEntity
  8
치수문자_일반주서
100
AcDbDimension
  2
_D_1
 10
59.99999999999999
 20
22.38913260158163
 30
0.0
 11
-15.0
 21
22.38913260158163
 31
0.0
 70
   160
  1
<>
 71
     2
 42
150.0
  3
SLDDIMSTYLE1
100
AcDbAlignedDimension
 13
-90.00000000000001
 23
4.49999999999998
 33
0.0
 14
59.99999999999999
 24
4.999999999999997
 34
0.0
 50
-0.0000000000000041
100
AcDbRotatedDimension
  0
DIMENSION
  5
F3
330
1F
100
AcDbEntity
  8
치수문자_일반주서
100
AcDbDimension
  2
_D_2
 10
-101.2168698903624
 20
-5.000000000000053
 30
0.0
 11
-101.2168698903624
 21
15.32274999999995
 31
0.0
 70
   160
  1
%%c<>
 71
     2
 42
10.00000000000001
 52
-270.0
  3
SLDDIMSTYLE2
100
AcDbAlignedDimension
 13
-89.49999999999999
 23
4.999999999999997
 33
0.0
 14
-89.49999999999999
 24
-5.000000000000012
 34
0.0
 50
90.0000000000002
100
AcDbRotatedDimension
  0
DIMENSION
  5
101
330
1F
100
AcDbEntity
  8
치수문자_일반주서
100
AcDbDimension
  2
_D_3
 10
59.99999999999999
 20
15.64219803818061
 30
0.0
 11
35.0
 21
15.64219803818061
 31
0.0
 70
   160
  1
<>
 71
     2
 42
50.0
  3
SLDDIMSTYLE1
100
AcDbAlignedDimension
 13
9.99999999999999
 23
4.796279735592964
 33
0.0
 14
59.99999999999999
 24
4.999999999999997
 34
0.0
 50
-0.0000000000000041
100
AcDbRotatedDimension
  0
INSERT
  5
111
330
1F
100
AcDbEntity
  8
해칭선
100
AcDbBlockReference
  2
SW_DOWELSYMBOL_0
 10
0.0001731768904684
 20
-0.0000000000000043
 30
0.0
  0
ENDSEC
  0
SECTION
  2
OBJECTS
  0
DICTIONARY
  5
C
330
0
100
AcDbDictionary
281
     1
  3
ACAD_GROUP
350
D
  3
ACAD_IMAGE_VARS
350
135
  3
ACAD_LAYOUT
350
1A
  3
ACAD_MLINESTYLE
350
17
  3
ACAD_PLOTSETTINGS
350
19
  3
ACAD_PLOTSTYLENAME
350
E
  3
ACAD_SCALELIST
350
47
  3
APPDATA
350
133
  3
DWGPROPS
350
144
  0
DICTIONARY
  5
D
102
{ACAD_REACTORS
330
C
102
}
330
C
100
AcDbDictionary
281
     1
  0
RASTERVARIABLES
  5
135
102
{ACAD_REACTORS
330
C
102
}
330
C
100
AcDbRasterVariables
 90
        0
 70
     1
 71
     1
 72
     1
  0
DICTIONARY
  5
1A
102
{ACAD_REACTORS
330
C
102
}
330
C
100
AcDbDictionary
281
     1
  3
Layout1
350
1E
  3
Layout2
350
26
  3
Model
350
22
  0
DICTIONARY
  5
17
102
{ACAD_REACTORS
330
C
102
}
330
C
100
AcDbDictionary
281
     1
  3
Standard
350
18
  0
DICTIONARY
  5
19
102
{ACAD_REACTORS
330
C
102
}
330
C
100
AcDbDictionary
281
     1
  0
ACDBDICTIONARYWDFLT
  5
E
102
{ACAD_REACTORS
330
C
102
}
330
C
100
AcDbDictionary
281
     1
  3
Normal
350
F
100
AcDbDictionaryWithDefault
340
F
  0
DICTIONARY
  5
47
102
{ACAD_REACTORS
330
C
102
}
330
C
100
AcDbDictionary
281
     1
  3
A0
350
48
  3
A1
350
49
  3
A2
350
4A
  3
A3
350
4B
  3
A4
350
4C
  3
A5
350
4D
  3
A6
350
4E
  3
A7
350
4F
  3
A8
350
50
  3
A9
350
51
  3
B0
350
52
  3
B1
350
53
  3
B2
350
54
  3
B3
350
55
  3
B4
350
56
  3
B5
350
57
  3
B6
350
58
  3
B7
350
59
  3
B8
350
5A
  3
B9
350
5B
  3
C0
350
5C
  3
C1
350
5D
  3
C2
350
5E
  3
C3
350
5F
  3
C4
350
60
  3
C5
350
61
  3
C6
350
62
  3
C7
350
63
  3
C8
350
64
  3
C9
350
65
  3
D0
350
66
  3
D1
350
67
  3
D2
350
68
  0
DICTIONARY
  5
133
102
{ACAD_REACTORS
330
C
102
}
330
C
100
AcDbDictionary
281
     1
  0
XRECORD
  5
144
102
{ACAD_REACTORS
330
C
102
}
330
C
100
AcDbXrecord
280
     1
  1
DWGPROPS COOKIE
  2

  3

  4

  6

  7

  8
12014102
  9

300
=
301
=
302
=
303
=
304
=
305
=
306
=
307
=
308
=
309
=
 40
0.0
 41
2458260.203725972
 42
2458268.271559815
  1

 90
        0
  0
LAYOUT
  5
1E
102
{ACAD_REACTORS
330
1A
102
}
330
1A
100
AcDbPlotSettings
  1

  2
none_device
  4

  6

 40
0.0
 41
0.0
 42
0.0
 43
0.0
 44
0.0
 45
0.0
 46
0.0
 47
0.0
 48
0.0
 49
0.0
140
0.0
141
0.0
142
1.0
143
1.0
 70
   688
 72
     1
 73
     0
 74
     5
  7

 75
    16
147
1.0
148
0.0
149
0.0
100
AcDbLayout
  1
Layout1
 70
     1
 71
     1
 10
0.0
 20
0.0
 11
420.0
 21
297.0
 12
0.0
 22
0.0
 32
0.0
 14
1.000000000000000E+20
 24
1.000000000000000E+20
 34
1.000000000000000E+20
 15
-1.000000000000000E+20
 25
-1.000000000000000E+20
 35
-1.000000000000000E+20
146
0.0
 13
0.0
 23
0.0
 33
0.0
 16
1.0
 26
0.0
 36
0.0
 17
0.0
 27
1.0
 37
0.0
 76
     0
330
1B
  0
LAYOUT
  5
26
102
{ACAD_REACTORS
330
1A
102
}
330
1A
100
AcDbPlotSettings
  1

  2
none_device
  4

  6

 40
0.0
 41
0.0
 42
0.0
 43
0.0
 44
0.0
 45
0.0
 46
0.0
 47
0.0
 48
0.0
 49
0.0
140
0.0
141
0.0
142
1.0
143
1.0
 70
   688
 72
     1
 73
     0
 74
     5
  7

 75
    16
147
1.0
148
0.0
149
0.0
100
AcDbLayout
  1
Layout2
 70
     1
 71
     2
 10
0.0
 20
0.0
 11
0.0
 21
0.0
 12
0.0
 22
0.0
 32
0.0
 14
0.0
 24
0.0
 34
0.0
 15
0.0
 25
0.0
 35
0.0
146
0.0
 13
0.0
 23
0.0
 33
0.0
 16
1.0
 26
0.0
 36
0.0
 17
0.0
 27
1.0
 37
0.0
 76
     0
330
23
  0
LAYOUT
  5
22
102
{ACAD_REACTORS
330
1A
102
}
330
1A
100
AcDbPlotSettings
  1

  2
none_device
  4
ANSI_A_(11.00_x_8.50_Inches)
  6

 40
6.35
 41
19.05
 42
6.35000508
 43
19.05000254
 44
279.4
 45
215.9
 46
154.486899056047
 47
106.7168565163566
 48
0.0
 49
0.0
140
0.0
141
0.0
142
0.0589085814011889
143
1.0
 70
  1696
 72
     0
 73
     0
 74
     0
  7

 75
     0
147
0.0235690232323232
148
0.0
149
0.0
100
AcDbLayout
  1
Model
 70
     1
 71
     0
 10
0.0
 20
0.0
 11
420.0
 21
297.0
 12
0.0
 22
0.0
 32
0.0
 14
-105.5918698903624
 24
-49.97180738881174
 34
0.0
 15
73.55898937000241
 25
26.76413260158163
 35
0.0
146
0.0
 13
0.0
 23
0.0
 33
0.0
 16
1.0
 26
0.0
 36
0.0
 17
0.0
 27
1.0
 37
0.0
 76
     0
330
1F
331
29
  0
MLINESTYLE
  5
18
102
{ACAD_REACTORS
330
17
102
}
330
17
100
AcDbMlineStyle
  2
Standard
 70
     0
  3

 62
   256
 51
90.0
 52
90.0
 71
     2
 49
0.5
 62
   256
  6
BYLAYER
 49
-0.5
 62
   256
  6
BYLAYER
  0
ACDBPLACEHOLDER
  5
F
102
{ACAD_REACTORS
330
E
102
}
330
E
  0
SCALE
  5
48
102
{ACAD_REACTORS
330
47
102
}
330
47
100
AcDbScale
 70
     0
300
1:1
140
1.0
141
1.0
290
     1
  0
SCALE
  5
49
102
{ACAD_REACTORS
330
47
102
}
330
47
100
AcDbScale
 70
     0
300
1:2
140
1.0
141
2.0
290
     0
  0
SCALE
  5
4A
102
{ACAD_REACTORS
330
47
102
}
330
47
100
AcDbScale
 70
     0
300
1:4
140
1.0
141
4.0
290
     0
  0
SCALE
  5
4B
102
{ACAD_REACTORS
330
47
102
}
330
47
100
AcDbScale
 70
     0
300
1:5
140
1.0
141
5.0
290
     0
  0
SCALE
  5
4C
102
{ACAD_REACTORS
330
47
102
}
330
47
100
AcDbScale
 70
     0
300
1:8
140
1.0
141
8.0
290
     0
  0
SCALE
  5
4D
102
{ACAD_REACTORS
330
47
102
}
330
47
100
AcDbScale
 70
     0
300
1:10
140
1.0
141
10.0
290
     0
  0
SCALE
  5
4E
102
{ACAD_REACTORS
330
47
102
}
330
47
100
AcDbScale
 70
     0
300
1:16
140
1.0
141
16.0
290
     0
  0
SCALE
  5
4F
102
{ACAD_REACTORS
330
47
102
}
330
47
100
AcDbScale
 70
     0
300
1:20
140
1.0
141
20.0
290
     0
  0
SCALE
  5
50
102
{ACAD_REACTORS
330
47
102
}
330
47
100
AcDbScale
 70
     0
300
1:30
140
1.0
141
30.0
290
     0
  0
SCALE
  5
51
102
{ACAD_REACTORS
330
47
102
}
330
47
100
AcDbScale
 70
     0
300
1:40
140
1.0
141
40.0
290
     0
  0
SCALE
  5
52
102
{ACAD_REACTORS
330
47
102
}
330
47
100
AcDbScale
 70
     0
300
1:50
140
1.0
141
50.0
290
     0
  0
SCALE
  5
53
102
{ACAD_REACTORS
330
47
102
}
330
47
100
AcDbScale
 70
     0
300
1:100
140
1.0
141
100.0
290
     0
  0
SCALE
  5
54
102
{ACAD_REACTORS
330
47
102
}
330
47
100
AcDbScale
 70
     0
300
2:1
140
2.0
141
1.0
290
     0
  0
SCALE
  5
55
102
{ACAD_REACTORS
330
47
102
}
330
47
100
AcDbScale
 70
     0
300
4:1
140
4.0
141
1.0
290
     0
  0
SCALE
  5
56
102
{ACAD_REACTORS
330
47
102
}
330
47
100
AcDbScale
 70
     0
300
8:1
140
8.0
141
1.0
290
     0
  0
SCALE
  5
57
102
{ACAD_REACTORS
330
47
102
}
330
47
100
AcDbScale
 70
     0
300
10:1
140
10.0
141
1.0
290
     0
  0
SCALE
  5
58
102
{ACAD_REACTORS
330
47
102
}
330
47
100
AcDbScale
 70
     0
300
100:1
140
100.0
141
1.0
290
     0
  0
SCALE
  5
59
102
{ACAD_REACTORS
330
47
102
}
330
47
100
AcDbScale
 70
     0
300
1/128" = 1'-0"
140
0.0078125
141
12.0
290
     0
  0
SCALE
  5
5A
102
{ACAD_REACTORS
330
47
102
}
330
47
100
AcDbScale
 70
     0
300
1/64" = 1'-0"
140
0.015625
141
12.0
290
     0
  0
SCALE
  5
5B
102
{ACAD_REACTORS
330
47
102
}
330
47
100
AcDbScale
 70
     0
300
1/32" = 1'-0"
140
0.03125
141
12.0
290
     0
  0
SCALE
  5
5C
102
{ACAD_REACTORS
330
47
102
}
330
47
100
AcDbScale
 70
     0
300
1/16" = 1'-0"
140
0.0625
141
12.0
290
     0
  0
SCALE
  5
5D
102
{ACAD_REACTORS
330
47
102
}
330
47
100
AcDbScale
 70
     0
300
3/32" = 1'-0"
140
0.09375
141
12.0
290
     0
  0
SCALE
  5
5E
102
{ACAD_REACTORS
330
47
102
}
330
47
100
AcDbScale
 70
     0
300
1/8" = 1'-0"
140
0.125
141
12.0
290
     0
  0
SCALE
  5
5F
102
{ACAD_REACTORS
330
47
102
}
330
47
100
AcDbScale
 70
     0
300
3/16" = 1'-0"
140
0.1875
141
12.0
290
     0
  0
SCALE
  5
60
102
{ACAD_REACTORS
330
47
102
}
330
47
100
AcDbScale
 70
     0
300
1/4" = 1'-0"
140
0.25
141
12.0
290
     0
  0
SCALE
  5
61
102
{ACAD_REACTORS
330
47
102
}
330
47
100
AcDbScale
 70
     0
300
3/8" = 1'-0"
140
0.375
141
12.0
290
     0
  0
SCALE
  5
62
102
{ACAD_REACTORS
330
47
102
}
330
47
100
AcDbScale
 70
     0
300
1/2" = 1'-0"
140
0.5
141
12.0
290
     0
  0
SCALE
  5
63
102
{ACAD_REACTORS
330
47
102
}
330
47
100
AcDbScale
 70
     0
300
3/4" = 1'-0"
140
0.75
141
12.0
290
     0
  0
SCALE
  5
64
102
{ACAD_REACTORS
330
47
102
}
330
47
100
AcDbScale
 70
     0
300
1" = 1'-0"
140
1.0
141
12.0
290
     0
  0
SCALE
  5
65
102
{ACAD_REACTORS
330
47
102
}
330
47
100
AcDbScale
 70
     0
300
1-1/2" = 1'-0"
140
1.5
141
12.0
290
     0
  0
SCALE
  5
66
102
{ACAD_REACTORS
330
47
102
}
330
47
100
AcDbScale
 70
     0
300
3" = 1'-0"
140
3.0
141
12.0
290
     0
  0
SCALE
  5
67
102
{ACAD_REACTORS
330
47
102
}
330
47
100
AcDbScale
 70
     0
300
6" = 1'-0"
140
6.0
141
12.0
290
     0
  0
SCALE
  5
68
102
{ACAD_REACTORS
330
47
102
}
330
47
100
AcDbScale
 70
     0
300
1'-0" = 1'-0"
140
12.0
141
12.0
290
     0
  0
ENDSEC
  0
EOF
