  0
SECTION
  2
HEADER
  9
$ACADVER
  1
AC1015
  9
$ACADMAINTVER
 70
     6
  9
$DWGCODEPAGE
  3
ANSI_949
  9
$INSBASE
 10
0.0
 20
0.0
 30
0.0
  9
$EXTMIN
 10
-154.5314576052396
 20
-49.97180738881174
 30
0.0
  9
$EXTMAX
 10
75.48290263319615
 20
26.76413260158162
 30
0.0
  9
$LIMMIN
 10
0.0
 20
0.0
  9
$LIMMAX
 10
420.0
 20
297.0
  9
$ORTHOMODE
 70
     0
  9
$REGENMODE
 70
     1
  9
$FILLMODE
 70
     1
  9
$QTEXTMODE
 70
     0
  9
$MIRRTEXT
 70
     1
  9
$LTSCALE
 40
1.0
  9
$ATTMODE
 70
     1
  9
$TEXTSIZE
 40
3.5
  9
$TRACEWID
 40
1.0
  9
$TEXTSTYLE
  7
Standard
  9
$CLAYER
  8
0
  9
$CELTYPE
  6
ByLayer
  9
$CECOLOR
 62
   256
  9
$CELTSCALE
 40
1.0
  9
$DISPSILH
 70
     0
  9
$DIMSCALE
 40
1.0
  9
$DIMASZ
 40
3.302
  9
$DIMEXO
 40
1.0
  9
$DIMDLI
 40
3.75
  9
$DIMRND
 40
0.0
  9
$DIMDLE
 40
0.0
  9
$DIMEXE
 40
1.0
  9
$DIMTP
 40
0.0
  9
$DIMTM
 40
0.0
  9
$DIMTXT
 40
3.5
  9
$DIMCEN
 40
2.5
  9
$DIMTSZ
 40
0.0
  9
$DIMTOL
 70
     0
  9
$DIMLIM
 70
     0
  9
$DIMTIH
 70
     1
  9
$DIMTOH
 70
     1
  9
$DIMSE1
 70
     0
  9
$DIMSE2
 70
     0
  9
$DIMTAD
 70
     1
  9
$DIMZIN
 70
     0
  9
$DIMBLK
  1

  9
$DIMASO
 70
     1
  9
$DIMSHO
 70
     1
  9
$DIMPOST
  1

  9
$DIMAPOST
  1

  9
$DIMALT
 70
     0
  9
$DIMALTD
 70
     3
  9
$DIMALTF
 40
0.0393700787401575
  9
$DIMLFAC
 40
1.0
  9
$DIMTOFL
 70
     1
  9
$DIMTVP
 40
0.0
  9
$DIMTIX
 70
     0
  9
$DIMSOXD
 70
     0
  9
$DIMSAH
 70
     0
  9
$DIMBLK1
  1

  9
$DIMBLK2
  1

  9
$DIMSTYLE
  2
ISO-25
  9
$DIMCLRD
 70
     0
  9
$DIMCLRE
 70
     0
  9
$DIMCLRT
 70
     0
  9
$DIMTFAC
 40
1.0
  9
$DIMGAP
 40
1.524
  9
$DIMJUST
 70
     0
  9
$DIMSD1
 70
     0
  9
$DIMSD2
 70
     0
  9
$DIMTOLJ
 70
     0
  9
$DIMTZIN
 70
     0
  9
$DIMALTZ
 70
     0
  9
$DIMALTTZ
 70
     0
  9
$DIMUPT
 70
     0
  9
$DIMDEC
 70
     2
  9
$DIMTDEC
 70
     2
  9
$DIMALTU
 70
     2
  9
$DIMALTTD
 70
     3
  9
$DIMTXSTY
  7
Standard
  9
$DIMAUNIT
 70
     0
  9
$DIMADEC
 70
     2
  9
$DIMALTRND
 40
0.0
  9
$DIMAZIN
 70
     0
  9
$DIMDSEP
 70
    44
  9
$DIMATFIT
 70
     3
  9
$DIMFRAC
 70
     0
  9
$DIMLDRBLK
  1

  9
$DIMLUNIT
 70
     2
  9
$DIMLWD
 70
    -2
  9
$DIMLWE
 70
    -2
  9
$DIMTMOVE
 70
     0
  9
$LUNITS
 70
     2
  9
$LUPREC
 70
     2
  9
$SKETCHINC
 40
1.0
  9
$FILLETRAD
 40
10.0
  9
$AUNITS
 70
     0
  9
$AUPREC
 70
     2
  9
$MENU
  1
.
  9
$ELEVATION
 40
0.0
  9
$PELEVATION
 40
0.0
  9
$THICKNESS
 40
0.0
  9
$LIMCHECK
 70
     0
  9
$CHAMFERA
 40
0.0
  9
$CHAMFERB
 40
0.0
  9
$CHAMFERC
 40
0.0
  9
$CHAMFERD
 40
0.0
  9
$SKPOLY
 70
     0
  9
$TDCREATE
 40
2458260.578914838
  9
$TDUCREATE
 40
2458260.203914838
  9
$TDUPDATE
 40
2458268.647150139
  9
$TDUUPDATE
 40
2458268.272150139
  9
$TDINDWG
 40
0.0004610417
  9
$TDUSRTIMER
 40
2458268.271689132
  9
$USRTIMER
 70
     1
  9
$ANGBASE
 50
0.0
  9
$ANGDIR
 70
     0
  9
$PDMODE
 70
     0
  9
$PDSIZE
 40
-1.0
  9
$PLINEWID
 40
0.0
  9
$SPLFRAME
 70
     0
  9
$SPLINETYPE
 70
     6
  9
$SPLINESEGS
 70
     8
  9
$HANDSEED
  5
145
  9
$SURFTAB1
 70
     6
  9
$SURFTAB2
 70
     6
  9
$SURFTYPE
 70
     6
  9
$SURFU
 70
     6
  9
$SURFV
 70
     6
  9
$UCSBASE
  2

  9
$UCSNAME
  2

  9
$UCSORG
 10
0.0
 20
0.0
 30
0.0
  9
$UCSXDIR
 10
1.0
 20
0.0
 30
0.0
  9
$UCSYDIR
 10
0.0
 20
1.0
 30
0.0
  9
$UCSORTHOREF
  2

  9
$UCSORTHOVIEW
 70
     0
  9
$UCSORGTOP
 10
0.0
 20
0.0
 30
0.0
  9
$UCSORGBOTTOM
 10
0.0
 20
0.0
 30
0.0
  9
$UCSORGLEFT
 10
0.0
 20
0.0
 30
0.0
  9
$UCSORGRIGHT
 10
0.0
 20
0.0
 30
0.0
  9
$UCSORGFRONT
 10
0.0
 20
0.0
 30
0.0
  9
$UCSORGBACK
 10
0.0
 20
0.0
 30
0.0
  9
$PUCSBASE
  2

  9
$PUCSNAME
  2

  9
$PUCSORG
 10
0.0
 20
0.0
 30
0.0
  9
$PUCSXDIR
 10
1.0
 20
0.0
 30
0.0
  9
$PUCSYDIR
 10
0.0
 20
1.0
 30
0.0
  9
$PUCSORTHOREF
  2

  9
$PUCSORTHOVIEW
 70
     0
  9
$PUCSORGTOP
 10
0.0
 20
0.0
 30
0.0
  9
$PUCSORGBOTTOM
 10
0.0
 20
0.0
 30
0.0
  9
$PUCSORGLEFT
 10
0.0
 20
0.0
 30
0.0
  9
$PUCSORGRIGHT
 10
0.0
 20
0.0
 30
0.0
  9
$PUCSORGFRONT
 10
0.0
 20
0.0
 30
0.0
  9
$PUCSORGBACK
 10
0.0
 20
0.0
 30
0.0
  9
$USERI1
 70
     0
  9
$USERI2
 70
     0
  9
$USERI3
 70
     0
  9
$USERI4
 70
     0
  9
$USERI5
 70
     0
  9
$USERR1
 40
0.0
  9
$USERR2
 40
0.0
  9
$USERR3
 40
0.0
  9
$USERR4
 40
0.0
  9
$USERR5
 40
0.0
  9
$WORLDVIEW
 70
     1
  9
$SHADEDGE
 70
     3
  9
$SHADEDIF
 70
    70
  9
$TILEMODE
 70
     1
  9
$MAXACTVP
 70
    64
  9
$PINSBASE
 10
0.0
 20
0.0
 30
0.0
  9
$PLIMCHECK
 70
     0
  9
$PEXTMIN
 10
1.000000000000000E+20
 20
1.000000000000000E+20
 30
1.000000000000000E+20
  9
$PEXTMAX
 10
-1.000000000000000E+20
 20
-1.000000000000000E+20
 30
-1.000000000000000E+20
  9
$PLIMMIN
 10
0.0
 20
0.0
  9
$PLIMMAX
 10
0.0
 20
0.0
  9
$UNITMODE
 70
     0
  9
$VISRETAIN
 70
     1
  9
$PLINEGEN
 70
     0
  9
$PSLTSCALE
 70
     1
  9
$TREEDEPTH
 70
  3020
  9
$CMLSTYLE
  2
Standard
  9
$CMLJUST
 70
     0
  9
$CMLSCALE
 40
20.0
  9
$PROXYGRAPHICS
 70
     1
  9
$MEASUREMENT
 70
     1
  9
$CELWEIGHT
370
    -1
  9
$ENDCAPS
280
     0
  9
$JOINSTYLE
280
     0
  9
$LWDISPLAY
290
     1
  9
$INSUNITS
 70
     4
  9
$HYPERLINKBASE
  1

  9
$STYLESHEET
  1

  9
$XEDIT
290
     1
  9
$CEPSNTYPE
380
     0
  9
$PSTYLEMODE
290
     1
  9
$FINGERPRINTGUID
  2
{AF1C0D05-AE86-49FF-9072-D971632B5E59}
  9
$VERSIONGUID
  2
{FAEB1C32-E019-11D5-929B-00C0DF256EC4}
  9
$EXTNAMES
290
     1
  9
$PSVPSCALE
 40
0.0
  9
$OLESTARTUP
290
     0
  0
ENDSEC
  0
SECTION
  2
CLASSES
  0
CLASS
  1
ACDBDICTIONARYWDFLT
  2
AcDbDictionaryWithDefault
  3
ObjectDBX Classes
 90
        0
280
     0
281
     0
  0
CLASS
  1
VISUALSTYLE
  2
AcDbVisualStyle
  3
ObjectDBX Classes
 90
     4095
280
     0
281
     0
  0
CLASS
  1
MATERIAL
  2
AcDbMaterial
  3
ObjectDBX Classes
 90
     1153
280
     0
281
     0
  0
CLASS
  1
SCALE
  2
AcDbScale
  3
ObjectDBX Classes
 90
     1153
280
     0
281
     0
  0
CLASS
  1
TABLESTYLE
  2
AcDbTableStyle
  3
ObjectDBX Classes
 90
     4095
280
     0
281
     0
  0
CLASS
  1
MLEADERSTYLE
  2
AcDbMLeaderStyle
  3
ACDB_MLEADERSTYLE_CLASS
 90
     4095
280
     0
281
     0
  0
CLASS
  1
SUN
  2
AcDbSun
  3
SCENEOE
 90
     1153
280
     0
281
     0
  0
CLASS
  1
ACDBPLACEHOLDER
  2
AcDbPlaceHolder
  3
ObjectDBX Classes
 90
        0
280
     0
281
     0
  0
CLASS
  1
LAYOUT
  2
AcDbLayout
  3
ObjectDBX Classes
 90
        0
280
     0
281
     0
  0
CLASS
  1
RASTERVARIABLES
  2
AcDbRasterVariables
  3
ISM
 90
        0
280
     0
281
     0
  0
ENDSEC
  0
SECTION
  2
TABLES
  0
TABLE
  2
VPORT
  5
8
330
0
100
AcDbSymbolTable
 70
     1
  0
VPORT
  5
29
330
8
100
AcDbSymbolTableRecord
100
AcDbViewportTableRecord
  2
*Active
 70
     0
 10
0.0
 20
0.0
 11
1.0
 21
1.0
 12
-39.5242774860217
 22
-11.60383739361506
 13
0.0
 23
0.0
 14
10.0
 24
10.0
 15
10.0
 25
10.0
 16
0.0
 26
0.0
 36
1.0
 17
0.0
 27
0.0
 37
0.0
 40
135.4151656383596
 41
1.732558139534884
 42
50.0
 43
0.0
 44
0.0
 50
0.0
 51
0.0
 71
    16
 72
  2000
 73
     1
 74
     3
 75
     0
 76
     0
 77
     0
 78
     0
281
     0
 65
     1
110
0.0
120
0.0
130
0.0
111
1.0
121
0.0
131
0.0
112
0.0
122
1.0
132
0.0
 79
     0
146
0.0
  0
ENDTAB
  0
TABLE
  2
LTYPE
  5
5
330
0
100
AcDbSymbolTable
 70
     6
  0
LTYPE
  5
14
330
5
100
AcDbSymbolTableRecord
100
AcDbLinetypeTableRecord
  2
ByBlock
 70
     0
  3

 72
    65
 73
     0
 40
0.0
  0
LTYPE
  5
15
330
5
100
AcDbSymbolTableRecord
100
AcDbLinetypeTableRecord
  2
ByLayer
 70
     0
  3

 72
    65
 73
     0
 40
0.0
  0
LTYPE
  5
16
330
5
100
AcDbSymbolTableRecord
100
AcDbLinetypeTableRecord
  2
Continuous
 70
     0
  3
Solid line
 72
    65
 73
     0
 40
0.0
  0
LTYPE
  5
6E
330
5
100
AcDbSymbolTableRecord
100
AcDbLinetypeTableRecord
  2
HIDDEN
 70
     0
  3
Hidden __ __ __ __ __ __ __ __ __ __ __ __ __ __
 72
    65
 73
     2
 40
1.905
 49
1.27
 74
     0
 49
-0.635
 74
     0
  0
LTYPE
  5
6F
330
5
100
AcDbSymbolTableRecord
100
AcDbLinetypeTableRecord
  2
PHANTOM
 70
     0
  3
Phantom ______  __  __  ______  __  __  ______
 72
    65
 73
     6
 40
12.7
 49
6.35
 74
     0
 49
-1.27
 74
     0
 49
1.27
 74
     0
 49
-1.27
 74
     0
 49
1.27
 74
     0
 49
-1.27
 74
     0
  0
LTYPE
  5
70
330
5
100
AcDbSymbolTableRecord
100
AcDbLinetypeTableRecord
  2
CENTER
 70
     0
  3
Center ____ _ ____ _ ____ _ ____ _ ____ _ ____
 72
    65
 73
     4
 40
10.16
 49
6.35
 74
     0
 49
-1.27
 74
     0
 49
1.27
 74
     0
 49
-1.27
 74
     0
  0
LTYPE
  5
71
330
5
100
AcDbSymbolTableRecord
100
AcDbLinetypeTableRecord
  2
CENTERX2
 70
     0
  3
Center (2x) ________  __  ________  __  _____
 72
    65
 73
     4
 40
20.32
 49
12.7
 74
     0
 49
-2.54
 74
     0
 49
2.54
 74
     0
 49
-2.54
 74
     0
  0
LTYPE
  5
72
330
5
100
AcDbSymbolTableRecord
100
AcDbLinetypeTableRecord
  2
DOT2
 70
     0
  3
Dot (.5x) ........................................
 72
    65
 73
     2
 40
0.635
 49
0.0
 74
     0
 49
-0.635
 74
     0
  0
ENDTAB
  0
TABLE
  2
LAYER
  5
2
330
0
100
AcDbSymbolTable
 70
    17
  0
LAYER
  5
10
330
2
100
AcDbSymbolTableRecord
100
AcDbLayerTableRecord
  2
0
 70
     0
 62
     7
  6
Continuous
370
    -3
390
F
  0
LAYER
  5
73
330
2
100
AcDbSymbolTableRecord
100
AcDbLayerTableRecord
  2
FORMAT
 70
     0
 62
     2
  6
Continuous
370
    -3
390
F
  0
LAYER
  5
74
330
2
100
AcDbSymbolTableRecord
100
AcDbLayerTableRecord
  2
외형선
 70
     0
 62
   100
  6
Continuous
370
    35
390
F
  0
LAYER
  5
75
330
2
100
AcDbSymbolTableRecord
100
AcDbLayerTableRecord
  2
숨은선
 70
     0
 62
     2
  6
HIDDEN
370
    25
390
F
  0
LAYER
  5
76
330
2
100
AcDbSymbolTableRecord
100
AcDbLayerTableRecord
  2
중심선
 70
     0
 62
     1
  6
CENTERX2
370
    -3
390
F
  0
LAYER
  5
77
330
2
100
AcDbSymbolTableRecord
100
AcDbLayerTableRecord
  2
파단선
 70
     0
 62
     4
  6
Continuous
370
    -3
390
F
  0
LAYER
  5
78
330
2
100
AcDbSymbolTableRecord
100
AcDbLayerTableRecord
  2
해칭선
 70
     0
 62
   100
  6
Continuous
370
    -3
390
F
  0
LAYER
  5
79
330
2
100
AcDbSymbolTableRecord
100
AcDbLayerTableRecord
  2
가는실선
 70
     0
 62
     4
  6
Continuous
370
    -3
390
F
  0
LAYER
  5
7A
330
2
100
AcDbSymbolTableRecord
100
AcDbLayerTableRecord
  2
치수_보조선
 70
     0
 62
     4
  6
Continuous
370
    -3
390
F
  0
LAYER
  5
7B
330
2
100
AcDbSymbolTableRecord
100
AcDbLayerTableRecord
  2
치수문자_일반주서
 70
     0
 62
     7
  6
Continuous
370
    25
390
F
  0
LAYER
  5
7C
330
2
100
AcDbSymbolTableRecord
100
AcDbLayerTableRecord
  2
개별주서
 70
     0
 62
   100
  6
Continuous
370
    35
390
F
  0
LAYER
  5
7D
330
2
100
AcDbSymbolTableRecord
100
AcDbLayerTableRecord
  2
중간선
 70
     0
 62
     2
  6
Continuous
370
    25
390
F
  0
LAYER
  5
7E
330
2
100
AcDbSymbolTableRecord
100
AcDbLayerTableRecord
  2
윤곽선
 70
     0
 62
     3
  6
Continuous
370
    50
390
F
  0
LAYER
  5
7F
330
2
100
AcDbSymbolTableRecord
100
AcDbLayerTableRecord
  2
중심마크
 70
     0
 62
   100
  6
Continuous
370
    35
390
F
  0
LAYER
  5
80
330
2
100
AcDbSymbolTableRecord
100
AcDbLayerTableRecord
  2
가상선
 70
     0
 62
     4
  6
PHANTOM
370
    -3
390
F
  0
LAYER
  5
81
330
2
100
AcDbSymbolTableRecord
100
AcDbLayerTableRecord
  2
특수지정선
 70
     0
 62
     5
  6
CENTERX2
370
    70
390
F
  0
LAYER
  5
136
330
2
100
AcDbSymbolTableRecord
100
AcDbLayerTableRecord
  2
Defpoints
 70
     0
 62
     7
  6
Continuous
290
     0
370
    -3
390
F
  0
ENDTAB
  0
TABLE
  2
STYLE
  5
3
330
0
100
AcDbSymbolTable
 70
     2
  0
STYLE
  5
11
330
3
100
AcDbSymbolTableRecord
100
AcDbTextStyleTableRecord
  2
Standard
 70
     0
 40
0.0
 41
1.0
 50
0.0
 71
     0
 42
3.5
  3
txt
  4

  0
STYLE
  5
97
330
3
100
AcDbSymbolTableRecord
100
AcDbTextStyleTableRecord
  2
SLDTEXTSTYLE0
 70
     0
 40
0.0
 41
0.75
 50
0.0
 71
     0
 42
3.5
  3
TXT
  4

  0
ENDTAB
  0
TABLE
  2
VIEW
  5
6
330
0
100
AcDbSymbolTable
 70
     0
  0
ENDTAB
  0
TABLE
  2
UCS
  5
7
330
0
100
AcDbSymbolTable
 70
     0
  0
ENDTAB
  0
TABLE
  2
APPID
  5
9
330
0
100
AcDbSymbolTable
 70
     1
  0
APPID
  5
12
330
9
100
AcDbSymbolTableRecord
100
AcDbRegAppTableRecord
  2
ACAD
 70
     0
  0
ENDTAB
  0
TABLE
  2
DIMSTYLE
  5
A
330
0
100
AcDbSymbolTable
 70
     4
100
AcDbDimStyleTable
  0
DIMSTYLE
105
27
330
A
100
AcDbSymbolTableRecord
100
AcDbDimStyleTableRecord
  2
ISO-25
 70
     0
 41
2.5
 42
0.625
 43
3.75
 44
1.25
 73
     0
 74
     0
 77
     1
 78
     8
140
2.5
141
2.5
143
0.03937007874016
147
0.625
171
     3
172
     1
178
     0
271
     2
272
     2
274
     3
278
    44
283
     0
284
     8
340
11
  0
DIMSTYLE
105
DB
102
{ACAD_REACTORS
330
DA
102
}
330
A
100
AcDbSymbolTableRecord
100
AcDbDimStyleTableRecord
  2
SLDDIMSTYLE0
 70
     0
 41
3.302
 44
0.0
 45
0.000000001
 73
     0
 74
     0
 77
     1
 78
    12
 79
     3
140
3.5
147
0.875
172
     1
173
     1
178
     0
271
     1
272
     1
276
     2
284
    12
289
     0
340
97
  0
DIMSTYLE
105
E9
102
{ACAD_REACTORS
330
E8
330
101
102
}
330
A
100
AcDbSymbolTableRecord
100
AcDbDimStyleTableRecord
  2
SLDDIMSTYLE1
 70
     0
 41
3.302
 44
0.0
 45
0.000000001
 73
     0
 74
     0
 77
     1
 78
    12
 79
     3
140
3.5
147
0.875
173
     1
178
     0
271
     2
272
     2
276
     2
284
    12
340
97
  0
DIMSTYLE
105
F4
102
{ACAD_REACTORS
330
F3
102
}
330
A
100
AcDbSymbolTableRecord
100
AcDbDimStyleTableRecord
  2
SLDDIMSTYLE2
 70
     0
 41
3.302
 44
0.0
 45
0.000000001
 73
     0
 74
     0
 77
     1
 78
    12
 79
     3
140
3.5
147
0.875
172
     1
173
     1
178
     0
271
     2
272
     2
276
     2
284
    12
289
     0
340
97
  0
ENDTAB
  0
TABLE
  2
BLOCK_RECORD
  5
1
330
0
100
AcDbSymbolTable
 70
     7
  0
BLOCK_RECORD
  5
1F
330
1
100
AcDbSymbolTableRecord
100
AcDbBlockTableRecord
  2
*Model_Space
340
22
  0
BLOCK_RECORD
  5
1B
330
1
100
AcDbSymbolTableRecord
100
AcDbBlockTableRecord
  2
*Paper_Space
340
1E
  0
BLOCK_RECORD
  5
23
330
1
100
AcDbSymbolTableRecord
100
AcDbBlockTableRecord
  2
*Paper_Space0
340
26
  0
BLOCK_RECORD
  5
82
330
1
100
AcDbSymbolTableRecord
100
AcDbBlockTableRecord
  2
블럭10
340
0
102
{BLKREFS
331
D3
102
}
  0
BLOCK_RECORD
  5
DC
330
1
100
AcDbSymbolTableRecord
100
AcDbBlockTableRecord
  2
_D
340
0
  0
BLOCK_RECORD
  5
EA
330
1
100
AcDbSymbolTableRecord
100
AcDbBlockTableRecord
  2
_D_1
340
0
  0
BLOCK_RECORD
  5
F5
330
1
100
AcDbSymbolTableRecord
100
AcDbBlockTableRecord
  2
_D_2
340
0
  0
BLOCK_RECORD
  5
102
330
1
100
AcDbSymbolTableRecord
100
AcDbBlockTableRecord
  2
_D_3
340
0
  0
BLOCK_RECORD
  5
10B
330
1
100
AcDbSymbolTableRecord
100
AcDbBlockTableRecord
  2
SW_DOWELSYMBOL_0
340
0
102
{BLKREFS
331
111
102
}
  0
ENDTAB
  0
ENDSEC
  0
SECTION
  2
BLOCKS
  0
BLOCK
  5
20
330
1F
100
AcDbEntity
  8
0
100
AcDbBlockBegin
  2
*Model_Space
 70
     0
 10
0.0
 20
0.0
 30
0.0
  3
*Model_Space
  1

  0
ENDBLK
  5
21
330
1F
100
AcDbEntity
  8
0
100
AcDbBlockEnd
  0
BLOCK
  5
1C
330
1B
100
AcDbEntity
 67
     1
  8
0
100
AcDbBlockBegin
  2
*Paper_Space
 70
     0
 10
0.0
 20
0.0
 30
0.0
  3
*Paper_Space
  1

  0
ENDBLK
  5
1D
330
1B
100
AcDbEntity
 67
     1
  8
0
100
AcDbBlockEnd
  0
BLOCK
  5
24
330
23
100
AcDbEntity
  8
0
100
AcDbBlockBegin
  2
*Paper_Space0
 70
     0
 10
0.0
 20
0.0
 30
0.0
  3
*Paper_Space0
  1

  0
ENDBLK
  5
25
330
23
100
AcDbEntity
  8
0
100
AcDbBlockEnd
  0
BLOCK
  5
83
330
82
100
AcDbEntity
  8
0
100
AcDbBlockBegin
  2
블럭10
 70
     2
 10
0.0
 20
0.0
 30
0.0
  3
블럭10
  1

  0
ELLIPSE
  5
85
330
82
100
AcDbEntity
  8
중심선
100
AcDbEllipse
 10
20.54032771741204
 20
12.0471743016438
 30
0.0
 11
6.600054785286829
 21
-1.261213355974178E-13
 31
0.0
210
0.0
220
0.0
230
1.0
 40
0.636358354079598
 41
0.9219305317359503
 42
6.513795318482858
  0
ELLIPSE
  5
86
330
82
100
AcDbEntity
  8
중심선
100
AcDbEllipse
 10
20.54032771746488
 20
12.04717430159265
 30
0.0
 11
3.960054785062283
 21
1.540847449632565E-10
 31
0.0
210
0.0
220
0.0
230
1.0
 40
0.3939339440162632
 41
1.131841032648279
 42
5.62031148352944
  0
LINE
  5
87
330
82
100
AcDbEntity
  8
중심선
100
AcDbLine
 10
2.268634060543552
 20
16.24717430164393
 30
0.0
 11
5.714909304380834
 21
16.24717430164393
 31
0.0
  0
LINE
  5
88
330
82
100
AcDbEntity
  8
중심선
100
AcDbLine
 10
5.245725140726316
 20
7.84717430164391
 30
0.0
 11
8.692000384563599
 21
7.84717430164391
 31
0.0
  0
LINE
  5
89
330
82
100
AcDbEntity
  8
중심선
100
AcDbLine
 10
15.74043728645272
 20
16.24717430164393
 30
0.0
 11
8.692000384563599
 21
7.84717430164391
 31
0.0
  0
LINE
  5
8A
330
82
100
AcDbEntity
  8
중심선
100
AcDbLine
 10
0.1404042013395286
 20
13.71084872107135
 30
0.0
 11
3.58671253028996
 21
13.71088815037384
 31
0.0
  0
LINE
  5
8B
330
82
100
AcDbEntity
  8
중심선
100
AcDbLine
 10
2.750260043222114
 20
10.84717430164391
 30
0.0
 11
6.196535287059397
 21
10.84717430164391
 31
0.0
  0
LINE
  5
8C
330
82
100
AcDbEntity
  8
중심선
100
AcDbLine
 10
12.29416204261559
 20
16.24717430164393
 30
0.0
 11
5.245725140726316
 21
7.84717430164391
 31
0.0
  0
LINE
  5
8D
330
82
100
AcDbEntity
  8
중심선
100
AcDbLine
 10
10.72767329541681
 20
16.24717430164393
 30
0.0
 11
6.196535287059397
 21
10.84717430164391
 31
0.0
  0
LINE
  5
8E
330
82
100
AcDbEntity
  8
중심선
100
AcDbLine
 10
7.28139805157953
 20
16.24717430164393
 30
0.0
 11
2.750260043222114
 21
10.84717430164391
 31
0.0
  0
LINE
  5
8F
330
82
100
AcDbEntity
  8
중심선
100
AcDbLine
 10
5.714909304380834
 20
16.24717430164393
 30
0.0
 11
3.58671253028996
 21
13.71088815037384
 31
0.0
  0
LINE
  5
90
330
82
100
AcDbEntity
  8
중심선
100
AcDbLine
 10
2.268634060543552
 20
16.24717430164393
 30
0.0
 11
0.1404042013395286
 21
13.71084872107135
 31
0.0
  0
LINE
  5
91
330
82
100
AcDbEntity
  8
중심선
100
AcDbLine
 10
7.28139805157953
 20
16.24717430164393
 30
0.0
 11
10.72767329541681
 21
16.24717430164393
 31
0.0
  0
LINE
  5
92
330
82
100
AcDbEntity
  8
중심선
100
AcDbLine
 10
12.29416204261559
 20
16.24717430164393
 30
0.0
 11
15.74043728645272
 21
16.24717430164393
 31
0.0
  0
LINE
  5
93
330
82
100
AcDbEntity
  8
중심선
100
AcDbLine
 10
19.22036997980202
 20
11.08717430171403
 30
0.0
 11
23.66174974927406
 21
11.08717430171406
 31
0.0
  0
LINE
  5
94
330
82
100
AcDbEntity
  8
중심선
100
AcDbLine
 10
19.22039502424796
 20
13.00717430171391
 30
0.0
 11
19.22036997980202
 21
11.08717430171403
 31
0.0
  0
LINE
  5
95
330
82
100
AcDbEntity
  8
중심선
100
AcDbLine
 10
19.22039502424796
 20
13.00717430171391
 30
0.0
 11
26.96566020931264
 21
13.00717430171391
 31
0.0
  0
LINE
  5
96
330
82
100
AcDbEntity
  8
중심선
100
AcDbLine
 10
22.22332737316547
 20
13.45928029700563
 30
0.0
 11
24.52862924686651
 21
15.39360700705356
 31
0.0
  0
ATTDEF
  5
98
330
82
100
AcDbEntity
  8
FORMAT
 62
     2
100
AcDbText
 10
-20.85824753159254
 20
2.075366912832191
 30
0.0
 40
4.233333333333333
  1
SEME7210050200E [ 4 FLUTE ]
 41
0.75
  7
SLDTEXTSTYLE0
 11
-20.85824753159254
 21
-0.0412997538344756
 31
0.0
100
AcDbAttributeDefinition
  3

  2
AUTOATTR0
 70
     0
 74
     1
  0
ENDBLK
  5
84
330
82
100
AcDbEntity
  8
0
100
AcDbBlockEnd
  0
BLOCK
  5
DD
330
DC
100
AcDbEntity
  8
0
100
AcDbBlockBegin
  2
_D
 70
     0
 10
0.0
 20
0.0
 30
0.0
  3
_D
  1

  0
LINE
  5
DF
330
DC
100
AcDbEntity
  8
치수문자_일반주서
 62
     0
370
    -2
100
AcDbLine
 10
60.0625
 20
-5.000000000000014
 30
0.0
 11
74.9325692998628
 21
-4.999999999999956
 31
0.0
  0
LINE
  5
E0
330
DC
100
AcDbEntity
  8
치수문자_일반주서
 62
     0
370
    -2
100
AcDbLine
 10
60.0625
 20
4.999999999999995
 30
0.0
 11
74.93256929986278
 21
5.00000000000005
 31
0.0
  0
LINE
  5
E1
330
DC
100
AcDbEntity
  8
치수문자_일반주서
 62
     0
370
    -2
100
AcDbLine
 10
74.9325692998628
 20
-4.999999999999956
 30
0.0
 11
74.93256929986273
 21
19.04150000000005
 31
0.0
  0
LINE
  5
E2
330
DC
100
AcDbEntity
  8
치수문자_일반주서
 62
     0
370
    -2
100
AcDbLine
 10
74.9325692998628
 20
-4.999999999999956
 30
0.0
 11
74.93256929986278
 21
5.00000000000005
 31
0.0
  0
LINE
  5
E3
330
DC
100
AcDbEntity
  8
치수문자_일반주서
 62
     0
370
    -2
100
AcDbLine
 10
74.93256929986282
 20
-8.301999999999955
 30
0.0
 11
74.93256929986283
 21
-11.60399999999995
 31
0.0
  0
LINE
  5
E4
330
DC
100
AcDbEntity
  8
치수문자_일반주서
 62
     0
370
    -2
100
AcDbLine
 10
74.93256929986276
 20
8.30200000000005
 30
0.0
 11
74.93256929986275
 21
11.60400000000005
 31
0.0
  0
SOLID
  5
E5
330
DC
100
AcDbEntity
  8
치수문자_일반주서
 62
     0
100
AcDbTrace
 10
75.48290263319615
 20
-8.301999999999953
 30
0.0
 11
74.38223596652949
 21
-8.301999999999957
 31
0.0
 12
74.9325692998628
 22
-4.999999999999956
 32
0.0
 13
74.9325692998628
 23
-4.999999999999956
 33
0.0
  0
SOLID
  5
E6
330
DC
100
AcDbEntity
  8
치수문자_일반주서
 62
     0
100
AcDbTrace
 10
74.38223596652944
 20
8.302000000000048
 30
0.0
 11
75.48290263319609
 21
8.302000000000051
 31
0.0
 12
74.93256929986278
 22
5.00000000000005
 32
0.0
 13
74.93256929986278
 23
5.00000000000005
 33
0.0
  0
MTEXT
  5
E7
330
DC
100
AcDbEntity
  8
치수문자_일반주서
 62
     0
100
AcDbMText
 10
70.55756929986275
 20
15.32275000000004
 30
0.0
 40
3.5
 41
0.0
 71
     2
 72
     1
  1
\A1;%%c10
  7
SLDTEXTSTYLE0
 11
-2.842170943040398E-15
 21
1.0
 31
0.0
 73
     1
 44
1.0
  0
POINT
  5
140
330
DC
100
AcDbEntity
  8
Defpoints
 62
     0
100
AcDbPoint
 10
60.0
 20
-5.000000000000014
 30
0.0
  0
POINT
  5
141
330
DC
100
AcDbEntity
  8
Defpoints
 62
     0
100
AcDbPoint
 10
60.0
 20
4.999999999999995
 30
0.0
  0
POINT
  5
142
330
DC
100
AcDbEntity
  8
Defpoints
 62
     0
100
AcDbPoint
 10
74.93256929986278
 20
5.000000000000051
 30
0.0
  0
ENDBLK
  5
DE
330
DC
100
AcDbEntity
  8
0
100
AcDbBlockEnd
  0
BLOCK
  5
EB
330
EA
100
AcDbEntity
  8
0
100
AcDbBlockBegin
  2
_D_1
 70
     0
 10
0.0
 20
0.0
 30
0.0
  3
_D_1
  1

  0
LINE
  5
ED
330
EA
100
AcDbEntity
  8
치수문자_일반주서
 62
     0
370
    -2
100
AcDbLine
 10
-140.0
 20
4.562499999999972
 30
0.0
 11
-140.0
 21
22.38913260158162
 31
0.0
  0
LINE
  5
EE
330
EA
100
AcDbEntity
  8
치수문자_일반주서
 62
     0
370
    -2
100
AcDbLine
 10
60.0
 20
5.062499999999996
 30
0.0
 11
60.0
 21
22.38913260158162
 31
0.0
  0
LINE
  5
EF
330
EA
100
AcDbEntity
  8
치수문자_일반주서
 62
     0
370
    -2
100
AcDbLine
 10
-136.698
 20
22.38913260158162
 30
0.0
 11
56.698
 21
22.38913260158162
 31
0.0
  0
SOLID
  5
F0
330
EA
100
AcDbEntity
  8
치수문자_일반주서
 62
     0
100
AcDbTrace
 10
-136.698
 20
22.93946593491496
 30
0.0
 11
-136.698
 21
21.83879926824829
 31
0.0
 12
-140.0
 22
22.38913260158162
 32
0.0
 13
-140.0
 23
22.38913260158162
 33
0.0
  0
SOLID
  5
F1
330
EA
100
AcDbEntity
  8
치수문자_일반주서
 62
     0
100
AcDbTrace
 10
56.698
 20
21.83879926824829
 30
0.0
 11
56.698
 21
22.93946593491496
 31
0.0
 12
60.0
 22
22.38913260158162
 32
0.0
 13
60.0
 23
22.38913260158162
 33
0.0
  0
MTEXT
  5
F2
330
EA
100
AcDbEntity
  8
치수문자_일반주서
 62
     0
100
AcDbMText
 10
-39.99999999999999
 20
26.76413260158162
 30
0.0
 40
3.5
 41
0.0
 71
     2
 72
     1
  1
\A1;200
  7
SLDTEXTSTYLE0
 73
     1
 44
1.0
  0
POINT
  5
137
330
EA
100
AcDbEntity
  8
Defpoints
 62
     0
100
AcDbPoint
 10
-140.0
 20
4.499999999999972
 30
0.0
  0
POINT
  5
138
330
EA
100
AcDbEntity
  8
Defpoints
 62
     0
100
AcDbPoint
 10
60.0
 20
4.999999999999996
 30
0.0
  0
POINT
  5
139
330
EA
100
AcDbEntity
  8
Defpoints
 62
     0
100
AcDbPoint
 10
60.0
 20
22.38913260158162
 30
0.0
  0
ENDBLK
  5
EC
330
EA
100
AcDbEntity
  8
0
100
AcDbBlockEnd
  0
BLOCK
  5
F6
330
F5
100
AcDbEntity
  8
0
100
AcDbBlockBegin
  2
_D_2
 70
     0
 10
0.0
 20
0.0
 30
0.0
  3
_D_2
  1

  0
LINE
  5
F8
330
F5
100
AcDbEntity
  8
치수문자_일반주서
 62
     0
370
    -2
100
AcDbLine
 10
-139.5625
 20
4.999999999999996
 30
0.0
 11
-150.1564576052395
 21
4.999999999999957
 31
0.0
  0
LINE
  5
F9
330
F5
100
AcDbEntity
  8
치수문자_일반주서
 62
     0
370
    -2
100
AcDbLine
 10
-139.5625
 20
-5.000000000000013
 30
0.0
 11
-150.1564576052395
 21
-5.000000000000052
 31
0.0
  0
LINE
  5
FA
330
F5
100
AcDbEntity
  8
치수문자_일반주서
 62
     0
370
    -2
100
AcDbLine
 10
-150.1564576052395
 20
4.999999999999957
 30
0.0
 11
-150.1564576052395
 21
19.04149999999996
 31
0.0
  0
LINE
  5
FB
330
F5
100
AcDbEntity
  8
치수문자_일반주서
 62
     0
370
    -2
100
AcDbLine
 10
-150.1564576052395
 20
4.999999999999957
 30
0.0
 11
-150.1564576052395
 21
-5.000000000000052
 31
0.0
  0
LINE
  5
FC
330
F5
100
AcDbEntity
  8
치수문자_일반주서
 62
     0
370
    -2
100
AcDbLine
 10
-150.1564576052395
 20
8.301999999999957
 30
0.0
 11
-150.1564576052395
 21
11.60399999999996
 31
0.0
  0
LINE
  5
FD
330
F5
100
AcDbEntity
  8
치수문자_일반주서
 62
     0
370
    -2
100
AcDbLine
 10
-150.1564576052395
 20
-8.302000000000051
 30
0.0
 11
-150.1564576052395
 21
-11.60400000000005
 31
0.0
  0
SOLID
  5
FE
330
F5
100
AcDbEntity
  8
치수문자_일반주서
 62
     0
100
AcDbTrace
 10
-150.7067909385728
 20
8.301999999999955
 30
0.0
 11
-149.6061242719062
 21
8.301999999999959
 31
0.0
 12
-150.1564576052395
 22
4.999999999999957
 32
0.0
 13
-150.1564576052395
 23
4.999999999999957
 33
0.0
  0
SOLID
  5
FF
330
F5
100
AcDbEntity
  8
치수문자_일반주서
 62
     0
100
AcDbTrace
 10
-149.6061242719061
 20
-8.30200000000005
 30
0.0
 11
-150.7067909385728
 21
-8.302000000000053
 31
0.0
 12
-150.1564576052395
 22
-5.000000000000052
 32
0.0
 13
-150.1564576052395
 23
-5.000000000000052
 33
0.0
  0
MTEXT
  5
100
330
F5
100
AcDbEntity
  8
치수문자_일반주서
 62
     0
100
AcDbMText
 10
-154.5314576052395
 20
15.32274999999994
 30
0.0
 40
3.5
 41
0.0
 71
     2
 72
     1
  1
\A1;%%c10
  7
SLDTEXTSTYLE0
 11
-2.842170943040398E-15
 21
1.0
 31
0.0
 73
     1
 44
1.0
  0
POINT
  5
13D
330
F5
100
AcDbEntity
  8
Defpoints
 62
     0
100
AcDbPoint
 10
-139.5
 20
4.999999999999996
 30
0.0
  0
POINT
  5
13E
330
F5
100
AcDbEntity
  8
Defpoints
 62
     0
100
AcDbPoint
 10
-139.5
 20
-5.000000000000013
 30
0.0
  0
POINT
  5
13F
330
F5
100
AcDbEntity
  8
Defpoints
 62
     0
100
AcDbPoint
 10
-150.1564576052395
 20
-5.000000000000053
 30
0.0
  0
ENDBLK
  5
F7
330
F5
100
AcDbEntity
  8
0
100
AcDbBlockEnd
  0
BLOCK
  5
103
330
102
100
AcDbEntity
  8
0
100
AcDbBlockBegin
  2
_D_3
 70
     0
 10
0.0
 20
0.0
 30
0.0
  3
_D_3
  1

  0
LINE
  5
105
330
102
100
AcDbEntity
  8
치수문자_일반주서
 62
     0
370
    -2
100
AcDbLine
 10
10.0
 20
4.858779735592963
 30
0.0
 11
10.0
 21
15.64219803818061
 31
0.0
  0
LINE
  5
106
330
102
100
AcDbEntity
  8
치수문자_일반주서
 62
     0
370
    -2
100
AcDbLine
 10
60.0
 20
5.062499999999996
 30
0.0
 11
60.0
 21
15.64219803818061
 31
0.0
  0
LINE
  5
107
330
102
100
AcDbEntity
  8
치수문자_일반주서
 62
     0
370
    -2
100
AcDbLine
 10
13.302
 20
15.64219803818061
 30
0.0
 11
56.698
 21
15.64219803818061
 31
0.0
  0
SOLID
  5
108
330
102
100
AcDbEntity
  8
치수문자_일반주서
 62
     0
100
AcDbTrace
 10
13.302
 20
16.19253137151394
 30
0.0
 11
13.302
 21
15.09186470484728
 31
0.0
 12
10.0
 22
15.64219803818061
 32
0.0
 13
10.0
 23
15.64219803818061
 33
0.0
  0
SOLID
  5
109
330
102
100
AcDbEntity
  8
치수문자_일반주서
 62
     0
100
AcDbTrace
 10
56.698
 20
15.09186470484728
 30
0.0
 11
56.698
 21
16.19253137151394
 31
0.0
 12
60.0
 22
15.64219803818061
 32
0.0
 13
60.0
 23
15.64219803818061
 33
0.0
  0
MTEXT
  5
10A
330
102
100
AcDbEntity
  8
치수문자_일반주서
 62
     0
100
AcDbMText
 10
35.00000000000001
 20
20.01719803818061
 30
0.0
 40
3.5
 41
0.0
 71
     2
 72
     1
  1
\A1;50
  7
SLDTEXTSTYLE0
 73
     1
 44
1.0
  0
POINT
  5
13A
330
102
100
AcDbEntity
  8
Defpoints
 62
     0
100
AcDbPoint
 10
10.0
 20
4.796279735592963
 30
0.0
  0
POINT
  5
13B
330
102
100
AcDbEntity
  8
Defpoints
 62
     0
100
AcDbPoint
 10
60.0
 20
4.999999999999996
 30
0.0
  0
POINT
  5
13C
330
102
100
AcDbEntity
  8
Defpoints
 62
     0
100
AcDbPoint
 10
60.0
 20
15.64219803818061
 30
0.0
  0
ENDBLK
  5
104
330
102
100
AcDbEntity
  8
0
100
AcDbBlockEnd
  0
BLOCK
  5
10C
330
10B
100
AcDbEntity
  8
0
100
AcDbBlockBegin
  2
SW_DOWELSYMBOL_0
 70
     0
 10
0.0
 20
0.0
 30
0.0
  3
SW_DOWELSYMBOL_0
  1

  0
CIRCLE
  5
10E
330
10B
100
AcDbEntity
  8
해칭선
 62
     0
100
AcDbCircle
 10
0.0
 20
0.0
 30
0.0
 40
3.0
  0
HATCH
  5
10F
330
10B
100
AcDbEntity
  8
0
  6
Continuous
 62
     0
370
    18
100
AcDbHatch
 10
0.0
 20
0.0
 30
0.0
210
0.0
220
0.0
230
1.0
  2
SOLID
 70
     1
 71
     0
 91
        1
 92
        0
 93
        3
 72
     2
 10
0.0
 20
0.0
 40
3.0
 50
0.0
 51
90.0
 73
     1
 72
     1
 10
0.0
 20
3.0
 11
0.0
 21
0.0
 72
     1
 10
0.0
 20
0.0
 11
3.0
 21
0.0
 97
        0
 75
     0
 76
     1
 98
        1
 10
0.0
 20
0.0
  0
HATCH
  5
110
330
10B
100
AcDbEntity
  8
0
  6
Continuous
 62
     0
370
    18
100
AcDbHatch
 10
0.0
 20
0.0
 30
0.0
210
0.0
220
0.0
230
1.0
  2
SOLID
 70
     1
 71
     0
 91
        1
 92
        0
 93
        3
 72
     2
 10
0.0
 20
0.0
 40
3.0
 50
180.0
 51
270.0000000000008
 73
     1
 72
     1
 10
0.0
 20
-3.0
 11
0.0
 21
0.0
 72
     1
 10
0.0
 20
0.0
 11
-3.0
 21
0.0
 97
        0
 75
     0
 76
     1
 98
        1
 10
0.0
 20
0.0
  0
ENDBLK
  5
10D
330
10B
100
AcDbEntity
  8
0
100
AcDbBlockEnd
  0
ENDSEC
  0
SECTION
  2
ENTITIES
  0
LINE
  5
99
330
1F
100
AcDbEntity
  8
0
  6
Continuous
 62
     4
370
    25
100
AcDbLine
 10
8.50159020665584
 20
4.999999999999991
 30
0.0
 11
-139.5
 21
4.999999999999982
 31
0.0
  0
LINE
  5
9A
330
1F
100
AcDbEntity
  8
0
  6
Continuous
 62
     4
370
    25
100
AcDbLine
 10
-139.5
 20
-5.000000000000018
 30
0.0
 11
8.5015902066558
 21
-5.000000000000009
 31
0.0
  0
LINE
  5
9B
330
1F
100
AcDbEntity
  8
0
  6
Continuous
 62
     4
370
    25
100
AcDbLine
 10
-139.5
 20
4.999999999999973
 30
0.0
 11
-140.0
 21
4.499999999999973
 31
0.0
  0
LINE
  5
9C
330
1F
100
AcDbEntity
  8
0
  6
Continuous
 62
     4
370
    25
100
AcDbLine
 10
-140.0
 20
-4.500000000000009
 30
0.0
 11
-139.5
 21
-5.000000000000008
 31
0.0
  0
LINE
  5
9D
330
1F
100
AcDbEntity
  8
0
  6
Continuous
 62
     1
370
    25
100
AcDbLine
 10
58.06547073088211
 20
-5.000000000000013
 30
0.0
 11
60.0
 21
-5.000000000000013
 31
0.0
  0
LINE
  5
9E
330
1F
100
AcDbEntity
  8
0
  6
Continuous
 62
     1
370
    25
100
AcDbLine
 10
34.72582075079167
 20
4.999999999999996
 30
0.0
 11
30.86004632535934
 21
4.999999999999996
 31
0.0
  0
LINE
  5
9F
330
1F
100
AcDbEntity
  8
0
  6
Continuous
 62
     1
370
    25
100
AcDbLine
 10
44.46269389985835
 20
-5.000000000000013
 30
0.0
 11
48.33034960921845
 21
-5.000000000000013
 31
0.0
  0
LINE
  5
A0
330
1F
100
AcDbEntity
  8
0
  6
Continuous
 62
     1
370
    25
100
AcDbLine
 10
21.1240374137149
 20
4.999999999999996
 30
0.0
 11
17.25488398688752
 21
4.999999999999996
 31
0.0
  0
LINE
  5
A1
330
1F
100
AcDbEntity
  8
0
  6
Continuous
 62
     1
370
    25
100
AcDbLine
 10
17.25488398688758
 20
-5.000000000000013
 30
0.0
 11
21.12403741371492
 21
-5.000000000000013
 31
0.0
  0
LINE
  5
A2
330
1F
100
AcDbEntity
  8
0
  6
Continuous
 62
     1
370
    25
100
AcDbLine
 10
48.33034960921847
 20
4.999999999999996
 30
0.0
 11
44.46269389985841
 21
4.999999999999996
 31
0.0
  0
LINE
  5
A3
330
1F
100
AcDbEntity
  8
0
  6
Continuous
 62
     1
370
    25
100
AcDbLine
 10
30.86004632535935
 20
-5.000000000000013
 30
0.0
 11
34.72582075079163
 21
-5.000000000000013
 31
0.0
  0
LINE
  5
A4
330
1F
100
AcDbEntity
  8
0
  6
Continuous
 62
     1
370
    25
100
AcDbLine
 10
60.0
 20
4.999999999999996
 30
0.0
 11
58.06547073088214
 21
4.999999999999996
 31
0.0
  0
SPLINE
  5
A5
330
1F
100
AcDbEntity
  8
0
  6
Continuous
 62
     4
370
    25
100
AcDbSpline
210
0.0
220
0.0
230
1.0
 70
     8
 71
     3
 72
    14
 73
    10
 74
     0
 42
0.000000001
 43
0.00000001
 40
0.0
 40
0.0
 40
0.0
 40
0.0
 40
0.25
 40
0.25
 40
0.5
 40
0.5
 40
0.75
 40
0.75
 40
1.0
 40
1.0
 40
1.0
 40
1.0
 10
9.004016425262229
 20
-0.8521138215592672
 30
0.0
 10
8.925100552046993
 20
-0.8072369545602256
 30
0.0
 10
8.85418888253278
 20
-0.7527510536005195
 30
0.0
 10
8.72790391557713
 20
-0.6248394888959101
 30
0.0
 10
8.673504874584456
 20
-0.5518009570031999
 30
0.0
 10
8.586790529695376
 20
-0.3949772212238817
 30
0.0
 10
8.553607212677953
 20
-0.3093423457958011
 30
0.0
 10
8.510549607602531
 20
-0.1348847618721935
 30
0.0
 10
8.499999493707039
 20
-0.0443969175460673
 30
0.0
 10
8.499999493707039
 20
0.046616991273266
 30
0.0
  0
SPLINE
  5
A6
330
1F
100
AcDbEntity
  8
0
  6
Continuous
 62
     4
370
    25
100
AcDbSpline
210
0.0
220
0.0
230
1.0
 70
     8
 71
     3
 72
    20
 73
    16
 74
     0
 42
0.000000001
 43
0.00000001
 40
0.0
 40
0.0
 40
0.0
 40
0.0
 40
0.125
 40
0.125
 40
0.25
 40
0.25
 40
0.375
 40
0.375
 40
0.5
 40
0.5
 40
0.625
 40
0.625
 40
0.75
 40
0.75
 40
1.0
 40
1.0
 40
1.0
 40
1.0
 10
8.499999493707042
 20
3.056017633004899
 30
0.0
 10
8.499999493707042
 20
3.126582552474772
 30
0.0
 10
8.50992848506867
 20
3.194368950685864
 30
0.0
 10
8.551144857717048
 20
3.324534081755411
 30
0.0
 10
8.582878880605696
 20
3.386883251546057
 30
0.0
 10
8.665738063923804
 20
3.499230001752228
 30
0.0
 10
8.718086120172945
 20
3.55094185335903
 30
0.0
 10
8.839335562610158
 20
3.64025580308612
 30
0.0
 10
8.907799377982341
 20
3.678018842542325
 30
0.0
 10
9.060191191147688
 20
3.740243667637116
 30
0.0
 10
9.140884579229313
 20
3.763438981356161
 30
0.0
 10
9.31103969458591
 20
3.795415544233259
 30
0.0
 10
9.39975254859219
 20
3.803799683844156
 30
0.0
 10
9.663975253391863
 20
3.805899933904896
 30
0.0
 10
9.841173381300223
 20
3.776813858674513
 30
0.0
 10
9.995853653783746
 20
3.717130732084426
 30
0.0
  0
SPLINE
  5
A7
330
1F
100
AcDbEntity
  8
0
  6
Continuous
 62
     4
370
    25
100
AcDbSpline
210
0.0
220
0.0
230
1.0
 70
     8
 71
     3
 72
    14
 73
    10
 74
     0
 42
0.000000001
 43
0.00000001
 40
0.0
 40
0.0
 40
0.0
 40
0.0
 40
0.25
 40
0.25
 40
0.5
 40
0.5
 40
0.75
 40
0.75
 40
1.0
 40
1.0
 40
1.0
 40
1.0
 10
9.004016425262229
 20
4.926855187144801
 30
0.0
 10
8.925100552046993
 20
4.934616770789057
 30
0.0
 10
8.854188882532776
 20
4.943433555710572
 30
0.0
 10
8.72790391557713
 20
4.961224151511225
 30
0.0
 10
8.673504874584456
 20
4.970082467841264
 30
0.0
 10
8.586790529695376
 20
4.984997194383065
 30
0.0
 10
8.553607212677953
 20
4.991185352207332
 30
0.0
 10
8.510549607602531
 20
4.998942889052262
 30
0.0
 10
8.499999493707039
 20
5.000631276691546
 30
0.0
 10
8.499999493707039
 20
4.999782680889695
 30
0.0
  0
SPLINE
  5
A8
330
1F
100
AcDbEntity
  8
0
  6
Continuous
 62
     4
370
    25
100
AcDbSpline
210
0.0
220
0.0
230
1.0
 70
     8
 71
     3
 72
     8
 73
     4
 74
     0
 42
0.000000001
 43
0.00000001
 40
0.0
 40
0.0
 40
0.0
 40
0.0
 40
1.0
 40
1.0
 40
1.0
 40
1.0
 10
10.0
 20
4.796279735592963
 30
0.0
 10
9.666857379148944
 20
4.850580489170198
 30
0.0
 10
9.33697456794315
 20
4.894107878280768
 30
0.0
 10
9.004016425262229
 20
4.926855187144801
 30
0.0
  0
LINE
  5
A9
330
1F
100
AcDbEntity
  8
0
  6
Continuous
 62
     4
370
    25
100
AcDbLine
 10
10.0
 20
4.796279735592963
 30
0.0
 11
10.0
 21
3.715530465701583
 31
0.0
  0
LINE
  5
AA
330
1F
100
AcDbEntity
  8
0
  6
Continuous
 62
     4
370
    25
100
AcDbLine
 10
9.995853653783746
 20
3.717130732084416
 30
0.0
 11
10.0
 21
3.715530465701572
 31
0.0
  0
SPLINE
  5
AB
330
1F
100
AcDbEntity
  8
0
  6
Continuous
 62
     4
370
    25
100
AcDbSpline
210
0.0
220
0.0
230
1.0
 70
     8
 71
     3
 72
     8
 73
     4
 74
     0
 42
0.000000001
 43
0.00000001
 40
0.0
 40
0.0
 40
0.0
 40
0.0
 40
1.0
 40
1.0
 40
1.0
 40
1.0
 10
10.0
 20
-1.412692711784213
 30
0.0
 10
9.666857379148944
 20
-1.228334427893173
 30
0.0
 10
9.33697456794315
 20
-1.041456189280229
 30
0.0
 10
9.004016425262229
 20
-0.8521138215592673
 30
0.0
  0
LINE
  5
AC
330
1F
100
AcDbEntity
  8
0
  6
Continuous
 62
     4
370
    25
100
AcDbLine
 10
10.0
 20
-1.412692711784213
 30
0.0
 11
10.0
 21
-3.345868102367972
 31
0.0
  0
LINE
  5
AD
330
1F
100
AcDbEntity
  8
0
  6
Continuous
 62
     4
370
    25
100
AcDbLine
 10
9.995853653783746
 20
-3.344090178298653
 30
0.0
 11
10.0
 21
-3.345868102367965
 31
0.0
  0
SPLINE
  5
AE
330
1F
100
AcDbEntity
  8
0
  6
Continuous
 62
     4
370
    25
100
AcDbSpline
210
0.0
220
0.0
230
1.0
 70
     8
 71
     3
 72
    20
 73
    16
 74
     0
 42
0.000000001
 43
0.00000001
 40
0.0
 40
0.0
 40
0.0
 40
0.0
 40
0.125
 40
0.125
 40
0.25
 40
0.25
 40
0.375
 40
0.375
 40
0.5
 40
0.5
 40
0.625
 40
0.625
 40
0.75
 40
0.75
 40
1.0
 40
1.0
 40
1.0
 40
1.0
 10
8.499999493707042
 20
-3.957367335333331
 30
0.0
 10
8.499999493707042
 20
-3.902874633519655
 30
0.0
 10
8.50992848506867
 20
-3.847515173693715
 30
0.0
 10
8.551144857717048
 20
-3.735617638912739
 30
0.0
 10
8.582878880605696
 20
-3.678997541192695
 30
0.0
 10
8.665738063923804
 20
-3.572308841987516
 30
0.0
 10
8.718086120172945
 20
-3.520645106485045
 30
0.0
 10
8.839335562610158
 20
-3.428216402132716
 30
0.0
 10
8.907799377982341
 20
-3.387378031768702
 30
0.0
 10
9.060191191147684
 20
-3.318543331479346
 30
0.0
 10
9.140884579229313
 20
-3.291978645249679
 30
0.0
 10
9.31103969458591
 20
-3.255060247332386
 30
0.0
 10
9.39975254859219
 20
-3.24516704181363
 30
0.0
 10
9.663975253391863
 20
-3.242704172361055
 30
0.0
 10
9.841173381300223
 20
-3.277749268751849
 30
0.0
 10
9.995853653783746
 20
-3.344090178298661
 30
0.0
  0
LINE
  5
AF
330
1F
100
AcDbEntity
  8
0
  6
Continuous
 62
     4
370
    25
100
AcDbLine
 10
8.499999493707042
 20
-3.957367335333331
 30
0.0
 11
8.499999493707039
 21
-4.999782680889712
 31
0.0
  0
SPLINE
  5
B0
330
1F
100
AcDbEntity
  8
0
  6
Continuous
 62
     4
370
    25
100
AcDbSpline
210
0.0
220
0.0
230
1.0
 70
     8
 71
     3
 72
    14
 73
    10
 74
     0
 42
0.000000001
 43
0.00000001
 40
0.0
 40
0.0
 40
0.0
 40
0.0
 40
0.25
 40
0.25
 40
0.5
 40
0.5
 40
0.75
 40
0.75
 40
1.0
 40
1.0
 40
1.0
 40
1.0
 10
9.004016425262229
 20
-4.926855187144824
 30
0.0
 10
8.925100552046993
 20
-4.934616770789081
 30
0.0
 10
8.854188882532776
 20
-4.943433555710597
 30
0.0
 10
8.72790391557713
 20
-4.961224151511248
 30
0.0
 10
8.673504874584456
 20
-4.970082467841287
 30
0.0
 10
8.58679052969538
 20
-4.984997194383087
 30
0.0
 10
8.553607212677953
 20
-4.991185352207353
 30
0.0
 10
8.510549607602531
 20
-4.99894288905228
 30
0.0
 10
8.499999493707039
 20
-5.000631276691563
 30
0.0
 10
8.499999493707039
 20
-4.999782680889712
 30
0.0
  0
SPLINE
  5
B1
330
1F
100
AcDbEntity
  8
0
  6
Continuous
 62
     4
370
    25
100
AcDbSpline
210
0.0
220
0.0
230
1.0
 70
     8
 71
     3
 72
     8
 73
     4
 74
     0
 42
0.000000001
 43
0.00000001
 40
0.0
 40
0.0
 40
0.0
 40
0.0
 40
1.0
 40
1.0
 40
1.0
 40
1.0
 10
10.0
 20
-4.79627973559299
 30
0.0
 10
9.666857379148944
 20
-4.850580489170225
 30
0.0
 10
9.33697456794315
 20
-4.894107878280794
 30
0.0
 10
9.004016425262229
 20
-4.926855187144825
 30
0.0
  0
LINE
  5
B2
330
1F
100
AcDbEntity
  8
0
  6
Continuous
 62
     4
370
    25
100
AcDbLine
 10
-139.5
 20
4.999999999999973
 30
0.0
 11
-139.5
 21
-5.000000000000008
 31
0.0
  0
LINE
  5
B3
330
1F
100
AcDbEntity
  8
0
  6
Continuous
 62
     4
370
    25
100
AcDbLine
 10
8.499999493707042
 20
3.056017633004899
 30
0.0
 11
8.499999493707039
 21
0.046616991273266
 31
0.0
  0
LINE
  5
B4
330
1F
100
AcDbEntity
  8
0
  6
Continuous
 62
     4
370
    25
100
AcDbLine
 10
-140.0
 20
4.499999999999972
 30
0.0
 11
-140.0
 21
-4.500000000000009
 31
0.0
  0
SPLINE
  5
B5
330
1F
100
AcDbEntity
  8
0
  6
Continuous
 62
     4
370
    25
100
AcDbSpline
210
0.0
220
0.0
230
1.0
 70
    24
 71
     3
 72
    24
 73
    20
 74
     0
 42
0.000000001
 43
0.00000001
 40
0.0
 40
0.0
 40
0.0
 40
0.0
 40
0.0624999999999999
 40
0.0624999999999999
 40
0.1249999999999998
 40
0.1249999999999998
 40
0.2499999999999999
 40
0.2499999999999999
 40
0.3749999999999999
 40
0.3749999999999999
 40
0.4999999999999999
 40
0.4999999999999999
 40
0.6249999999999999
 40
0.6249999999999999
 40
0.7499999999999999
 40
0.7499999999999999
 40
0.8749999999999999
 40
0.8749999999999999
 40
1.0
 40
1.0
 40
1.0
 40
1.0
 10
10.0
 20
3.715530465701598
 30
0.0
 10
10.0
 20
3.642435424224382
 30
0.0
 10
10.0
 20
3.570050782818884
 30
0.0
 10
10.0
 20
3.427430251174245
 30
0.0
 10
10.0
 20
3.354139651724984
 30
0.0
 10
10.0
 20
3.119356353955915
 30
0.0
 10
10.0
 20
2.946262872476723
 30
0.0
 10
10.0
 20
2.564216508077589
 30
0.0
 10
10.0
 20
2.355153150754087
 30
0.0
 10
10.00000000000001
 20
1.902908491655404
 30
0.0
 10
10.00000000000001
 20
1.659603754053826
 30
0.0
 10
10.00000000000001
 20
1.148880104661067
 30
0.0
 10
10.00000000000001
 20
0.8814108131339071
 30
0.0
 10
10.00000000000001
 20
0.3436332007422228
 30
0.0
 10
10.00000000000001
 20
0.0734743210920925
 30
0.0
 10
10.00000000000001
 20
-0.4381439198638792
 30
0.0
 10
10.00000000000001
 20
-0.6792197846938591
 30
0.0
 10
10.00000000000001
 20
-1.09893644922783
 30
0.0
 10
10.00000000000001
 20
-1.277165012235944
 30
0.0
 10
10.00000000000001
 20
-1.412692711784217
 30
0.0
  0
SPLINE
  5
B6
330
1F
100
AcDbEntity
  8
0
  6
Continuous
 62
     4
370
    25
100
AcDbSpline
210
0.0
220
0.0
230
1.0
 70
    24
 71
     3
 72
    11
 73
     7
 74
     0
 42
0.000000001
 43
0.00000001
 40
0.0
 40
0.0
 40
0.0
 40
0.0
 40
0.2810130024999681
 40
0.6222777123120762
 40
0.9734391218276452
 40
1.0
 40
1.0
 40
1.0
 40
1.0
 10
10.0
 20
-3.482732006221632
 30
0.0
 10
10.0
 20
-3.582354940569277
 30
0.0
 10
10.0
 20
-3.802960859612739
 30
0.0
 10
10.0
 20
-4.235253366705172
 30
0.0
 10
9.999999999999993
 20
-4.588009970969153
 30
0.0
 10
10.0
 20
-4.782596682940063
 30
0.0
 10
10.0
 20
-4.79627973559299
 30
0.0
  0
SPLINE
  5
B7
330
1F
100
AcDbEntity
  8
0
  6
Continuous
 62
     1
370
    25
100
AcDbSpline
210
0.0
220
0.0
230
1.0
 70
     8
 71
     3
 72
    21
 73
    17
 74
     0
 42
0.000000001
 43
0.00000001
 40
0.0
 40
0.0
 40
0.0
 40
0.0
 40
0.0167701367223885
 40
0.0969895749130776
 40
0.1772734921941292
 40
0.2575878364402228
 40
0.3378121064570608
 40
0.418088280069789
 40
0.4984049428266756
 40
0.5786356426348788
 40
0.6589033061552183
 40
0.7362266060146279
 40
0.8135062007436337
 40
0.8907399196528581
 40
0.9680496978964974
 40
1.0
 40
1.0
 40
1.0
 40
1.0
 10
25.98817034551228
 20
4.199975121114211
 30
0.0
 10
26.16751015672328
 20
4.264299160535956
 30
0.0
 10
27.20471649214476
 20
4.636315283211818
 30
0.0
 10
29.09964386700092
 20
4.950776608936579
 30
0.0
 10
31.6748231793355
 20
5.056796845772644
 30
0.0
 10
34.25037060712722
 20
4.689038894647944
 30
0.0
 10
36.82472844590459
 20
3.917182936179316
 30
0.0
 10
39.39976102366012
 20
2.79975455519227
 30
0.0
 10
41.97536390471433
 20
1.438084567151352
 30
0.0
 10
44.54977488651359
 20
-0.0515038344110091
 30
0.0
 10
47.09277763431867
 20
-1.517748866173321
 30
0.0
 10
49.60434238547773
 20
-2.834254349079463
 30
0.0
 10
52.08316625304385
 20
-3.910427549267536
 30
0.0
 10
54.56124370014464
 20
-4.644175302649407
 30
0.0
 10
56.55553058831659
 20
-5.003623232838785
 30
0.0
 10
57.72383123613719
 20
-4.962448627139177
 30
0.0
 10
58.06547073088211
 20
-4.950408172044185
 30
0.0
  0
SPLINE
  5
B8
330
1F
100
AcDbEntity
  8
0
  6
Continuous
 62
     1
370
    25
100
AcDbSpline
210
0.0
220
0.0
230
1.0
 70
     8
 71
     3
 72
    17
 73
    13
 74
     0
 42
0.000000001
 43
0.00000001
 40
0.0
 40
0.0
 40
0.0
 40
0.0
 40
0.1018510646133511
 40
0.2037917755288537
 40
0.3056555815130242
 40
0.4074944329539829
 40
0.5094341627850903
 40
0.6113097408529815
 40
0.7131384046421172
 40
0.8150761724552829
 40
0.9169625515175408
 40
1.0
 40
1.0
 40
1.0
 40
1.0
 10
60.0
 20
-4.875828491775115
 30
0.0
 10
59.14202814052885
 20
-4.724257983770019
 30
0.0
 10
57.42532926006869
 20
-4.420983559870476
 30
0.0
 10
54.84968911242824
 20
-3.464244804043925
 30
0.0
 10
52.27488681185918
 20
-2.233562580732131
 30
0.0
 10
49.70034260279365
 20
-0.7981237574828234
 30
0.0
 10
47.1247204632039
 20
0.7037958700361061
 30
0.0
 10
44.54979591993945
 20
2.144665545901403
 30
0.0
 10
41.97536112337836
 20
3.401094996194229
 30
0.0
 10
39.39975108173289
 20
4.345079165986417
 30
0.0
 10
36.98301351616728
 20
4.918404130310168
 30
0.0
 10
35.42529319229046
 20
4.951870902219835
 30
0.0
 10
34.72582075079168
 20
4.966898686282174
 30
0.0
  0
SPLINE
  5
B9
330
1F
100
AcDbEntity
  8
0
  6
Continuous
 62
     1
370
    25
100
AcDbSpline
210
0.0
220
0.0
230
1.0
 70
     8
 71
     3
 72
     9
 73
     5
 74
     0
 42
0.000000001
 43
0.00000001
 40
0.0
 40
0.0
 40
0.0
 40
0.0
 40
0.0473651909654717
 40
1.0
 40
1.0
 40
1.0
 40
1.0
 10
12.3886795673583
 20
-4.223905903259586
 30
0.0
 10
12.35096548099341
 20
-4.237677159149709
 30
0.0
 10
11.55472491706564
 20
-4.528423498590453
 30
0.0
 10
10.7585059262588
 20
-4.665600320268992
 30
0.0
 10
10.00000000000185
 20
-4.79627973559269
 30
0.0
  0
LINE
  5
BA
330
1F
100
AcDbEntity
  8
0
  6
Continuous
 62
     1
370
    25
100
AcDbLine
 10
60.0
 20
-5.000000000000019
 30
0.0
 11
60.0
 21
-4.875828491776321
 31
0.0
  0
SPLINE
  5
BB
330
1F
100
AcDbEntity
  8
0
  6
Continuous
 62
     1
370
    25
100
AcDbSpline
210
0.0
220
0.0
230
1.0
 70
     8
 71
     3
 72
    20
 73
    16
 74
     0
 42
0.000000001
 43
0.00000001
 40
0.0
 40
0.0
 40
0.0
 40
0.0
 40
0.0674313719431082
 40
0.1383779420729631
 40
0.2092930132951727
 40
0.2801873505209315
 40
0.3604839026923202
 40
0.4408008164132876
 40
0.5210259084010491
 40
0.601315484023604
 40
0.6816354887556673
 40
0.7618654129101206
 40
0.842147244318585
 40
0.9224695677248478
 40
1.0
 40
1.0
 40
1.0
 40
1.0
 10
12.38867956735825
 20
4.223905903259572
 30
0.0
 10
13.10956433438536
 20
4.423032796993629
 30
0.0
 10
14.58891359954822
 20
4.831667071698113
 30
0.0
 10
16.82631250291651
 20
5.047608744882662
 30
0.0
 10
19.10056559396815
 20
4.944571240697083
 30
0.0
 10
21.47427936016204
 20
4.476288071715262
 30
0.0
 10
23.94990131821774
 20
3.632098089360381
 30
0.0
 10
26.5253779755846
 20
2.435230607380031
 30
0.0
 10
29.09967853952214
 20
1.023110605306862
 30
0.0
 10
31.67481376710908
 20
-0.4777612151796469
 30
0.0
 10
34.25037355305342
 20
-1.935488320911823
 30
0.0
 10
36.82472606563995
 20
-3.227499385891127
 30
0.0
 10
39.39976760503234
 20
-4.225999766503793
 30
0.0
 10
41.94640255936314
 20
-4.880324599234966
 30
0.0
 10
43.63387873658164
 20
-4.955785249221567
 30
0.0
 10
44.46269389985835
 20
-4.992848250041348
 30
0.0
  0
SPLINE
  5
BC
330
1F
100
AcDbEntity
  8
0
  6
Continuous
 62
     1
370
    25
100
AcDbSpline
210
0.0
220
0.0
230
1.0
 70
     8
 71
     3
 72
    21
 73
    17
 74
     0
 42
0.000000001
 43
0.00000001
 40
0.0
 40
0.0
 40
0.0
 40
0.0
 40
0.028831952677114
 40
0.1090773775134483
 40
0.1894022909649795
 40
0.2696766550886221
 40
0.3499140524144625
 40
0.4302374198650221
 40
0.510520294791461
 40
0.5907512617891885
 40
0.6710723105354098
 40
0.7513629297765995
 40
0.8315890645448262
 40
0.911907022239774
 40
0.9922046181204801
 40
1.0
 40
1.0
 40
1.0
 40
1.0
 10
53.1994825406677
 20
-4.188108514343979
 30
0.0
 10
52.89122289153639
 20
-4.294158873062922
 30
0.0
 10
51.72501141439459
 20
-4.695369819229773
 30
0.0
 10
49.7003619004949
 20
-4.995737696464756
 30
0.0
 10
47.12471508471094
 20
-5.029221684911453
 30
0.0
 10
44.54979813944178
 20
-4.597412853240535
 30
0.0
 10
41.97535761921789
 20
-3.76789023756855
 30
0.0
 10
39.39976288914898
 20
-2.607158934392515
 30
0.0
 10
36.82472727000469
 20
-1.217581526576967
 30
0.0
 10
34.25037344651577
 20
0.2799323684962106
 30
0.0
 10
31.67481298666409
 20
1.751754928582987
 30
0.0
 10
29.09968176504143
 20
3.067739360488078
 30
0.0
 10
26.52536585822397
 20
4.125972047753361
 30
0.0
 10
23.94994661751383
 20
4.781206911043361
 30
0.0
 10
22.14892277189844
 20
5.049967672101213
 30
0.0
 10
21.20735694050403
 20
4.988623325956911
 30
0.0
 10
21.1240374137149
 20
4.983194940897139
 30
0.0
  0
SPLINE
  5
BD
330
1F
100
AcDbEntity
  8
0
  6
Continuous
 62
     1
370
    25
100
AcDbSpline
210
0.0
220
0.0
230
1.0
 70
     8
 71
     3
 72
    20
 73
    16
 74
     0
 42
0.000000001
 43
0.00000001
 40
0.0
 40
0.0
 40
0.0
 40
0.0
 40
0.0066654162185836
 40
0.0936655294050898
 40
0.1806093915458118
 40
0.2676508725413915
 40
0.3546593780065808
 40
0.4415980036069586
 40
0.5286361349241554
 40
0.6156522007616925
 40
0.692479239391905
 40
0.7693287471163872
 40
0.8462123896940773
 40
0.923109671571717
 40
1.0
 40
1.0
 40
1.0
 40
1.0
 10
39.59672219226378
 20
-4.217615940824651
 30
0.0
 10
39.53095187882508
 20
-4.241934445973211
 30
0.0
 10
38.60671683852876
 20
-4.583669393106692
 30
0.0
 10
36.82472359720905
 20
-4.902250888341803
 30
0.0
 10
34.25037421522757
 20
-5.072868392923421
 30
0.0
 10
31.67481358927473
 20
-4.760654753253548
 30
0.0
 10
29.09967858858154
 20
-4.041019970493963
 30
0.0
 10
26.52537795697772
 20
-2.962883431930156
 30
0.0
 10
23.94990134356856
 20
-1.627021610636317
 30
0.0
 10
21.47427928162085
 20
-0.2048509213791429
 30
0.0
 10
19.10056584679282
 20
1.170789002257527
 30
0.0
 10
16.82631155565531
 20
2.409540318876997
 30
0.0
 10
14.5512041702205
 20
3.476692488653002
 30
0.0
 10
12.27559139637346
 20
4.329047453737994
 30
0.0
 10
10.75850760066667
 20
4.640540336319219
 30
0.0
 10
10.00000000000185
 20
4.796279735592663
 30
0.0
  0
SPLINE
  5
BE
330
1F
100
AcDbEntity
  8
0
  6
Continuous
 62
     4
370
    25
100
AcDbSpline
210
0.0
220
0.0
230
1.0
 70
    24
 71
     3
 72
    11
 73
     7
 74
     0
 42
0.000000001
 43
0.00000001
 40
0.0
 40
0.0
 40
0.0
 40
0.0
 40
0.2810130024950321
 40
0.6222777123011489
 40
0.9734391218105517
 40
1.0
 40
1.0
 40
1.0
 40
1.0
 10
10.0
 20
-3.482732006221632
 30
0.0
 10
10.0
 20
-3.582354940569274
 30
0.0
 10
10.0
 20
-3.802960859612732
 30
0.0
 10
10.0
 20
-4.235253366705208
 30
0.0
 10
9.999999999999996
 20
-4.588009970977689
 30
0.0
 10
10.0
 20
-4.782596682958168
 30
0.0
 10
10.0
 20
-4.79627973562018
 30
0.0
  0
SPLINE
  5
BF
330
1F
100
AcDbEntity
  8
0
  6
Continuous
 62
     1
370
    25
100
AcDbSpline
210
0.0
220
0.0
230
1.0
 70
     8
 71
     3
 72
    11
 73
     7
 74
     0
 42
0.000000001
 43
0.00000001
 40
0.0
 40
0.0
 40
0.0
 40
0.0
 40
0.3136540309659097
 40
0.6273364267140297
 40
0.9409631844970613
 40
1.0
 40
1.0
 40
1.0
 40
1.0
 10
10.0
 20
-3.345868102367965
 30
0.0
 10
10.7585088774669
 20
-3.6504644225031
 30
0.0
 10
12.27559522689331
 20
-4.259684608436523
 30
0.0
 10
14.5511888476499
 20
-4.791249049159282
 30
0.0
 10
16.21101692335834
 20
-5.034031941285714
 30
0.0
 10
17.1121308441071
 20
-4.981968818272638
 30
0.0
 10
17.25488398688758
 20
-4.973721054852329
 30
0.0
  0
SPLINE
  5
C0
330
1F
100
AcDbEntity
  8
0
  6
Continuous
 62
     1
370
    25
100
AcDbSpline
210
0.0
220
0.0
230
1.0
 70
     8
 71
     3
 72
    15
 73
    11
 74
     0
 42
0.000000001
 43
0.00000001
 40
0.0
 40
0.0
 40
0.0
 40
0.0
 40
0.1194060598277483
 40
0.2485755026379088
 40
0.3778044561105998
 40
0.5022930568950804
 40
0.6267112935003166
 40
0.7510556711700859
 40
0.8755225024875282
 40
1.0
 40
1.0
 40
1.0
 40
1.0
 10
39.59672219226384
 20
4.217615940824634
 30
0.0
 10
40.38989578857477
 20
4.436172257747748
 30
0.0
 10
42.0410977934523
 20
4.891155416996321
 30
0.0
 10
44.54977906315013
 20
5.068553186477137
 30
0.0
 10
47.09277649684714
 20
4.840485752035732
 30
0.0
 10
49.60434291240569
 20
4.201187383019761
 30
0.0
 10
52.08316526215651
 20
3.229966236289196
 30
0.0
 10
54.56124713648902
 20
1.995768491179836
 30
0.0
 10
57.04064397955433
 20
0.5956114878757355
 30
0.0
 10
58.69402976081457
 20
-0.3584950848077161
 30
0.0
 10
59.52075807168358
 20
-0.8355688108333484
 30
0.0
  0
SPLINE
  5
C1
330
1F
100
AcDbEntity
  8
0
  6
Continuous
 62
     1
370
    25
100
AcDbSpline
210
0.0
220
0.0
230
1.0
 70
     8
 71
     3
 72
     8
 73
     4
 74
     0
 42
0.000000001
 43
0.00000001
 40
0.0
 40
0.0
 40
0.0
 40
0.0
 40
1.0
 40
1.0
 40
1.0
 40
1.0
 10
60.0
 20
-3.778128546404891
 30
0.0
 10
59.18469570654708
 20
-3.319047671130703
 30
0.0
 10
58.41618671949519
 20
-2.755421905771481
 30
0.0
 10
57.67680798191738
 20
-2.126716563770116
 30
0.0
  0
LINE
  5
C2
330
1F
100
AcDbEntity
  8
0
  6
Continuous
 62
     1
370
    25
100
AcDbLine
 10
60.0
 20
-4.875828491776321
 30
0.0
 11
60.0
 21
-3.778128546404892
 31
0.0
  0
SPLINE
  5
C3
330
1F
100
AcDbEntity
  8
0
  6
Continuous
 62
     1
370
    25
100
AcDbSpline
210
0.0
220
0.0
230
1.0
 70
    24
 71
     3
 72
    15
 73
    11
 74
     0
 42
0.000000001
 43
0.00000001
 40
0.0
 40
0.0
 40
0.0
 40
0.0
 40
0.036625264192684
 40
0.1700357148825279
 40
0.3070758084102123
 40
0.4406009923960718
 40
0.5784270586218531
 40
0.7059719758667388
 40
0.836616273081185
 40
1.0
 40
1.0
 40
1.0
 40
1.0
 10
59.39876765612118
 20
-0.9209874193994694
 30
0.0
 10
59.392421313196
 20
-0.9254311765557457
 30
0.0
 10
59.36295790917804
 20
-0.9460616741504286
 30
0.0
 10
59.25260046530511
 20
-1.023334788247769
 30
0.0
 10
59.08208931896711
 20
-1.142727978262464
 30
0.0
 10
58.86116578495346
 20
-1.297420302146753
 30
0.0
 10
58.61100858274555
 20
-1.472582260870172
 30
0.0
 10
58.33648686276916
 20
-1.664804438599953
 30
0.0
 10
58.02650789638053
 20
-1.881854047551614
 30
0.0
 10
57.80171792399269
 20
-2.039253680731927
 30
0.0
 10
57.67680798191841
 20
-2.126716563769901
 30
0.0
  0
SPLINE
  5
C4
330
1F
100
AcDbEntity
  8
0
  6
Continuous
 62
     1
370
    25
100
AcDbSpline
210
0.0
220
0.0
230
1.0
 70
     8
 71
     3
 72
    12
 73
     8
 74
     0
 42
0.000000001
 43
0.00000001
 40
0.0
 40
0.0
 40
0.0
 40
0.0
 40
0.2205903309164954
 40
0.4413748189341669
 40
0.6619927452736067
 40
0.8825566247460271
 40
1.0
 40
1.0
 40
1.0
 40
1.0
 10
60.00000000000001
 20
1.107382733648236
 30
0.0
 10
59.14202803247276
 20
1.580827477024928
 30
0.0
 10
57.42532893580524
 20
2.528133675873348
 30
0.0
 10
54.84969041040587
 20
3.705192408369235
 30
0.0
 10
52.27488194918881
 20
4.543637972041828
 30
0.0
 10
50.10226833511472
 20
4.980834368600735
 30
0.0
 10
48.78725997918315
 20
4.954275952235599
 30
0.0
 10
48.33034960921847
 20
4.945048014030997
 30
0.0
  0
SPLINE
  5
C5
330
1F
100
AcDbEntity
  8
0
  6
Continuous
 62
     1
370
    25
100
AcDbSpline
210
0.0
220
0.0
230
1.0
 70
     8
 71
     3
 72
    14
 73
    10
 74
     0
 42
0.000000001
 43
0.00000001
 40
0.0
 40
0.0
 40
0.0
 40
0.0
 40
0.1274710483058544
 40
0.2885441434900992
 40
0.4307566049120177
 40
0.5730106582690021
 40
0.7153278977331374
 40
0.8576703845379546
 40
1.0
 40
1.0
 40
1.0
 40
1.0
 10
25.98817034551228
 20
-4.199975121114228
 30
0.0
 10
25.30868763989647
 20
-4.399022395347303
 30
0.0
 10
23.7706069704897
 20
-4.84958686485582
 30
0.0
 10
21.47426667012083
 20
-5.055390377236202
 30
0.0
 10
19.10056904759169
 20
-4.92189456654939
 30
0.0
 10
16.82631069777331
 20
-4.447448293829855
 30
0.0
 10
14.55120439907795
 20
-3.668620613243109
 30
0.0
 10
12.2755913391609
 20
-2.644353947053478
 30
0.0
 10
10.75850758159639
 20
-1.823234081331979
 30
0.0
 10
10.00000000000185
 20
-1.412692711785238
 30
0.0
  0
SPLINE
  5
C6
330
1F
100
AcDbEntity
  8
0
  6
Continuous
 62
     4
370
    25
100
AcDbSpline
210
0.0
220
0.0
230
1.0
 70
    24
 71
     3
 72
    24
 73
    20
 74
     0
 42
0.000000001
 43
0.00000001
 40
0.0
 40
0.0
 40
0.0
 40
0.0
 40
0.0625000000000001
 40
0.0625000000000001
 40
0.1250000000000003
 40
0.1250000000000003
 40
0.2500000000000002
 40
0.2500000000000002
 40
0.3750000000000002
 40
0.3750000000000002
 40
0.5000000000000002
 40
0.5000000000000002
 40
0.6250000000000001
 40
0.6250000000000001
 40
0.75
 40
0.75
 40
0.875
 40
0.875
 40
1.0
 40
1.0
 40
1.0
 40
1.0
 10
10.0
 20
3.715530465701599
 30
0.0
 10
10.0
 20
3.642435424224102
 30
0.0
 10
10.0
 20
3.570050782818333
 30
0.0
 10
10.0
 20
3.427430251173159
 30
0.0
 10
10.0
 20
3.354139651723549
 30
0.0
 10
10.0
 20
3.119356353953392
 30
0.0
 10
10.0
 20
2.946262872473337
 30
0.0
 10
10.0
 20
2.564216508072194
 30
0.0
 10
10.0
 20
2.355153150747543
 30
0.0
 10
10.0
 20
1.902908491646356
 30
0.0
 10
10.00000000000001
 20
1.659603754043421
 30
0.0
 10
10.00000000000001
 20
1.148880104647992
 30
0.0
 10
10.00000000000001
 20
0.8814108131195202
 30
0.0
 10
10.00000000000001
 20
0.3436332007257028
 30
0.0
 10
10.00000000000001
 20
0.0734743210747578
 30
0.0
 10
10.00000000000001
 20
-0.4381439198818312
 30
0.0
 10
10.00000000000001
 20
-0.6792197847116019
 30
0.0
 10
10.00000000000001
 20
-1.098936449243857
 30
0.0
 10
10.00000000000001
 20
-1.277165012250461
 30
0.0
 10
10.00000000000001
 20
-1.41269271179668
 30
0.0
  0
SPLINE
  5
C7
330
1F
100
AcDbEntity
  8
0
  6
Continuous
 62
     1
370
    25
100
AcDbSpline
210
0.0
220
0.0
230
1.0
 70
     8
 71
     3
 72
    16
 73
    12
 74
     0
 42
0.000000001
 43
0.00000001
 40
0.0
 40
0.0
 40
0.0
 40
0.0
 40
0.1090903168244684
 40
0.2181904990508526
 40
0.3272713301366814
 40
0.4363037314391119
 40
0.5453042540818631
 40
0.6687607457508794
 40
0.7922485434399916
 40
0.9155951645936984
 40
1.0
 40
1.0
 40
1.0
 40
1.0
 10
10.0
 20
3.715530465701572
 30
0.0
 10
10.75850760187023
 20
3.397732068515133
 30
0.0
 10
12.27559139998796
 20
2.762106534571156
 30
0.0
 10
14.55120415575495
 20
1.550983674938478
 30
0.0
 10
16.82631160987508
 20
0.2519254928471602
 30
0.0
 10
19.10056564449306
 20
-1.06956234836537
 30
0.0
 10
21.47428007870256
 20
-2.370543189590035
 30
0.0
 10
23.94989792596264
 20
-3.546251422667463
 30
0.0
 10
26.52539065647527
 20
-4.441283433176713
 30
0.0
 10
28.8282131459186
 20
-4.948877405439138
 30
0.0
 10
30.27304358128175
 20
-4.951328585753584
 30
0.0
 10
30.86004632535935
 20
-4.952324446261219
 30
0.0
  0
SPLINE
  5
C8
330
1F
100
AcDbEntity
  8
0
  6
Continuous
 62
     1
370
    25
100
AcDbSpline
210
0.0
220
0.0
230
1.0
 70
     8
 71
     3
 72
    10
 73
     6
 74
     0
 42
0.000000001
 43
0.00000001
 40
0.0
 40
0.0
 40
0.0
 40
0.0
 40
0.2153559059737382
 40
0.6076611436725634
 40
0.9999999999999999
 40
0.9999999999999999
 40
0.9999999999999999
 40
0.9999999999999999
 10
53.1994825406677
 20
4.188108514343966
 30
0.0
 10
53.65316737802911
 20
4.333771309488889
 30
0.0
 10
54.93331173205282
 20
4.744782190700106
 30
0.0
 10
57.0406474054175
 20
5.04203949798079
 30
0.0
 10
58.69403090280155
 20
4.967139635643884
 30
0.0
 10
59.52075807168358
 20
4.929688099906764
 30
0.0
  0
SPLINE
  5
C9
330
1F
100
AcDbEntity
  8
0
  6
Continuous
 62
     1
370
    25
100
AcDbSpline
210
0.0
220
0.0
230
1.0
 70
     8
 71
     3
 72
    18
 73
    14
 74
     0
 42
0.000000001
 43
0.00000001
 40
0.0
 40
0.0
 40
0.0
 40
0.0
 40
0.249999999999999
 40
0.249999999999999
 40
0.3749999999999985
 40
0.3749999999999985
 40
0.499999999999998
 40
0.499999999999998
 40
0.6249999999999976
 40
0.6249999999999976
 40
0.749999999999997
 40
0.749999999999997
 40
1.0
 40
1.0
 40
1.0
 40
1.0
 10
59.52075807168355
 20
4.929688099906772
 30
0.0
 10
59.52699347436377
 20
4.606851837981957
 30
0.0
 10
59.49969480875364
 20
4.290337705371864
 30
0.0
 10
59.39005607498704
 20
3.828516671281816
 30
0.0
 10
59.34125743286381
 20
3.676235446349217
 30
0.0
 10
59.22075046690127
 20
3.391480187959258
 30
0.0
 10
59.14856080958641
 20
3.256893544584266
 30
0.0
 10
58.97862368036402
 20
3.007383037770178
 30
0.0
 10
58.88382477663745
 20
2.896667102584315
 30
0.0
 10
58.67533102073349
 20
2.702221710530222
 30
0.0
 10
58.56025913724947
 20
2.617982717210614
 30
0.0
 10
58.20199878948118
 20
2.415034884755319
 30
0.0
 10
57.93943782007102
 20
2.34173495581178
 30
0.0
 10
57.67680798191738
 20
2.323192018082632
 30
0.0
  0
LINE
  5
CA
330
1F
100
AcDbEntity
  8
0
  6
Continuous
 62
     1
370
    25
100
AcDbLine
 10
60.0
 20
1.111790367088016
 30
0.0
 11
60.0
 21
1.19314121498969
 31
0.0
  0
LINE
  5
CB
330
1F
100
AcDbEntity
  8
0
  6
Continuous
 62
     1
370
    25
100
AcDbLine
 10
60.0
 20
-0.5000000000000232
 30
0.0
 11
60.0
 21
1.107382733648331
 31
0.0
  0
LINE
  5
CC
330
1F
100
AcDbEntity
  8
0
  6
Continuous
 62
     1
370
    25
100
AcDbLine
 10
60.00000000000001
 20
-0.500000000000026
 30
0.0
 11
59.52075807168358
 21
-0.8355688108333491
 31
0.0
  0
LINE
  5
CD
330
1F
100
AcDbEntity
  8
0
  6
Continuous
 62
     1
370
    25
100
AcDbLine
 10
60.0
 20
4.974937185533101
 30
0.0
 11
60.0
 21
5.000000000000001
 31
0.0
  0
ELLIPSE
  5
CE
330
1F
100
AcDbEntity
  8
0
  6
Continuous
 62
     1
370
    25
100
AcDbEllipse
 10
60.71407400337106
 20
-0.000000000000009
 30
0.0
 11
7.14074003371055
 21
0.0
 31
0.0
210
0.0
220
0.0
230
1.0
 40
0.7002075382097126
 41
1.670963747956457
 42
1.738697861005222
  0
LINE
  5
CF
330
1F
100
AcDbEntity
  8
0
  6
Continuous
 62
     1
370
    25
100
AcDbLine
 10
60.0
 20
1.19314121498969
 30
0.0
 11
60.0
 21
4.974937185533101
 31
0.0
  0
LINE
  5
D0
330
1F
100
AcDbEntity
  8
0
  6
Continuous
 62
     1
370
    25
100
AcDbLine
 10
60.0
 20
-0.5000000000000059
 30
0.0
 11
60.0
 21
-3.778128546404889
 31
0.0
  0
LINE
  5
D1
330
1F
100
AcDbEntity
  8
중심선
100
AcDbLine
 10
-143.0
 20
-0.0000000000000142
 30
0.0
 11
63.00000000000001
 21
0.0000000000000049
 31
0.0
  0
CIRCLE
  5
D2
330
1F
100
AcDbEntity
  8
해칭선
100
AcDbCircle
 10
0.0001731768904684
 20
-0.0000000000000043
 30
0.0
 40
3.0
  0
INSERT
  5
D3
330
1F
100
AcDbEntity
  8
0
  6
Continuous
 62
     7
100
AcDbBlockReference
 66
     1
  2
블럭10
 10
-52.44009924894177
 20
-52.04717430164393
 30
0.0
  0
ATTRIB
  5
D4
330
D3
100
AcDbEntity
  8
FORMAT
 62
     2
100
AcDbText
 10
-73.2983467805343
 20
-49.97180738881174
 30
0.0
 40
4.233333333333333
  1
SEME7210050200E [ 4 FLUTE ]
 41
0.75
  7
SLDTEXTSTYLE0
 11
-73.2983467805343
 21
-52.08847405547841
 31
0.0
100
AcDbAttribute
  2
AUTOATTR0
 70
     0
 74
     1
  0
SEQEND
  5
D5
330
D3
100
AcDbEntity
  8
0
  6
Continuous
 62
     7
  0
HATCH
  5
D6
330
1F
100
AcDbEntity
  8
중심선
100
AcDbHatch
 10
0.0
 20
0.0
 30
0.0
210
0.0
220
0.0
230
1.0
  2
SOLID
 70
     1
 71
     0
 91
        1
 92
        0
 93
        4
 72
     1
 10
-46.72518994456093
 20
-35.8
 11
-50.17146518839822
 21
-35.8
 72
     1
 10
-50.17146518839822
 20
-35.8
 11
-52.29969504760223
 21
-38.33632558057259
 72
     1
 10
-52.29969504760223
 20
-38.33632558057259
 11
-48.85338671865181
 21
-38.3362861512701
 72
     1
 10
-48.85338671865181
 20
-38.3362861512701
 11
-46.72518994456093
 21
-35.8
 97
        0
 75
     0
 76
     1
 98
        1
 10
0.0
 20
0.0
  0
HATCH
  5
D7
330
1F
100
AcDbEntity
  8
중심선
100
AcDbHatch
 10
0.0
 20
0.0
 30
0.0
210
0.0
220
0.0
230
1.0
  2
SOLID
 70
     1
 71
     0
 91
        1
 92
        0
 93
        4
 72
     1
 10
-41.71242595352501
 20
-35.8
 11
-45.15870119736223
 21
-35.8
 72
     1
 10
-45.15870119736223
 20
-35.8
 11
-49.68983920571965
 21
-41.20000000000002
 72
     1
 10
-49.68983920571965
 20
-41.20000000000002
 11
-46.24356396188237
 21
-41.20000000000002
 72
     1
 10
-46.24356396188237
 20
-41.20000000000002
 11
-41.71242595352501
 21
-35.8
 97
        0
 75
     0
 76
     1
 98
        1
 10
0.0
 20
0.0
  0
HATCH
  5
D8
330
1F
100
AcDbEntity
  8
중심선
100
AcDbHatch
 10
0.0
 20
0.0
 30
0.0
210
0.0
220
0.0
230
1.0
  2
SOLID
 70
     1
 71
     0
 91
        1
 92
        0
 93
        4
 72
     1
 10
-36.69966196248908
 20
-35.8
 11
-40.14593720632617
 21
-35.8
 72
     1
 10
-40.14593720632617
 20
-35.8
 11
-47.19437410821545
 21
-44.20000000000002
 72
     1
 10
-47.19437410821545
 20
-44.20000000000002
 11
-43.74809886437816
 21
-44.20000000000002
 72
     1
 10
-43.74809886437816
 20
-44.20000000000002
 11
-36.69966196248908
 21
-35.8
 97
        0
 75
     0
 76
     1
 98
        1
 10
0.0
 20
0.0
  0
HATCH
  5
D9
330
1F
100
AcDbEntity
  8
중심선
100
AcDbHatch
 10
0.0
 20
0.0
 30
0.0
210
0.0
220
0.0
230
1.0
  2
SOLID
 70
     1
 71
     0
 91
        1
 92
        0
 93
        6
 72
     3
 10
-31.89977153147688
 20
-40.00000000005127
 11
3.960054785062284
 21
1.540850780301639E-10
 40
0.3939339440162633
 50
17.09539180608434
 51
320.0019657685081
 73
     0
 72
     1
 10
-30.21677187577632
 20
-38.58789400463833
 11
-27.91147000207525
 21
-36.65356729459038
 72
     3
 10
-31.89977153152973
 20
-40.00000000000015
 11
6.600054785286829
 21
-1.249000902703301E-13
 40
0.6363583540795982
 50
39.9987384933741
 51
368.4976242363725
 73
     1
 72
     1
 10
-25.47443903962912
 20
-39.03999999993002
 11
-33.21970422469378
 21
-39.03999999993002
 72
     1
 10
-33.21970422469378
 20
-39.03999999993002
 11
-33.21972926913974
 21
-40.95999999992991
 72
     1
 10
-33.21972926913974
 20
-40.95999999992991
 11
-28.7783494996677
 21
-40.95999999992988
 97
        0
 75
     0
 76
     1
 98
        1
 10
0.0
 20
0.0
  0
DIMENSION
  5
DA
330
1F
100
AcDbEntity
  8
치수문자_일반주서
100
AcDbDimension
  2
_D
 10
74.93256929986278
 20
5.00000000000005
 30
0.0
 11
74.93256929986275
 21
15.32275000000005
 31
0.0
 70
   160
  1
%%c<>
 71
     2
 42
10.00000000000001
 52
-270.0
  3
SLDDIMSTYLE0
100
AcDbAlignedDimension
 13
60.0
 23
-5.000000000000014
 33
0.0
 14
60.0
 24
4.999999999999995
 34
0.0
 50
90.0000000000002
100
AcDbRotatedDimension
  0
DIMENSION
  5
E8
330
1F
100
AcDbEntity
  8
치수문자_일반주서
100
AcDbDimension
  2
_D_1
 10
60.0
 20
22.38913260158162
 30
0.0
 11
-39.99999999999999
 21
22.38913260158162
 31
0.0
 70
   160
  1
<>
 71
     2
 42
200.0
  3
SLDDIMSTYLE1
100
AcDbAlignedDimension
 13
-140.0
 23
4.499999999999972
 33
0.0
 14
60.0
 24
4.999999999999996
 34
0.0
 50
-0.0000000000000041
100
AcDbRotatedDimension
  0
DIMENSION
  5
F3
330
1F
100
AcDbEntity
  8
치수문자_일반주서
100
AcDbDimension
  2
_D_2
 10
-150.1564576052395
 20
-5.000000000000052
 30
0.0
 11
-150.1564576052395
 21
15.32274999999996
 31
0.0
 70
   160
  1
%%c<>
 71
     2
 42
10.00000000000001
 52
-270.0
  3
SLDDIMSTYLE2
100
AcDbAlignedDimension
 13
-139.5
 23
4.999999999999996
 33
0.0
 14
-139.5
 24
-5.000000000000013
 34
0.0
 50
90.0000000000002
100
AcDbRotatedDimension
  0
DIMENSION
  5
101
330
1F
100
AcDbEntity
  8
치수문자_일반주서
100
AcDbDimension
  2
_D_3
 10
60.0
 20
15.64219803818061
 30
0.0
 11
35.00000000000001
 21
15.64219803818061
 31
0.0
 70
   160
  1
<>
 71
     2
 42
50.0
  3
SLDDIMSTYLE1
100
AcDbAlignedDimension
 13
10.0
 23
4.796279735592963
 33
0.0
 14
60.0
 24
4.999999999999996
 34
0.0
 50
-0.0000000000000041
100
AcDbRotatedDimension
  0
INSERT
  5
111
330
1F
100
AcDbEntity
  8
해칭선
100
AcDbBlockReference
  2
SW_DOWELSYMBOL_0
 10
0.0001731768904684
 20
-0.0000000000000043
 30
0.0
  0
ENDSEC
  0
SECTION
  2
OBJECTS
  0
DICTIONARY
  5
C
330
0
100
AcDbDictionary
281
     1
  3
ACAD_GROUP
350
D
  3
ACAD_IMAGE_VARS
350
135
  3
ACAD_LAYOUT
350
1A
  3
ACAD_MLINESTYLE
350
17
  3
ACAD_PLOTSETTINGS
350
19
  3
ACAD_PLOTSTYLENAME
350
E
  3
ACAD_SCALELIST
350
47
  3
APPDATA
350
133
  3
DWGPROPS
350
144
  0
DICTIONARY
  5
D
102
{ACAD_REACTORS
330
C
102
}
330
C
100
AcDbDictionary
281
     1
  0
RASTERVARIABLES
  5
135
102
{ACAD_REACTORS
330
C
102
}
330
C
100
AcDbRasterVariables
 90
        0
 70
     1
 71
     1
 72
     1
  0
DICTIONARY
  5
1A
102
{ACAD_REACTORS
330
C
102
}
330
C
100
AcDbDictionary
281
     1
  3
Layout1
350
1E
  3
Layout2
350
26
  3
Model
350
22
  0
DICTIONARY
  5
17
102
{ACAD_REACTORS
330
C
102
}
330
C
100
AcDbDictionary
281
     1
  3
Standard
350
18
  0
DICTIONARY
  5
19
102
{ACAD_REACTORS
330
C
102
}
330
C
100
AcDbDictionary
281
     1
  0
ACDBDICTIONARYWDFLT
  5
E
102
{ACAD_REACTORS
330
C
102
}
330
C
100
AcDbDictionary
281
     1
  3
Normal
350
F
100
AcDbDictionaryWithDefault
340
F
  0
DICTIONARY
  5
47
102
{ACAD_REACTORS
330
C
102
}
330
C
100
AcDbDictionary
281
     1
  3
A0
350
48
  3
A1
350
49
  3
A2
350
4A
  3
A3
350
4B
  3
A4
350
4C
  3
A5
350
4D
  3
A6
350
4E
  3
A7
350
4F
  3
A8
350
50
  3
A9
350
51
  3
B0
350
52
  3
B1
350
53
  3
B2
350
54
  3
B3
350
55
  3
B4
350
56
  3
B5
350
57
  3
B6
350
58
  3
B7
350
59
  3
B8
350
5A
  3
B9
350
5B
  3
C0
350
5C
  3
C1
350
5D
  3
C2
350
5E
  3
C3
350
5F
  3
C4
350
60
  3
C5
350
61
  3
C6
350
62
  3
C7
350
63
  3
C8
350
64
  3
C9
350
65
  3
D0
350
66
  3
D1
350
67
  3
D2
350
68
  0
DICTIONARY
  5
133
102
{ACAD_REACTORS
330
C
102
}
330
C
100
AcDbDictionary
281
     1
  0
XRECORD
  5
144
102
{ACAD_REACTORS
330
C
102
}
330
C
100
AcDbXrecord
280
     1
  1
DWGPROPS COOKIE
  2

  3

  4

  6

  7

  8
12014102
  9

300
=
301
=
302
=
303
=
304
=
305
=
306
=
307
=
308
=
309
=
 40
0.0
 41
2458260.203914838
 42
2458268.272150139
  1

 90
        0
  0
LAYOUT
  5
1E
102
{ACAD_REACTORS
330
1A
102
}
330
1A
100
AcDbPlotSettings
  1

  2
none_device
  4

  6

 40
0.0
 41
0.0
 42
0.0
 43
0.0
 44
0.0
 45
0.0
 46
0.0
 47
0.0
 48
0.0
 49
0.0
140
0.0
141
0.0
142
1.0
143
1.0
 70
   688
 72
     1
 73
     0
 74
     5
  7

 75
    16
147
1.0
148
0.0
149
0.0
100
AcDbLayout
  1
Layout1
 70
     1
 71
     1
 10
0.0
 20
0.0
 11
420.0
 21
297.0
 12
0.0
 22
0.0
 32
0.0
 14
1.000000000000000E+20
 24
1.000000000000000E+20
 34
1.000000000000000E+20
 15
-1.000000000000000E+20
 25
-1.000000000000000E+20
 35
-1.000000000000000E+20
146
0.0
 13
0.0
 23
0.0
 33
0.0
 16
1.0
 26
0.0
 36
0.0
 17
0.0
 27
1.0
 37
0.0
 76
     0
330
1B
  0
LAYOUT
  5
26
102
{ACAD_REACTORS
330
1A
102
}
330
1A
100
AcDbPlotSettings
  1

  2
none_device
  4

  6

 40
0.0
 41
0.0
 42
0.0
 43
0.0
 44
0.0
 45
0.0
 46
0.0
 47
0.0
 48
0.0
 49
0.0
140
0.0
141
0.0
142
1.0
143
1.0
 70
   688
 72
     1
 73
     0
 74
     5
  7

 75
    16
147
1.0
148
0.0
149
0.0
100
AcDbLayout
  1
Layout2
 70
     1
 71
     2
 10
0.0
 20
0.0
 11
0.0
 21
0.0
 12
0.0
 22
0.0
 32
0.0
 14
0.0
 24
0.0
 34
0.0
 15
0.0
 25
0.0
 35
0.0
146
0.0
 13
0.0
 23
0.0
 33
0.0
 16
1.0
 26
0.0
 36
0.0
 17
0.0
 27
1.0
 37
0.0
 76
     0
330
23
  0
LAYOUT
  5
22
102
{ACAD_REACTORS
330
1A
102
}
330
1A
100
AcDbPlotSettings
  1

  2
none_device
  4
ANSI_A_(11.00_x_8.50_Inches)
  6

 40
6.35
 41
19.05
 42
6.35000508
 43
19.05000254
 44
279.4
 45
215.9
 46
179.4304284917384
 47
102.9238197702383
 48
0.0
 49
0.0
140
0.0
141
0.0
142
0.0463675140258003
143
1.0
 70
  1696
 72
     0
 73
     0
 74
     0
  7

 75
     0
147
0.0235690232323232
148
0.0
149
0.0
100
AcDbLayout
  1
Model
 70
     1
 71
     0
 10
0.0
 20
0.0
 11
420.0
 21
297.0
 12
0.0
 22
0.0
 32
0.0
 14
-154.5314576052396
 24
-49.97180738881174
 34
0.0
 15
75.48290263319615
 25
26.76413260158162
 35
0.0
146
0.0
 13
0.0
 23
0.0
 33
0.0
 16
1.0
 26
0.0
 36
0.0
 17
0.0
 27
1.0
 37
0.0
 76
     0
330
1F
331
29
  0
MLINESTYLE
  5
18
102
{ACAD_REACTORS
330
17
102
}
330
17
100
AcDbMlineStyle
  2
Standard
 70
     0
  3

 62
   256
 51
90.0
 52
90.0
 71
     2
 49
0.5
 62
   256
  6
BYLAYER
 49
-0.5
 62
   256
  6
BYLAYER
  0
ACDBPLACEHOLDER
  5
F
102
{ACAD_REACTORS
330
E
102
}
330
E
  0
SCALE
  5
48
102
{ACAD_REACTORS
330
47
102
}
330
47
100
AcDbScale
 70
     0
300
1:1
140
1.0
141
1.0
290
     1
  0
SCALE
  5
49
102
{ACAD_REACTORS
330
47
102
}
330
47
100
AcDbScale
 70
     0
300
1:2
140
1.0
141
2.0
290
     0
  0
SCALE
  5
4A
102
{ACAD_REACTORS
330
47
102
}
330
47
100
AcDbScale
 70
     0
300
1:4
140
1.0
141
4.0
290
     0
  0
SCALE
  5
4B
102
{ACAD_REACTORS
330
47
102
}
330
47
100
AcDbScale
 70
     0
300
1:5
140
1.0
141
5.0
290
     0
  0
SCALE
  5
4C
102
{ACAD_REACTORS
330
47
102
}
330
47
100
AcDbScale
 70
     0
300
1:8
140
1.0
141
8.0
290
     0
  0
SCALE
  5
4D
102
{ACAD_REACTORS
330
47
102
}
330
47
100
AcDbScale
 70
     0
300
1:10
140
1.0
141
10.0
290
     0
  0
SCALE
  5
4E
102
{ACAD_REACTORS
330
47
102
}
330
47
100
AcDbScale
 70
     0
300
1:16
140
1.0
141
16.0
290
     0
  0
SCALE
  5
4F
102
{ACAD_REACTORS
330
47
102
}
330
47
100
AcDbScale
 70
     0
300
1:20
140
1.0
141
20.0
290
     0
  0
SCALE
  5
50
102
{ACAD_REACTORS
330
47
102
}
330
47
100
AcDbScale
 70
     0
300
1:30
140
1.0
141
30.0
290
     0
  0
SCALE
  5
51
102
{ACAD_REACTORS
330
47
102
}
330
47
100
AcDbScale
 70
     0
300
1:40
140
1.0
141
40.0
290
     0
  0
SCALE
  5
52
102
{ACAD_REACTORS
330
47
102
}
330
47
100
AcDbScale
 70
     0
300
1:50
140
1.0
141
50.0
290
     0
  0
SCALE
  5
53
102
{ACAD_REACTORS
330
47
102
}
330
47
100
AcDbScale
 70
     0
300
1:100
140
1.0
141
100.0
290
     0
  0
SCALE
  5
54
102
{ACAD_REACTORS
330
47
102
}
330
47
100
AcDbScale
 70
     0
300
2:1
140
2.0
141
1.0
290
     0
  0
SCALE
  5
55
102
{ACAD_REACTORS
330
47
102
}
330
47
100
AcDbScale
 70
     0
300
4:1
140
4.0
141
1.0
290
     0
  0
SCALE
  5
56
102
{ACAD_REACTORS
330
47
102
}
330
47
100
AcDbScale
 70
     0
300
8:1
140
8.0
141
1.0
290
     0
  0
SCALE
  5
57
102
{ACAD_REACTORS
330
47
102
}
330
47
100
AcDbScale
 70
     0
300
10:1
140
10.0
141
1.0
290
     0
  0
SCALE
  5
58
102
{ACAD_REACTORS
330
47
102
}
330
47
100
AcDbScale
 70
     0
300
100:1
140
100.0
141
1.0
290
     0
  0
SCALE
  5
59
102
{ACAD_REACTORS
330
47
102
}
330
47
100
AcDbScale
 70
     0
300
1/128" = 1'-0"
140
0.0078125
141
12.0
290
     0
  0
SCALE
  5
5A
102
{ACAD_REACTORS
330
47
102
}
330
47
100
AcDbScale
 70
     0
300
1/64" = 1'-0"
140
0.015625
141
12.0
290
     0
  0
SCALE
  5
5B
102
{ACAD_REACTORS
330
47
102
}
330
47
100
AcDbScale
 70
     0
300
1/32" = 1'-0"
140
0.03125
141
12.0
290
     0
  0
SCALE
  5
5C
102
{ACAD_REACTORS
330
47
102
}
330
47
100
AcDbScale
 70
     0
300
1/16" = 1'-0"
140
0.0625
141
12.0
290
     0
  0
SCALE
  5
5D
102
{ACAD_REACTORS
330
47
102
}
330
47
100
AcDbScale
 70
     0
300
3/32" = 1'-0"
140
0.09375
141
12.0
290
     0
  0
SCALE
  5
5E
102
{ACAD_REACTORS
330
47
102
}
330
47
100
AcDbScale
 70
     0
300
1/8" = 1'-0"
140
0.125
141
12.0
290
     0
  0
SCALE
  5
5F
102
{ACAD_REACTORS
330
47
102
}
330
47
100
AcDbScale
 70
     0
300
3/16" = 1'-0"
140
0.1875
141
12.0
290
     0
  0
SCALE
  5
60
102
{ACAD_REACTORS
330
47
102
}
330
47
100
AcDbScale
 70
     0
300
1/4" = 1'-0"
140
0.25
141
12.0
290
     0
  0
SCALE
  5
61
102
{ACAD_REACTORS
330
47
102
}
330
47
100
AcDbScale
 70
     0
300
3/8" = 1'-0"
140
0.375
141
12.0
290
     0
  0
SCALE
  5
62
102
{ACAD_REACTORS
330
47
102
}
330
47
100
AcDbScale
 70
     0
300
1/2" = 1'-0"
140
0.5
141
12.0
290
     0
  0
SCALE
  5
63
102
{ACAD_REACTORS
330
47
102
}
330
47
100
AcDbScale
 70
     0
300
3/4" = 1'-0"
140
0.75
141
12.0
290
     0
  0
SCALE
  5
64
102
{ACAD_REACTORS
330
47
102
}
330
47
100
AcDbScale
 70
     0
300
1" = 1'-0"
140
1.0
141
12.0
290
     0
  0
SCALE
  5
65
102
{ACAD_REACTORS
330
47
102
}
330
47
100
AcDbScale
 70
     0
300
1-1/2" = 1'-0"
140
1.5
141
12.0
290
     0
  0
SCALE
  5
66
102
{ACAD_REACTORS
330
47
102
}
330
47
100
AcDbScale
 70
     0
300
3" = 1'-0"
140
3.0
141
12.0
290
     0
  0
SCALE
  5
67
102
{ACAD_REACTORS
330
47
102
}
330
47
100
AcDbScale
 70
     0
300
6" = 1'-0"
140
6.0
141
12.0
290
     0
  0
SCALE
  5
68
102
{ACAD_REACTORS
330
47
102
}
330
47
100
AcDbScale
 70
     0
300
1'-0" = 1'-0"
140
12.0
141
12.0
290
     0
  0
ENDSEC
  0
EOF
