  0
SECTION
  2
HEADER
  9
$ACADVER
  1
AC1015
  9
$ACADMAINTVER
 70
     6
  9
$DWGCODEPAGE
  3
ANSI_949
  9
$INSBASE
 10
0.0
 20
0.0
 30
0.0
  9
$EXTMIN
 10
-57.09280771540325
 20
-49.97180738881174
 30
0.0
  9
$EXTMAX
 10
77.29854792398474
 20
26.76413260158164
 30
0.0
  9
$LIMMIN
 10
0.0
 20
0.0
  9
$LIMMAX
 10
420.0
 20
297.0
  9
$ORTHOMODE
 70
     0
  9
$REGENMODE
 70
     1
  9
$FILLMODE
 70
     1
  9
$QTEXTMODE
 70
     0
  9
$MIRRTEXT
 70
     1
  9
$LTSCALE
 40
1.0
  9
$ATTMODE
 70
     1
  9
$TEXTSIZE
 40
3.5
  9
$TRACEWID
 40
1.0
  9
$TEXTSTYLE
  7
Standard
  9
$CLAYER
  8
0
  9
$CELTYPE
  6
ByLayer
  9
$CECOLOR
 62
   256
  9
$CELTSCALE
 40
1.0
  9
$DISPSILH
 70
     0
  9
$DIMSCALE
 40
1.0
  9
$DIMASZ
 40
3.302
  9
$DIMEXO
 40
1.0
  9
$DIMDLI
 40
3.75
  9
$DIMRND
 40
0.0
  9
$DIMDLE
 40
0.0
  9
$DIMEXE
 40
1.0
  9
$DIMTP
 40
0.0
  9
$DIMTM
 40
0.0
  9
$DIMTXT
 40
3.5
  9
$DIMCEN
 40
2.5
  9
$DIMTSZ
 40
0.0
  9
$DIMTOL
 70
     0
  9
$DIMLIM
 70
     0
  9
$DIMTIH
 70
     1
  9
$DIMTOH
 70
     1
  9
$DIMSE1
 70
     0
  9
$DIMSE2
 70
     0
  9
$DIMTAD
 70
     1
  9
$DIMZIN
 70
     0
  9
$DIMBLK
  1

  9
$DIMASO
 70
     1
  9
$DIMSHO
 70
     1
  9
$DIMPOST
  1

  9
$DIMAPOST
  1

  9
$DIMALT
 70
     0
  9
$DIMALTD
 70
     3
  9
$DIMALTF
 40
0.0393700787401575
  9
$DIMLFAC
 40
1.0
  9
$DIMTOFL
 70
     1
  9
$DIMTVP
 40
0.0
  9
$DIMTIX
 70
     0
  9
$DIMSOXD
 70
     0
  9
$DIMSAH
 70
     0
  9
$DIMBLK1
  1

  9
$DIMBLK2
  1

  9
$DIMSTYLE
  2
ISO-25
  9
$DIMCLRD
 70
     0
  9
$DIMCLRE
 70
     0
  9
$DIMCLRT
 70
     0
  9
$DIMTFAC
 40
1.0
  9
$DIMGAP
 40
1.524
  9
$DIMJUST
 70
     0
  9
$DIMSD1
 70
     0
  9
$DIMSD2
 70
     0
  9
$DIMTOLJ
 70
     0
  9
$DIMTZIN
 70
     0
  9
$DIMALTZ
 70
     0
  9
$DIMALTTZ
 70
     0
  9
$DIMUPT
 70
     0
  9
$DIMDEC
 70
     2
  9
$DIMTDEC
 70
     2
  9
$DIMALTU
 70
     2
  9
$DIMALTTD
 70
     3
  9
$DIMTXSTY
  7
Standard
  9
$DIMAUNIT
 70
     0
  9
$DIMADEC
 70
     2
  9
$DIMALTRND
 40
0.0
  9
$DIMAZIN
 70
     0
  9
$DIMDSEP
 70
    44
  9
$DIMATFIT
 70
     3
  9
$DIMFRAC
 70
     0
  9
$DIMLDRBLK
  1

  9
$DIMLUNIT
 70
     2
  9
$DIMLWD
 70
    -2
  9
$DIMLWE
 70
    -2
  9
$DIMTMOVE
 70
     0
  9
$LUNITS
 70
     2
  9
$LUPREC
 70
     2
  9
$SKETCHINC
 40
1.0
  9
$FILLETRAD
 40
10.0
  9
$AUNITS
 70
     0
  9
$AUPREC
 70
     2
  9
$MENU
  1
.
  9
$ELEVATION
 40
0.0
  9
$PELEVATION
 40
0.0
  9
$THICKNESS
 40
0.0
  9
$LIMCHECK
 70
     0
  9
$CHAMFERA
 40
0.0
  9
$CHAMFERB
 40
0.0
  9
$CHAMFERC
 40
0.0
  9
$CHAMFERD
 40
0.0
  9
$SKPOLY
 70
     0
  9
$TDCREATE
 40
2458260.579104051
  9
$TDUCREATE
 40
2458260.204104051
  9
$TDUPDATE
 40
2458268.583758137
  9
$TDUUPDATE
 40
2458268.208758137
  9
$TDINDWG
 40
0.0004322917
  9
$TDUSRTIMER
 40
2458268.20832588
  9
$USRTIMER
 70
     1
  9
$ANGBASE
 50
0.0
  9
$ANGDIR
 70
     0
  9
$PDMODE
 70
     0
  9
$PDSIZE
 40
-1.0
  9
$PLINEWID
 40
0.0
  9
$SPLFRAME
 70
     0
  9
$SPLINETYPE
 70
     6
  9
$SPLINESEGS
 70
     8
  9
$HANDSEED
  5
148
  9
$SURFTAB1
 70
     6
  9
$SURFTAB2
 70
     6
  9
$SURFTYPE
 70
     6
  9
$SURFU
 70
     6
  9
$SURFV
 70
     6
  9
$UCSBASE
  2

  9
$UCSNAME
  2

  9
$UCSORG
 10
0.0
 20
0.0
 30
0.0
  9
$UCSXDIR
 10
1.0
 20
0.0
 30
0.0
  9
$UCSYDIR
 10
0.0
 20
1.0
 30
0.0
  9
$UCSORTHOREF
  2

  9
$UCSORTHOVIEW
 70
     0
  9
$UCSORGTOP
 10
0.0
 20
0.0
 30
0.0
  9
$UCSORGBOTTOM
 10
0.0
 20
0.0
 30
0.0
  9
$UCSORGLEFT
 10
0.0
 20
0.0
 30
0.0
  9
$UCSORGRIGHT
 10
0.0
 20
0.0
 30
0.0
  9
$UCSORGFRONT
 10
0.0
 20
0.0
 30
0.0
  9
$UCSORGBACK
 10
0.0
 20
0.0
 30
0.0
  9
$PUCSBASE
  2

  9
$PUCSNAME
  2

  9
$PUCSORG
 10
0.0
 20
0.0
 30
0.0
  9
$PUCSXDIR
 10
1.0
 20
0.0
 30
0.0
  9
$PUCSYDIR
 10
0.0
 20
1.0
 30
0.0
  9
$PUCSORTHOREF
  2

  9
$PUCSORTHOVIEW
 70
     0
  9
$PUCSORGTOP
 10
0.0
 20
0.0
 30
0.0
  9
$PUCSORGBOTTOM
 10
0.0
 20
0.0
 30
0.0
  9
$PUCSORGLEFT
 10
0.0
 20
0.0
 30
0.0
  9
$PUCSORGRIGHT
 10
0.0
 20
0.0
 30
0.0
  9
$PUCSORGFRONT
 10
0.0
 20
0.0
 30
0.0
  9
$PUCSORGBACK
 10
0.0
 20
0.0
 30
0.0
  9
$USERI1
 70
     0
  9
$USERI2
 70
     0
  9
$USERI3
 70
     0
  9
$USERI4
 70
     0
  9
$USERI5
 70
     0
  9
$USERR1
 40
0.0
  9
$USERR2
 40
0.0
  9
$USERR3
 40
0.0
  9
$USERR4
 40
0.0
  9
$USERR5
 40
0.0
  9
$WORLDVIEW
 70
     1
  9
$SHADEDGE
 70
     3
  9
$SHADEDIF
 70
    70
  9
$TILEMODE
 70
     1
  9
$MAXACTVP
 70
    64
  9
$PINSBASE
 10
0.0
 20
0.0
 30
0.0
  9
$PLIMCHECK
 70
     0
  9
$PEXTMIN
 10
1.000000000000000E+20
 20
1.000000000000000E+20
 30
1.000000000000000E+20
  9
$PEXTMAX
 10
-1.000000000000000E+20
 20
-1.000000000000000E+20
 30
-1.000000000000000E+20
  9
$PLIMMIN
 10
0.0
 20
0.0
  9
$PLIMMAX
 10
0.0
 20
0.0
  9
$UNITMODE
 70
     0
  9
$VISRETAIN
 70
     1
  9
$PLINEGEN
 70
     0
  9
$PSLTSCALE
 70
     1
  9
$TREEDEPTH
 70
  3020
  9
$CMLSTYLE
  2
Standard
  9
$CMLJUST
 70
     0
  9
$CMLSCALE
 40
20.0
  9
$PROXYGRAPHICS
 70
     1
  9
$MEASUREMENT
 70
     1
  9
$CELWEIGHT
370
    -1
  9
$ENDCAPS
280
     0
  9
$JOINSTYLE
280
     0
  9
$LWDISPLAY
290
     1
  9
$INSUNITS
 70
     4
  9
$HYPERLINKBASE
  1

  9
$STYLESHEET
  1

  9
$XEDIT
290
     1
  9
$CEPSNTYPE
380
     0
  9
$PSTYLEMODE
290
     1
  9
$FINGERPRINTGUID
  2
{D8C13B63-14D9-410E-ADA6-367EDD925A97}
  9
$VERSIONGUID
  2
{FAEB1C32-E019-11D5-929B-00C0DF256EC4}
  9
$EXTNAMES
290
     1
  9
$PSVPSCALE
 40
0.0
  9
$OLESTARTUP
290
     0
  0
ENDSEC
  0
SECTION
  2
CLASSES
  0
CLASS
  1
ACDBDICTIONARYWDFLT
  2
AcDbDictionaryWithDefault
  3
ObjectDBX Classes
 90
        0
280
     0
281
     0
  0
CLASS
  1
VISUALSTYLE
  2
AcDbVisualStyle
  3
ObjectDBX Classes
 90
     4095
280
     0
281
     0
  0
CLASS
  1
MATERIAL
  2
AcDbMaterial
  3
ObjectDBX Classes
 90
     1153
280
     0
281
     0
  0
CLASS
  1
SCALE
  2
AcDbScale
  3
ObjectDBX Classes
 90
     1153
280
     0
281
     0
  0
CLASS
  1
TABLESTYLE
  2
AcDbTableStyle
  3
ObjectDBX Classes
 90
     4095
280
     0
281
     0
  0
CLASS
  1
MLEADERSTYLE
  2
AcDbMLeaderStyle
  3
ACDB_MLEADERSTYLE_CLASS
 90
     4095
280
     0
281
     0
  0
CLASS
  1
SUN
  2
AcDbSun
  3
SCENEOE
 90
     1153
280
     0
281
     0
  0
CLASS
  1
ACDBPLACEHOLDER
  2
AcDbPlaceHolder
  3
ObjectDBX Classes
 90
        0
280
     0
281
     0
  0
CLASS
  1
LAYOUT
  2
AcDbLayout
  3
ObjectDBX Classes
 90
        0
280
     0
281
     0
  0
CLASS
  1
RASTERVARIABLES
  2
AcDbRasterVariables
  3
ISM
 90
        0
280
     0
281
     0
  0
ENDSEC
  0
SECTION
  2
TABLES
  0
TABLE
  2
VPORT
  5
8
330
0
100
AcDbSymbolTable
 70
     1
  0
VPORT
  5
29
330
8
100
AcDbSymbolTableRecord
100
AcDbViewportTableRecord
  2
*Active
 70
     0
 10
0.0
 20
0.0
 11
1.0
 21
1.0
 12
10.10287010429074
 22
-11.60383739361505
 13
0.0
 23
0.0
 14
10.0
 24
10.0
 15
10.0
 25
10.0
 16
0.0
 26
0.0
 36
1.0
 17
0.0
 27
0.0
 37
0.0
 40
78.82562217695694
 41
1.739018087855297
 42
50.0
 43
0.0
 44
0.0
 50
0.0
 51
0.0
 71
    16
 72
  2000
 73
     1
 74
     3
 75
     0
 76
     0
 77
     0
 78
     0
281
     0
 65
     1
110
0.0
120
0.0
130
0.0
111
1.0
121
0.0
131
0.0
112
0.0
122
1.0
132
0.0
 79
     0
146
0.0
  0
ENDTAB
  0
TABLE
  2
LTYPE
  5
5
330
0
100
AcDbSymbolTable
 70
     6
  0
LTYPE
  5
14
330
5
100
AcDbSymbolTableRecord
100
AcDbLinetypeTableRecord
  2
ByBlock
 70
     0
  3

 72
    65
 73
     0
 40
0.0
  0
LTYPE
  5
15
330
5
100
AcDbSymbolTableRecord
100
AcDbLinetypeTableRecord
  2
ByLayer
 70
     0
  3

 72
    65
 73
     0
 40
0.0
  0
LTYPE
  5
16
330
5
100
AcDbSymbolTableRecord
100
AcDbLinetypeTableRecord
  2
Continuous
 70
     0
  3
Solid line
 72
    65
 73
     0
 40
0.0
  0
LTYPE
  5
6E
330
5
100
AcDbSymbolTableRecord
100
AcDbLinetypeTableRecord
  2
HIDDEN
 70
     0
  3
Hidden __ __ __ __ __ __ __ __ __ __ __ __ __ __
 72
    65
 73
     2
 40
1.905
 49
1.27
 74
     0
 49
-0.635
 74
     0
  0
LTYPE
  5
6F
330
5
100
AcDbSymbolTableRecord
100
AcDbLinetypeTableRecord
  2
PHANTOM
 70
     0
  3
Phantom ______  __  __  ______  __  __  ______
 72
    65
 73
     6
 40
12.7
 49
6.35
 74
     0
 49
-1.27
 74
     0
 49
1.27
 74
     0
 49
-1.27
 74
     0
 49
1.27
 74
     0
 49
-1.27
 74
     0
  0
LTYPE
  5
70
330
5
100
AcDbSymbolTableRecord
100
AcDbLinetypeTableRecord
  2
CENTER
 70
     0
  3
Center ____ _ ____ _ ____ _ ____ _ ____ _ ____
 72
    65
 73
     4
 40
10.16
 49
6.35
 74
     0
 49
-1.27
 74
     0
 49
1.27
 74
     0
 49
-1.27
 74
     0
  0
LTYPE
  5
71
330
5
100
AcDbSymbolTableRecord
100
AcDbLinetypeTableRecord
  2
CENTERX2
 70
     0
  3
Center (2x) ________  __  ________  __  _____
 72
    65
 73
     4
 40
20.32
 49
12.7
 74
     0
 49
-2.54
 74
     0
 49
2.54
 74
     0
 49
-2.54
 74
     0
  0
LTYPE
  5
72
330
5
100
AcDbSymbolTableRecord
100
AcDbLinetypeTableRecord
  2
DOT2
 70
     0
  3
Dot (.5x) ........................................
 72
    65
 73
     2
 40
0.635
 49
0.0
 74
     0
 49
-0.635
 74
     0
  0
ENDTAB
  0
TABLE
  2
LAYER
  5
2
330
0
100
AcDbSymbolTable
 70
    17
  0
LAYER
  5
10
330
2
100
AcDbSymbolTableRecord
100
AcDbLayerTableRecord
  2
0
 70
     0
 62
     7
  6
Continuous
370
    -3
390
F
  0
LAYER
  5
73
330
2
100
AcDbSymbolTableRecord
100
AcDbLayerTableRecord
  2
FORMAT
 70
     0
 62
     2
  6
Continuous
370
    -3
390
F
  0
LAYER
  5
74
330
2
100
AcDbSymbolTableRecord
100
AcDbLayerTableRecord
  2
외형선
 70
     0
 62
   100
  6
Continuous
370
    35
390
F
  0
LAYER
  5
75
330
2
100
AcDbSymbolTableRecord
100
AcDbLayerTableRecord
  2
숨은선
 70
     0
 62
     2
  6
HIDDEN
370
    25
390
F
  0
LAYER
  5
76
330
2
100
AcDbSymbolTableRecord
100
AcDbLayerTableRecord
  2
중심선
 70
     0
 62
     1
  6
CENTERX2
370
    -3
390
F
  0
LAYER
  5
77
330
2
100
AcDbSymbolTableRecord
100
AcDbLayerTableRecord
  2
파단선
 70
     0
 62
     4
  6
Continuous
370
    -3
390
F
  0
LAYER
  5
78
330
2
100
AcDbSymbolTableRecord
100
AcDbLayerTableRecord
  2
해칭선
 70
     0
 62
   100
  6
Continuous
370
    -3
390
F
  0
LAYER
  5
79
330
2
100
AcDbSymbolTableRecord
100
AcDbLayerTableRecord
  2
가는실선
 70
     0
 62
     4
  6
Continuous
370
    -3
390
F
  0
LAYER
  5
7A
330
2
100
AcDbSymbolTableRecord
100
AcDbLayerTableRecord
  2
치수_보조선
 70
     0
 62
     4
  6
Continuous
370
    -3
390
F
  0
LAYER
  5
7B
330
2
100
AcDbSymbolTableRecord
100
AcDbLayerTableRecord
  2
치수문자_일반주서
 70
     0
 62
     7
  6
Continuous
370
    25
390
F
  0
LAYER
  5
7C
330
2
100
AcDbSymbolTableRecord
100
AcDbLayerTableRecord
  2
개별주서
 70
     0
 62
   100
  6
Continuous
370
    35
390
F
  0
LAYER
  5
7D
330
2
100
AcDbSymbolTableRecord
100
AcDbLayerTableRecord
  2
중간선
 70
     0
 62
     2
  6
Continuous
370
    25
390
F
  0
LAYER
  5
7E
330
2
100
AcDbSymbolTableRecord
100
AcDbLayerTableRecord
  2
윤곽선
 70
     0
 62
     3
  6
Continuous
370
    50
390
F
  0
LAYER
  5
7F
330
2
100
AcDbSymbolTableRecord
100
AcDbLayerTableRecord
  2
중심마크
 70
     0
 62
   100
  6
Continuous
370
    35
390
F
  0
LAYER
  5
80
330
2
100
AcDbSymbolTableRecord
100
AcDbLayerTableRecord
  2
가상선
 70
     0
 62
     4
  6
PHANTOM
370
    -3
390
F
  0
LAYER
  5
81
330
2
100
AcDbSymbolTableRecord
100
AcDbLayerTableRecord
  2
특수지정선
 70
     0
 62
     5
  6
CENTERX2
370
    70
390
F
  0
LAYER
  5
139
330
2
100
AcDbSymbolTableRecord
100
AcDbLayerTableRecord
  2
Defpoints
 70
     0
 62
     7
  6
Continuous
290
     0
370
    -3
390
F
  0
ENDTAB
  0
TABLE
  2
STYLE
  5
3
330
0
100
AcDbSymbolTable
 70
     2
  0
STYLE
  5
11
330
3
100
AcDbSymbolTableRecord
100
AcDbTextStyleTableRecord
  2
Standard
 70
     0
 40
0.0
 41
1.0
 50
0.0
 71
     0
 42
3.5
  3
txt
  4

  0
STYLE
  5
97
330
3
100
AcDbSymbolTableRecord
100
AcDbTextStyleTableRecord
  2
SLDTEXTSTYLE0
 70
     0
 40
0.0
 41
0.75
 50
0.0
 71
     0
 42
3.5
  3
TXT
  4

  0
ENDTAB
  0
TABLE
  2
VIEW
  5
6
330
0
100
AcDbSymbolTable
 70
     0
  0
ENDTAB
  0
TABLE
  2
UCS
  5
7
330
0
100
AcDbSymbolTable
 70
     0
  0
ENDTAB
  0
TABLE
  2
APPID
  5
9
330
0
100
AcDbSymbolTable
 70
     1
  0
APPID
  5
12
330
9
100
AcDbSymbolTableRecord
100
AcDbRegAppTableRecord
  2
ACAD
 70
     0
  0
ENDTAB
  0
TABLE
  2
DIMSTYLE
  5
A
330
0
100
AcDbSymbolTable
 70
     4
100
AcDbDimStyleTable
  0
DIMSTYLE
105
27
330
A
100
AcDbSymbolTableRecord
100
AcDbDimStyleTableRecord
  2
ISO-25
 70
     0
 41
2.5
 42
0.625
 43
3.75
 44
1.25
 73
     0
 74
     0
 77
     1
 78
     8
140
2.5
141
2.5
143
0.03937007874016
147
0.625
171
     3
172
     1
178
     0
271
     2
272
     2
274
     3
278
    44
283
     0
284
     8
340
11
  0
DIMSTYLE
105
DE
102
{ACAD_REACTORS
330
DD
102
}
330
A
100
AcDbSymbolTableRecord
100
AcDbDimStyleTableRecord
  2
SLDDIMSTYLE0
 70
     0
 41
3.302
 44
0.0
 45
0.000000001
 73
     0
 74
     0
 77
     1
 78
    12
 79
     3
140
3.5
147
0.875
172
     1
173
     1
178
     0
271
     1
272
     1
276
     2
284
    12
289
     0
340
97
  0
DIMSTYLE
105
EC
102
{ACAD_REACTORS
330
EB
330
104
102
}
330
A
100
AcDbSymbolTableRecord
100
AcDbDimStyleTableRecord
  2
SLDDIMSTYLE1
 70
     0
 41
3.302
 44
0.0
 45
0.000000001
 73
     0
 74
     0
 77
     1
 78
    12
 79
     3
140
3.5
147
0.875
173
     1
178
     0
271
     2
272
     2
276
     2
284
    12
340
97
  0
DIMSTYLE
105
F7
102
{ACAD_REACTORS
330
F6
102
}
330
A
100
AcDbSymbolTableRecord
100
AcDbDimStyleTableRecord
  2
SLDDIMSTYLE2
 70
     0
 41
3.302
 44
0.0
 45
0.000000001
 73
     0
 74
     0
 77
     1
 78
    12
 79
     3
140
3.5
147
0.875
172
     1
173
     1
178
     0
271
     2
272
     2
276
     2
284
    12
289
     0
340
97
  0
ENDTAB
  0
TABLE
  2
BLOCK_RECORD
  5
1
330
0
100
AcDbSymbolTable
 70
     7
  0
BLOCK_RECORD
  5
1F
330
1
100
AcDbSymbolTableRecord
100
AcDbBlockTableRecord
  2
*Model_Space
340
22
  0
BLOCK_RECORD
  5
1B
330
1
100
AcDbSymbolTableRecord
100
AcDbBlockTableRecord
  2
*Paper_Space
340
1E
  0
BLOCK_RECORD
  5
23
330
1
100
AcDbSymbolTableRecord
100
AcDbBlockTableRecord
  2
*Paper_Space0
340
26
  0
BLOCK_RECORD
  5
82
330
1
100
AcDbSymbolTableRecord
100
AcDbBlockTableRecord
  2
블럭10
340
0
102
{BLKREFS
331
D6
102
}
  0
BLOCK_RECORD
  5
DF
330
1
100
AcDbSymbolTableRecord
100
AcDbBlockTableRecord
  2
_D
340
0
  0
BLOCK_RECORD
  5
ED
330
1
100
AcDbSymbolTableRecord
100
AcDbBlockTableRecord
  2
_D_1
340
0
  0
BLOCK_RECORD
  5
F8
330
1
100
AcDbSymbolTableRecord
100
AcDbBlockTableRecord
  2
_D_2
340
0
  0
BLOCK_RECORD
  5
105
330
1
100
AcDbSymbolTableRecord
100
AcDbBlockTableRecord
  2
_D_3
340
0
  0
BLOCK_RECORD
  5
10E
330
1
100
AcDbSymbolTableRecord
100
AcDbBlockTableRecord
  2
SW_DOWELSYMBOL_0
340
0
102
{BLKREFS
331
114
102
}
  0
ENDTAB
  0
ENDSEC
  0
SECTION
  2
BLOCKS
  0
BLOCK
  5
20
330
1F
100
AcDbEntity
  8
0
100
AcDbBlockBegin
  2
*Model_Space
 70
     0
 10
0.0
 20
0.0
 30
0.0
  3
*Model_Space
  1

  0
ENDBLK
  5
21
330
1F
100
AcDbEntity
  8
0
100
AcDbBlockEnd
  0
BLOCK
  5
1C
330
1B
100
AcDbEntity
 67
     1
  8
0
100
AcDbBlockBegin
  2
*Paper_Space
 70
     0
 10
0.0
 20
0.0
 30
0.0
  3
*Paper_Space
  1

  0
ENDBLK
  5
1D
330
1B
100
AcDbEntity
 67
     1
  8
0
100
AcDbBlockEnd
  0
BLOCK
  5
24
330
23
100
AcDbEntity
  8
0
100
AcDbBlockBegin
  2
*Paper_Space0
 70
     0
 10
0.0
 20
0.0
 30
0.0
  3
*Paper_Space0
  1

  0
ENDBLK
  5
25
330
23
100
AcDbEntity
  8
0
100
AcDbBlockEnd
  0
BLOCK
  5
83
330
82
100
AcDbEntity
  8
0
100
AcDbBlockBegin
  2
블럭10
 70
     2
 10
0.0
 20
0.0
 30
0.0
  3
블럭10
  1

  0
ELLIPSE
  5
85
330
82
100
AcDbEntity
  8
중심선
100
AcDbEllipse
 10
20.54032771741204
 20
12.0471743016438
 30
0.0
 11
6.600054785286829
 21
-1.261213355974178E-13
 31
0.0
210
0.0
220
0.0
230
1.0
 40
0.636358354079598
 41
0.9219305317359503
 42
6.513795318482858
  0
ELLIPSE
  5
86
330
82
100
AcDbEntity
  8
중심선
100
AcDbEllipse
 10
20.54032771746488
 20
12.04717430159265
 30
0.0
 11
3.960054785062283
 21
1.540847449632565E-10
 31
0.0
210
0.0
220
0.0
230
1.0
 40
0.3939339440162632
 41
1.131841032648279
 42
5.62031148352944
  0
LINE
  5
87
330
82
100
AcDbEntity
  8
중심선
100
AcDbLine
 10
2.268634060543552
 20
16.24717430164393
 30
0.0
 11
5.714909304380834
 21
16.24717430164393
 31
0.0
  0
LINE
  5
88
330
82
100
AcDbEntity
  8
중심선
100
AcDbLine
 10
5.245725140726316
 20
7.84717430164391
 30
0.0
 11
8.692000384563599
 21
7.84717430164391
 31
0.0
  0
LINE
  5
89
330
82
100
AcDbEntity
  8
중심선
100
AcDbLine
 10
15.74043728645272
 20
16.24717430164393
 30
0.0
 11
8.692000384563599
 21
7.84717430164391
 31
0.0
  0
LINE
  5
8A
330
82
100
AcDbEntity
  8
중심선
100
AcDbLine
 10
0.1404042013395286
 20
13.71084872107135
 30
0.0
 11
3.58671253028996
 21
13.71088815037384
 31
0.0
  0
LINE
  5
8B
330
82
100
AcDbEntity
  8
중심선
100
AcDbLine
 10
2.750260043222114
 20
10.84717430164391
 30
0.0
 11
6.196535287059397
 21
10.84717430164391
 31
0.0
  0
LINE
  5
8C
330
82
100
AcDbEntity
  8
중심선
100
AcDbLine
 10
12.29416204261559
 20
16.24717430164393
 30
0.0
 11
5.245725140726316
 21
7.84717430164391
 31
0.0
  0
LINE
  5
8D
330
82
100
AcDbEntity
  8
중심선
100
AcDbLine
 10
10.72767329541681
 20
16.24717430164393
 30
0.0
 11
6.196535287059397
 21
10.84717430164391
 31
0.0
  0
LINE
  5
8E
330
82
100
AcDbEntity
  8
중심선
100
AcDbLine
 10
7.28139805157953
 20
16.24717430164393
 30
0.0
 11
2.750260043222114
 21
10.84717430164391
 31
0.0
  0
LINE
  5
8F
330
82
100
AcDbEntity
  8
중심선
100
AcDbLine
 10
5.714909304380834
 20
16.24717430164393
 30
0.0
 11
3.58671253028996
 21
13.71088815037384
 31
0.0
  0
LINE
  5
90
330
82
100
AcDbEntity
  8
중심선
100
AcDbLine
 10
2.268634060543552
 20
16.24717430164393
 30
0.0
 11
0.1404042013395286
 21
13.71084872107135
 31
0.0
  0
LINE
  5
91
330
82
100
AcDbEntity
  8
중심선
100
AcDbLine
 10
7.28139805157953
 20
16.24717430164393
 30
0.0
 11
10.72767329541681
 21
16.24717430164393
 31
0.0
  0
LINE
  5
92
330
82
100
AcDbEntity
  8
중심선
100
AcDbLine
 10
12.29416204261559
 20
16.24717430164393
 30
0.0
 11
15.74043728645272
 21
16.24717430164393
 31
0.0
  0
LINE
  5
93
330
82
100
AcDbEntity
  8
중심선
100
AcDbLine
 10
19.22036997980202
 20
11.08717430171403
 30
0.0
 11
23.66174974927406
 21
11.08717430171406
 31
0.0
  0
LINE
  5
94
330
82
100
AcDbEntity
  8
중심선
100
AcDbLine
 10
19.22039502424796
 20
13.00717430171391
 30
0.0
 11
19.22036997980202
 21
11.08717430171403
 31
0.0
  0
LINE
  5
95
330
82
100
AcDbEntity
  8
중심선
100
AcDbLine
 10
19.22039502424796
 20
13.00717430171391
 30
0.0
 11
26.96566020931264
 21
13.00717430171391
 31
0.0
  0
LINE
  5
96
330
82
100
AcDbEntity
  8
중심선
100
AcDbLine
 10
22.22332737316547
 20
13.45928029700563
 30
0.0
 11
24.52862924686651
 21
15.39360700705356
 31
0.0
  0
ATTDEF
  5
98
330
82
100
AcDbEntity
  8
FORMAT
 62
     2
100
AcDbText
 10
-16.11926103943555
 20
2.075366912832191
 30
0.0
 40
4.233333333333333
  1
SEME7210050E [ 4 FLUTE ]
 41
0.75
  7
SLDTEXTSTYLE0
 11
-16.11926103943555
 21
-0.0412997538344756
 31
0.0
100
AcDbAttributeDefinition
  3

  2
AUTOATTR0
 70
     0
 74
     1
  0
ENDBLK
  5
84
330
82
100
AcDbEntity
  8
0
100
AcDbBlockEnd
  0
BLOCK
  5
E0
330
DF
100
AcDbEntity
  8
0
100
AcDbBlockBegin
  2
_D
 70
     0
 10
0.0
 20
0.0
 30
0.0
  3
_D
  1

  0
LINE
  5
E2
330
DF
100
AcDbEntity
  8
치수문자_일반주서
 62
     0
370
    -2
100
AcDbLine
 10
60.06249999999999
 20
-5.00000000000001
 30
0.0
 11
76.74821459065139
 21
-4.999999999999948
 31
0.0
  0
LINE
  5
E3
330
DF
100
AcDbEntity
  8
치수문자_일반주서
 62
     0
370
    -2
100
AcDbLine
 10
60.06249999999999
 20
4.999999999999999
 30
0.0
 11
76.74821459065136
 21
5.00000000000006
 31
0.0
  0
LINE
  5
E4
330
DF
100
AcDbEntity
  8
치수문자_일반주서
 62
     0
370
    -2
100
AcDbLine
 10
76.74821459065139
 20
-4.999999999999948
 30
0.0
 11
76.74821459065132
 21
19.04150000000006
 31
0.0
  0
LINE
  5
E5
330
DF
100
AcDbEntity
  8
치수문자_일반주서
 62
     0
370
    -2
100
AcDbLine
 10
76.74821459065139
 20
-4.999999999999948
 30
0.0
 11
76.74821459065136
 21
5.00000000000006
 31
0.0
  0
LINE
  5
E6
330
DF
100
AcDbEntity
  8
치수문자_일반주서
 62
     0
370
    -2
100
AcDbLine
 10
76.7482145906514
 20
-8.301999999999948
 30
0.0
 11
76.74821459065141
 21
-11.60399999999995
 31
0.0
  0
LINE
  5
E7
330
DF
100
AcDbEntity
  8
치수문자_일반주서
 62
     0
370
    -2
100
AcDbLine
 10
76.74821459065134
 20
8.30200000000006
 30
0.0
 11
76.74821459065133
 21
11.60400000000006
 31
0.0
  0
SOLID
  5
E8
330
DF
100
AcDbEntity
  8
치수문자_일반주서
 62
     0
100
AcDbTrace
 10
77.29854792398473
 20
-8.301999999999946
 30
0.0
 11
76.19788125731807
 21
-8.30199999999995
 31
0.0
 12
76.74821459065139
 22
-4.999999999999948
 32
0.0
 13
76.74821459065139
 23
-4.999999999999948
 33
0.0
  0
SOLID
  5
E9
330
DF
100
AcDbEntity
  8
치수문자_일반주서
 62
     0
100
AcDbTrace
 10
76.19788125731802
 20
8.302000000000058
 30
0.0
 11
77.29854792398467
 21
8.302000000000062
 31
0.0
 12
76.74821459065136
 22
5.00000000000006
 32
0.0
 13
76.74821459065136
 23
5.00000000000006
 33
0.0
  0
MTEXT
  5
EA
330
DF
100
AcDbEntity
  8
치수문자_일반주서
 62
     0
100
AcDbMText
 10
72.37321459065133
 20
15.32275000000005
 30
0.0
 40
3.5
 41
0.0
 71
     2
 72
     1
  1
\A1;%%c10
  7
SLDTEXTSTYLE0
 11
-2.842170943040398E-15
 21
1.0
 31
0.0
 73
     1
 44
1.0
  0
POINT
  5
143
330
DF
100
AcDbEntity
  8
Defpoints
 62
     0
100
AcDbPoint
 10
59.99999999999999
 20
-5.00000000000001
 30
0.0
  0
POINT
  5
144
330
DF
100
AcDbEntity
  8
Defpoints
 62
     0
100
AcDbPoint
 10
59.99999999999999
 20
4.999999999999999
 30
0.0
  0
POINT
  5
145
330
DF
100
AcDbEntity
  8
Defpoints
 62
     0
100
AcDbPoint
 10
76.74821459065139
 20
5.000000000000061
 30
0.0
  0
ENDBLK
  5
E1
330
DF
100
AcDbEntity
  8
0
100
AcDbBlockEnd
  0
BLOCK
  5
EE
330
ED
100
AcDbEntity
  8
0
100
AcDbBlockBegin
  2
_D_1
 70
     0
 10
0.0
 20
0.0
 30
0.0
  3
_D_1
  1

  0
LINE
  5
F0
330
ED
100
AcDbEntity
  8
치수문자_일반주서
 62
     0
370
    -2
100
AcDbLine
 10
-40.00000000000001
 20
4.562499999999989
 30
0.0
 11
-40.0
 21
22.38913260158164
 31
0.0
  0
LINE
  5
F1
330
ED
100
AcDbEntity
  8
치수문자_일반주서
 62
     0
370
    -2
100
AcDbLine
 10
59.99999999999999
 20
5.062500000000005
 30
0.0
 11
60.0
 21
22.38913260158164
 31
0.0
  0
LINE
  5
F2
330
ED
100
AcDbEntity
  8
치수문자_일반주서
 62
     0
370
    -2
100
AcDbLine
 10
-36.698
 20
22.38913260158164
 30
0.0
 11
56.698
 21
22.38913260158164
 31
0.0
  0
SOLID
  5
F3
330
ED
100
AcDbEntity
  8
치수문자_일반주서
 62
     0
100
AcDbTrace
 10
-36.698
 20
22.93946593491497
 30
0.0
 11
-36.698
 21
21.83879926824831
 31
0.0
 12
-40.0
 22
22.38913260158164
 32
0.0
 13
-40.0
 23
22.38913260158164
 33
0.0
  0
SOLID
  5
F4
330
ED
100
AcDbEntity
  8
치수문자_일반주서
 62
     0
100
AcDbTrace
 10
56.698
 20
21.83879926824831
 30
0.0
 11
56.698
 21
22.93946593491497
 31
0.0
 12
60.0
 22
22.38913260158164
 32
0.0
 13
60.0
 23
22.38913260158164
 33
0.0
  0
MTEXT
  5
F5
330
ED
100
AcDbEntity
  8
치수문자_일반주서
 62
     0
100
AcDbMText
 10
9.999999999999996
 20
26.76413260158164
 30
0.0
 40
3.5
 41
0.0
 71
     2
 72
     1
  1
\A1;100
  7
SLDTEXTSTYLE0
 73
     1
 44
1.0
  0
POINT
  5
13A
330
ED
100
AcDbEntity
  8
Defpoints
 62
     0
100
AcDbPoint
 10
-40.00000000000001
 20
4.499999999999989
 30
0.0
  0
POINT
  5
13B
330
ED
100
AcDbEntity
  8
Defpoints
 62
     0
100
AcDbPoint
 10
59.99999999999999
 20
5.000000000000005
 30
0.0
  0
POINT
  5
13C
330
ED
100
AcDbEntity
  8
Defpoints
 62
     0
100
AcDbPoint
 10
59.99999999999999
 20
22.38913260158164
 30
0.0
  0
ENDBLK
  5
EF
330
ED
100
AcDbEntity
  8
0
100
AcDbBlockEnd
  0
BLOCK
  5
F9
330
F8
100
AcDbEntity
  8
0
100
AcDbBlockBegin
  2
_D_2
 70
     0
 10
0.0
 20
0.0
 30
0.0
  3
_D_2
  1

  0
LINE
  5
FB
330
F8
100
AcDbEntity
  8
치수문자_일반주서
 62
     0
370
    -2
100
AcDbLine
 10
-39.56249999999999
 20
5.0
 30
0.0
 11
-52.71780771540321
 21
4.99999999999995
 31
0.0
  0
LINE
  5
FC
330
F8
100
AcDbEntity
  8
치수문자_일반주서
 62
     0
370
    -2
100
AcDbLine
 10
-39.56249999999999
 20
-5.000000000000009
 30
0.0
 11
-52.71780771540318
 21
-5.000000000000057
 31
0.0
  0
LINE
  5
FD
330
F8
100
AcDbEntity
  8
치수문자_일반주서
 62
     0
370
    -2
100
AcDbLine
 10
-52.71780771540321
 20
4.99999999999995
 30
0.0
 11
-52.71780771540326
 21
19.04149999999995
 31
0.0
  0
LINE
  5
FE
330
F8
100
AcDbEntity
  8
치수문자_일반주서
 62
     0
370
    -2
100
AcDbLine
 10
-52.71780771540321
 20
4.99999999999995
 30
0.0
 11
-52.71780771540318
 21
-5.000000000000057
 31
0.0
  0
LINE
  5
FF
330
F8
100
AcDbEntity
  8
치수문자_일반주서
 62
     0
370
    -2
100
AcDbLine
 10
-52.71780771540323
 20
8.30199999999995
 30
0.0
 11
-52.71780771540324
 21
11.60399999999995
 31
0.0
  0
LINE
  5
100
330
F8
100
AcDbEntity
  8
치수문자_일반주서
 62
     0
370
    -2
100
AcDbLine
 10
-52.71780771540316
 20
-8.302000000000056
 30
0.0
 11
-52.71780771540315
 21
-11.60400000000006
 31
0.0
  0
SOLID
  5
101
330
F8
100
AcDbEntity
  8
치수문자_일반주서
 62
     0
100
AcDbTrace
 10
-53.26814104873656
 20
8.301999999999948
 30
0.0
 11
-52.16747438206989
 21
8.301999999999952
 31
0.0
 12
-52.71780771540321
 22
4.99999999999995
 32
0.0
 13
-52.71780771540321
 23
4.99999999999995
 33
0.0
  0
SOLID
  5
102
330
F8
100
AcDbEntity
  8
치수문자_일반주서
 62
     0
100
AcDbTrace
 10
-52.16747438206983
 20
-8.302000000000055
 30
0.0
 11
-53.2681410487365
 21
-8.302000000000058
 31
0.0
 12
-52.71780771540318
 22
-5.000000000000057
 32
0.0
 13
-52.71780771540318
 23
-5.000000000000057
 33
0.0
  0
MTEXT
  5
103
330
F8
100
AcDbEntity
  8
치수문자_일반주서
 62
     0
100
AcDbMText
 10
-57.09280771540325
 20
15.32274999999994
 30
0.0
 40
3.5
 41
0.0
 71
     2
 72
     1
  1
\A1;%%c10
  7
SLDTEXTSTYLE0
 11
-3.552713678800498E-15
 21
1.0
 31
0.0
 73
     1
 44
1.0
  0
POINT
  5
140
330
F8
100
AcDbEntity
  8
Defpoints
 62
     0
100
AcDbPoint
 10
-39.49999999999999
 20
5.0
 30
0.0
  0
POINT
  5
141
330
F8
100
AcDbEntity
  8
Defpoints
 62
     0
100
AcDbPoint
 10
-39.49999999999999
 20
-5.000000000000009
 30
0.0
  0
POINT
  5
142
330
F8
100
AcDbEntity
  8
Defpoints
 62
     0
100
AcDbPoint
 10
-52.71780771540321
 20
-5.000000000000059
 30
0.0
  0
ENDBLK
  5
FA
330
F8
100
AcDbEntity
  8
0
100
AcDbBlockEnd
  0
BLOCK
  5
106
330
105
100
AcDbEntity
  8
0
100
AcDbBlockBegin
  2
_D_3
 70
     0
 10
0.0
 20
0.0
 30
0.0
  3
_D_3
  1

  0
LINE
  5
108
330
105
100
AcDbEntity
  8
치수문자_일반주서
 62
     0
370
    -2
100
AcDbLine
 10
9.999999999999993
 20
4.858779735592967
 30
0.0
 11
9.999999999999993
 21
15.64219803818062
 31
0.0
  0
LINE
  5
109
330
105
100
AcDbEntity
  8
치수문자_일반주서
 62
     0
370
    -2
100
AcDbLine
 10
59.99999999999999
 20
5.062500000000005
 30
0.0
 11
59.99999999999999
 21
15.64219803818062
 31
0.0
  0
LINE
  5
10A
330
105
100
AcDbEntity
  8
치수문자_일반주서
 62
     0
370
    -2
100
AcDbLine
 10
13.30199999999999
 20
15.64219803818062
 30
0.0
 11
56.69799999999999
 21
15.64219803818062
 31
0.0
  0
SOLID
  5
10B
330
105
100
AcDbEntity
  8
치수문자_일반주서
 62
     0
100
AcDbTrace
 10
13.30199999999999
 20
16.19253137151395
 30
0.0
 11
13.30199999999999
 21
15.09186470484728
 31
0.0
 12
9.999999999999993
 22
15.64219803818062
 32
0.0
 13
9.999999999999993
 23
15.64219803818062
 33
0.0
  0
SOLID
  5
10C
330
105
100
AcDbEntity
  8
치수문자_일반주서
 62
     0
100
AcDbTrace
 10
56.69799999999999
 20
15.09186470484728
 30
0.0
 11
56.69799999999999
 21
16.19253137151395
 31
0.0
 12
59.99999999999999
 22
15.64219803818062
 32
0.0
 13
59.99999999999999
 23
15.64219803818062
 33
0.0
  0
MTEXT
  5
10D
330
105
100
AcDbEntity
  8
치수문자_일반주서
 62
     0
100
AcDbMText
 10
35.0
 20
20.01719803818062
 30
0.0
 40
3.5
 41
0.0
 71
     2
 72
     1
  1
\A1;50
  7
SLDTEXTSTYLE0
 73
     1
 44
1.0
  0
POINT
  5
13D
330
105
100
AcDbEntity
  8
Defpoints
 62
     0
100
AcDbPoint
 10
9.999999999999993
 20
4.796279735592967
 30
0.0
  0
POINT
  5
13E
330
105
100
AcDbEntity
  8
Defpoints
 62
     0
100
AcDbPoint
 10
59.99999999999999
 20
5.000000000000005
 30
0.0
  0
POINT
  5
13F
330
105
100
AcDbEntity
  8
Defpoints
 62
     0
100
AcDbPoint
 10
59.99999999999999
 20
15.64219803818062
 30
0.0
  0
ENDBLK
  5
107
330
105
100
AcDbEntity
  8
0
100
AcDbBlockEnd
  0
BLOCK
  5
10F
330
10E
100
AcDbEntity
  8
0
100
AcDbBlockBegin
  2
SW_DOWELSYMBOL_0
 70
     0
 10
0.0
 20
0.0
 30
0.0
  3
SW_DOWELSYMBOL_0
  1

  0
CIRCLE
  5
111
330
10E
100
AcDbEntity
  8
해칭선
 62
     0
100
AcDbCircle
 10
0.0
 20
0.0
 30
0.0
 40
3.0
  0
HATCH
  5
112
330
10E
100
AcDbEntity
  8
0
  6
Continuous
 62
     0
370
    18
100
AcDbHatch
 10
0.0
 20
0.0
 30
0.0
210
0.0
220
0.0
230
1.0
  2
SOLID
 70
     1
 71
     0
 91
        1
 92
        0
 93
        3
 72
     2
 10
0.0
 20
0.0
 40
3.0
 50
0.0
 51
90.0
 73
     1
 72
     1
 10
0.0
 20
3.0
 11
0.0
 21
0.0
 72
     1
 10
0.0
 20
0.0
 11
3.0
 21
0.0
 97
        0
 75
     0
 76
     1
 98
        1
 10
0.0
 20
0.0
  0
HATCH
  5
113
330
10E
100
AcDbEntity
  8
0
  6
Continuous
 62
     0
370
    18
100
AcDbHatch
 10
0.0
 20
0.0
 30
0.0
210
0.0
220
0.0
230
1.0
  2
SOLID
 70
     1
 71
     0
 91
        1
 92
        0
 93
        3
 72
     2
 10
0.0
 20
0.0
 40
3.0
 50
180.0
 51
270.0000000000008
 73
     1
 72
     1
 10
0.0
 20
-3.0
 11
0.0
 21
0.0
 72
     1
 10
0.0
 20
0.0
 11
-3.0
 21
0.0
 97
        0
 75
     0
 76
     1
 98
        1
 10
0.0
 20
0.0
  0
ENDBLK
  5
110
330
10E
100
AcDbEntity
  8
0
100
AcDbBlockEnd
  0
ENDSEC
  0
SECTION
  2
ENTITIES
  0
LINE
  5
99
330
1F
100
AcDbEntity
  8
0
  6
Continuous
 62
     4
370
    25
100
AcDbLine
 10
8.501590206655832
 20
4.999999999999996
 30
0.0
 11
-39.50000000000001
 21
4.999999999999993
 31
0.0
  0
LINE
  5
9A
330
1F
100
AcDbEntity
  8
0
  6
Continuous
 62
     4
370
    25
100
AcDbLine
 10
-39.50000000000001
 20
-5.000000000000007
 30
0.0
 11
8.501590206655822
 21
-5.000000000000004
 31
0.0
  0
LINE
  5
9B
330
1F
100
AcDbEntity
  8
0
  6
Continuous
 62
     4
370
    25
100
AcDbLine
 10
-39.50000000000001
 20
4.999999999999989
 30
0.0
 11
-40.00000000000001
 21
4.499999999999988
 31
0.0
  0
LINE
  5
9C
330
1F
100
AcDbEntity
  8
0
  6
Continuous
 62
     4
370
    25
100
AcDbLine
 10
-40.00000000000001
 20
-4.500000000000004
 30
0.0
 11
-39.50000000000001
 21
-5.000000000000004
 31
0.0
  0
LINE
  5
9D
330
1F
100
AcDbEntity
  8
0
  6
Continuous
 62
     1
370
    25
100
AcDbLine
 10
58.0660849353385
 20
-5.000000000000009
 30
0.0
 11
59.99999999999999
 21
-5.000000000000009
 31
0.0
  0
LINE
  5
9E
330
1F
100
AcDbEntity
  8
0
  6
Continuous
 62
     1
370
    25
100
AcDbLine
 10
34.7271926391095
 20
5.0
 30
0.0
 11
30.8590270376006
 21
5.0
 31
0.0
  0
LINE
  5
9F
330
1F
100
AcDbEntity
  8
0
  6
Continuous
 62
     1
370
    25
100
AcDbLine
 10
44.46241262129657
 20
-5.000000000000009
 30
0.0
 11
48.33048885442639
 21
-5.000000000000009
 31
0.0
  0
LINE
  5
A0
330
1F
100
AcDbEntity
  8
0
  6
Continuous
 62
     1
370
    25
100
AcDbLine
 10
21.12355886635456
 20
5.0
 30
0.0
 11
17.25537522894421
 21
5.0
 31
0.0
  0
LINE
  5
A1
330
1F
100
AcDbEntity
  8
0
  6
Continuous
 62
     1
370
    25
100
AcDbLine
 10
18.71328975205528
 20
-0.8337180441520375
 30
0.0
 11
18.4973714902245
 21
-0.7142704473770456
 31
0.0
  0
LINE
  5
A2
330
1F
100
AcDbEntity
  8
0
  6
Continuous
 62
     1
370
    25
100
AcDbLine
 10
59.92661719428769
 20
1.147387368730887
 30
0.0
 11
59.99999999999999
 21
1.11104102232387
 31
0.0
  0
LINE
  5
A3
330
1F
100
AcDbEntity
  8
0
  6
Continuous
 62
     1
370
    25
100
AcDbLine
 10
17.25537522894428
 20
-5.000000000000009
 30
0.0
 11
21.12355886635458
 21
-5.000000000000009
 31
0.0
  0
LINE
  5
A4
330
1F
100
AcDbEntity
  8
0
  6
Continuous
 62
     1
370
    25
100
AcDbLine
 10
48.33048885442642
 20
5.0
 30
0.0
 11
44.46241262129665
 21
5.0
 31
0.0
  0
LINE
  5
A5
330
1F
100
AcDbEntity
  8
0
  6
Continuous
 62
     1
370
    25
100
AcDbLine
 10
30.8590270376006
 20
-5.000000000000009
 30
0.0
 11
34.72719263910941
 21
-5.000000000000009
 31
0.0
  0
LINE
  5
A6
330
1F
100
AcDbEntity
  8
0
  6
Continuous
 62
     1
370
    25
100
AcDbLine
 10
59.99999999999999
 20
5.0
 30
0.0
 11
58.0660849353385
 21
5.0
 31
0.0
  0
SPLINE
  5
A7
330
1F
100
AcDbEntity
  8
0
  6
Continuous
 62
     4
370
    25
100
AcDbSpline
210
0.0
220
0.0
230
1.0
 70
     8
 71
     3
 72
    14
 73
    10
 74
     0
 42
0.000000001
 43
0.00000001
 40
0.0
 40
0.0
 40
0.0
 40
0.0
 40
0.25
 40
0.25
 40
0.5
 40
0.5
 40
0.75
 40
0.75
 40
1.0
 40
1.0
 40
1.0
 40
1.0
 10
9.004016425262222
 20
-0.8521138215592625
 30
0.0
 10
8.925100552046986
 20
-0.8072369545602209
 30
0.0
 10
8.854188882532773
 20
-0.7527510536005149
 30
0.0
 10
8.727903915577123
 20
-0.6248394888959055
 30
0.0
 10
8.673504874584449
 20
-0.5518009570031952
 30
0.0
 10
8.586790529695369
 20
-0.3949772212238771
 30
0.0
 10
8.553607212677946
 20
-0.3093423457957964
 30
0.0
 10
8.510549607602524
 20
-0.1348847618721888
 30
0.0
 10
8.499999493707032
 20
-0.0443969175460627
 30
0.0
 10
8.499999493707032
 20
0.0466169912732706
 30
0.0
  0
SPLINE
  5
A8
330
1F
100
AcDbEntity
  8
0
  6
Continuous
 62
     4
370
    25
100
AcDbSpline
210
0.0
220
0.0
230
1.0
 70
     8
 71
     3
 72
    20
 73
    16
 74
     0
 42
0.000000001
 43
0.00000001
 40
0.0
 40
0.0
 40
0.0
 40
0.0
 40
0.125
 40
0.125
 40
0.25
 40
0.25
 40
0.375
 40
0.375
 40
0.5
 40
0.5
 40
0.625
 40
0.625
 40
0.75
 40
0.75
 40
1.0
 40
1.0
 40
1.0
 40
1.0
 10
8.499999493707035
 20
3.056017633004904
 30
0.0
 10
8.499999493707035
 20
3.126582552474777
 30
0.0
 10
8.509928485068663
 20
3.194368950685868
 30
0.0
 10
8.551144857717041
 20
3.324534081755416
 30
0.0
 10
8.582878880605689
 20
3.386883251546061
 30
0.0
 10
8.665738063923797
 20
3.499230001752232
 30
0.0
 10
8.718086120172938
 20
3.550941853359034
 30
0.0
 10
8.83933556261015
 20
3.640255803086124
 30
0.0
 10
8.907799377982334
 20
3.678018842542329
 30
0.0
 10
9.06019119114768
 20
3.74024366763712
 30
0.0
 10
9.140884579229306
 20
3.763438981356166
 30
0.0
 10
9.311039694585903
 20
3.795415544233263
 30
0.0
 10
9.399752548592183
 20
3.803799683844161
 30
0.0
 10
9.663975253391856
 20
3.8058999339049
 30
0.0
 10
9.841173381300216
 20
3.776813858674517
 30
0.0
 10
9.995853653783739
 20
3.717130732084431
 30
0.0
  0
SPLINE
  5
A9
330
1F
100
AcDbEntity
  8
0
  6
Continuous
 62
     4
370
    25
100
AcDbSpline
210
0.0
220
0.0
230
1.0
 70
     8
 71
     3
 72
    11
 73
     7
 74
     0
 42
0.000000001
 43
0.00000001
 40
0.0
 40
0.0
 40
0.0
 40
0.0
 40
0.3217500792758274
 40
0.6434406763451908
 40
0.9676699158524111
 40
1.0
 40
1.0
 40
1.0
 40
1.0
 10
9.004016425262222
 20
4.926855187144805
 30
0.0
 10
8.913017339206922
 20
4.937459022570292
 30
0.0
 10
8.731035990173526
 20
4.958664733081331
 30
0.0
 10
8.560725981065586
 20
4.989833639238788
 30
0.0
 10
8.505306930954378
 20
5.000212758778837
 30
0.0
 10
8.501899194267512
 20
4.999875082219741
 30
0.0
 10
8.501590206655832
 20
4.999844464280883
 30
0.0
  0
SPLINE
  5
AA
330
1F
100
AcDbEntity
  8
0
  6
Continuous
 62
     4
370
    25
100
AcDbSpline
210
0.0
220
0.0
230
1.0
 70
     8
 71
     3
 72
     8
 73
     4
 74
     0
 42
0.000000001
 43
0.00000001
 40
0.0
 40
0.0
 40
0.0
 40
0.0
 40
1.0
 40
1.0
 40
1.0
 40
1.0
 10
9.999999999999993
 20
4.796279735592967
 30
0.0
 10
9.666857379148937
 20
4.850580489170203
 30
0.0
 10
9.336974567943143
 20
4.894107878280773
 30
0.0
 10
9.004016425262222
 20
4.926855187144805
 30
0.0
  0
LINE
  5
AB
330
1F
100
AcDbEntity
  8
0
  6
Continuous
 62
     4
370
    25
100
AcDbLine
 10
9.999999999999993
 20
4.796279735592967
 30
0.0
 11
9.999999999999995
 21
3.715530465701587
 31
0.0
  0
LINE
  5
AC
330
1F
100
AcDbEntity
  8
0
  6
Continuous
 62
     4
370
    25
100
AcDbLine
 10
9.995853653783739
 20
3.71713073208442
 30
0.0
 11
9.999999999999995
 21
3.715530465701576
 31
0.0
  0
SPLINE
  5
AD
330
1F
100
AcDbEntity
  8
0
  6
Continuous
 62
     4
370
    25
100
AcDbSpline
210
0.0
220
0.0
230
1.0
 70
     8
 71
     3
 72
     8
 73
     4
 74
     0
 42
0.000000001
 43
0.00000001
 40
0.0
 40
0.0
 40
0.0
 40
0.0
 40
1.0
 40
1.0
 40
1.0
 40
1.0
 10
9.999999999999993
 20
-1.412692711784208
 30
0.0
 10
9.666857379148937
 20
-1.228334427893169
 30
0.0
 10
9.336974567943143
 20
-1.041456189280225
 30
0.0
 10
9.004016425262222
 20
-0.8521138215592626
 30
0.0
  0
LINE
  5
AE
330
1F
100
AcDbEntity
  8
0
  6
Continuous
 62
     4
370
    25
100
AcDbLine
 10
9.999999999999993
 20
-1.412692711784208
 30
0.0
 11
9.999999999999995
 21
-3.345868102367968
 31
0.0
  0
LINE
  5
AF
330
1F
100
AcDbEntity
  8
0
  6
Continuous
 62
     4
370
    25
100
AcDbLine
 10
9.995853653783739
 20
-3.344090178298649
 30
0.0
 11
9.999999999999995
 21
-3.34586810236796
 31
0.0
  0
SPLINE
  5
B0
330
1F
100
AcDbEntity
  8
0
  6
Continuous
 62
     4
370
    25
100
AcDbSpline
210
0.0
220
0.0
230
1.0
 70
     8
 71
     3
 72
    20
 73
    16
 74
     0
 42
0.000000001
 43
0.00000001
 40
0.0
 40
0.0
 40
0.0
 40
0.0
 40
0.125
 40
0.125
 40
0.25
 40
0.25
 40
0.375
 40
0.375
 40
0.5
 40
0.5
 40
0.625
 40
0.625
 40
0.75
 40
0.75
 40
1.0
 40
1.0
 40
1.0
 40
1.0
 10
8.499999493707035
 20
-3.957367335333327
 30
0.0
 10
8.499999493707035
 20
-3.902874633519651
 30
0.0
 10
8.509928485068663
 20
-3.847515173693711
 30
0.0
 10
8.551144857717041
 20
-3.735617638912735
 30
0.0
 10
8.582878880605689
 20
-3.678997541192691
 30
0.0
 10
8.665738063923797
 20
-3.572308841987512
 30
0.0
 10
8.718086120172938
 20
-3.52064510648504
 30
0.0
 10
8.83933556261015
 20
-3.428216402132712
 30
0.0
 10
8.907799377982334
 20
-3.387378031768698
 30
0.0
 10
9.060191191147677
 20
-3.318543331479342
 30
0.0
 10
9.140884579229306
 20
-3.291978645249675
 30
0.0
 10
9.311039694585903
 20
-3.255060247332382
 30
0.0
 10
9.399752548592183
 20
-3.245167041813626
 30
0.0
 10
9.663975253391856
 20
-3.242704172361051
 30
0.0
 10
9.841173381300216
 20
-3.277749268751845
 30
0.0
 10
9.995853653783739
 20
-3.344090178298657
 30
0.0
  0
LINE
  5
B1
330
1F
100
AcDbEntity
  8
0
  6
Continuous
 62
     4
370
    25
100
AcDbLine
 10
8.499999493707035
 20
-3.957367335333327
 30
0.0
 11
8.499999493707032
 21
-4.999782680889708
 31
0.0
  0
SPLINE
  5
B2
330
1F
100
AcDbEntity
  8
0
  6
Continuous
 62
     4
370
    25
100
AcDbSpline
210
0.0
220
0.0
230
1.0
 70
     8
 71
     3
 72
    14
 73
    10
 74
     0
 42
0.000000001
 43
0.00000001
 40
0.0
 40
0.0
 40
0.0
 40
0.0
 40
0.25
 40
0.25
 40
0.5
 40
0.5
 40
0.75
 40
0.75
 40
1.0
 40
1.0
 40
1.0
 40
1.0
 10
9.004016425262222
 20
-4.926855187144819
 30
0.0
 10
8.925100552046986
 20
-4.934616770789076
 30
0.0
 10
8.85418888253277
 20
-4.943433555710593
 30
0.0
 10
8.727903915577123
 20
-4.961224151511243
 30
0.0
 10
8.673504874584449
 20
-4.970082467841283
 30
0.0
 10
8.586790529695373
 20
-4.984997194383083
 30
0.0
 10
8.553607212677946
 20
-4.991185352207348
 30
0.0
 10
8.510549607602524
 20
-4.998942889052276
 30
0.0
 10
8.499999493707032
 20
-5.000631276691559
 30
0.0
 10
8.499999493707032
 20
-4.999782680889708
 30
0.0
  0
SPLINE
  5
B3
330
1F
100
AcDbEntity
  8
0
  6
Continuous
 62
     4
370
    25
100
AcDbSpline
210
0.0
220
0.0
230
1.0
 70
     8
 71
     3
 72
     8
 73
     4
 74
     0
 42
0.000000001
 43
0.00000001
 40
0.0
 40
0.0
 40
0.0
 40
0.0
 40
1.0
 40
1.0
 40
1.0
 40
1.0
 10
9.999999999999993
 20
-4.796279735592986
 30
0.0
 10
9.666857379148937
 20
-4.850580489170221
 30
0.0
 10
9.336974567943143
 20
-4.894107878280789
 30
0.0
 10
9.004016425262222
 20
-4.92685518714482
 30
0.0
  0
LINE
  5
B4
330
1F
100
AcDbEntity
  8
0
  6
Continuous
 62
     4
370
    25
100
AcDbLine
 10
-39.50000000000001
 20
4.999999999999989
 30
0.0
 11
-39.50000000000001
 21
-5.000000000000004
 31
0.0
  0
LINE
  5
B5
330
1F
100
AcDbEntity
  8
0
  6
Continuous
 62
     4
370
    25
100
AcDbLine
 10
8.499999493707035
 20
3.056017633004904
 30
0.0
 11
8.499999493707032
 21
0.0466169912732706
 31
0.0
  0
LINE
  5
B6
330
1F
100
AcDbEntity
  8
0
  6
Continuous
 62
     4
370
    25
100
AcDbLine
 10
-40.00000000000001
 20
4.499999999999989
 30
0.0
 11
-40.00000000000001
 21
-4.500000000000001
 31
0.0
  0
SPLINE
  5
B7
330
1F
100
AcDbEntity
  8
0
  6
Continuous
 62
     4
370
    25
100
AcDbSpline
210
0.0
220
0.0
230
1.0
 70
    24
 71
     3
 72
    24
 73
    20
 74
     0
 42
0.000000001
 43
0.00000001
 40
0.0
 40
0.0
 40
0.0
 40
0.0
 40
0.0624999999999999
 40
0.0624999999999999
 40
0.1249999999999998
 40
0.1249999999999998
 40
0.2499999999999999
 40
0.2499999999999999
 40
0.3749999999999999
 40
0.3749999999999999
 40
0.4999999999999999
 40
0.4999999999999999
 40
0.6249999999999999
 40
0.6249999999999999
 40
0.7499999999999999
 40
0.7499999999999999
 40
0.8749999999999999
 40
0.8749999999999999
 40
1.0
 40
1.0
 40
1.0
 40
1.0
 10
9.999999999999995
 20
3.715530465701602
 30
0.0
 10
9.999999999999995
 20
3.642435424224387
 30
0.0
 10
9.999999999999995
 20
3.570050782818888
 30
0.0
 10
9.999999999999995
 20
3.42743025117425
 30
0.0
 10
9.999999999999995
 20
3.354139651724989
 30
0.0
 10
9.999999999999995
 20
3.11935635395592
 30
0.0
 10
9.999999999999995
 20
2.946262872476728
 30
0.0
 10
9.999999999999995
 20
2.564216508077593
 30
0.0
 10
9.999999999999995
 20
2.355153150754091
 30
0.0
 10
9.999999999999998
 20
1.902908491655409
 30
0.0
 10
9.999999999999998
 20
1.659603754053831
 30
0.0
 10
9.999999999999998
 20
1.148880104661071
 30
0.0
 10
9.999999999999998
 20
0.8814108131339118
 30
0.0
 10
9.999999999999998
 20
0.3436332007422274
 30
0.0
 10
9.999999999999998
 20
0.0734743210920971
 30
0.0
 10
9.999999999999998
 20
-0.4381439198638746
 30
0.0
 10
9.999999999999998
 20
-0.6792197846938545
 30
0.0
 10
9.999999999999998
 20
-1.098936449227825
 30
0.0
 10
9.999999999999998
 20
-1.277165012235939
 30
0.0
 10
9.999999999999998
 20
-1.412692711784213
 30
0.0
  0
SPLINE
  5
B8
330
1F
100
AcDbEntity
  8
0
  6
Continuous
 62
     4
370
    25
100
AcDbSpline
210
0.0
220
0.0
230
1.0
 70
    24
 71
     3
 72
    11
 73
     7
 74
     0
 42
0.000000001
 43
0.00000001
 40
0.0
 40
0.0
 40
0.0
 40
0.0
 40
0.3226651299561121
 40
0.6441598004784939
 40
0.9749778382256173
 40
1.0
 40
1.0
 40
1.0
 40
1.0
 10
9.999999999999993
 20
-3.414842996496204
 30
0.0
 10
9.999999999999993
 20
-3.535799991587242
 30
0.0
 10
9.999999999999993
 20
-3.777275213390475
 30
0.0
 10
9.999999999999995
 20
-4.234780590507286
 30
0.0
 10
9.999999999999986
 20
-4.58801643898257
 30
0.0
 10
9.999999999999993
 20
-4.782597107880129
 30
0.0
 10
9.999999999999995
 20
-4.796279735592987
 30
0.0
  0
SPLINE
  5
B9
330
1F
100
AcDbEntity
  8
0
  6
Continuous
 62
     1
370
    25
100
AcDbSpline
210
0.0
220
0.0
230
1.0
 70
     8
 71
     3
 72
    26
 73
    22
 74
     0
 42
0.000000001
 43
0.00000001
 40
0.0
 40
0.0
 40
0.0
 40
0.0
 40
0.0281197753166106
 40
0.085474038402102
 40
0.1428238203552394
 40
0.2001696995037415
 40
0.2575122568566987
 40
0.3148520757090846
 40
0.3721897412429119
 40
0.4295258401256152
 40
0.4868609601062455
 40
0.5441956896100715
 40
0.6015306173321809
 40
0.6588663318306881
 40
0.7140627064713448
 40
0.7692655470322545
 40
0.8244775217634263
 40
0.8797012816779755
 40
0.9349302989063957
 40
0.990147094380401
 40
1.0
 40
1.0
 40
1.0
 40
1.0
 10
25.99126192060697
 20
4.206941299182907
 30
0.0
 10
26.29192635907905
 20
4.304168233647585
 30
0.0
 10
27.2058384892705
 20
4.599703266790026
 30
0.0
 10
28.73291973297051
 20
4.880286759864498
 30
0.0
 10
30.57246422756268
 20
5.036658239053205
 30
0.0
 10
32.41185732348215
 20
4.956583109962857
 30
0.0
 10
34.25112292892502
 20
4.656479043082296
 30
0.0
 10
36.09028308250002
 20
4.146414200728058
 30
0.0
 10
37.92936033611268
 20
3.450235584249231
 30
0.0
 10
39.76837751377852
 20
2.598982676483887
 30
0.0
 10
41.60735619674912
 20
1.630971386343827
 30
0.0
 10
43.44632292647526
 20
0.5896746512695329
 30
0.0
 10
45.28528580980238
 20
-0.4781125571454071
 30
0.0
 10
47.10143415644317
 20
-1.511420947374241
 30
0.0
 10
48.89464259443024
 20
-2.466126374765869
 30
0.0
 10
50.66523290668556
 20
-3.306298308222617
 30
0.0
 10
52.43616004497549
 20
-4.007435444901416
 30
0.0
 10
54.20745599612447
 20
-4.546652495792455
 30
0.0
 10
55.97885649251424
 20
-4.877598109587524
 30
0.0
 10
57.26506301704976
 20
-5.021373129617738
 30
0.0
 10
57.96074432178589
 20
-4.989528538799237
 30
0.0
 10
58.06608493533849
 20
-4.984706605663596
 30
0.0
  0
SPLINE
  5
BA
330
1F
100
AcDbEntity
  8
0
  6
Continuous
 62
     1
370
    25
100
AcDbSpline
210
0.0
220
0.0
230
1.0
 70
     8
 71
     3
 72
    21
 73
    17
 74
     0
 42
0.000000001
 43
0.00000001
 40
0.0
 40
0.0
 40
0.0
 40
0.0
 40
0.0727949731963014
 40
0.1455837671027124
 40
0.218367113127574
 40
0.291145746417505
 40
0.3639204053587475
 40
0.4366918310737665
 40
0.5094607669138275
 40
0.5822279579482984
 40
0.6549941504514186
 40
0.7277600913872943
 40
0.8005265278938707
 40
0.8732942067666544
 40
0.946063873942935
 40
1.0
 40
1.0
 40
1.0
 40
1.0
 10
59.99999999999999
 20
-4.875828491775111
 30
0.0
 10
59.38671809471908
 20
-4.776180635406404
 30
0.0
 10
58.1602063433381
 20
-4.576893381398551
 30
0.0
 10
56.32055113704038
 20
-4.013536345164234
 30
0.0
 10
54.481058583731
 20
-3.285554829520787
 30
0.0
 10
52.6417095764208
 20
-2.405728775653653
 30
0.0
 10
50.80248088812596
 20
-1.418944981913971
 30
0.0
 10
48.96335028102136
 20
-0.3681187400881461
 30
0.0
 10
47.12429515940252
 20
0.6991633115329398
 30
0.0
 10
45.28529294572651
 20
1.735002267649186
 30
0.0
 10
43.4463210205782
 20
2.693017790262583
 30
0.0
 10
41.60735668448677
 20
3.529486793034819
 30
0.0
 10
39.76837746873399
 20
4.209399907590741
 30
0.0
 10
37.92936002853373
 20
4.69260218756282
 30
0.0
 10
36.24896409547212
 20
4.9672898377623
 30
0.0
 10
35.18156368112918
 20
4.975084380420837
 30
0.0
 10
34.72719263910951
 20
4.978402361585389
 30
0.0
  0
SPLINE
  5
BB
330
1F
100
AcDbEntity
  8
0
  6
Continuous
 62
     1
370
    25
100
AcDbSpline
210
0.0
220
0.0
230
1.0
 70
     8
 71
     3
 72
     9
 73
     5
 74
     0
 42
0.000000001
 43
0.00000001
 40
0.0
 40
0.0
 40
0.0
 40
0.0
 40
0.2063277533295514
 40
1.0
 40
1.0
 40
1.0
 40
1.0
 10
12.38839676425909
 20
-4.211303469452247
 30
0.0
 10
12.22413229468278
 20
-4.267761324413185
 30
0.0
 10
11.42799863391473
 20
-4.541393223417875
 30
0.0
 10
10.63186732477303
 20
-4.683496393407795
 30
0.0
 10
10.00000000000184
 20
-4.796279735592686
 30
0.0
  0
LINE
  5
BC
330
1F
100
AcDbEntity
  8
0
  6
Continuous
 62
     1
370
    25
100
AcDbLine
 10
59.99999999999999
 20
-5.000000000000014
 30
0.0
 11
59.99999999999999
 21
-4.875828491776317
 31
0.0
  0
SPLINE
  5
BD
330
1F
100
AcDbEntity
  8
0
  6
Continuous
 62
     1
370
    25
100
AcDbSpline
210
0.0
220
0.0
230
1.0
 70
     8
 71
     3
 72
    25
 73
    21
 74
     0
 42
0.000000001
 43
0.00000001
 40
0.0
 40
0.0
 40
0.0
 40
0.0
 40
0.0437367221979355
 40
0.1028381147082012
 40
0.1619402018318407
 40
0.2210430396114909
 40
0.2801466839809741
 40
0.3375004944234693
 40
0.3948589860706458
 40
0.4522202651725155
 40
0.5095770681882461
 40
0.5669293898731761
 40
0.6242778085806353
 40
0.6816229053454441
 40
0.7389652634884073
 40
0.7963054682174523
 40
0.8536441062259942
 40
0.9109817652891126
 40
0.9683190338581342
 40
1.0
 40
1.0
 40
1.0
 40
1.0
 10
12.38839676425902
 20
4.211303469452241
 30
0.0
 10
12.85600744398023
 20
4.352375687721316
 30
0.0
 10
13.9555000054557
 20
4.684078664886359
 30
0.0
 10
15.68688636346637
 20
4.953401516616566
 30
0.0
 10
17.5825647018616
 20
5.03763363167042
 30
0.0
 10
19.4782685781938
 20
4.87456290645481
 30
0.0
 10
21.3552985974675
 20
4.484572654324645
 30
0.0
 10
23.213637228773
 20
3.891558143029983
 30
0.0
 10
25.05339624476095
 20
3.129740527973924
 30
0.0
 10
26.8932125274173
 20
2.227256874386016
 30
0.0
 10
28.7329200353568
 20
1.224648669854711
 30
0.0
 10
30.57246414675673
 20
0.1670359750456891
 30
0.0
 10
32.41185734434998
 20
-0.8980692303797876
 30
0.0
 10
34.25112292625241
 20
-1.92273717837914
 30
0.0
 10
36.09028307232497
 20
-2.86119205139055
 30
0.0
 10
37.92936037948311
 20
-3.670298113231881
 30
0.0
 10
39.76837735047717
 20
-4.317347788502501
 30
0.0
 10
41.60735680657287
 20
-4.759691449447558
 30
0.0
 10
43.17203008427075
 20
-4.98810866897327
 30
0.0
 10
44.12371472456864
 20
-4.976338859055642
 30
0.0
 10
44.46241262129658
 20
-4.97215006615599
 30
0.0
  0
SPLINE
  5
BE
330
1F
100
AcDbEntity
  8
0
  6
Continuous
 62
     1
370
    25
100
AcDbSpline
210
0.0
220
0.0
230
1.0
 70
     8
 71
     3
 72
    26
 73
    22
 74
     0
 42
0.000000001
 43
0.00000001
 40
0.0
 40
0.0
 40
0.0
 40
0.0
 40
0.0174340540687163
 40
0.0747714510406907
 40
0.132106300631775
 40
0.1894391885104864
 40
0.2467707016989937
 40
0.3041014281687547
 40
0.3614319564347565
 40
0.4187628751489504
 40
0.4760947726934877
 40
0.5334282367743518
 40
0.5907638540159885
 40
0.6481022095575313
 40
0.7054438866512124
 40
0.762789466263548
 40
0.8201395266798804
 40
0.8774940626561636
 40
0.9348458115054339
 40
0.9921928797003237
 40
1.0
 40
1.0
 40
1.0
 40
1.0
 10
53.20092111785204
 20
-4.209904177792194
 30
0.0
 10
53.01450699908833
 20
-4.272926372122975
 30
0.0
 10
52.21501113315274
 20
-4.543216971160211
 30
0.0
 10
50.8024818834446
 20
-4.825225045450884
 30
0.0
 10
48.96335001445961
 20
-5.026551679346645
 30
0.0
 10
47.12429523038369
 20
-4.988359970813275
 30
0.0
 10
45.28529292835316
 20
-4.7296856562802
 30
0.0
 10
43.44632101909228
 20
-4.257517034242251
 30
0.0
 10
41.60735670780365
 20
-3.59431274164556
 30
0.0
 10
39.76837737695092
 20
-2.76953565682421
 30
0.0
 10
37.9293603723592
 20
-1.820329517695567
 30
0.0
 10
36.09028307434607
 20
-0.7893115957138368
 30
0.0
 10
34.25112292529226
 20
0.2771799379462233
 30
0.0
 10
32.41185734616947
 20
1.331268082938893
 30
0.0
 10
30.57246414043843
 20
2.325439643599971
 30
0.0
 10
28.73292005881289
 20
3.215564804515386
 30
0.0
 10
26.89321243990173
 20
3.959579606221276
 30
0.0
 10
25.05339657138523
 20
4.531659285960988
 30
0.0
 10
23.21363600990847
 20
4.877539099337789
 30
0.0
 10
21.90372416191539
 20
5.02765123629817
 30
0.0
 10
21.20703933589017
 20
4.990726263864559
 30
0.0
 10
21.12355886635456
 20
4.98630171789887
 30
0.0
  0
SPLINE
  5
BF
330
1F
100
AcDbEntity
  8
0
  6
Continuous
 62
     1
370
    25
100
AcDbSpline
210
0.0
220
0.0
230
1.0
 70
     8
 71
     3
 72
    23
 73
    19
 74
     0
 42
0.000000001
 43
0.00000001
 40
0.0
 40
0.0
 40
0.0
 40
0.0
 40
0.0562565628135951
 40
0.1184020918189734
 40
0.1805499547024349
 40
0.2427007857145271
 40
0.3048552170605267
 40
0.3670138784681513
 40
0.4291773967589105
 40
0.4913457662486196
 40
0.5535111146844747
 40
0.615671389613134
 40
0.6797281411166065
 40
0.7437840184349922
 40
0.8078390821895771
 40
0.8718933931195816
 40
0.9359470120734318
 40
1.0
 40
1.0
 40
1.0
 40
1.0
 10
39.59416591443451
 20
-4.222609791121785
 30
0.0
 10
39.03923632139232
 20
-4.381682568532918
 30
0.0
 10
37.8712868175067
 20
-4.716479944251377
 30
0.0
 10
36.09028297098802
 20
-4.97262061864673
 30
0.0
 10
34.25112295340722
 20
-5.030871634829921
 30
0.0
 10
32.41185733707385
 20
-4.858445624474342
 30
0.0
 10
30.57246414870441
 20
-4.468918952969397
 30
0.0
 10
28.73292003484292
 20
-3.878215374136842
 30
0.0
 10
26.89321252752502
 20
-3.113277465892857
 30
0.0
 10
25.05339624484409
 20
-2.208428836495596
 30
0.0
 10
23.21363722833281
 20
-1.204292491214709
 30
0.0
 10
21.35529859916663
 20
-0.1353061960939987
 30
0.0
 10
19.47826857162752
 20
0.9514364644592817
 30
0.0
 10
17.58256472634666
 20
2.003251690165361
 30
0.0
 10
15.68688627209773
 20
2.960650495624147
 30
0.0
 10
13.7912355447779
 20
3.772349626022204
 30
0.0
 10
11.89560889746614
 20
4.420455693245137
 30
0.0
 10
10.63186755751171
 20
4.671005466196023
 30
0.0
 10
10.00000000000184
 20
4.796279735592668
 30
0.0
  0
SPLINE
  5
C0
330
1F
100
AcDbEntity
  8
0
  6
Continuous
 62
     4
370
    25
100
AcDbSpline
210
0.0
220
0.0
230
1.0
 70
    24
 71
     3
 72
    11
 73
     7
 74
     0
 42
0.000000001
 43
0.00000001
 40
0.0
 40
0.0
 40
0.0
 40
0.0
 40
0.322665129950773
 40
0.6441598004678376
 40
0.9749778382094885
 40
0.9999999999999999
 40
0.9999999999999999
 40
0.9999999999999999
 40
0.9999999999999999
 10
9.999999999999993
 20
-3.414842996496204
 30
0.0
 10
9.999999999999993
 20
-3.53579999158724
 30
0.0
 10
9.999999999999993
 20
-3.777275213390467
 30
0.0
 10
9.999999999999993
 20
-4.234780590507321
 30
0.0
 10
9.99999999999999
 20
-4.588016438991107
 30
0.0
 10
9.999999999999993
 20
-4.782597107898233
 30
0.0
 10
9.999999999999993
 20
-4.796279735620176
 30
0.0
  0
SPLINE
  5
C1
330
1F
100
AcDbEntity
  8
0
  6
Continuous
 62
     1
370
    25
100
AcDbSpline
210
0.0
220
0.0
230
1.0
 70
     8
 71
     3
 72
    11
 73
     7
 74
     0
 42
0.000000001
 43
0.00000001
 40
0.0
 40
0.0
 40
0.0
 40
0.0
 40
0.2612696200973947
 40
0.5225418141302707
 40
0.7838168307066808
 40
1.0
 40
1.0
 40
1.0
 40
1.0
 10
9.999999999999995
 20
-3.34586810236796
 30
0.0
 10
10.63186755401652
 20
-3.601825925363274
 30
0.0
 10
11.89560888698425
 20
-4.113744092959445
 30
0.0
 10
13.79123558669873
 20
-4.636230744167971
 30
0.0
 10
15.57782583653276
 20
-4.954657104707795
 30
0.0
 10
16.73254316076063
 20
-4.974120518879517
 30
0.0
 10
17.25537522894428
 20
-4.982933149357822
 30
0.0
  0
SPLINE
  5
C2
330
1F
100
AcDbEntity
  8
0
  6
Continuous
 62
     1
370
    25
100
AcDbSpline
210
0.0
220
0.0
230
1.0
 70
     8
 71
     3
 72
    19
 73
    15
 74
     0
 42
0.000000001
 43
0.00000001
 40
0.0
 40
0.0
 40
0.0
 40
0.0
 40
0.0087432088706293
 40
0.1010317205976111
 40
0.1933196038001709
 40
0.2856078060614576
 40
0.3778972747441424
 40
0.466743190999869
 40
0.5555995150153997
 40
0.6444705416944925
 40
0.7333605381958287
 40
0.8222589970440293
 40
0.911137783350758
 40
1.0
 40
1.0
 40
1.0
 40
1.0
 10
39.59416591443456
 20
4.222609791121781
 30
0.0
 10
39.65223955089835
 20
4.243048734499385
 30
0.0
 10
40.32330660420948
 20
4.479229940643655
 30
0.0
 10
41.60735566923872
 20
4.754413050432273
 30
0.0
 10
43.44632306759321
 20
5.006308716203062
 30
0.0
 10
45.28528577284065
 20
5.0141252163429
 30
0.0
 10
47.10143416262646
 20
4.804415894624878
 30
0.0
 10
48.89464260459369
 20
4.389555018200086
 30
0.0
 10
50.66523285978731
 20
3.797467887647146
 30
0.0
 10
52.43616022245109
 20
3.047080888387134
 30
0.0
 10
54.20745533295262
 20
2.169570832211374
 30
0.0
 10
55.97885896768996
 20
1.202398053717353
 30
0.0
 10
57.74996410943636
 20
0.1825452459345127
 30
0.0
 10
58.93053010314141
 20
-0.496218550847305
 30
0.0
 10
59.52075807168357
 20
-0.8355688108333438
 30
0.0
  0
SPLINE
  5
C3
330
1F
100
AcDbEntity
  8
0
  6
Continuous
 62
     1
370
    25
100
AcDbSpline
210
0.0
220
0.0
230
1.0
 70
     8
 71
     3
 72
     8
 73
     4
 74
     0
 42
0.000000001
 43
0.00000001
 40
0.0
 40
0.0
 40
0.0
 40
0.0
 40
1.0
 40
1.0
 40
1.0
 40
1.0
 10
59.99999999999999
 20
-3.778128546404887
 30
0.0
 10
59.18469570654707
 20
-3.319047671130698
 30
0.0
 10
58.41618671949519
 20
-2.755421905771476
 30
0.0
 10
57.67680798191737
 20
-2.126716563770112
 30
0.0
  0
LINE
  5
C4
330
1F
100
AcDbEntity
  8
0
  6
Continuous
 62
     1
370
    25
100
AcDbLine
 10
59.99999999999999
 20
-4.875828491776317
 30
0.0
 11
59.99999999999999
 21
-3.778128546404888
 31
0.0
  0
SPLINE
  5
C5
330
1F
100
AcDbEntity
  8
0
  6
Continuous
 62
     1
370
    25
100
AcDbSpline
210
0.0
220
0.0
230
1.0
 70
    24
 71
     3
 72
    16
 73
    12
 74
     0
 42
0.000000001
 43
0.00000001
 40
0.0
 40
0.0
 40
0.0
 40
0.0
 40
0.1193948726619899
 40
0.2753264920928325
 40
0.375681022577654
 40
0.4787658571798546
 40
0.5792066927929006
 40
0.6828827548490479
 40
0.7788250908478436
 40
0.877098854557378
 40
0.9999999999999999
 40
0.9999999999999999
 40
0.9999999999999999
 40
0.9999999999999999
 10
59.51525438712019
 20
-0.839422532252542
 30
0.0
 10
59.51233030217628
 20
-0.8414699985726446
 30
0.0
 10
59.5055873153776
 20
-0.8461914887591448
 30
0.0
 10
59.40820011525177
 20
-0.9143827404123408
 30
0.0
 10
59.2562052155047
 20
-1.020810714984703
 30
0.0
 10
59.08114117124695
 20
-1.143391878443433
 30
0.0
 10
58.86142670409008
 20
-1.297237604600419
 30
0.0
 10
58.61094370212555
 20
-1.472627690769357
 30
0.0
 10
58.33650392717865
 20
-1.664792489971818
 30
0.0
 10
58.02650230917401
 20
-1.881857959755728
 30
0.0
 10
57.80171592828833
 20
-2.039255078139159
 30
0.0
 10
57.67680798191842
 20
-2.126716563769899
 30
0.0
  0
SPLINE
  5
C6
330
1F
100
AcDbEntity
  8
0
  6
Continuous
 62
     1
370
    25
100
AcDbSpline
210
0.0
220
0.0
230
1.0
 70
     8
 71
     3
 72
    14
 73
    10
 74
     0
 42
0.000000001
 43
0.00000001
 40
0.0
 40
0.0
 40
0.0
 40
0.0
 40
0.1576561142707705
 40
0.3152988457104155
 40
0.4729297783705793
 40
0.6305505043991018
 40
0.7881626229600551
 40
0.9457677391435011
 40
1.0
 40
1.0
 40
1.0
 40
1.0
 10
59.99999999999999
 20
1.10738273364824
 30
0.0
 10
59.3867180954645
 20
1.447749280890461
 30
0.0
 10
58.16020634557436
 20
2.128453482946318
 30
0.0
 10
56.32055112809658
 20
3.040814544855534
 30
0.0
 10
54.4810586172667
 20
3.818963875103043
 30
0.0
 10
52.64170945123244
 20
4.428620859054345
 30
0.0
 10
50.80248135531068
 20
4.824192452826475
 30
0.0
 10
49.36542060761663
 20
5.008514382532269
 30
0.0
 10
48.54143621862561
 20
4.98149821558981
 30
0.0
 10
48.33048885442642
 20
4.97458183551827
 30
0.0
  0
SPLINE
  5
C7
330
1F
100
AcDbEntity
  8
0
  6
Continuous
 62
     1
370
    25
100
AcDbSpline
210
0.0
220
0.0
230
1.0
 70
     8
 71
     3
 72
    16
 73
    12
 74
     0
 42
0.000000001
 43
0.00000001
 40
0.0
 40
0.0
 40
0.0
 40
0.0
 40
0.058649021718114
 40
0.1736965484706968
 40
0.2887346858372387
 40
0.4072825749379258
 40
0.52582884621076
 40
0.6443736118457193
 40
0.7629169842510377
 40
0.8814590760370543
 40
1.0
 40
1.0
 40
1.0
 40
1.0
 10
25.99126192060697
 20
-4.206941299182915
 30
0.0
 10
25.67863122812066
 20
-4.307535011470288
 30
0.0
 10
24.75273560974406
 20
-4.605456103933706
 30
0.0
 10
23.2136369360209
 20
-4.88554975413315
 30
0.0
 10
21.35529868015325
 20
-5.0387809101308
 30
0.0
 10
19.47826854965261
 20
-4.949039608833722
 30
0.0
 10
17.58256473223455
 20
-4.624852753144679
 30
0.0
 10
15.68688627052065
 20
-4.079573903230676
 30
0.0
 10
13.79123554519844
 20
-3.338509530972945
 30
0.0
 10
11.89560889736101
 20
-2.442916989985576
 30
0.0
 10
10.63186755747667
 20
-1.756099676810873
 30
0.0
 10
10.00000000000184
 20
-1.412692711785234
 30
0.0
  0
SPLINE
  5
C8
330
1F
100
AcDbEntity
  8
0
  6
Continuous
 62
     4
370
    25
100
AcDbSpline
210
0.0
220
0.0
230
1.0
 70
    24
 71
     3
 72
    24
 73
    20
 74
     0
 42
0.000000001
 43
0.00000001
 40
0.0
 40
0.0
 40
0.0
 40
0.0
 40
0.0625000000000001
 40
0.0625000000000001
 40
0.1250000000000003
 40
0.1250000000000003
 40
0.2500000000000002
 40
0.2500000000000002
 40
0.3750000000000002
 40
0.3750000000000002
 40
0.5000000000000002
 40
0.5000000000000002
 40
0.6250000000000001
 40
0.6250000000000001
 40
0.75
 40
0.75
 40
0.875
 40
0.875
 40
1.0
 40
1.0
 40
1.0
 40
1.0
 10
9.999999999999995
 20
3.715530465701604
 30
0.0
 10
9.999999999999995
 20
3.642435424224106
 30
0.0
 10
9.999999999999995
 20
3.570050782818337
 30
0.0
 10
9.999999999999995
 20
3.427430251173163
 30
0.0
 10
9.999999999999995
 20
3.354139651723553
 30
0.0
 10
9.999999999999995
 20
3.119356353953397
 30
0.0
 10
9.999999999999995
 20
2.946262872473342
 30
0.0
 10
9.999999999999995
 20
2.564216508072198
 30
0.0
 10
9.999999999999995
 20
2.355153150747547
 30
0.0
 10
9.999999999999995
 20
1.902908491646361
 30
0.0
 10
9.999999999999998
 20
1.659603754043426
 30
0.0
 10
9.999999999999998
 20
1.148880104647997
 30
0.0
 10
9.999999999999998
 20
0.8814108131195248
 30
0.0
 10
9.999999999999998
 20
0.3436332007257074
 30
0.0
 10
9.999999999999998
 20
0.0734743210747625
 30
0.0
 10
9.999999999999998
 20
-0.4381439198818265
 30
0.0
 10
9.999999999999998
 20
-0.6792197847115973
 30
0.0
 10
9.999999999999998
 20
-1.098936449243852
 30
0.0
 10
9.999999999999998
 20
-1.277165012250457
 30
0.0
 10
9.999999999999998
 20
-1.412692711796676
 30
0.0
  0
SPLINE
  5
C9
330
1F
100
AcDbEntity
  8
0
  6
Continuous
 62
     1
370
    25
100
AcDbSpline
210
0.0
220
0.0
230
1.0
 70
     8
 71
     3
 72
    19
 73
    15
 74
     0
 42
0.000000001
 43
0.00000001
 40
0.0
 40
0.0
 40
0.0
 40
0.0
 40
0.0908776392729009
 40
0.1817561738400196
 40
0.2726356901749116
 40
0.3635162746086211
 40
0.4543980133172519
 40
0.5452809923095848
 40
0.6334732722473491
 40
0.7216727504185092
 40
0.8098765148259756
 40
0.8980733964084167
 40
0.9862633871011782
 40
1.0
 40
1.0
 40
1.0
 40
1.0
 10
9.999999999999995
 20
3.715530465701577
 30
0.0
 10
10.63186755751321
 20
3.454210168016941
 30
0.0
 10
11.89560889747435
 20
2.931566998212931
 30
0.0
 10
13.79123554473765
 20
1.96019417616601
 30
0.0
 10
15.6868862722431
 20
0.9080012208131438
 30
0.0
 10
17.58256472579987
 20
-0.1909338534646235
 30
0.0
 10
19.47826857366563
 20
-1.279871656336675
 30
0.0
 10
21.35529859165413
 20
-2.297744207448397
 30
0.0
 10
23.21363725544797
 20
-3.199370677379929
 30
0.0
 10
25.0533961435362
 20
-3.946652222938384
 30
0.0
 10
26.8932129056454
 20
-4.522181290406753
 30
0.0
 10
28.73291862384287
 20
-4.87339724506754
 30
0.0
 10
30.05483973612218
 20
-5.02494658013683
 30
0.0
 10
30.76351862970954
 20
-4.989923629411628
 30
0.0
 10
30.8590270376006
 20
-4.985203598529265
 30
0.0
  0
SPLINE
  5
CA
330
1F
100
AcDbEntity
  8
0
  6
Continuous
 62
     1
370
    25
100
AcDbSpline
210
0.0
220
0.0
230
1.0
 70
     8
 71
     3
 72
    11
 73
     7
 74
     0
 42
0.000000001
 43
0.00000001
 40
0.0
 40
0.0
 40
0.0
 40
0.0
 40
0.1592553990067209
 40
0.4395623678534406
 40
0.7198073069356294
 40
1.0
 40
1.0
 40
1.0
 40
1.0
 10
53.20092111785204
 20
4.20990417779219
 30
0.0
 10
53.53641507238669
 20
4.316125295650144
 30
0.0
 10
54.46241518274741
 20
4.609307230911948
 30
0.0
 10
55.97886109077619
 20
4.881753804490227
 30
0.0
 10
57.74996357882919
 20
5.042122728256247
 30
0.0
 10
58.93052992628336
 20
4.967163980048288
 30
0.0
 10
59.52075807168357
 20
4.929688099906769
 30
0.0
  0
SPLINE
  5
CB
330
1F
100
AcDbEntity
  8
0
  6
Continuous
 62
     1
370
    25
100
AcDbSpline
210
0.0
220
0.0
230
1.0
 70
     8
 71
     3
 72
    18
 73
    14
 74
     0
 42
0.000000001
 43
0.00000001
 40
0.0
 40
0.0
 40
0.0
 40
0.0
 40
0.2499999999999991
 40
0.2499999999999991
 40
0.3749999999999986
 40
0.3749999999999986
 40
0.4999999999999981
 40
0.4999999999999981
 40
0.6249999999999977
 40
0.6249999999999977
 40
0.7499999999999971
 40
0.7499999999999971
 40
1.0
 40
1.0
 40
1.0
 40
1.0
 10
59.52075807168357
 20
4.929688099906778
 30
0.0
 10
59.52699347436379
 20
4.606851837981961
 30
0.0
 10
59.49969480875363
 20
4.290337705371867
 30
0.0
 10
59.39005607498704
 20
3.828516671281823
 30
0.0
 10
59.34125743286381
 20
3.676235446349219
 30
0.0
 10
59.22075046690129
 20
3.391480187959264
 30
0.0
 10
59.14856080958641
 20
3.256893544584269
 30
0.0
 10
58.97862368036402
 20
3.007383037770181
 30
0.0
 10
58.88382477663745
 20
2.896667102584319
 30
0.0
 10
58.67533102073346
 20
2.702221710530227
 30
0.0
 10
58.56025913724946
 20
2.61798271721062
 30
0.0
 10
58.20199878948115
 20
2.415034884755326
 30
0.0
 10
57.93943782007099
 20
2.341734955811782
 30
0.0
 10
57.67680798191737
 20
2.323192018082634
 30
0.0
  0
SPLINE
  5
CC
330
1F
100
AcDbEntity
  8
0
  6
Continuous
 62
     1
370
    25
100
AcDbSpline
210
0.0
220
0.0
230
1.0
 70
     8
 71
     3
 72
     9
 73
     5
 74
     0
 42
0.000000001
 43
0.00000001
 40
0.0
 40
0.0
 40
0.0
 40
0.0
 40
0.6732270834801974
 40
1.0
 40
1.0
 40
1.0
 40
1.0
 10
59.99999999999999
 20
1.193141214989694
 30
0.0
 10
59.60103428910401
 20
1.40401733058292
 30
0.0
 10
59.00841744304138
 20
1.717249107449527
 30
0.0
 10
58.45332710676859
 20
1.96762070452186
 30
0.0
 10
58.27193861865278
 20
2.049435361510907
 30
0.0
  0
LINE
  5
CD
330
1F
100
AcDbEntity
  8
0
  6
Continuous
 62
     1
370
    25
100
AcDbLine
 10
59.99999999999999
 20
1.11156831544989
 30
0.0
 11
59.99999999999999
 21
1.193141214989694
 31
0.0
  0
LINE
  5
CE
330
1F
100
AcDbEntity
  8
0
  6
Continuous
 62
     1
370
    25
100
AcDbLine
 10
59.99999999999999
 20
-0.5000000000000185
 30
0.0
 11
59.99999999999999
 21
1.107382733648336
 31
0.0
  0
LINE
  5
CF
330
1F
100
AcDbEntity
  8
0
  6
Continuous
 62
     1
370
    25
100
AcDbLine
 10
60.00000000000001
 20
-0.5000000000000213
 30
0.0
 11
59.52075807168357
 21
-0.8355688108333444
 31
0.0
  0
LINE
  5
D0
330
1F
100
AcDbEntity
  8
0
  6
Continuous
 62
     1
370
    25
100
AcDbLine
 10
59.99999999999999
 20
4.974937185533105
 30
0.0
 11
59.99999999999999
 21
5.000000000000005
 31
0.0
  0
ELLIPSE
  5
D1
330
1F
100
AcDbEntity
  8
0
  6
Continuous
 62
     1
370
    25
100
AcDbEllipse
 10
60.71407400337105
 20
-0.0000000000000043
 30
0.0
 11
7.14074003371055
 21
0.0
 31
0.0
210
0.0
220
0.0
230
1.0
 40
0.7002075382097126
 41
1.670963747956457
 42
1.738697861005222
  0
LINE
  5
D2
330
1F
100
AcDbEntity
  8
0
  6
Continuous
 62
     1
370
    25
100
AcDbLine
 10
59.99999999999999
 20
1.193141214989694
 30
0.0
 11
59.99999999999999
 21
4.974937185533105
 31
0.0
  0
LINE
  5
D3
330
1F
100
AcDbEntity
  8
0
  6
Continuous
 62
     1
370
    25
100
AcDbLine
 10
59.99999999999999
 20
-0.5000000000000012
 30
0.0
 11
59.99999999999999
 21
-3.778128546404884
 31
0.0
  0
LINE
  5
D4
330
1F
100
AcDbEntity
  8
중심선
100
AcDbLine
 10
-43.0
 20
-0.0000000000000096
 30
0.0
 11
63.00000000000001
 21
0.0000000000000096
 31
0.0
  0
CIRCLE
  5
D5
330
1F
100
AcDbEntity
  8
해칭선
100
AcDbCircle
 10
0.0001731768904684
 20
-0.0000000000000043
 30
0.0
 40
3.0
  0
INSERT
  5
D6
330
1F
100
AcDbEntity
  8
0
  6
Continuous
 62
     7
100
AcDbBlockReference
 66
     1
  2
블럭10
 10
-2.440099248941771
 20
-52.04717430164393
 30
0.0
  0
ATTRIB
  5
D7
330
D6
100
AcDbEntity
  8
FORMAT
 62
     2
100
AcDbText
 10
-18.55936028837733
 20
-49.97180738881174
 30
0.0
 40
4.233333333333333
  1
SEME7210050E [ 4 FLUTE ]
 41
0.75
  7
SLDTEXTSTYLE0
 11
-18.55936028837733
 21
-52.08847405547841
 31
0.0
100
AcDbAttribute
  2
AUTOATTR0
 70
     0
 74
     1
  0
SEQEND
  5
D8
330
D6
100
AcDbEntity
  8
0
  6
Continuous
 62
     7
  0
HATCH
  5
D9
330
1F
100
AcDbEntity
  8
중심선
100
AcDbHatch
 10
0.0
 20
0.0
 30
0.0
210
0.0
220
0.0
230
1.0
  2
SOLID
 70
     1
 71
     0
 91
        1
 92
        0
 93
        4
 72
     1
 10
3.274810055439087
 20
-35.8
 11
-0.1714651883981952
 21
-35.8
 72
     1
 10
-0.1714651883981955
 20
-35.8
 11
-2.299695047602218
 21
-38.33632558057257
 72
     1
 10
-2.299695047602218
 20
-38.33632558057257
 11
1.146613281348213
 21
-38.33628615127008
 72
     1
 10
1.146613281348213
 20
-38.33628615127008
 11
3.274810055439087
 21
-35.8
 97
        0
 75
     0
 76
     1
 98
        1
 10
0.0
 20
0.0
  0
HATCH
  5
DA
330
1F
100
AcDbEntity
  8
중심선
100
AcDbHatch
 10
0.0
 20
0.0
 30
0.0
210
0.0
220
0.0
230
1.0
  2
SOLID
 70
     1
 71
     0
 91
        1
 92
        0
 93
        4
 72
     1
 10
8.287574046475093
 20
-35.79999999999997
 11
4.841298802637755
 21
-35.8
 72
     1
 10
4.841298802637755
 20
-35.8
 11
0.3101607942803675
 21
-41.20000000000002
 72
     1
 10
0.3101607942803675
 20
-41.20000000000002
 11
3.75643603811765
 21
-41.20000000000002
 72
     1
 10
3.75643603811765
 20
-41.20000000000002
 11
8.287574046475093
 21
-35.79999999999997
 97
        0
 75
     0
 76
     1
 98
        1
 10
0.0
 20
0.0
  0
HATCH
  5
DB
330
1F
100
AcDbEntity
  8
중심선
100
AcDbHatch
 10
0.0
 20
0.0
 30
0.0
210
0.0
220
0.0
230
1.0
  2
SOLID
 70
     1
 71
     0
 91
        1
 92
        0
 93
        4
 72
     1
 10
13.30033803751093
 20
-35.79999999999997
 11
9.854062793673874
 21
-35.8
 72
     1
 10
9.854062793673874
 20
-35.8
 11
2.805625891784569
 21
-44.20000000000002
 72
     1
 10
2.805625891784569
 20
-44.20000000000002
 11
6.251901135621852
 21
-44.20000000000002
 72
     1
 10
6.251901135621852
 20
-44.20000000000002
 11
13.30033803751093
 21
-35.79999999999997
 97
        0
 75
     0
 76
     1
 98
        1
 10
0.0
 20
0.0
  0
HATCH
  5
DC
330
1F
100
AcDbEntity
  8
중심선
100
AcDbHatch
 10
0.0
 20
0.0
 30
0.0
210
0.0
220
0.0
230
1.0
  2
SOLID
 70
     1
 71
     0
 91
        1
 92
        0
 93
        6
 72
     3
 10
18.10022846852313
 20
-40.00000000005127
 11
3.960054785062284
 21
1.540850780301639E-10
 40
0.3939339440162633
 50
17.09539180608434
 51
320.0019657685074
 73
     0
 72
     1
 10
19.78322812422373
 20
-38.58789400463827
 11
22.08852999792477
 21
-36.65356729459035
 72
     3
 10
18.10022846847029
 20
-40.00000000000015
 11
6.600054785286829
 21
-1.249000902703301E-13
 40
0.6363583540795982
 50
39.99873849337433
 51
368.4976242363725
 73
     1
 72
     1
 10
24.5255609603709
 20
-39.03999999993002
 11
16.78029577530621
 21
-39.03999999993002
 72
     1
 10
16.78029577530621
 20
-39.03999999993002
 11
16.78027073086027
 21
-40.95999999992991
 72
     1
 10
16.78027073086027
 20
-40.95999999992991
 11
21.22165050033231
 21
-40.95999999992988
 97
        0
 75
     0
 76
     1
 98
        1
 10
0.0
 20
0.0
  0
DIMENSION
  5
DD
330
1F
100
AcDbEntity
  8
치수문자_일반주서
100
AcDbDimension
  2
_D
 10
76.74821459065136
 20
5.00000000000006
 30
0.0
 11
76.74821459065133
 21
15.32275000000006
 31
0.0
 70
   160
  1
%%c<>
 71
     2
 42
10.00000000000001
 52
-270.0
  3
SLDDIMSTYLE0
100
AcDbAlignedDimension
 13
59.99999999999999
 23
-5.00000000000001
 33
0.0
 14
59.99999999999999
 24
4.999999999999999
 34
0.0
 50
90.0000000000002
100
AcDbRotatedDimension
  0
DIMENSION
  5
EB
330
1F
100
AcDbEntity
  8
치수문자_일반주서
100
AcDbDimension
  2
_D_1
 10
60.0
 20
22.38913260158164
 30
0.0
 11
9.999999999999996
 21
22.38913260158164
 31
0.0
 70
   160
  1
<>
 71
     2
 42
100.0
  3
SLDDIMSTYLE1
100
AcDbAlignedDimension
 13
-40.00000000000001
 23
4.499999999999989
 33
0.0
 14
59.99999999999999
 24
5.000000000000005
 34
0.0
 50
-0.0000000000000061
100
AcDbRotatedDimension
  0
DIMENSION
  5
F6
330
1F
100
AcDbEntity
  8
치수문자_일반주서
100
AcDbDimension
  2
_D_2
 10
-52.71780771540318
 20
-5.000000000000057
 30
0.0
 11
-52.71780771540325
 21
15.32274999999995
 31
0.0
 70
   160
  1
%%c<>
 71
     2
 42
10.00000000000001
 52
-270.0
  3
SLDDIMSTYLE2
100
AcDbAlignedDimension
 13
-39.49999999999999
 23
5.0
 33
0.0
 14
-39.49999999999999
 24
-5.000000000000009
 34
0.0
 50
90.0000000000002
100
AcDbRotatedDimension
  0
DIMENSION
  5
104
330
1F
100
AcDbEntity
  8
치수문자_일반주서
100
AcDbDimension
  2
_D_3
 10
59.99999999999999
 20
15.64219803818062
 30
0.0
 11
35.0
 21
15.64219803818062
 31
0.0
 70
   160
  1
<>
 71
     2
 42
50.0
  3
SLDDIMSTYLE1
100
AcDbAlignedDimension
 13
9.999999999999993
 23
4.796279735592967
 33
0.0
 14
59.99999999999999
 24
5.000000000000005
 34
0.0
 50
-0.0000000000000041
100
AcDbRotatedDimension
  0
INSERT
  5
114
330
1F
100
AcDbEntity
  8
해칭선
100
AcDbBlockReference
  2
SW_DOWELSYMBOL_0
 10
0.0001731768904684
 20
-0.0000000000000043
 30
0.0
  0
ENDSEC
  0
SECTION
  2
OBJECTS
  0
DICTIONARY
  5
C
330
0
100
AcDbDictionary
281
     1
  3
ACAD_GROUP
350
D
  3
ACAD_IMAGE_VARS
350
138
  3
ACAD_LAYOUT
350
1A
  3
ACAD_MLINESTYLE
350
17
  3
ACAD_PLOTSETTINGS
350
19
  3
ACAD_PLOTSTYLENAME
350
E
  3
ACAD_SCALELIST
350
47
  3
APPDATA
350
136
  3
DWGPROPS
350
147
  0
DICTIONARY
  5
D
102
{ACAD_REACTORS
330
C
102
}
330
C
100
AcDbDictionary
281
     1
  0
RASTERVARIABLES
  5
138
102
{ACAD_REACTORS
330
C
102
}
330
C
100
AcDbRasterVariables
 90
        0
 70
     1
 71
     1
 72
     1
  0
DICTIONARY
  5
1A
102
{ACAD_REACTORS
330
C
102
}
330
C
100
AcDbDictionary
281
     1
  3
Layout1
350
1E
  3
Layout2
350
26
  3
Model
350
22
  0
DICTIONARY
  5
17
102
{ACAD_REACTORS
330
C
102
}
330
C
100
AcDbDictionary
281
     1
  3
Standard
350
18
  0
DICTIONARY
  5
19
102
{ACAD_REACTORS
330
C
102
}
330
C
100
AcDbDictionary
281
     1
  0
ACDBDICTIONARYWDFLT
  5
E
102
{ACAD_REACTORS
330
C
102
}
330
C
100
AcDbDictionary
281
     1
  3
Normal
350
F
100
AcDbDictionaryWithDefault
340
F
  0
DICTIONARY
  5
47
102
{ACAD_REACTORS
330
C
102
}
330
C
100
AcDbDictionary
281
     1
  3
A0
350
48
  3
A1
350
49
  3
A2
350
4A
  3
A3
350
4B
  3
A4
350
4C
  3
A5
350
4D
  3
A6
350
4E
  3
A7
350
4F
  3
A8
350
50
  3
A9
350
51
  3
B0
350
52
  3
B1
350
53
  3
B2
350
54
  3
B3
350
55
  3
B4
350
56
  3
B5
350
57
  3
B6
350
58
  3
B7
350
59
  3
B8
350
5A
  3
B9
350
5B
  3
C0
350
5C
  3
C1
350
5D
  3
C2
350
5E
  3
C3
350
5F
  3
C4
350
60
  3
C5
350
61
  3
C6
350
62
  3
C7
350
63
  3
C8
350
64
  3
C9
350
65
  3
D0
350
66
  3
D1
350
67
  3
D2
350
68
  0
DICTIONARY
  5
136
102
{ACAD_REACTORS
330
C
102
}
330
C
100
AcDbDictionary
281
     1
  0
XRECORD
  5
147
102
{ACAD_REACTORS
330
C
102
}
330
C
100
AcDbXrecord
280
     1
  1
DWGPROPS COOKIE
  2

  3

  4

  6

  7

  8
12014102
  9

300
=
301
=
302
=
303
=
304
=
305
=
306
=
307
=
308
=
309
=
 40
0.0
 41
2458260.204104051
 42
2458268.208758137
  1

 90
        0
  0
LAYOUT
  5
1E
102
{ACAD_REACTORS
330
1A
102
}
330
1A
100
AcDbPlotSettings
  1

  2
none_device
  4

  6

 40
0.0
 41
0.0
 42
0.0
 43
0.0
 44
0.0
 45
0.0
 46
0.0
 47
0.0
 48
0.0
 49
0.0
140
0.0
141
0.0
142
1.0
143
1.0
 70
   688
 72
     1
 73
     0
 74
     5
  7

 75
    16
147
1.0
148
0.0
149
0.0
100
AcDbLayout
  1
Layout1
 70
     1
 71
     1
 10
0.0
 20
0.0
 11
420.0
 21
297.0
 12
0.0
 22
0.0
 32
0.0
 14
1.000000000000000E+20
 24
1.000000000000000E+20
 34
1.000000000000000E+20
 15
-1.000000000000000E+20
 25
-1.000000000000000E+20
 35
-1.000000000000000E+20
146
0.0
 13
0.0
 23
0.0
 33
0.0
 16
1.0
 26
0.0
 36
0.0
 17
0.0
 27
1.0
 37
0.0
 76
     0
330
1B
  0
LAYOUT
  5
26
102
{ACAD_REACTORS
330
1A
102
}
330
1A
100
AcDbPlotSettings
  1

  2
none_device
  4

  6

 40
0.0
 41
0.0
 42
0.0
 43
0.0
 44
0.0
 45
0.0
 46
0.0
 47
0.0
 48
0.0
 49
0.0
140
0.0
141
0.0
142
1.0
143
1.0
 70
   688
 72
     1
 73
     0
 74
     5
  7

 75
    16
147
1.0
148
0.0
149
0.0
100
AcDbLayout
  1
Layout2
 70
     1
 71
     2
 10
0.0
 20
0.0
 11
0.0
 21
0.0
 12
0.0
 22
0.0
 32
0.0
 14
0.0
 24
0.0
 34
0.0
 15
0.0
 25
0.0
 35
0.0
146
0.0
 13
0.0
 23
0.0
 33
0.0
 16
1.0
 26
0.0
 36
0.0
 17
0.0
 27
1.0
 37
0.0
 76
     0
330
23
  0
LAYOUT
  5
22
102
{ACAD_REACTORS
330
1A
102
}
330
1A
100
AcDbPlotSettings
  1

  2
none_device
  4
ANSI_A_(11.00_x_8.50_Inches)
  6

 40
6.35
 41
19.05
 42
6.35000508
 43
19.05000254
 44
279.4
 45
215.9
 46
111.0478719131386
 47
113.3224103371773
 48
0.0
 49
0.0
140
0.0
141
0.0
142
0.0807487851913164
143
1.0
 70
  1696
 72
     0
 73
     0
 74
     0
  7

 75
     0
147
0.0235690232323232
148
0.0
149
0.0
100
AcDbLayout
  1
Model
 70
     1
 71
     0
 10
0.0
 20
0.0
 11
420.0
 21
297.0
 12
0.0
 22
0.0
 32
0.0
 14
-57.09280771540325
 24
-49.97180738881174
 34
0.0
 15
77.29854792398474
 25
26.76413260158164
 35
0.0
146
0.0
 13
0.0
 23
0.0
 33
0.0
 16
1.0
 26
0.0
 36
0.0
 17
0.0
 27
1.0
 37
0.0
 76
     0
330
1F
331
29
  0
MLINESTYLE
  5
18
102
{ACAD_REACTORS
330
17
102
}
330
17
100
AcDbMlineStyle
  2
Standard
 70
     0
  3

 62
   256
 51
90.0
 52
90.0
 71
     2
 49
0.5
 62
   256
  6
BYLAYER
 49
-0.5
 62
   256
  6
BYLAYER
  0
ACDBPLACEHOLDER
  5
F
102
{ACAD_REACTORS
330
E
102
}
330
E
  0
SCALE
  5
48
102
{ACAD_REACTORS
330
47
102
}
330
47
100
AcDbScale
 70
     0
300
1:1
140
1.0
141
1.0
290
     1
  0
SCALE
  5
49
102
{ACAD_REACTORS
330
47
102
}
330
47
100
AcDbScale
 70
     0
300
1:2
140
1.0
141
2.0
290
     0
  0
SCALE
  5
4A
102
{ACAD_REACTORS
330
47
102
}
330
47
100
AcDbScale
 70
     0
300
1:4
140
1.0
141
4.0
290
     0
  0
SCALE
  5
4B
102
{ACAD_REACTORS
330
47
102
}
330
47
100
AcDbScale
 70
     0
300
1:5
140
1.0
141
5.0
290
     0
  0
SCALE
  5
4C
102
{ACAD_REACTORS
330
47
102
}
330
47
100
AcDbScale
 70
     0
300
1:8
140
1.0
141
8.0
290
     0
  0
SCALE
  5
4D
102
{ACAD_REACTORS
330
47
102
}
330
47
100
AcDbScale
 70
     0
300
1:10
140
1.0
141
10.0
290
     0
  0
SCALE
  5
4E
102
{ACAD_REACTORS
330
47
102
}
330
47
100
AcDbScale
 70
     0
300
1:16
140
1.0
141
16.0
290
     0
  0
SCALE
  5
4F
102
{ACAD_REACTORS
330
47
102
}
330
47
100
AcDbScale
 70
     0
300
1:20
140
1.0
141
20.0
290
     0
  0
SCALE
  5
50
102
{ACAD_REACTORS
330
47
102
}
330
47
100
AcDbScale
 70
     0
300
1:30
140
1.0
141
30.0
290
     0
  0
SCALE
  5
51
102
{ACAD_REACTORS
330
47
102
}
330
47
100
AcDbScale
 70
     0
300
1:40
140
1.0
141
40.0
290
     0
  0
SCALE
  5
52
102
{ACAD_REACTORS
330
47
102
}
330
47
100
AcDbScale
 70
     0
300
1:50
140
1.0
141
50.0
290
     0
  0
SCALE
  5
53
102
{ACAD_REACTORS
330
47
102
}
330
47
100
AcDbScale
 70
     0
300
1:100
140
1.0
141
100.0
290
     0
  0
SCALE
  5
54
102
{ACAD_REACTORS
330
47
102
}
330
47
100
AcDbScale
 70
     0
300
2:1
140
2.0
141
1.0
290
     0
  0
SCALE
  5
55
102
{ACAD_REACTORS
330
47
102
}
330
47
100
AcDbScale
 70
     0
300
4:1
140
4.0
141
1.0
290
     0
  0
SCALE
  5
56
102
{ACAD_REACTORS
330
47
102
}
330
47
100
AcDbScale
 70
     0
300
8:1
140
8.0
141
1.0
290
     0
  0
SCALE
  5
57
102
{ACAD_REACTORS
330
47
102
}
330
47
100
AcDbScale
 70
     0
300
10:1
140
10.0
141
1.0
290
     0
  0
SCALE
  5
58
102
{ACAD_REACTORS
330
47
102
}
330
47
100
AcDbScale
 70
     0
300
100:1
140
100.0
141
1.0
290
     0
  0
SCALE
  5
59
102
{ACAD_REACTORS
330
47
102
}
330
47
100
AcDbScale
 70
     0
300
1/128" = 1'-0"
140
0.0078125
141
12.0
290
     0
  0
SCALE
  5
5A
102
{ACAD_REACTORS
330
47
102
}
330
47
100
AcDbScale
 70
     0
300
1/64" = 1'-0"
140
0.015625
141
12.0
290
     0
  0
SCALE
  5
5B
102
{ACAD_REACTORS
330
47
102
}
330
47
100
AcDbScale
 70
     0
300
1/32" = 1'-0"
140
0.03125
141
12.0
290
     0
  0
SCALE
  5
5C
102
{ACAD_REACTORS
330
47
102
}
330
47
100
AcDbScale
 70
     0
300
1/16" = 1'-0"
140
0.0625
141
12.0
290
     0
  0
SCALE
  5
5D
102
{ACAD_REACTORS
330
47
102
}
330
47
100
AcDbScale
 70
     0
300
3/32" = 1'-0"
140
0.09375
141
12.0
290
     0
  0
SCALE
  5
5E
102
{ACAD_REACTORS
330
47
102
}
330
47
100
AcDbScale
 70
     0
300
1/8" = 1'-0"
140
0.125
141
12.0
290
     0
  0
SCALE
  5
5F
102
{ACAD_REACTORS
330
47
102
}
330
47
100
AcDbScale
 70
     0
300
3/16" = 1'-0"
140
0.1875
141
12.0
290
     0
  0
SCALE
  5
60
102
{ACAD_REACTORS
330
47
102
}
330
47
100
AcDbScale
 70
     0
300
1/4" = 1'-0"
140
0.25
141
12.0
290
     0
  0
SCALE
  5
61
102
{ACAD_REACTORS
330
47
102
}
330
47
100
AcDbScale
 70
     0
300
3/8" = 1'-0"
140
0.375
141
12.0
290
     0
  0
SCALE
  5
62
102
{ACAD_REACTORS
330
47
102
}
330
47
100
AcDbScale
 70
     0
300
1/2" = 1'-0"
140
0.5
141
12.0
290
     0
  0
SCALE
  5
63
102
{ACAD_REACTORS
330
47
102
}
330
47
100
AcDbScale
 70
     0
300
3/4" = 1'-0"
140
0.75
141
12.0
290
     0
  0
SCALE
  5
64
102
{ACAD_REACTORS
330
47
102
}
330
47
100
AcDbScale
 70
     0
300
1" = 1'-0"
140
1.0
141
12.0
290
     0
  0
SCALE
  5
65
102
{ACAD_REACTORS
330
47
102
}
330
47
100
AcDbScale
 70
     0
300
1-1/2" = 1'-0"
140
1.5
141
12.0
290
     0
  0
SCALE
  5
66
102
{ACAD_REACTORS
330
47
102
}
330
47
100
AcDbScale
 70
     0
300
3" = 1'-0"
140
3.0
141
12.0
290
     0
  0
SCALE
  5
67
102
{ACAD_REACTORS
330
47
102
}
330
47
100
AcDbScale
 70
     0
300
6" = 1'-0"
140
6.0
141
12.0
290
     0
  0
SCALE
  5
68
102
{ACAD_REACTORS
330
47
102
}
330
47
100
AcDbScale
 70
     0
300
1'-0" = 1'-0"
140
12.0
141
12.0
290
     0
  0
ENDSEC
  0
EOF
