  0
SECTION
  2
HEADER
  9
$ACADVER
  1
AC1015
  9
$ACADMAINTVER
 70
     6
  9
$DWGCODEPAGE
  3
ANSI_949
  9
$INSBASE
 10
0.0
 20
0.0
 30
0.0
  9
$EXTMIN
 10
-101.8247403561404
 20
-49.97180738881174
 30
0.0
  9
$EXTMAX
 10
82.24743691501448
 20
26.76413260158163
 30
0.0
  9
$LIMMIN
 10
0.0
 20
0.0
  9
$LIMMAX
 10
420.0
 20
297.0
  9
$ORTHOMODE
 70
     0
  9
$REGENMODE
 70
     1
  9
$FILLMODE
 70
     1
  9
$QTEXTMODE
 70
     0
  9
$MIRRTEXT
 70
     1
  9
$LTSCALE
 40
1.0
  9
$ATTMODE
 70
     1
  9
$TEXTSIZE
 40
3.5
  9
$TRACEWID
 40
1.0
  9
$TEXTSTYLE
  7
Standard
  9
$CLAYER
  8
0
  9
$CELTYPE
  6
ByLayer
  9
$CECOLOR
 62
   256
  9
$CELTSCALE
 40
1.0
  9
$DISPSILH
 70
     0
  9
$DIMSCALE
 40
1.0
  9
$DIMASZ
 40
3.302
  9
$DIMEXO
 40
1.0
  9
$DIMDLI
 40
3.75
  9
$DIMRND
 40
0.0
  9
$DIMDLE
 40
0.0
  9
$DIMEXE
 40
1.0
  9
$DIMTP
 40
0.0
  9
$DIMTM
 40
0.0
  9
$DIMTXT
 40
3.5
  9
$DIMCEN
 40
2.5
  9
$DIMTSZ
 40
0.0
  9
$DIMTOL
 70
     0
  9
$DIMLIM
 70
     0
  9
$DIMTIH
 70
     1
  9
$DIMTOH
 70
     1
  9
$DIMSE1
 70
     0
  9
$DIMSE2
 70
     0
  9
$DIMTAD
 70
     1
  9
$DIMZIN
 70
     0
  9
$DIMBLK
  1

  9
$DIMASO
 70
     1
  9
$DIMSHO
 70
     1
  9
$DIMPOST
  1

  9
$DIMAPOST
  1

  9
$DIMALT
 70
     0
  9
$DIMALTD
 70
     3
  9
$DIMALTF
 40
0.0393700787401575
  9
$DIMLFAC
 40
1.0
  9
$DIMTOFL
 70
     1
  9
$DIMTVP
 40
0.0
  9
$DIMTIX
 70
     0
  9
$DIMSOXD
 70
     0
  9
$DIMSAH
 70
     0
  9
$DIMBLK1
  1

  9
$DIMBLK2
  1

  9
$DIMSTYLE
  2
ISO-25
  9
$DIMCLRD
 70
     0
  9
$DIMCLRE
 70
     0
  9
$DIMCLRT
 70
     0
  9
$DIMTFAC
 40
1.0
  9
$DIMGAP
 40
1.524
  9
$DIMJUST
 70
     0
  9
$DIMSD1
 70
     0
  9
$DIMSD2
 70
     0
  9
$DIMTOLJ
 70
     0
  9
$DIMTZIN
 70
     0
  9
$DIMALTZ
 70
     0
  9
$DIMALTTZ
 70
     0
  9
$DIMUPT
 70
     0
  9
$DIMDEC
 70
     2
  9
$DIMTDEC
 70
     2
  9
$DIMALTU
 70
     2
  9
$DIMALTTD
 70
     3
  9
$DIMTXSTY
  7
Standard
  9
$DIMAUNIT
 70
     0
  9
$DIMADEC
 70
     2
  9
$DIMALTRND
 40
0.0
  9
$DIMAZIN
 70
     0
  9
$DIMDSEP
 70
    44
  9
$DIMATFIT
 70
     3
  9
$DIMFRAC
 70
     0
  9
$DIMLDRBLK
  1

  9
$DIMLUNIT
 70
     2
  9
$DIMLWD
 70
    -2
  9
$DIMLWE
 70
    -2
  9
$DIMTMOVE
 70
     0
  9
$LUNITS
 70
     2
  9
$LUPREC
 70
     2
  9
$SKETCHINC
 40
1.0
  9
$FILLETRAD
 40
10.0
  9
$AUNITS
 70
     0
  9
$AUPREC
 70
     2
  9
$MENU
  1
.
  9
$ELEVATION
 40
0.0
  9
$PELEVATION
 40
0.0
  9
$THICKNESS
 40
0.0
  9
$LIMCHECK
 70
     0
  9
$CHAMFERA
 40
0.0
  9
$CHAMFERB
 40
0.0
  9
$CHAMFERC
 40
0.0
  9
$CHAMFERD
 40
0.0
  9
$SKPOLY
 70
     0
  9
$TDCREATE
 40
2458260.579292917
  9
$TDUCREATE
 40
2458260.204292917
  9
$TDUPDATE
 40
2458268.584471042
  9
$TDUUPDATE
 40
2458268.209471042
  9
$TDINDWG
 40
0.0005907292
  9
$TDUSRTIMER
 40
2458268.208880359
  9
$USRTIMER
 70
     1
  9
$ANGBASE
 50
0.0
  9
$ANGDIR
 70
     0
  9
$PDMODE
 70
     0
  9
$PDSIZE
 40
-1.0
  9
$PLINEWID
 40
0.0
  9
$SPLFRAME
 70
     0
  9
$SPLINETYPE
 70
     6
  9
$SPLINESEGS
 70
     8
  9
$HANDSEED
  5
14C
  9
$SURFTAB1
 70
     6
  9
$SURFTAB2
 70
     6
  9
$SURFTYPE
 70
     6
  9
$SURFU
 70
     6
  9
$SURFV
 70
     6
  9
$UCSBASE
  2

  9
$UCSNAME
  2

  9
$UCSORG
 10
0.0
 20
0.0
 30
0.0
  9
$UCSXDIR
 10
1.0
 20
0.0
 30
0.0
  9
$UCSYDIR
 10
0.0
 20
1.0
 30
0.0
  9
$UCSORTHOREF
  2

  9
$UCSORTHOVIEW
 70
     0
  9
$UCSORGTOP
 10
0.0
 20
0.0
 30
0.0
  9
$UCSORGBOTTOM
 10
0.0
 20
0.0
 30
0.0
  9
$UCSORGLEFT
 10
0.0
 20
0.0
 30
0.0
  9
$UCSORGRIGHT
 10
0.0
 20
0.0
 30
0.0
  9
$UCSORGFRONT
 10
0.0
 20
0.0
 30
0.0
  9
$UCSORGBACK
 10
0.0
 20
0.0
 30
0.0
  9
$PUCSBASE
  2

  9
$PUCSNAME
  2

  9
$PUCSORG
 10
0.0
 20
0.0
 30
0.0
  9
$PUCSXDIR
 10
1.0
 20
0.0
 30
0.0
  9
$PUCSYDIR
 10
0.0
 20
1.0
 30
0.0
  9
$PUCSORTHOREF
  2

  9
$PUCSORTHOVIEW
 70
     0
  9
$PUCSORGTOP
 10
0.0
 20
0.0
 30
0.0
  9
$PUCSORGBOTTOM
 10
0.0
 20
0.0
 30
0.0
  9
$PUCSORGLEFT
 10
0.0
 20
0.0
 30
0.0
  9
$PUCSORGRIGHT
 10
0.0
 20
0.0
 30
0.0
  9
$PUCSORGFRONT
 10
0.0
 20
0.0
 30
0.0
  9
$PUCSORGBACK
 10
0.0
 20
0.0
 30
0.0
  9
$USERI1
 70
     0
  9
$USERI2
 70
     0
  9
$USERI3
 70
     0
  9
$USERI4
 70
     0
  9
$USERI5
 70
     0
  9
$USERR1
 40
0.0
  9
$USERR2
 40
0.0
  9
$USERR3
 40
0.0
  9
$USERR4
 40
0.0
  9
$USERR5
 40
0.0
  9
$WORLDVIEW
 70
     1
  9
$SHADEDGE
 70
     3
  9
$SHADEDIF
 70
    70
  9
$TILEMODE
 70
     1
  9
$MAXACTVP
 70
    64
  9
$PINSBASE
 10
0.0
 20
0.0
 30
0.0
  9
$PLIMCHECK
 70
     0
  9
$PEXTMIN
 10
1.000000000000000E+20
 20
1.000000000000000E+20
 30
1.000000000000000E+20
  9
$PEXTMAX
 10
-1.000000000000000E+20
 20
-1.000000000000000E+20
 30
-1.000000000000000E+20
  9
$PLIMMIN
 10
0.0
 20
0.0
  9
$PLIMMAX
 10
0.0
 20
0.0
  9
$UNITMODE
 70
     0
  9
$VISRETAIN
 70
     1
  9
$PLINEGEN
 70
     0
  9
$PSLTSCALE
 70
     1
  9
$TREEDEPTH
 70
  3020
  9
$CMLSTYLE
  2
Standard
  9
$CMLJUST
 70
     0
  9
$CMLSCALE
 40
20.0
  9
$PROXYGRAPHICS
 70
     1
  9
$MEASUREMENT
 70
     1
  9
$CELWEIGHT
370
    -1
  9
$ENDCAPS
280
     0
  9
$JOINSTYLE
280
     0
  9
$LWDISPLAY
290
     1
  9
$INSUNITS
 70
     4
  9
$HYPERLINKBASE
  1

  9
$STYLESHEET
  1

  9
$XEDIT
290
     1
  9
$CEPSNTYPE
380
     0
  9
$PSTYLEMODE
290
     1
  9
$FINGERPRINTGUID
  2
{291FEFDC-3127-48D3-898A-9781980DC3DA}
  9
$VERSIONGUID
  2
{FAEB1C32-E019-11D5-929B-00C0DF256EC4}
  9
$EXTNAMES
290
     1
  9
$PSVPSCALE
 40
0.0
  9
$OLESTARTUP
290
     0
  0
ENDSEC
  0
SECTION
  2
CLASSES
  0
CLASS
  1
ACDBDICTIONARYWDFLT
  2
AcDbDictionaryWithDefault
  3
ObjectDBX Classes
 90
        0
280
     0
281
     0
  0
CLASS
  1
VISUALSTYLE
  2
AcDbVisualStyle
  3
ObjectDBX Classes
 90
     4095
280
     0
281
     0
  0
CLASS
  1
MATERIAL
  2
AcDbMaterial
  3
ObjectDBX Classes
 90
     1153
280
     0
281
     0
  0
CLASS
  1
SCALE
  2
AcDbScale
  3
ObjectDBX Classes
 90
     1153
280
     0
281
     0
  0
CLASS
  1
TABLESTYLE
  2
AcDbTableStyle
  3
ObjectDBX Classes
 90
     4095
280
     0
281
     0
  0
CLASS
  1
MLEADERSTYLE
  2
AcDbMLeaderStyle
  3
ACDB_MLEADERSTYLE_CLASS
 90
     4095
280
     0
281
     0
  0
CLASS
  1
SUN
  2
AcDbSun
  3
SCENEOE
 90
     1153
280
     0
281
     0
  0
CLASS
  1
ACDBPLACEHOLDER
  2
AcDbPlaceHolder
  3
ObjectDBX Classes
 90
        0
280
     0
281
     0
  0
CLASS
  1
LAYOUT
  2
AcDbLayout
  3
ObjectDBX Classes
 90
        0
280
     0
281
     0
  0
CLASS
  1
RASTERVARIABLES
  2
AcDbRasterVariables
  3
ISM
 90
        0
280
     0
281
     0
  0
ENDSEC
  0
SECTION
  2
TABLES
  0
TABLE
  2
VPORT
  5
8
330
0
100
AcDbSymbolTable
 70
     1
  0
VPORT
  5
29
330
8
100
AcDbSymbolTableRecord
100
AcDbViewportTableRecord
  2
*Active
 70
     0
 10
0.0
 20
0.0
 11
1.0
 21
1.0
 12
-9.788651720562953
 22
-11.60383739361505
 13
0.0
 23
0.0
 14
10.0
 24
10.0
 15
10.0
 25
10.0
 16
0.0
 26
0.0
 36
1.0
 17
0.0
 27
0.0
 37
0.0
 40
107.9653064725344
 41
1.739018087855297
 42
50.0
 43
0.0
 44
0.0
 50
0.0
 51
0.0
 71
    16
 72
  2000
 73
     1
 74
     3
 75
     0
 76
     0
 77
     0
 78
     0
281
     0
 65
     1
110
0.0
120
0.0
130
0.0
111
1.0
121
0.0
131
0.0
112
0.0
122
1.0
132
0.0
 79
     0
146
0.0
  0
ENDTAB
  0
TABLE
  2
LTYPE
  5
5
330
0
100
AcDbSymbolTable
 70
     6
  0
LTYPE
  5
14
330
5
100
AcDbSymbolTableRecord
100
AcDbLinetypeTableRecord
  2
ByBlock
 70
     0
  3

 72
    65
 73
     0
 40
0.0
  0
LTYPE
  5
15
330
5
100
AcDbSymbolTableRecord
100
AcDbLinetypeTableRecord
  2
ByLayer
 70
     0
  3

 72
    65
 73
     0
 40
0.0
  0
LTYPE
  5
16
330
5
100
AcDbSymbolTableRecord
100
AcDbLinetypeTableRecord
  2
Continuous
 70
     0
  3
Solid line
 72
    65
 73
     0
 40
0.0
  0
LTYPE
  5
6E
330
5
100
AcDbSymbolTableRecord
100
AcDbLinetypeTableRecord
  2
HIDDEN
 70
     0
  3
Hidden __ __ __ __ __ __ __ __ __ __ __ __ __ __
 72
    65
 73
     2
 40
1.905
 49
1.27
 74
     0
 49
-0.635
 74
     0
  0
LTYPE
  5
6F
330
5
100
AcDbSymbolTableRecord
100
AcDbLinetypeTableRecord
  2
PHANTOM
 70
     0
  3
Phantom ______  __  __  ______  __  __  ______
 72
    65
 73
     6
 40
12.7
 49
6.35
 74
     0
 49
-1.27
 74
     0
 49
1.27
 74
     0
 49
-1.27
 74
     0
 49
1.27
 74
     0
 49
-1.27
 74
     0
  0
LTYPE
  5
70
330
5
100
AcDbSymbolTableRecord
100
AcDbLinetypeTableRecord
  2
CENTER
 70
     0
  3
Center ____ _ ____ _ ____ _ ____ _ ____ _ ____
 72
    65
 73
     4
 40
10.16
 49
6.35
 74
     0
 49
-1.27
 74
     0
 49
1.27
 74
     0
 49
-1.27
 74
     0
  0
LTYPE
  5
71
330
5
100
AcDbSymbolTableRecord
100
AcDbLinetypeTableRecord
  2
CENTERX2
 70
     0
  3
Center (2x) ________  __  ________  __  _____
 72
    65
 73
     4
 40
20.32
 49
12.7
 74
     0
 49
-2.54
 74
     0
 49
2.54
 74
     0
 49
-2.54
 74
     0
  0
LTYPE
  5
72
330
5
100
AcDbSymbolTableRecord
100
AcDbLinetypeTableRecord
  2
DOT2
 70
     0
  3
Dot (.5x) ........................................
 72
    65
 73
     2
 40
0.635
 49
0.0
 74
     0
 49
-0.635
 74
     0
  0
ENDTAB
  0
TABLE
  2
LAYER
  5
2
330
0
100
AcDbSymbolTable
 70
    17
  0
LAYER
  5
10
330
2
100
AcDbSymbolTableRecord
100
AcDbLayerTableRecord
  2
0
 70
     0
 62
     7
  6
Continuous
370
    -3
390
F
  0
LAYER
  5
73
330
2
100
AcDbSymbolTableRecord
100
AcDbLayerTableRecord
  2
FORMAT
 70
     0
 62
     2
  6
Continuous
370
    -3
390
F
  0
LAYER
  5
74
330
2
100
AcDbSymbolTableRecord
100
AcDbLayerTableRecord
  2
외형선
 70
     0
 62
   100
  6
Continuous
370
    35
390
F
  0
LAYER
  5
75
330
2
100
AcDbSymbolTableRecord
100
AcDbLayerTableRecord
  2
숨은선
 70
     0
 62
     2
  6
HIDDEN
370
    25
390
F
  0
LAYER
  5
76
330
2
100
AcDbSymbolTableRecord
100
AcDbLayerTableRecord
  2
중심선
 70
     0
 62
     1
  6
CENTERX2
370
    -3
390
F
  0
LAYER
  5
77
330
2
100
AcDbSymbolTableRecord
100
AcDbLayerTableRecord
  2
파단선
 70
     0
 62
     4
  6
Continuous
370
    -3
390
F
  0
LAYER
  5
78
330
2
100
AcDbSymbolTableRecord
100
AcDbLayerTableRecord
  2
해칭선
 70
     0
 62
   100
  6
Continuous
370
    -3
390
F
  0
LAYER
  5
79
330
2
100
AcDbSymbolTableRecord
100
AcDbLayerTableRecord
  2
가는실선
 70
     0
 62
     4
  6
Continuous
370
    -3
390
F
  0
LAYER
  5
7A
330
2
100
AcDbSymbolTableRecord
100
AcDbLayerTableRecord
  2
치수_보조선
 70
     0
 62
     4
  6
Continuous
370
    -3
390
F
  0
LAYER
  5
7B
330
2
100
AcDbSymbolTableRecord
100
AcDbLayerTableRecord
  2
치수문자_일반주서
 70
     0
 62
     7
  6
Continuous
370
    25
390
F
  0
LAYER
  5
7C
330
2
100
AcDbSymbolTableRecord
100
AcDbLayerTableRecord
  2
개별주서
 70
     0
 62
   100
  6
Continuous
370
    35
390
F
  0
LAYER
  5
7D
330
2
100
AcDbSymbolTableRecord
100
AcDbLayerTableRecord
  2
중간선
 70
     0
 62
     2
  6
Continuous
370
    25
390
F
  0
LAYER
  5
7E
330
2
100
AcDbSymbolTableRecord
100
AcDbLayerTableRecord
  2
윤곽선
 70
     0
 62
     3
  6
Continuous
370
    50
390
F
  0
LAYER
  5
7F
330
2
100
AcDbSymbolTableRecord
100
AcDbLayerTableRecord
  2
중심마크
 70
     0
 62
   100
  6
Continuous
370
    35
390
F
  0
LAYER
  5
80
330
2
100
AcDbSymbolTableRecord
100
AcDbLayerTableRecord
  2
가상선
 70
     0
 62
     4
  6
PHANTOM
370
    -3
390
F
  0
LAYER
  5
81
330
2
100
AcDbSymbolTableRecord
100
AcDbLayerTableRecord
  2
특수지정선
 70
     0
 62
     5
  6
CENTERX2
370
    70
390
F
  0
LAYER
  5
13D
330
2
100
AcDbSymbolTableRecord
100
AcDbLayerTableRecord
  2
Defpoints
 70
     0
 62
     7
  6
Continuous
290
     0
370
    -3
390
F
  0
ENDTAB
  0
TABLE
  2
STYLE
  5
3
330
0
100
AcDbSymbolTable
 70
     2
  0
STYLE
  5
11
330
3
100
AcDbSymbolTableRecord
100
AcDbTextStyleTableRecord
  2
Standard
 70
     0
 40
0.0
 41
1.0
 50
0.0
 71
     0
 42
3.5
  3
txt
  4

  0
STYLE
  5
97
330
3
100
AcDbSymbolTableRecord
100
AcDbTextStyleTableRecord
  2
SLDTEXTSTYLE0
 70
     0
 40
0.0
 41
0.75
 50
0.0
 71
     0
 42
3.5
  3
TXT
  4

  0
ENDTAB
  0
TABLE
  2
VIEW
  5
6
330
0
100
AcDbSymbolTable
 70
     0
  0
ENDTAB
  0
TABLE
  2
UCS
  5
7
330
0
100
AcDbSymbolTable
 70
     0
  0
ENDTAB
  0
TABLE
  2
APPID
  5
9
330
0
100
AcDbSymbolTable
 70
     1
  0
APPID
  5
12
330
9
100
AcDbSymbolTableRecord
100
AcDbRegAppTableRecord
  2
ACAD
 70
     0
  0
ENDTAB
  0
TABLE
  2
DIMSTYLE
  5
A
330
0
100
AcDbSymbolTable
 70
     4
100
AcDbDimStyleTable
  0
DIMSTYLE
105
27
330
A
100
AcDbSymbolTableRecord
100
AcDbDimStyleTableRecord
  2
ISO-25
 70
     0
 41
2.5
 42
0.625
 43
3.75
 44
1.25
 73
     0
 74
     0
 77
     1
 78
     8
140
2.5
141
2.5
143
0.03937007874016
147
0.625
171
     3
172
     1
178
     0
271
     2
272
     2
274
     3
278
    44
283
     0
284
     8
340
11
  0
DIMSTYLE
105
E2
102
{ACAD_REACTORS
330
E1
102
}
330
A
100
AcDbSymbolTableRecord
100
AcDbDimStyleTableRecord
  2
SLDDIMSTYLE0
 70
     0
 41
3.302
 44
0.0
 45
0.000000001
 73
     0
 74
     0
 77
     1
 78
    12
 79
     3
140
3.5
147
0.875
172
     1
173
     1
178
     0
271
     1
272
     1
276
     2
284
    12
289
     0
340
97
  0
DIMSTYLE
105
F0
102
{ACAD_REACTORS
330
EF
330
108
102
}
330
A
100
AcDbSymbolTableRecord
100
AcDbDimStyleTableRecord
  2
SLDDIMSTYLE1
 70
     0
 41
3.302
 44
0.0
 45
0.000000001
 73
     0
 74
     0
 77
     1
 78
    12
 79
     3
140
3.5
147
0.875
173
     1
178
     0
271
     2
272
     2
276
     2
284
    12
340
97
  0
DIMSTYLE
105
FB
102
{ACAD_REACTORS
330
FA
102
}
330
A
100
AcDbSymbolTableRecord
100
AcDbDimStyleTableRecord
  2
SLDDIMSTYLE2
 70
     0
 41
3.302
 44
0.0
 45
0.000000001
 73
     0
 74
     0
 77
     1
 78
    12
 79
     3
140
3.5
147
0.875
172
     1
173
     1
178
     0
271
     2
272
     2
276
     2
284
    12
289
     0
340
97
  0
ENDTAB
  0
TABLE
  2
BLOCK_RECORD
  5
1
330
0
100
AcDbSymbolTable
 70
     7
  0
BLOCK_RECORD
  5
1F
330
1
100
AcDbSymbolTableRecord
100
AcDbBlockTableRecord
  2
*Model_Space
340
22
  0
BLOCK_RECORD
  5
1B
330
1
100
AcDbSymbolTableRecord
100
AcDbBlockTableRecord
  2
*Paper_Space
340
1E
  0
BLOCK_RECORD
  5
23
330
1
100
AcDbSymbolTableRecord
100
AcDbBlockTableRecord
  2
*Paper_Space0
340
26
  0
BLOCK_RECORD
  5
82
330
1
100
AcDbSymbolTableRecord
100
AcDbBlockTableRecord
  2
블럭10
340
0
102
{BLKREFS
331
DA
102
}
  0
BLOCK_RECORD
  5
E3
330
1
100
AcDbSymbolTableRecord
100
AcDbBlockTableRecord
  2
_D
340
0
  0
BLOCK_RECORD
  5
F1
330
1
100
AcDbSymbolTableRecord
100
AcDbBlockTableRecord
  2
_D_1
340
0
  0
BLOCK_RECORD
  5
FC
330
1
100
AcDbSymbolTableRecord
100
AcDbBlockTableRecord
  2
_D_2
340
0
  0
BLOCK_RECORD
  5
109
330
1
100
AcDbSymbolTableRecord
100
AcDbBlockTableRecord
  2
_D_3
340
0
  0
BLOCK_RECORD
  5
112
330
1
100
AcDbSymbolTableRecord
100
AcDbBlockTableRecord
  2
SW_DOWELSYMBOL_0
340
0
102
{BLKREFS
331
118
102
}
  0
ENDTAB
  0
ENDSEC
  0
SECTION
  2
BLOCKS
  0
BLOCK
  5
20
330
1F
100
AcDbEntity
  8
0
100
AcDbBlockBegin
  2
*Model_Space
 70
     0
 10
0.0
 20
0.0
 30
0.0
  3
*Model_Space
  1

  0
ENDBLK
  5
21
330
1F
100
AcDbEntity
  8
0
100
AcDbBlockEnd
  0
BLOCK
  5
1C
330
1B
100
AcDbEntity
 67
     1
  8
0
100
AcDbBlockBegin
  2
*Paper_Space
 70
     0
 10
0.0
 20
0.0
 30
0.0
  3
*Paper_Space
  1

  0
ENDBLK
  5
1D
330
1B
100
AcDbEntity
 67
     1
  8
0
100
AcDbBlockEnd
  0
BLOCK
  5
24
330
23
100
AcDbEntity
  8
0
100
AcDbBlockBegin
  2
*Paper_Space0
 70
     0
 10
0.0
 20
0.0
 30
0.0
  3
*Paper_Space0
  1

  0
ENDBLK
  5
25
330
23
100
AcDbEntity
  8
0
100
AcDbBlockEnd
  0
BLOCK
  5
83
330
82
100
AcDbEntity
  8
0
100
AcDbBlockBegin
  2
블럭10
 70
     2
 10
0.0
 20
0.0
 30
0.0
  3
블럭10
  1

  0
ELLIPSE
  5
85
330
82
100
AcDbEntity
  8
중심선
100
AcDbEllipse
 10
20.54032771741204
 20
12.0471743016438
 30
0.0
 11
6.600054785286829
 21
-1.261213355974178E-13
 31
0.0
210
0.0
220
0.0
230
1.0
 40
0.636358354079598
 41
0.9219305317359503
 42
6.513795318482858
  0
ELLIPSE
  5
86
330
82
100
AcDbEntity
  8
중심선
100
AcDbEllipse
 10
20.54032771746488
 20
12.04717430159265
 30
0.0
 11
3.960054785062283
 21
1.540847449632565E-10
 31
0.0
210
0.0
220
0.0
230
1.0
 40
0.3939339440162632
 41
1.131841032648279
 42
5.62031148352944
  0
LINE
  5
87
330
82
100
AcDbEntity
  8
중심선
100
AcDbLine
 10
2.268634060543552
 20
16.24717430164393
 30
0.0
 11
5.714909304380834
 21
16.24717430164393
 31
0.0
  0
LINE
  5
88
330
82
100
AcDbEntity
  8
중심선
100
AcDbLine
 10
5.245725140726316
 20
7.84717430164391
 30
0.0
 11
8.692000384563599
 21
7.84717430164391
 31
0.0
  0
LINE
  5
89
330
82
100
AcDbEntity
  8
중심선
100
AcDbLine
 10
15.74043728645272
 20
16.24717430164393
 30
0.0
 11
8.692000384563599
 21
7.84717430164391
 31
0.0
  0
LINE
  5
8A
330
82
100
AcDbEntity
  8
중심선
100
AcDbLine
 10
0.1404042013395286
 20
13.71084872107135
 30
0.0
 11
3.58671253028996
 21
13.71088815037384
 31
0.0
  0
LINE
  5
8B
330
82
100
AcDbEntity
  8
중심선
100
AcDbLine
 10
2.750260043222114
 20
10.84717430164391
 30
0.0
 11
6.196535287059397
 21
10.84717430164391
 31
0.0
  0
LINE
  5
8C
330
82
100
AcDbEntity
  8
중심선
100
AcDbLine
 10
12.29416204261559
 20
16.24717430164393
 30
0.0
 11
5.245725140726316
 21
7.84717430164391
 31
0.0
  0
LINE
  5
8D
330
82
100
AcDbEntity
  8
중심선
100
AcDbLine
 10
10.72767329541681
 20
16.24717430164393
 30
0.0
 11
6.196535287059397
 21
10.84717430164391
 31
0.0
  0
LINE
  5
8E
330
82
100
AcDbEntity
  8
중심선
100
AcDbLine
 10
7.28139805157953
 20
16.24717430164393
 30
0.0
 11
2.750260043222114
 21
10.84717430164391
 31
0.0
  0
LINE
  5
8F
330
82
100
AcDbEntity
  8
중심선
100
AcDbLine
 10
5.714909304380834
 20
16.24717430164393
 30
0.0
 11
3.58671253028996
 21
13.71088815037384
 31
0.0
  0
LINE
  5
90
330
82
100
AcDbEntity
  8
중심선
100
AcDbLine
 10
2.268634060543552
 20
16.24717430164393
 30
0.0
 11
0.1404042013395286
 21
13.71084872107135
 31
0.0
  0
LINE
  5
91
330
82
100
AcDbEntity
  8
중심선
100
AcDbLine
 10
7.28139805157953
 20
16.24717430164393
 30
0.0
 11
10.72767329541681
 21
16.24717430164393
 31
0.0
  0
LINE
  5
92
330
82
100
AcDbEntity
  8
중심선
100
AcDbLine
 10
12.29416204261559
 20
16.24717430164393
 30
0.0
 11
15.74043728645272
 21
16.24717430164393
 31
0.0
  0
LINE
  5
93
330
82
100
AcDbEntity
  8
중심선
100
AcDbLine
 10
19.22036997980202
 20
11.08717430171403
 30
0.0
 11
23.66174974927406
 21
11.08717430171406
 31
0.0
  0
LINE
  5
94
330
82
100
AcDbEntity
  8
중심선
100
AcDbLine
 10
19.22039502424796
 20
13.00717430171391
 30
0.0
 11
19.22036997980202
 21
11.08717430171403
 31
0.0
  0
LINE
  5
95
330
82
100
AcDbEntity
  8
중심선
100
AcDbLine
 10
19.22039502424796
 20
13.00717430171391
 30
0.0
 11
26.96566020931264
 21
13.00717430171391
 31
0.0
  0
LINE
  5
96
330
82
100
AcDbEntity
  8
중심선
100
AcDbLine
 10
22.22332737316547
 20
13.45928029700563
 30
0.0
 11
24.52862924686651
 21
15.39360700705356
 31
0.0
  0
ATTDEF
  5
98
330
82
100
AcDbEntity
  8
FORMAT
 62
     2
100
AcDbText
 10
-16.11926103943555
 20
2.075366912832191
 30
0.0
 40
4.233333333333333
  1
SEME7210055E [ 4 FLUTE ]
 41
0.75
  7
SLDTEXTSTYLE0
 11
-16.11926103943555
 21
-0.0412997538344756
 31
0.0
100
AcDbAttributeDefinition
  3

  2
AUTOATTR0
 70
     0
 74
     1
  0
ENDBLK
  5
84
330
82
100
AcDbEntity
  8
0
100
AcDbBlockEnd
  0
BLOCK
  5
E4
330
E3
100
AcDbEntity
  8
0
100
AcDbBlockBegin
  2
_D
 70
     0
 10
0.0
 20
0.0
 30
0.0
  3
_D
  1

  0
LINE
  5
E6
330
E3
100
AcDbEntity
  8
치수문자_일반주서
 62
     0
370
    -2
100
AcDbLine
 10
65.0625
 20
-5.000000000000012
 30
0.0
 11
81.69710358168113
 21
-4.99999999999995
 31
0.0
  0
LINE
  5
E7
330
E3
100
AcDbEntity
  8
치수문자_일반주서
 62
     0
370
    -2
100
AcDbLine
 10
65.0625
 20
4.999999999999996
 30
0.0
 11
81.6971035816811
 21
5.000000000000059
 31
0.0
  0
LINE
  5
E8
330
E3
100
AcDbEntity
  8
치수문자_일반주서
 62
     0
370
    -2
100
AcDbLine
 10
81.69710358168113
 20
-4.99999999999995
 30
0.0
 11
81.69710358168106
 21
19.04150000000006
 31
0.0
  0
LINE
  5
E9
330
E3
100
AcDbEntity
  8
치수문자_일반주서
 62
     0
370
    -2
100
AcDbLine
 10
81.69710358168113
 20
-4.99999999999995
 30
0.0
 11
81.6971035816811
 21
5.000000000000059
 31
0.0
  0
LINE
  5
EA
330
E3
100
AcDbEntity
  8
치수문자_일반주서
 62
     0
370
    -2
100
AcDbLine
 10
81.69710358168115
 20
-8.30199999999995
 30
0.0
 11
81.69710358168116
 21
-11.60399999999995
 31
0.0
  0
LINE
  5
EB
330
E3
100
AcDbEntity
  8
치수문자_일반주서
 62
     0
370
    -2
100
AcDbLine
 10
81.69710358168109
 20
8.302000000000058
 30
0.0
 11
81.69710358168108
 21
11.60400000000006
 31
0.0
  0
SOLID
  5
EC
330
E3
100
AcDbEntity
  8
치수문자_일반주서
 62
     0
100
AcDbTrace
 10
82.24743691501448
 20
-8.301999999999948
 30
0.0
 11
81.14677024834782
 21
-8.301999999999952
 31
0.0
 12
81.69710358168113
 22
-4.99999999999995
 32
0.0
 13
81.69710358168113
 23
-4.99999999999995
 33
0.0
  0
SOLID
  5
ED
330
E3
100
AcDbEntity
  8
치수문자_일반주서
 62
     0
100
AcDbTrace
 10
81.14677024834776
 20
8.302000000000056
 30
0.0
 11
82.24743691501442
 21
8.30200000000006
 31
0.0
 12
81.6971035816811
 22
5.000000000000059
 32
0.0
 13
81.6971035816811
 23
5.000000000000059
 33
0.0
  0
MTEXT
  5
EE
330
E3
100
AcDbEntity
  8
치수문자_일반주서
 62
     0
100
AcDbMText
 10
77.32210358168108
 20
15.32275000000005
 30
0.0
 40
3.5
 41
0.0
 71
     2
 72
     1
  1
\A1;%%c10
  7
SLDTEXTSTYLE0
 11
-2.842170943040398E-15
 21
1.0
 31
0.0
 73
     1
 44
1.0
  0
POINT
  5
147
330
E3
100
AcDbEntity
  8
Defpoints
 62
     0
100
AcDbPoint
 10
65.0
 20
-5.000000000000012
 30
0.0
  0
POINT
  5
148
330
E3
100
AcDbEntity
  8
Defpoints
 62
     0
100
AcDbPoint
 10
65.0
 20
4.999999999999996
 30
0.0
  0
POINT
  5
149
330
E3
100
AcDbEntity
  8
Defpoints
 62
     0
100
AcDbPoint
 10
81.69710358168108
 20
5.000000000000059
 30
0.0
  0
ENDBLK
  5
E5
330
E3
100
AcDbEntity
  8
0
100
AcDbBlockEnd
  0
BLOCK
  5
F2
330
F1
100
AcDbEntity
  8
0
100
AcDbBlockBegin
  2
_D_1
 70
     0
 10
0.0
 20
0.0
 30
0.0
  3
_D_1
  1

  0
LINE
  5
F4
330
F1
100
AcDbEntity
  8
치수문자_일반주서
 62
     0
370
    -2
100
AcDbLine
 10
-84.99999999999999
 20
4.562499999999982
 30
0.0
 11
-85.0
 21
22.38913260158163
 31
0.0
  0
LINE
  5
F5
330
F1
100
AcDbEntity
  8
치수문자_일반주서
 62
     0
370
    -2
100
AcDbLine
 10
65.0
 20
5.062500000000004
 30
0.0
 11
64.99999999999999
 21
22.38913260158163
 31
0.0
  0
LINE
  5
F6
330
F1
100
AcDbEntity
  8
치수문자_일반주서
 62
     0
370
    -2
100
AcDbLine
 10
-81.69800000000001
 20
22.38913260158163
 30
0.0
 11
61.69799999999999
 21
22.38913260158163
 31
0.0
  0
SOLID
  5
F7
330
F1
100
AcDbEntity
  8
치수문자_일반주서
 62
     0
100
AcDbTrace
 10
-81.69800000000001
 20
22.93946593491496
 30
0.0
 11
-81.69800000000001
 21
21.83879926824829
 31
0.0
 12
-85.0
 22
22.38913260158163
 32
0.0
 13
-85.0
 23
22.38913260158163
 33
0.0
  0
SOLID
  5
F8
330
F1
100
AcDbEntity
  8
치수문자_일반주서
 62
     0
100
AcDbTrace
 10
61.69799999999999
 20
21.83879926824829
 30
0.0
 11
61.69799999999999
 21
22.93946593491496
 31
0.0
 12
64.99999999999999
 22
22.38913260158163
 32
0.0
 13
64.99999999999999
 23
22.38913260158163
 33
0.0
  0
MTEXT
  5
F9
330
F1
100
AcDbEntity
  8
치수문자_일반주서
 62
     0
100
AcDbMText
 10
-9.999999999999996
 20
26.76413260158163
 30
0.0
 40
3.5
 41
0.0
 71
     2
 72
     1
  1
\A1;150
  7
SLDTEXTSTYLE0
 73
     1
 44
1.0
  0
POINT
  5
13E
330
F1
100
AcDbEntity
  8
Defpoints
 62
     0
100
AcDbPoint
 10
-84.99999999999999
 20
4.499999999999982
 30
0.0
  0
POINT
  5
13F
330
F1
100
AcDbEntity
  8
Defpoints
 62
     0
100
AcDbPoint
 10
65.0
 20
5.000000000000004
 30
0.0
  0
POINT
  5
140
330
F1
100
AcDbEntity
  8
Defpoints
 62
     0
100
AcDbPoint
 10
65.0
 20
22.38913260158163
 30
0.0
  0
ENDBLK
  5
F3
330
F1
100
AcDbEntity
  8
0
100
AcDbBlockEnd
  0
BLOCK
  5
FD
330
FC
100
AcDbEntity
  8
0
100
AcDbBlockBegin
  2
_D_2
 70
     0
 10
0.0
 20
0.0
 30
0.0
  3
_D_2
  1

  0
LINE
  5
FF
330
FC
100
AcDbEntity
  8
치수문자_일반주서
 62
     0
370
    -2
100
AcDbLine
 10
-84.56249999999999
 20
4.999999999999998
 30
0.0
 11
-97.44974035614034
 21
4.99999999999995
 31
0.0
  0
LINE
  5
100
330
FC
100
AcDbEntity
  8
치수문자_일반주서
 62
     0
370
    -2
100
AcDbLine
 10
-84.56249999999999
 20
-5.000000000000011
 30
0.0
 11
-97.44974035614031
 21
-5.000000000000057
 31
0.0
  0
LINE
  5
101
330
FC
100
AcDbEntity
  8
치수문자_일반주서
 62
     0
370
    -2
100
AcDbLine
 10
-97.44974035614034
 20
4.99999999999995
 30
0.0
 11
-97.44974035614038
 21
19.04149999999995
 31
0.0
  0
LINE
  5
102
330
FC
100
AcDbEntity
  8
치수문자_일반주서
 62
     0
370
    -2
100
AcDbLine
 10
-97.44974035614034
 20
4.99999999999995
 30
0.0
 11
-97.44974035614031
 21
-5.000000000000057
 31
0.0
  0
LINE
  5
103
330
FC
100
AcDbEntity
  8
치수문자_일반주서
 62
     0
370
    -2
100
AcDbLine
 10
-97.44974035614035
 20
8.30199999999995
 30
0.0
 11
-97.44974035614037
 21
11.60399999999995
 31
0.0
  0
LINE
  5
104
330
FC
100
AcDbEntity
  8
치수문자_일반주서
 62
     0
370
    -2
100
AcDbLine
 10
-97.4497403561403
 20
-8.302000000000056
 30
0.0
 11
-97.44974035614028
 21
-11.60400000000006
 31
0.0
  0
SOLID
  5
105
330
FC
100
AcDbEntity
  8
치수문자_일반주서
 62
     0
100
AcDbTrace
 10
-98.00007368947368
 20
8.301999999999948
 30
0.0
 11
-96.89940702280703
 21
8.301999999999952
 31
0.0
 12
-97.44974035614034
 22
4.99999999999995
 32
0.0
 13
-97.44974035614034
 23
4.99999999999995
 33
0.0
  0
SOLID
  5
106
330
FC
100
AcDbEntity
  8
치수문자_일반주서
 62
     0
100
AcDbTrace
 10
-96.89940702280697
 20
-8.302000000000055
 30
0.0
 11
-98.00007368947362
 21
-8.302000000000058
 31
0.0
 12
-97.44974035614031
 22
-5.000000000000057
 32
0.0
 13
-97.44974035614031
 23
-5.000000000000057
 33
0.0
  0
MTEXT
  5
107
330
FC
100
AcDbEntity
  8
치수문자_일반주서
 62
     0
100
AcDbMText
 10
-101.8247403561404
 20
15.32274999999994
 30
0.0
 40
3.5
 41
0.0
 71
     2
 72
     1
  1
\A1;%%c10
  7
SLDTEXTSTYLE0
 11
-2.842170943040398E-15
 21
1.0
 31
0.0
 73
     1
 44
1.0
  0
POINT
  5
144
330
FC
100
AcDbEntity
  8
Defpoints
 62
     0
100
AcDbPoint
 10
-84.49999999999999
 20
4.999999999999998
 30
0.0
  0
POINT
  5
145
330
FC
100
AcDbEntity
  8
Defpoints
 62
     0
100
AcDbPoint
 10
-84.49999999999999
 20
-5.000000000000011
 30
0.0
  0
POINT
  5
146
330
FC
100
AcDbEntity
  8
Defpoints
 62
     0
100
AcDbPoint
 10
-97.44974035614034
 20
-5.000000000000059
 30
0.0
  0
ENDBLK
  5
FE
330
FC
100
AcDbEntity
  8
0
100
AcDbBlockEnd
  0
BLOCK
  5
10A
330
109
100
AcDbEntity
  8
0
100
AcDbBlockBegin
  2
_D_3
 70
     0
 10
0.0
 20
0.0
 30
0.0
  3
_D_3
  1

  0
LINE
  5
10C
330
109
100
AcDbEntity
  8
치수문자_일반주서
 62
     0
370
    -2
100
AcDbLine
 10
9.999999999999998
 20
5.002107594056474
 30
0.0
 11
10.0
 21
15.78552589664415
 31
0.0
  0
LINE
  5
10D
330
109
100
AcDbEntity
  8
치수문자_일반주서
 62
     0
370
    -2
100
AcDbLine
 10
65.0
 20
5.062500000000004
 30
0.0
 11
65.0
 21
15.78552589664415
 31
0.0
  0
LINE
  5
10E
330
109
100
AcDbEntity
  8
치수문자_일반주서
 62
     0
370
    -2
100
AcDbLine
 10
13.302
 20
15.78552589664415
 30
0.0
 11
61.698
 21
15.78552589664415
 31
0.0
  0
SOLID
  5
10F
330
109
100
AcDbEntity
  8
치수문자_일반주서
 62
     0
100
AcDbTrace
 10
13.302
 20
16.33585922997749
 30
0.0
 11
13.302
 21
15.23519256331082
 31
0.0
 12
10.0
 22
15.78552589664415
 32
0.0
 13
10.0
 23
15.78552589664415
 33
0.0
  0
SOLID
  5
110
330
109
100
AcDbEntity
  8
치수문자_일반주서
 62
     0
100
AcDbTrace
 10
61.698
 20
15.23519256331082
 30
0.0
 11
61.698
 21
16.33585922997749
 31
0.0
 12
65.0
 22
15.78552589664415
 32
0.0
 13
65.0
 23
15.78552589664415
 33
0.0
  0
MTEXT
  5
111
330
109
100
AcDbEntity
  8
치수문자_일반주서
 62
     0
100
AcDbMText
 10
37.49999999999999
 20
20.16052589664415
 30
0.0
 40
3.5
 41
0.0
 71
     2
 72
     1
  1
\A1;55
  7
SLDTEXTSTYLE0
 73
     1
 44
1.0
  0
POINT
  5
141
330
109
100
AcDbEntity
  8
Defpoints
 62
     0
100
AcDbPoint
 10
9.999999999999998
 20
4.939607594056474
 30
0.0
  0
POINT
  5
142
330
109
100
AcDbEntity
  8
Defpoints
 62
     0
100
AcDbPoint
 10
65.0
 20
5.000000000000004
 30
0.0
  0
POINT
  5
143
330
109
100
AcDbEntity
  8
Defpoints
 62
     0
100
AcDbPoint
 10
65.0
 20
15.78552589664415
 30
0.0
  0
ENDBLK
  5
10B
330
109
100
AcDbEntity
  8
0
100
AcDbBlockEnd
  0
BLOCK
  5
113
330
112
100
AcDbEntity
  8
0
100
AcDbBlockBegin
  2
SW_DOWELSYMBOL_0
 70
     0
 10
0.0
 20
0.0
 30
0.0
  3
SW_DOWELSYMBOL_0
  1

  0
CIRCLE
  5
115
330
112
100
AcDbEntity
  8
해칭선
 62
     0
100
AcDbCircle
 10
0.0
 20
0.0
 30
0.0
 40
3.0
  0
HATCH
  5
116
330
112
100
AcDbEntity
  8
0
  6
Continuous
 62
     0
370
    18
100
AcDbHatch
 10
0.0
 20
0.0
 30
0.0
210
0.0
220
0.0
230
1.0
  2
SOLID
 70
     1
 71
     0
 91
        1
 92
        0
 93
        3
 72
     2
 10
0.0
 20
0.0
 40
3.0
 50
0.0
 51
90.0
 73
     1
 72
     1
 10
0.0
 20
3.0
 11
0.0
 21
0.0
 72
     1
 10
0.0
 20
0.0
 11
3.0
 21
0.0
 97
        0
 75
     0
 76
     1
 98
        1
 10
0.0
 20
0.0
  0
HATCH
  5
117
330
112
100
AcDbEntity
  8
0
  6
Continuous
 62
     0
370
    18
100
AcDbHatch
 10
0.0
 20
0.0
 30
0.0
210
0.0
220
0.0
230
1.0
  2
SOLID
 70
     1
 71
     0
 91
        1
 92
        0
 93
        3
 72
     2
 10
0.0
 20
0.0
 40
3.0
 50
180.0
 51
270.0000000000008
 73
     1
 72
     1
 10
0.0
 20
-3.0
 11
0.0
 21
0.0
 72
     1
 10
0.0
 20
0.0
 11
-3.0
 21
0.0
 97
        0
 75
     0
 76
     1
 98
        1
 10
0.0
 20
0.0
  0
ENDBLK
  5
114
330
112
100
AcDbEntity
  8
0
100
AcDbBlockEnd
  0
ENDSEC
  0
SECTION
  2
ENTITIES
  0
LINE
  5
99
330
1F
100
AcDbEntity
  8
0
  6
Continuous
 62
     4
370
    25
100
AcDbLine
 10
10.0
 20
4.999999999999993
 30
0.0
 11
-84.49999999999999
 21
4.999999999999988
 31
0.0
  0
LINE
  5
9A
330
1F
100
AcDbEntity
  8
0
  6
Continuous
 62
     4
370
    25
100
AcDbLine
 10
-84.49999999999999
 20
-5.000000000000012
 30
0.0
 11
10.00000000000001
 21
-5.000000000000007
 31
0.0
  0
LINE
  5
9B
330
1F
100
AcDbEntity
  8
0
  6
Continuous
 62
     4
370
    25
100
AcDbLine
 10
-84.49999999999999
 20
4.99999999999998
 30
0.0
 11
-84.99999999999999
 21
4.49999999999998
 31
0.0
  0
LINE
  5
9C
330
1F
100
AcDbEntity
  8
0
  6
Continuous
 62
     4
370
    25
100
AcDbLine
 10
-84.99999999999999
 20
-4.500000000000009
 30
0.0
 11
-84.49999999999999
 21
-5.000000000000005
 31
0.0
  0
LINE
  5
9D
330
1F
100
AcDbEntity
  8
0
  6
Continuous
 62
     1
370
    25
100
AcDbLine
 10
63.06568640621827
 20
-5.000000000000012
 30
0.0
 11
65.0
 21
-5.000000000000012
 31
0.0
  0
LINE
  5
9E
330
1F
100
AcDbEntity
  8
0
  6
Continuous
 62
     1
370
    25
100
AcDbLine
 10
10.0
 20
-5.000000000000012
 30
0.0
 11
12.52096293281424
 21
-5.000000000000012
 31
0.0
  0
LINE
  5
9F
330
1F
100
AcDbEntity
  8
0
  6
Continuous
 62
     1
370
    25
100
AcDbLine
 10
39.72638800351829
 20
4.999999999999998
 30
0.0
 11
35.85937926133718
 21
4.999999999999998
 31
0.0
  0
LINE
  5
A0
330
1F
100
AcDbEntity
  8
0
  6
Continuous
 62
     1
370
    25
100
AcDbLine
 10
49.46207290796386
 20
-5.000000000000012
 30
0.0
 11
53.3303789584895
 21
-5.000000000000012
 31
0.0
  0
LINE
  5
A1
330
1F
100
AcDbEntity
  8
0
  6
Continuous
 62
     1
370
    25
100
AcDbLine
 10
26.12352558499129
 20
4.999999999999998
 30
0.0
 11
22.25565213852813
 21
4.999999999999998
 31
0.0
  0
LINE
  5
A2
330
1F
100
AcDbEntity
  8
0
  6
Continuous
 62
     1
370
    25
100
AcDbLine
 10
38.23490662118814
 20
0.8490785871854297
 30
0.0
 11
38.48471287652385
 21
0.7145211785772858
 31
0.0
  0
LINE
  5
A3
330
1F
100
AcDbEntity
  8
0
  6
Continuous
 62
     4
370
    25
100
AcDbLine
 10
10.53564068141775
 20
1.135539291475861
 30
0.0
 11
10.58601907297349
 21
1.111041022325203
 31
0.0
  0
LINE
  5
A4
330
1F
100
AcDbEntity
  8
0
  6
Continuous
 62
     1
370
    25
100
AcDbLine
 10
11.28881614651186
 20
0.7083853748829303
 30
0.0
 11
11.33788327267454
 21
0.6801846562049073
 31
0.0
  0
SPLINE
  5
A5
330
1F
100
AcDbEntity
  8
0
  6
Continuous
 62
     1
370
    25
100
AcDbSpline
210
0.0
220
0.0
230
1.0
 70
     8
 71
     3
 72
     9
 73
     5
 74
     0
 42
0.000000001
 43
0.00000001
 40
0.0
 40
0.0
 40
0.0
 40
0.0
 40
0.5363021388992469
 40
0.9999999999999999
 40
0.9999999999999999
 40
0.9999999999999999
 40
0.9999999999999999
 10
10.58601907297348
 20
1.111041022325206
 30
0.0
 10
10.71069726761987
 20
1.039919876485708
 30
0.0
 10
10.94317479400508
 20
0.9073059249816665
 30
0.0
 10
11.17931734889468
 20
0.7714031848156456
 30
0.0
 10
11.28881614651186
 20
0.7083853748829303
 30
0.0
  0
LINE
  5
A6
330
1F
100
AcDbEntity
  8
0
  6
Continuous
 62
     1
370
    25
100
AcDbLine
 10
23.58649797711767
 20
-0.7618416250847723
 30
0.0
 11
23.4978109646926
 21
-0.7145211785770609
 31
0.0
  0
LINE
  5
A7
330
1F
100
AcDbEntity
  8
0
  6
Continuous
 62
     1
370
    25
100
AcDbLine
 10
64.94342307506402
 20
1.138553546881785
 30
0.0
 11
65.00000000000001
 21
1.111041022325203
 31
0.0
  0
LINE
  5
A8
330
1F
100
AcDbEntity
  8
0
  6
Continuous
 62
     1
370
    25
100
AcDbLine
 10
22.2556521385282
 20
-5.000000000000012
 30
0.0
 11
26.12352558499128
 21
-5.000000000000012
 31
0.0
  0
LINE
  5
A9
330
1F
100
AcDbEntity
  8
0
  6
Continuous
 62
     1
370
    25
100
AcDbLine
 10
53.33037895848953
 20
4.999999999999998
 30
0.0
 11
49.46207290796393
 21
4.999999999999998
 31
0.0
  0
LINE
  5
AA
330
1F
100
AcDbEntity
  8
0
  6
Continuous
 62
     1
370
    25
100
AcDbLine
 10
35.8593792613372
 20
-5.000000000000012
 30
0.0
 11
39.72638800351825
 21
-5.000000000000012
 31
0.0
  0
LINE
  5
AB
330
1F
100
AcDbEntity
  8
0
  6
Continuous
 62
     1
370
    25
100
AcDbLine
 10
12.52096293281407
 20
4.999999999999998
 30
0.0
 11
10.0
 21
4.999999999999998
 31
0.0
  0
LINE
  5
AC
330
1F
100
AcDbEntity
  8
0
  6
Continuous
 62
     1
370
    25
100
AcDbLine
 10
65.0
 20
4.999999999999998
 30
0.0
 11
63.06568640621824
 21
4.999999999999998
 31
0.0
  0
LINE
  5
AD
330
1F
100
AcDbEntity
  8
0
  6
Continuous
 62
     4
370
    25
100
AcDbLine
 10
9.99582473340741
 20
-0.7723964371847188
 30
0.0
 11
9.949835021896634
 21
-0.78603752366056
 31
0.0
  0
SPLINE
  5
AE
330
1F
100
AcDbEntity
  8
0
  6
Continuous
 62
     4
370
    25
100
AcDbSpline
210
0.0
220
0.0
230
1.0
 70
     8
 71
     3
 72
    14
 73
    10
 74
     0
 42
0.000000001
 43
0.00000001
 40
0.0
 40
0.0
 40
0.0
 40
0.0
 40
0.25
 40
0.25
 40
0.5
 40
0.5
 40
0.75
 40
0.75
 40
1.0
 40
1.0
 40
1.0
 40
1.0
 10
9.00382743639915
 20
-4.59366902415117
 30
0.0
 10
8.924952859517528
 20
-4.575680130499364
 30
0.0
 10
8.854080740731028
 20
-4.55333525220361
 30
0.0
 10
8.727870925480488
 20
-4.498450040054086
 30
0.0
 10
8.673503929761848
 20
-4.466022731589957
 30
0.0
 10
8.586844416427002
 20
-4.392964793751357
 30
0.0
 10
8.553682058843561
 20
-4.351433999828707
 30
0.0
 10
8.510651935150294
 20
-4.262767093261093
 30
0.0
 10
8.500109092426444
 20
-4.214824719254143
 30
0.0
 10
8.500109092426444
 20
-4.164468786277812
 30
0.0
  0
SPLINE
  5
AF
330
1F
100
AcDbEntity
  8
0
  6
Continuous
 62
     4
370
    25
100
AcDbSpline
210
0.0
220
0.0
230
1.0
 70
     8
 71
     3
 72
    20
 73
    16
 74
     0
 42
0.000000001
 43
0.00000001
 40
0.0
 40
0.0
 40
0.0
 40
0.0
 40
0.125
 40
0.125
 40
0.2500000000000001
 40
0.2500000000000001
 40
0.3750000000000001
 40
0.3750000000000001
 40
0.5000000000000001
 40
0.5000000000000001
 40
0.6250000000000001
 40
0.6250000000000001
 40
0.7500000000000002
 40
0.7500000000000002
 40
1.0
 40
1.0
 40
1.0
 40
1.0
 10
8.500109092426447
 20
-1.647227939244643
 30
0.0
 10
8.500109092426447
 20
-1.563054731292221
 30
0.0
 10
8.510036265574533
 20
-1.479672018183547
 30
0.0
 10
8.55124546361665
 20
-1.314870917785777
 30
0.0
 10
8.582974300144402
 20
-1.23339909889589
 30
0.0
 10
8.665820448828024
 20
-1.08268573263922
 30
0.0
 10
8.71816001275485
 20
-1.0111722171107
 30
0.0
 10
8.83939310076899
 20
-0.8849737947027284
 30
0.0
 10
8.907845478018903
 20
-0.8301426959332687
 30
0.0
 10
9.060220820609567
 20
-0.7384926887314927
 30
0.0
 10
9.140905494653055
 20
-0.7035680601562854
 30
0.0
 10
9.31104155881918
 20
-0.65516626801717
 30
0.0
 10
9.399748561083424
 20
-0.6422909524610898
 30
0.0
 10
9.663950983126545
 20
-0.639049394895363
 30
0.0
 10
9.841141098401492
 20
-0.6842616532236304
 30
0.0
 10
9.995824733407595
 20
-0.7723964371848234
 30
0.0
  0
LINE
  5
B0
330
1F
100
AcDbEntity
  8
0
  6
Continuous
 62
     4
370
    25
100
AcDbLine
 10
9.99582473340741
 20
4.939980135974658
 30
0.0
 11
9.999999999999806
 21
4.939607594056421
 31
0.0
  0
SPLINE
  5
B1
330
1F
100
AcDbEntity
  8
0
  6
Continuous
 62
     4
370
    25
100
AcDbSpline
210
0.0
220
0.0
230
1.0
 70
     8
 71
     3
 72
    20
 73
    16
 74
     0
 42
0.000000001
 43
0.00000001
 40
0.0
 40
0.0
 40
0.0
 40
0.0
 40
0.125
 40
0.125
 40
0.25
 40
0.25
 40
0.375
 40
0.375
 40
0.5
 40
0.5
 40
0.625
 40
0.625
 40
0.75
 40
0.75
 40
1.0
 40
1.0
 40
1.0
 40
1.0
 10
8.500109092426447
 20
4.72087281296286
 30
0.0
 10
8.500109092426447
 20
4.750242903064496
 30
0.0
 10
8.510036265574533
 20
4.776812298834598
 30
0.0
 10
8.55124546361665
 20
4.824777662157505
 30
0.0
 10
8.582974300144402
 20
4.846104329762412
 30
0.0
 10
8.665820448828024
 20
4.881986492857049
 30
0.0
 10
8.71816001275485
 20
4.89710738564516
 30
0.0
 10
8.839393100768987
 20
4.921478576798478
 30
0.0
 10
8.907845478018903
 20
4.930823056053331
 30
0.0
 10
9.060220820609564
 20
4.945379808913424
 30
0.0
 10
9.140905494653055
 20
4.950311978463496
 30
0.0
 10
9.31104155881918
 20
4.956950056299105
 30
0.0
 10
9.399748561083424
 20
4.958574746782636
 30
0.0
 10
9.663950983126545
 20
4.958993911980469
 30
0.0
 10
9.841141098401492
 20
4.953760554367015
 30
0.0
 10
9.995824733407595
 20
4.939980135974654
 30
0.0
  0
LINE
  5
B2
330
1F
100
AcDbEntity
  8
0
  6
Continuous
 62
     4
370
    25
100
AcDbLine
 10
8.500109092426447
 20
4.72087281296286
 30
0.0
 11
8.500109092426447
 21
2.767164564697572
 31
0.0
  0
SPLINE
  5
B3
330
1F
100
AcDbEntity
  8
0
  6
Continuous
 62
     4
370
    25
100
AcDbSpline
210
0.0
220
0.0
230
1.0
 70
     8
 71
     3
 72
    14
 73
    10
 74
     0
 42
0.000000001
 43
0.00000001
 40
0.0
 40
0.0
 40
0.0
 40
0.0
 40
0.25
 40
0.25
 40
0.5
 40
0.5
 40
0.75
 40
0.75
 40
1.0
 40
1.0
 40
1.0
 40
1.0
 10
9.003827436399147
 20
1.97438722051736
 30
0.0
 10
8.924952859517528
 20
2.016240724575895
 30
0.0
 10
8.854080740731028
 20
2.06671402349337
 30
0.0
 10
8.727870925480488
 20
2.18360161453541
 30
0.0
 10
8.673503929761848
 20
2.249631530440989
 30
0.0
 10
8.586844416427002
 20
2.389154951587191
 30
0.0
 10
8.553682058843561
 20
2.464273017619092
 30
0.0
 10
8.510651935150294
 20
2.614657925779423
 30
0.0
 10
8.500109092426444
 20
2.691380957983619
 30
0.0
 10
8.500109092426444
 20
2.767164564697571
 30
0.0
  0
SPLINE
  5
B4
330
1F
100
AcDbEntity
  8
0
  6
Continuous
 62
     4
370
    25
100
AcDbSpline
210
0.0
220
0.0
230
1.0
 70
     8
 71
     3
 72
     8
 73
     4
 74
     0
 42
0.000000001
 43
0.00000001
 40
0.0
 40
0.0
 40
0.0
 40
0.0
 40
1.0
 40
1.0
 40
1.0
 40
1.0
 10
9.999999999999806
 20
1.434909663482745
 30
0.0
 10
9.668118904380302
 20
1.61825760449064
 30
0.0
 10
9.334966726564689
 20
1.798673572687789
 30
0.0
 10
9.00382743639915
 20
1.97438722051736
 30
0.0
  0
LINE
  5
B5
330
1F
100
AcDbEntity
  8
0
  6
Continuous
 62
     4
370
    25
100
AcDbLine
 10
9.99582473340741
 20
-0.7723964371847188
 30
0.0
 11
9.999999999999806
 21
-0.7747753330740325
 31
0.0
  0
LINE
  5
B6
330
1F
100
AcDbEntity
  8
0
  6
Continuous
 62
     4
370
    25
100
AcDbLine
 10
8.500109092426447
 20
-1.647227939244643
 30
0.0
 11
8.500109092426447
 21
-4.164468786277812
 31
0.0
  0
SPLINE
  5
B7
330
1F
100
AcDbEntity
  8
0
  6
Continuous
 62
     4
370
    25
100
AcDbSpline
210
0.0
220
0.0
230
1.0
 70
     8
 71
     3
 72
     8
 73
     4
 74
     0
 42
0.000000001
 43
0.00000001
 40
0.0
 40
0.0
 40
0.0
 40
0.0
 40
1.0
 40
1.0
 40
1.0
 40
1.0
 10
9.999999999999806
 20
-4.789679974448402
 30
0.0
 10
9.668118904380302
 20
-4.734751934634597
 30
0.0
 10
9.334966726564689
 20
-4.669191831502161
 30
0.0
 10
9.00382743639915
 20
-4.59366902415117
 30
0.0
  0
LINE
  5
B8
330
1F
100
AcDbEntity
  8
0
  6
Continuous
 62
     4
370
    25
100
AcDbLine
 10
-84.49999999999999
 20
4.99999999999998
 30
0.0
 11
-84.49999999999999
 21
-5.000000000000005
 31
0.0
  0
LINE
  5
B9
330
1F
100
AcDbEntity
  8
0
  6
Continuous
 62
     4
370
    25
100
AcDbLine
 10
10.0
 20
-4.789679974448434
 30
0.0
 11
10.00000000000001
 21
-5.000000000000007
 31
0.0
  0
LINE
  5
BA
330
1F
100
AcDbEntity
  8
0
  6
Continuous
 62
     4
370
    25
100
AcDbLine
 10
10.0
 20
1.434909663482639
 30
0.0
 11
9.999999999999998
 21
-0.7747753330741435
 31
0.0
  0
LINE
  5
BB
330
1F
100
AcDbEntity
  8
0
  6
Continuous
 62
     4
370
    25
100
AcDbLine
 10
-84.99999999999999
 20
4.499999999999982
 30
0.0
 11
-84.99999999999999
 21
-4.500000000000009
 31
0.0
  0
SPLINE
  5
BC
330
1F
100
AcDbEntity
  8
0
  6
Continuous
 62
     4
370
    25
100
AcDbSpline
210
0.0
220
0.0
230
1.0
 70
    24
 71
     3
 72
    13
 73
     9
 74
     0
 42
0.000000001
 43
0.00000001
 40
0.0
 40
0.0
 40
0.0
 40
0.0
 40
0.0953279851308824
 40
0.3073912868446896
 40
0.5194545885584976
 40
0.7315178902723048
 40
0.943581191986112
 40
1.0
 40
1.0
 40
1.0
 40
1.0
 10
9.999999999999998
 20
-0.8400815722033299
 30
0.0
 10
9.999999999999998
 20
-0.8563718456254138
 30
0.0
 10
9.999999999999998
 20
-0.908900891564979
 30
0.0
 10
9.999999999999998
 20
-1.376572166742568
 30
0.0
 10
9.999999999999998
 20
-2.209689861687493
 30
0.0
 10
10.0
 20
-3.292105206267918
 30
0.0
 10
9.999999999999991
 20
-4.193636353343269
 30
0.0
 10
10.0
 20
-4.686177433240529
 30
0.0
 10
10.0
 20
-4.789679974448434
 30
0.0
  0
SPLINE
  5
BD
330
1F
100
AcDbEntity
  8
0
  6
Continuous
 62
     4
370
    25
100
AcDbSpline
210
0.0
220
0.0
230
1.0
 70
    24
 71
     3
 72
    12
 73
     8
 74
     0
 42
0.000000001
 43
0.00000001
 40
0.0
 40
0.0
 40
0.0
 40
0.0
 40
0.1915365909583205
 40
0.4126286641512503
 40
0.633720737344181
 40
0.8548128105371108
 40
1.0
 40
1.0
 40
1.0
 40
1.0
 10
9.999999999999998
 20
4.939607594056476
 30
0.0
 10
9.999999999999998
 20
4.59897487449682
 30
0.0
 10
9.999999999999998
 20
3.865147341413635
 30
0.0
 10
9.999999999999998
 20
2.829988561233856
 30
0.0
 10
9.999999999999998
 20
1.99598718772941
 30
0.0
 10
9.999999999999998
 20
1.495820083029381
 30
0.0
 10
9.999999999999998
 20
1.460978373280876
 30
0.0
 10
9.999999999999998
 20
1.447167681739705
 30
0.0
  0
SPLINE
  5
BE
330
1F
100
AcDbEntity
  8
0
  6
Continuous
 62
     1
370
    25
100
AcDbSpline
210
0.0
220
0.0
230
1.0
 70
     8
 71
     3
 72
    22
 73
    18
 74
     0
 42
0.000000001
 43
0.00000001
 40
0.0
 40
0.0
 40
0.0
 40
0.0
 40
0.0327452856098985
 40
0.1061216138523441
 40
0.1795403386223302
 40
0.2529653736411062
 40
0.326360563380847
 40
0.3997080613221498
 40
0.4730993606159726
 40
0.5465233517596388
 40
0.619943890684434
 40
0.6902913145563426
 40
0.7606054118970519
 40
0.8309416896288805
 40
0.901306233399594
 40
0.9716831011377919
 40
1.0
 40
1.0
 40
1.0
 40
1.0
 10
30.99066810937595
 20
4.192217237065462
 30
0.0
 10
31.34073680408827
 20
4.308613197703117
 30
0.0
 10
32.47524683049722
 20
4.685831687592481
 30
0.0
 10
34.39475418737823
 20
4.97875575175938
 30
0.0
 10
36.74954000501471
 20
5.038194453975885
 30
0.0
 10
39.10453549899432
 20
4.709967871800488
 30
0.0
 10
41.45861800754836
 20
4.04071581019382
 30
0.0
 10
43.81179080265805
 20
3.072933371398401
 30
0.0
 10
46.16578582267319
 20
1.880283682138096
 30
0.0
 10
48.52073734326553
 20
0.5493729749741114
 30
0.0
 10
50.84318026361825
 20
-0.8028826929828893
 30
0.0
 10
53.13192449752833
 20
-2.078958415785618
 30
0.0
 10
55.38742360337493
 20
-3.195372630091324
 30
0.0
 10
57.6433391830977
 20
-4.101369826666273
 30
0.0
 10
59.90011599142513
 20
-4.709802182894046
 30
0.0
 10
61.70770868827857
 20
-5.004571298258208
 30
0.0
 10
62.76292665327966
 20
-4.969363917207648
 30
0.0
 10
63.06568640621827
 20
-4.959262328396589
 30
0.0
  0
SPLINE
  5
BF
330
1F
100
AcDbEntity
  8
0
  6
Continuous
 62
     1
370
    25
100
AcDbSpline
210
0.0
220
0.0
230
1.0
 70
     8
 71
     3
 72
    18
 73
    14
 74
     0
 42
0.000000001
 43
0.00000001
 40
0.0
 40
0.0
 40
0.0
 40
0.0
 40
0.0931087733095546
 40
0.1862800385924653
 40
0.2794680715434274
 40
0.372626963888045
 40
0.4657189579757181
 40
0.5588490616024354
 40
0.6520293700364141
 40
0.7452140597896232
 40
0.8383572592909727
 40
0.9314448691222185
 40
1.0
 40
1.0
 40
1.0
 40
1.0
 10
65.0
 20
-4.875828491776312
 30
0.0
 10
64.21568799134955
 20
-4.740604058457608
 30
0.0
 10
62.64653756602713
 20
-4.470064433007856
 30
0.0
 10
60.2919422218427
 20
-3.640223963504172
 30
0.0
 10
57.9368929025764
 20
-2.568693670384482
 30
0.0
 10
55.58259602047292
 20
-1.301832384755938
 30
0.0
 10
53.22936260750168
 20
0.0594036848745231
 30
0.0
 10
50.8755884982925
 20
1.41651141879391
 30
0.0
 10
48.52074489831721
 20
2.668532773871866
 30
0.0
 10
46.16578532925308
 20
3.727993820369991
 30
0.0
 10
43.81178522899307
 20
4.50118633039764
 30
0.0
 10
41.66578200586535
 20
4.947441645970391
 30
0.0
 10
40.30395811195584
 20
4.959204990099089
 30
0.0
 10
39.72638800351829
 20
4.964194002242571
 30
0.0
  0
SPLINE
  5
C0
330
1F
100
AcDbEntity
  8
0
  6
Continuous
 62
     1
370
    25
100
AcDbSpline
210
0.0
220
0.0
230
1.0
 70
     8
 71
     3
 72
    11
 73
     7
 74
     0
 42
0.000000001
 43
0.00000001
 40
0.0
 40
0.0
 40
0.0
 40
0.0
 40
0.2700939570890371
 40
0.5955807831165679
 40
0.9207284475607063
 40
1.0
 40
1.0
 40
1.0
 40
1.0
 10
17.39982534400992
 20
-4.203342804302798
 30
0.0
 10
16.73349822267311
 20
-4.396728850607639
 30
0.0
 10
15.26418867937681
 20
-4.823161985741004
 30
0.0
 10
12.99302352014841
 20
-5.049368982229517
 30
0.0
 10
11.19178172981246
 20
-4.973637668089957
 30
0.0
 10
10.19531980737054
 20
-4.819828600144158
 30
0.0
 10
9.999999999999998
 20
-4.789679974445148
 30
0.0
  0
LINE
  5
C1
330
1F
100
AcDbEntity
  8
0
  6
Continuous
 62
     1
370
    25
100
AcDbLine
 10
65.0
 20
-5.000000000000018
 30
0.0
 11
65.0
 21
-4.875828491776319
 31
0.0
  0
SPLINE
  5
C2
330
1F
100
AcDbEntity
  8
0
  6
Continuous
 62
     1
370
    25
100
AcDbSpline
210
0.0
220
0.0
230
1.0
 70
     8
 71
     3
 72
    22
 73
    18
 74
     0
 42
0.000000001
 43
0.00000001
 40
0.0
 40
0.0
 40
0.0
 40
0.0
 40
0.0316907852008659
 40
0.0973138378448677
 40
0.1629470324878249
 40
0.2363870529307209
 40
0.3098431474310201
 40
0.3832791256205115
 40
0.4566621053560804
 40
0.5300676098463097
 40
0.6035155277219904
 40
0.6769697583555723
 40
0.7503941318428962
 40
0.8237707945683399
 40
0.8971912760628079
 40
0.9706444624062095
 40
1.0
 40
1.0
 40
1.0
 40
1.0
 10
17.39982534400985
 20
4.203342804302785
 30
0.0
 10
17.73844830019689
 20
4.313665763829382
 30
0.0
 10
18.77826789570613
 20
4.652437760985322
 30
0.0
 10
20.51946778008418
 20
4.940041423734806
 30
0.0
 10
22.70667985208327
 20
5.051258160959264
 30
0.0
 10
24.97836435086101
 20
4.813039210899737
 30
0.0
 10
27.33340326593372
 20
4.216775657307808
 30
0.0
 10
29.68779340354735
 20
3.309902831735103
 30
0.0
 10
32.04107491942143
 20
2.15974655304546
 30
0.0
 10
34.39475868642302
 20
0.8511497655600745
 30
0.0
 10
36.74953876366735
 20
-0.5196688179619764
 30
0.0
 10
39.10453596359801
 20
-1.852848519835864
 30
0.0
 10
41.45861739046838
 20
-3.048209882715854
 30
0.0
 10
43.81179280587507
 20
-4.026294243184358
 30
0.0
 10
46.1657784201973
 20
-4.685481966880163
 30
0.0
 10
48.04945217318107
 20
-5.005406235147799
 30
0.0
 10
49.14831001468758
 20
-4.96677038213249
 30
0.0
 10
49.46207290796387
 20
-4.955738475576076
 30
0.0
  0
SPLINE
  5
C3
330
1F
100
AcDbEntity
  8
0
  6
Continuous
 62
     1
370
    25
100
AcDbSpline
210
0.0
220
0.0
230
1.0
 70
     8
 71
     3
 72
    22
 73
    18
 74
     0
 42
0.000000001
 43
0.00000001
 40
0.0
 40
0.0
 40
0.0
 40
0.0
 40
0.0087570681803508
 40
0.0821182150841591
 40
0.1554266806740121
 40
0.2287651569200881
 40
0.3021431686538464
 40
0.3755246306068548
 40
0.4488734196460368
 40
0.5221784327036438
 40
0.5955311099352908
 40
0.6689136151587681
 40
0.7422898137885244
 40
0.815623640447973
 40
0.8889349643473723
 40
0.9622992349496132
 40
1.0
 40
1.0
 40
1.0
 40
1.0
 10
58.21773798671893
 20
-4.209009936692444
 30
0.0
 10
58.12404570422581
 20
-4.242979505069986
 30
0.0
 10
57.24545907602548
 20
-4.561524509504485
 30
0.0
 10
55.58259866636815
 20
-4.872994909959914
 30
0.0
 10
53.22936192794717
 20
-5.066607969642646
 30
0.0
 10
50.8755885703176
 20
-4.858428178955602
 30
0.0
 10
48.52074529055292
 20
-4.301453400275047
 30
0.0
 10
46.16578368855041
 20
-3.42643126449427
 30
0.0
 10
43.81179139498138
 20
-2.300490725005436
 30
0.0
 10
41.45861777047277
 20
-1.004766002727814
 30
0.0
 10
39.1045358550394
 20
0.3639367681100917
 30
0.0
 10
36.74953881763212
 20
1.706446102007859
 30
0.0
 10
34.39475857917552
 20
2.922215405639295
 30
0.0
 10
32.04107529418572
 20
3.928526213565444
 30
0.0
 10
29.68779201167961
 20
4.627795964370337
 30
0.0
 10
27.71518116456969
 20
4.987039804793699
 30
0.0
 10
26.52688867491689
 20
4.962302004946565
 30
0.0
 10
26.12352558499129
 20
4.953904816988896
 30
0.0
  0
SPLINE
  5
C4
330
1F
100
AcDbEntity
  8
0
  6
Continuous
 62
     1
370
    25
100
AcDbSpline
210
0.0
220
0.0
230
1.0
 70
     8
 71
     3
 72
    12
 73
     8
 74
     0
 42
0.000000001
 43
0.00000001
 40
0.0
 40
0.0
 40
0.0
 40
0.0
 40
0.2016511499215702
 40
0.4034376423875669
 40
0.60526044957906
 40
0.8070201452444327
 40
0.9999999999999999
 40
0.9999999999999999
 40
0.9999999999999999
 40
0.9999999999999999
 10
65.0
 20
1.107382733648334
 30
0.0
 10
64.21568790676157
 20
1.541115022688945
 30
0.0
 10
62.64653731220641
 20
2.408870709606499
 30
0.0
 10
60.29194323799684
 20
3.513245579071602
 30
0.0
 10
57.93688909182108
 20
4.357805190742454
 30
0.0
 10
55.61620108920707
 20
4.902069754488545
 30
0.0
 10
54.08093716517399
 20
4.962787387688474
 30
0.0
 10
53.33037895848953
 20
4.992470960118773
 30
0.0
  0
SPLINE
  5
C5
330
1F
100
AcDbEntity
  8
0
  6
Continuous
 62
     1
370
    25
100
AcDbSpline
210
0.0
220
0.0
230
1.0
 70
     8
 71
     3
 72
    17
 73
    13
 74
     0
 42
0.000000001
 43
0.00000001
 40
0.0
 40
0.0
 40
0.0
 40
0.0
 40
0.0620533167791055
 40
0.1742251963946897
 40
0.2864278032430266
 40
0.3986058573138777
 40
0.513246003590396
 40
0.6279273595587577
 40
0.742681016345254
 40
0.8574272087899575
 40
0.9720538341824617
 40
1.0
 40
1.0
 40
1.0
 40
1.0
 10
30.99066810937595
 20
-4.192217237065472
 30
0.0
 10
30.55654469568471
 20
-4.331685170530474
 30
0.0
 10
29.33766968729265
 20
-4.723265014444367
 30
0.0
 10
27.33340414278836
 20
-5.003360112106186
 30
0.0
 10
24.9783486540042
 20
-5.020281009186634
 30
0.0
 10
22.60606773590057
 20
-4.651083925549774
 30
0.0
 10
20.21693154674917
 20
-3.931760934334436
 30
0.0
 10
17.80951739650399
 20
-2.904184161168017
 30
0.0
 10
15.40086149262008
 20
-1.653828085291639
 30
0.0
 10
12.99302831255552
 20
-0.277518837139184
 30
0.0
 10
11.19178149702289
 20
0.7707457698243838
 30
0.0
 10
10.19531976921891
 20
1.326060567606084
 30
0.0
 10
9.999999999999998
 20
1.434909663482149
 30
0.0
  0
SPLINE
  5
C6
330
1F
100
AcDbEntity
  8
0
  6
Continuous
 62
     4
370
    25
100
AcDbSpline
210
0.0
220
0.0
230
1.0
 70
    24
 71
     3
 72
    12
 73
     8
 74
     0
 42
0.000000001
 43
0.00000001
 40
0.0
 40
0.0
 40
0.0
 40
0.0
 40
0.1943036292748369
 40
0.418589714823015
 40
0.6428758003711902
 40
0.867161885919367
 40
1.0
 40
1.0
 40
1.0
 40
1.0
 10
10.0
 20
4.939607594056476
 30
0.0
 10
10.00000000000001
 20
4.598996329406141
 30
0.0
 10
10.00000000000003
 20
3.865215016789379
 30
0.0
 10
9.999999999999988
 20
2.829668445520344
 30
0.0
 10
9.999999999999998
 20
1.997181889398019
 30
0.0
 10
9.999999999999998
 20
1.504256275585058
 30
0.0
 10
9.999999999999998
 20
1.468719764885947
 30
0.0
 10
9.999999999999998
 20
1.45550138576971
 30
0.0
  0
SPLINE
  5
C7
330
1F
100
AcDbEntity
  8
0
  6
Continuous
 62
     1
370
    25
100
AcDbSpline
210
0.0
220
0.0
230
1.0
 70
     8
 71
     3
 72
    19
 73
    15
 74
     0
 42
0.000000001
 43
0.00000001
 40
0.0
 40
0.0
 40
0.0
 40
0.0
 40
0.0813838213381763
 40
0.1627585208002809
 40
0.2441214334939079
 40
0.3254719093431938
 40
0.406830814546543
 40
0.4882022937143505
 40
0.5792526094282408
 40
0.670322853622441
 40
0.7613681577847758
 40
0.8523477549125416
 40
0.9433552780404751
 40
1.0
 40
1.0
 40
1.0
 40
1.0
 10
9.999999999999806
 20
4.939607594056421
 30
0.0
 10
10.70147534411372
 20
4.848657017087124
 30
0.0
 10
12.10434740773223
 20
4.666766057310939
 30
0.0
 10
14.20845594660679
 20
4.04201666308238
 30
0.0
 10
16.31222896331219
 20
3.20070955623039
 30
0.0
 10
18.41575175836654
 20
2.165738251889429
 30
0.0
 10
20.51946762348889
 20
1.005087257841533
 30
0.0
 10
22.70667991661828
 20
-0.2632677034540784
 30
0.0
 10
24.97836426005178
 20
-1.565912149463652
 30
0.0
 10
27.33340355895126
 20
-2.799968861479806
 30
0.0
 10
29.68779232296136
 20
-3.832438350548665
 30
0.0
 10
32.04107894624955
 20
-4.568414896800306
 30
0.0
 10
34.09808333354426
 20
-4.968401266953139
 30
0.0
 10
35.37103075787982
 20
-4.959897045717659
 30
0.0
 10
35.8593792613372
 20
-4.956634519996625
 30
0.0
  0
SPLINE
  5
C8
330
1F
100
AcDbEntity
  8
0
  6
Continuous
 62
     1
370
    25
100
AcDbSpline
210
0.0
220
0.0
230
1.0
 70
     8
 71
     3
 72
    11
 73
     7
 74
     0
 42
0.000000001
 43
0.00000001
 40
0.0
 40
0.0
 40
0.0
 40
0.0
 40
0.2669009235215161
 40
0.6250393038709166
 40
0.9830500797293483
 40
1.0
 40
1.0
 40
1.0
 40
1.0
 10
58.21773798671893
 20
4.209009936692437
 30
0.0
 10
58.77849679069531
 20
4.376661029904179
 30
0.0
 10
60.09170428302016
 20
4.769273094379924
 30
0.0
 10
62.15696490900586
 20
5.022232099837737
 30
0.0
 10
63.69781428593689
 20
5.007186447090511
 30
0.0
 10
64.48516620207876
 20
4.933039861127066
 30
0.0
 10
64.52075807168356
 20
4.929688099906768
 30
0.0
  0
SPLINE
  5
C9
330
1F
100
AcDbEntity
  8
0
  6
Continuous
 62
     1
370
    25
100
AcDbSpline
210
0.0
220
0.0
230
1.0
 70
     8
 71
     3
 72
    18
 73
    14
 74
     0
 42
0.000000001
 43
0.00000001
 40
0.0
 40
0.0
 40
0.0
 40
0.0
 40
0.2499999999999989
 40
0.2499999999999989
 40
0.3749999999999984
 40
0.3749999999999984
 40
0.4999999999999979
 40
0.4999999999999979
 40
0.6249999999999974
 40
0.6249999999999974
 40
0.749999999999997
 40
0.749999999999997
 40
1.0
 40
1.0
 40
1.0
 40
1.0
 10
64.52075807168356
 20
4.929688099906775
 30
0.0
 10
64.5269934743638
 20
4.606851837981958
 30
0.0
 10
64.49969480875363
 20
4.290337705371867
 30
0.0
 10
64.39005607498703
 20
3.828516671281817
 30
0.0
 10
64.34125743286381
 20
3.676235446349215
 30
0.0
 10
64.2207504669013
 20
3.391480187959257
 30
0.0
 10
64.14856080958639
 20
3.256893544584258
 30
0.0
 10
63.978623680364
 20
3.007383037770173
 30
0.0
 10
63.88382477663749
 20
2.896667102584315
 30
0.0
 10
63.6753310207335
 20
2.702221710530223
 30
0.0
 10
63.5602591372495
 20
2.617982717210611
 30
0.0
 10
63.20199878948116
 20
2.415034884755316
 30
0.0
 10
62.93943782007101
 20
2.34173495581178
 30
0.0
 10
62.67680798191736
 20
2.323192018082633
 30
0.0
  0
LINE
  5
CA
330
1F
100
AcDbEntity
  8
0
  6
Continuous
 62
     1
370
    25
100
AcDbLine
 10
65.0
 20
1.111805020952448
 30
0.0
 11
65.0
 21
1.193141214989692
 31
0.0
  0
SPLINE
  5
CB
330
1F
100
AcDbEntity
  8
0
  6
Continuous
 62
     1
370
    25
100
AcDbSpline
210
0.0
220
0.0
230
1.0
 70
     8
 71
     3
 72
    22
 73
    18
 74
     0
 42
0.000000001
 43
0.00000001
 40
0.0
 40
0.0
 40
0.0
 40
0.0
 40
0.0244710728650159
 40
0.0978202785980271
 40
0.1712171772399121
 40
0.2446439218557367
 40
0.3180643560758462
 40
0.3914423927812727
 40
0.4647979131606316
 40
0.5382064121622923
 40
0.6116350199473896
 40
0.6850475596898745
 40
0.7600713632699729
 40
0.8351221356557375
 40
0.9102202237729852
 40
0.9853134270106273
 40
1.0
 40
1.0
 40
1.0
 40
1.0
 10
44.59631007542519
 20
-4.196099560016776
 30
0.0
 10
44.33467073167576
 20
-4.285958965022949
 30
0.0
 10
43.28879776815877
 20
-4.645161525566307
 30
0.0
 10
41.45863395454223
 20
-4.947939087885965
 30
0.0
 10
39.1045315164552
 20
-5.052412819489989
 30
0.0
 10
36.74953997616564
 20
-4.764789540590531
 30
0.0
 10
34.39475828424489
 20
-4.132939533802684
 30
0.0
 10
32.04107531614959
 20
-3.196012200966663
 30
0.0
 10
29.68779221855866
 20
-2.024396229166714
 30
0.0
 10
27.3334076131529
 20
-0.7045218697529375
 30
0.0
 10
24.97834814500457
 20
0.6671204062882377
 30
0.0
 10
22.60606629566038
 20
2.000146095289443
 30
0.0
 10
20.21693799200303
 20
3.191502626061736
 30
0.0
 10
17.80949309656342
 20
4.155130594492176
 30
0.0
 10
15.40095230295617
 20
4.766034257658777
 30
0.0
 10
13.6378164101904
 20
5.036908634246865
 30
0.0
 10
12.67797761014283
 20
4.97914972027351
 30
0.0
 10
12.5209629328141
 20
4.96970126159489
 30
0.0
  0
SPLINE
  5
CC
330
1F
100
AcDbEntity
  8
0
  6
Continuous
 62
     4
370
    25
100
AcDbSpline
210
0.0
220
0.0
230
1.0
 70
    24
 71
     3
 72
    13
 73
     9
 74
     0
 42
0.000000001
 43
0.00000001
 40
0.0
 40
0.0
 40
0.0
 40
0.0
 40
0.1173010907068339
 40
0.3242136977593374
 40
0.5311263048118382
 40
0.7380389118643407
 40
0.9449515189168435
 40
1.0
 40
1.0
 40
1.0
 40
1.0
 10
10.00000000000001
 20
-0.8216888447833439
 30
0.0
 10
10.00000000000001
 20
-0.8408023866078048
 30
0.0
 10
10.00000000000003
 20
-0.8936311543101773
 30
0.0
 10
9.999999999999984
 20
-1.374229310164771
 30
0.0
 10
9.999999999999998
 20
-2.210319219791069
 30
0.0
 10
9.999999999999998
 20
-3.291930630431416
 30
0.0
 10
9.999999999999995
 20
-4.193645720910155
 30
0.0
 10
9.999999999999998
 20
-4.686179059909705
 30
0.0
 10
9.999999999999998
 20
-4.789679974445148
 30
0.0
  0
SPLINE
  5
CD
330
1F
100
AcDbEntity
  8
0
  6
Continuous
 62
     1
370
    25
100
AcDbSpline
210
0.0
220
0.0
230
1.0
 70
     8
 71
     3
 72
    13
 73
     9
 74
     0
 42
0.000000001
 43
0.00000001
 40
0.0
 40
0.0
 40
0.0
 40
0.0
 40
0.1717027305297514
 40
0.343386215821281
 40
0.5150448335126111
 40
0.6866772120805206
 40
0.8583273748110006
 40
1.0
 40
1.0
 40
1.0
 40
1.0
 10
9.999999999999806
 20
-0.7747753330740323
 30
0.0
 10
10.70147529365848
 20
-1.170454283215141
 30
0.0
 10
12.10434725637219
 20
-1.961767833965865
 30
0.0
 10
14.20845655193127
 20
-3.020754162845947
 30
0.0
 10
16.31222669385056
 20
-3.907734825478006
 30
0.0
 10
18.41576022999534
 20
-4.555990595640708
 30
0.0
 10
20.39686546926597
 20
-4.94401138709001
 30
0.0
 10
21.67687885969096
 20
-4.967949469308197
 30
0.0
 10
22.2556521385282
 20
-4.978773357900405
 30
0.0
  0
SPLINE
  5
CE
330
1F
100
AcDbEntity
  8
0
  6
Continuous
 62
     1
370
    25
100
AcDbSpline
210
0.0
220
0.0
230
1.0
 70
     8
 71
     3
 72
    17
 73
    13
 74
     0
 42
0.000000001
 43
0.00000001
 40
0.0
 40
0.0
 40
0.0
 40
0.0
 40
0.0787537200833111
 40
0.1969531954869316
 40
0.3151471134364667
 40
0.4283938665499823
 40
0.5415869699170943
 40
0.6548157797413702
 40
0.7680900928257645
 40
0.8813842452905687
 40
0.9946380311165312
 40
1.0
 40
1.0
 40
1.0
 40
1.0
 10
44.59631007542525
 20
4.196099560016766
 30
0.0
 10
45.11935247797077
 20
4.357543964618321
 30
0.0
 10
46.4274160519521
 20
4.761296210812207
 30
0.0
 10
48.52074648886843
 20
5.024391097936745
 30
0.0
 10
50.84317818058821
 20
4.997244544347273
 30
0.0
 10
53.13192414708496
 20
4.609375454398196
 30
0.0
 10
55.38742706065862
 20
3.918778102700102
 30
0.0
 10
57.64332569670331
 20
2.963017773592447
 30
0.0
 10
59.90016650372355
 20
1.807326759726502
 30
0.0
 10
62.15696249120857
 20
0.5300582061788023
 30
0.0
 10
63.69781430587398
 20
-0.3671897558920053
 30
0.0
 10
64.48516620294103
 20
-0.8153116723290856
 30
0.0
 10
64.52075807168356
 20
-0.8355688108333434
 30
0.0
  0
SPLINE
  5
CF
330
1F
100
AcDbEntity
  8
0
  6
Continuous
 62
     1
370
    25
100
AcDbSpline
210
0.0
220
0.0
230
1.0
 70
     8
 71
     3
 72
     8
 73
     4
 74
     0
 42
0.000000001
 43
0.00000001
 40
0.0
 40
0.0
 40
0.0
 40
0.0
 40
1.0
 40
1.0
 40
1.0
 40
1.0
 10
65.0
 20
-3.778128546404893
 30
0.0
 10
64.18469570654707
 20
-3.319047671130701
 30
0.0
 10
63.41618671949518
 20
-2.755421905771478
 30
0.0
 10
62.67680798191737
 20
-2.126716563770114
 30
0.0
  0
LINE
  5
D0
330
1F
100
AcDbEntity
  8
0
  6
Continuous
 62
     1
370
    25
100
AcDbLine
 10
65.0
 20
-4.875828491776319
 30
0.0
 11
65.0
 21
-3.778128546404893
 31
0.0
  0
SPLINE
  5
D1
330
1F
100
AcDbEntity
  8
0
  6
Continuous
 62
     1
370
    25
100
AcDbSpline
210
0.0
220
0.0
230
1.0
 70
    24
 71
     3
 72
    12
 73
     8
 74
     0
 42
0.000000001
 43
0.00000001
 40
0.0
 40
0.0
 40
0.0
 40
0.0
 40
0.0808259367276084
 40
0.3387174033655974
 40
0.5973386218731951
 40
0.8436661617346195
 40
1.0
 40
1.0
 40
1.0
 40
1.0
 10
64.42578061636928
 20
-0.9020727410043907
 30
0.0
 10
64.41156406168786
 20
-0.9120272797597
 30
0.0
 10
64.35198671954423
 20
-0.9537437838351652
 30
0.0
 10
64.09607556914798
 20
-1.132934700454471
 30
0.0
 10
63.62687580276178
 20
-1.461471913804479
 30
0.0
 10
63.12287007909145
 20
-1.814380520818973
 30
0.0
 10
62.80155788623032
 20
-2.039365740379526
 30
0.0
 10
62.67680798191839
 20
-2.126716563769903
 30
0.0
  0
LINE
  5
D2
330
1F
100
AcDbEntity
  8
0
  6
Continuous
 62
     1
370
    25
100
AcDbLine
 10
65.0
 20
-0.5000000000000207
 30
0.0
 11
65.0
 21
1.107382733648332
 31
0.0
  0
LINE
  5
D3
330
1F
100
AcDbEntity
  8
0
  6
Continuous
 62
     1
370
    25
100
AcDbLine
 10
65.0
 20
-0.5000000000000201
 30
0.0
 11
64.52075807168356
 21
-0.8355688108333534
 31
0.0
  0
LINE
  5
D4
330
1F
100
AcDbEntity
  8
0
  6
Continuous
 62
     1
370
    25
100
AcDbLine
 10
65.0
 20
4.974937185533104
 30
0.0
 11
65.0
 21
5.000000000000004
 31
0.0
  0
ELLIPSE
  5
D5
330
1F
100
AcDbEntity
  8
0
  6
Continuous
 62
     1
370
    25
100
AcDbEllipse
 10
65.71407400337107
 20
-0.0000000000000067
 30
0.0
 11
7.140740033710557
 21
0.0
 31
0.0
210
0.0
220
0.0
230
1.0
 40
0.700207538209712
 41
1.670963747956458
 42
1.738697861005223
  0
LINE
  5
D6
330
1F
100
AcDbEntity
  8
0
  6
Continuous
 62
     1
370
    25
100
AcDbLine
 10
65.0
 20
1.193141214989692
 30
0.0
 11
65.0
 21
4.974937185533104
 31
0.0
  0
LINE
  5
D7
330
1F
100
AcDbEntity
  8
0
  6
Continuous
 62
     1
370
    25
100
AcDbLine
 10
65.0
 20
-0.5000000000000032
 30
0.0
 11
65.0
 21
-3.778128546404886
 31
0.0
  0
LINE
  5
D8
330
1F
100
AcDbEntity
  8
중심선
100
AcDbLine
 10
-88.0
 20
-0.0000000000000119
 30
0.0
 11
68.0
 21
0.0000000000000072
 31
0.0
  0
CIRCLE
  5
D9
330
1F
100
AcDbEntity
  8
해칭선
100
AcDbCircle
 10
0.000282775609867
 20
-0.0000000000000039
 30
0.0
 40
3.0
  0
INSERT
  5
DA
330
1F
100
AcDbEntity
  8
0
  6
Continuous
 62
     7
100
AcDbBlockReference
 66
     1
  2
블럭10
 10
-22.44009924894178
 20
-52.04717430164393
 30
0.0
  0
ATTRIB
  5
DB
330
DA
100
AcDbEntity
  8
FORMAT
 62
     2
100
AcDbText
 10
-38.55936028837733
 20
-49.97180738881174
 30
0.0
 40
4.233333333333333
  1
SEME7210055E [ 4 FLUTE ]
 41
0.75
  7
SLDTEXTSTYLE0
 11
-38.55936028837733
 21
-52.08847405547841
 31
0.0
100
AcDbAttribute
  2
AUTOATTR0
 70
     0
 74
     1
  0
SEQEND
  5
DC
330
DA
100
AcDbEntity
  8
0
  6
Continuous
 62
     7
  0
HATCH
  5
DD
330
1F
100
AcDbEntity
  8
중심선
100
AcDbHatch
 10
0.0
 20
0.0
 30
0.0
210
0.0
220
0.0
230
1.0
  2
SOLID
 70
     1
 71
     0
 91
        1
 92
        0
 93
        4
 72
     1
 10
-16.72518994456093
 20
-35.8
 11
-20.17146518839821
 21
-35.8
 72
     1
 10
-20.17146518839821
 20
-35.8
 11
-22.29969504760223
 21
-38.33632558057259
 72
     1
 10
-22.29969504760223
 20
-38.33632558057259
 11
-18.85338671865181
 21
-38.3362861512701
 72
     1
 10
-18.85338671865181
 20
-38.3362861512701
 11
-16.72518994456093
 21
-35.8
 97
        0
 75
     0
 76
     1
 98
        1
 10
0.0
 20
0.0
  0
HATCH
  5
DE
330
1F
100
AcDbEntity
  8
중심선
100
AcDbHatch
 10
0.0
 20
0.0
 30
0.0
210
0.0
220
0.0
230
1.0
  2
SOLID
 70
     1
 71
     0
 91
        1
 92
        0
 93
        4
 72
     1
 10
-11.71242595352495
 20
-35.8
 11
-15.15870119736223
 21
-35.8
 72
     1
 10
-15.15870119736223
 20
-35.8
 11
-19.68983920571965
 21
-41.20000000000002
 72
     1
 10
-19.68983920571965
 20
-41.20000000000002
 11
-16.24356396188237
 21
-41.20000000000002
 72
     1
 10
-16.24356396188237
 20
-41.20000000000002
 11
-11.71242595352495
 21
-35.8
 97
        0
 75
     0
 76
     1
 98
        1
 10
0.0
 20
0.0
  0
HATCH
  5
DF
330
1F
100
AcDbEntity
  8
중심선
100
AcDbHatch
 10
0.0
 20
0.0
 30
0.0
210
0.0
220
0.0
230
1.0
  2
SOLID
 70
     1
 71
     0
 91
        1
 92
        0
 93
        4
 72
     1
 10
-6.699661962489084
 20
-35.8
 11
-10.14593720632617
 21
-35.8
 72
     1
 10
-10.14593720632617
 20
-35.8
 11
-17.19437410821545
 21
-44.20000000000002
 72
     1
 10
-17.19437410821545
 20
-44.20000000000002
 11
-13.74809886437817
 21
-44.20000000000002
 72
     1
 10
-13.74809886437817
 20
-44.20000000000002
 11
-6.699661962489084
 21
-35.8
 97
        0
 75
     0
 76
     1
 98
        1
 10
0.0
 20
0.0
  0
HATCH
  5
E0
330
1F
100
AcDbEntity
  8
중심선
100
AcDbHatch
 10
0.0
 20
0.0
 30
0.0
210
0.0
220
0.0
230
1.0
  2
SOLID
 70
     1
 71
     0
 91
        1
 92
        0
 93
        6
 72
     3
 10
-1.899771531476885
 20
-40.00000000005127
 11
3.960054785062284
 21
1.540850780301639E-10
 40
0.3939339440162633
 50
17.09539180608433
 51
320.0019657685086
 73
     0
 72
     1
 10
-0.2167718757762893
 20
-38.58789400463833
 11
2.088529997924748
 21
-36.65356729459038
 72
     3
 10
-1.899771531529731
 20
-40.00000000000015
 11
6.600054785286829
 21
-1.249000902703301E-13
 40
0.6363583540795982
 50
39.99873849337408
 51
368.4976242363725
 73
     1
 72
     1
 10
4.525560960370878
 20
-39.03999999993002
 11
-3.219704224693809
 21
-39.03999999993002
 72
     1
 10
-3.219704224693809
 20
-39.03999999993002
 11
-3.219729269139743
 21
-40.95999999992991
 72
     1
 10
-3.219729269139743
 20
-40.95999999992991
 11
1.221650500332294
 21
-40.95999999992988
 97
        0
 75
     0
 76
     1
 98
        1
 10
0.0
 20
0.0
  0
DIMENSION
  5
E1
330
1F
100
AcDbEntity
  8
치수문자_일반주서
100
AcDbDimension
  2
_D
 10
81.6971035816811
 20
5.000000000000059
 30
0.0
 11
81.69710358168108
 21
15.32275000000006
 31
0.0
 70
   160
  1
%%c<>
 71
     2
 42
10.00000000000001
 52
-270.0
  3
SLDDIMSTYLE0
100
AcDbAlignedDimension
 13
65.0
 23
-5.000000000000012
 33
0.0
 14
65.0
 24
4.999999999999996
 34
0.0
 50
90.0000000000002
100
AcDbRotatedDimension
  0
DIMENSION
  5
EF
330
1F
100
AcDbEntity
  8
치수문자_일반주서
100
AcDbDimension
  2
_D_1
 10
64.99999999999999
 20
22.38913260158163
 30
0.0
 11
-9.999999999999996
 21
22.38913260158163
 31
0.0
 70
   160
  1
<>
 71
     2
 42
150.0
  3
SLDDIMSTYLE1
100
AcDbAlignedDimension
 13
-84.99999999999999
 23
4.499999999999982
 33
0.0
 14
65.0
 24
5.000000000000004
 34
0.0
 50
-0.0000000000000027
100
AcDbRotatedDimension
  0
DIMENSION
  5
FA
330
1F
100
AcDbEntity
  8
치수문자_일반주서
100
AcDbDimension
  2
_D_2
 10
-97.44974035614031
 20
-5.000000000000057
 30
0.0
 11
-97.44974035614037
 21
15.32274999999995
 31
0.0
 70
   160
  1
%%c<>
 71
     2
 42
10.00000000000001
 52
-270.0
  3
SLDDIMSTYLE2
100
AcDbAlignedDimension
 13
-84.49999999999999
 23
4.999999999999998
 33
0.0
 14
-84.49999999999999
 24
-5.000000000000011
 34
0.0
 50
90.0000000000002
100
AcDbRotatedDimension
  0
DIMENSION
  5
108
330
1F
100
AcDbEntity
  8
치수문자_일반주서
100
AcDbDimension
  2
_D_3
 10
65.0
 20
15.78552589664415
 30
0.0
 11
37.49999999999999
 21
15.78552589664415
 31
0.0
 70
   160
  1
<>
 71
     2
 42
55.0
  3
SLDDIMSTYLE1
100
AcDbAlignedDimension
 13
9.999999999999998
 23
4.939607594056474
 33
0.0
 14
65.0
 24
5.000000000000004
 34
0.0
 50
0.0000000000000592
100
AcDbRotatedDimension
  0
INSERT
  5
118
330
1F
100
AcDbEntity
  8
해칭선
100
AcDbBlockReference
  2
SW_DOWELSYMBOL_0
 10
0.000282775609867
 20
-0.0000000000000039
 30
0.0
  0
ENDSEC
  0
SECTION
  2
OBJECTS
  0
DICTIONARY
  5
C
330
0
100
AcDbDictionary
281
     1
  3
ACAD_GROUP
350
D
  3
ACAD_IMAGE_VARS
350
13C
  3
ACAD_LAYOUT
350
1A
  3
ACAD_MLINESTYLE
350
17
  3
ACAD_PLOTSETTINGS
350
19
  3
ACAD_PLOTSTYLENAME
350
E
  3
ACAD_SCALELIST
350
47
  3
APPDATA
350
13A
  3
DWGPROPS
350
14B
  0
DICTIONARY
  5
D
102
{ACAD_REACTORS
330
C
102
}
330
C
100
AcDbDictionary
281
     1
  0
RASTERVARIABLES
  5
13C
102
{ACAD_REACTORS
330
C
102
}
330
C
100
AcDbRasterVariables
 90
        0
 70
     1
 71
     1
 72
     1
  0
DICTIONARY
  5
1A
102
{ACAD_REACTORS
330
C
102
}
330
C
100
AcDbDictionary
281
     1
  3
Layout1
350
1E
  3
Layout2
350
26
  3
Model
350
22
  0
DICTIONARY
  5
17
102
{ACAD_REACTORS
330
C
102
}
330
C
100
AcDbDictionary
281
     1
  3
Standard
350
18
  0
DICTIONARY
  5
19
102
{ACAD_REACTORS
330
C
102
}
330
C
100
AcDbDictionary
281
     1
  0
ACDBDICTIONARYWDFLT
  5
E
102
{ACAD_REACTORS
330
C
102
}
330
C
100
AcDbDictionary
281
     1
  3
Normal
350
F
100
AcDbDictionaryWithDefault
340
F
  0
DICTIONARY
  5
47
102
{ACAD_REACTORS
330
C
102
}
330
C
100
AcDbDictionary
281
     1
  3
A0
350
48
  3
A1
350
49
  3
A2
350
4A
  3
A3
350
4B
  3
A4
350
4C
  3
A5
350
4D
  3
A6
350
4E
  3
A7
350
4F
  3
A8
350
50
  3
A9
350
51
  3
B0
350
52
  3
B1
350
53
  3
B2
350
54
  3
B3
350
55
  3
B4
350
56
  3
B5
350
57
  3
B6
350
58
  3
B7
350
59
  3
B8
350
5A
  3
B9
350
5B
  3
C0
350
5C
  3
C1
350
5D
  3
C2
350
5E
  3
C3
350
5F
  3
C4
350
60
  3
C5
350
61
  3
C6
350
62
  3
C7
350
63
  3
C8
350
64
  3
C9
350
65
  3
D0
350
66
  3
D1
350
67
  3
D2
350
68
  0
DICTIONARY
  5
13A
102
{ACAD_REACTORS
330
C
102
}
330
C
100
AcDbDictionary
281
     1
  0
XRECORD
  5
14B
102
{ACAD_REACTORS
330
C
102
}
330
C
100
AcDbXrecord
280
     1
  1
DWGPROPS COOKIE
  2

  3

  4

  6

  7

  8
12014102
  9

300
=
301
=
302
=
303
=
304
=
305
=
306
=
307
=
308
=
309
=
 40
0.0
 41
2458260.204292917
 42
2458268.209471042
  1

 90
        0
  0
LAYOUT
  5
1E
102
{ACAD_REACTORS
330
1A
102
}
330
1A
100
AcDbPlotSettings
  1

  2
none_device
  4

  6

 40
0.0
 41
0.0
 42
0.0
 43
0.0
 44
0.0
 45
0.0
 46
0.0
 47
0.0
 48
0.0
 49
0.0
140
0.0
141
0.0
142
1.0
143
1.0
 70
   688
 72
     1
 73
     0
 74
     5
  7

 75
    16
147
1.0
148
0.0
149
0.0
100
AcDbLayout
  1
Layout1
 70
     1
 71
     1
 10
0.0
 20
0.0
 11
420.0
 21
297.0
 12
0.0
 22
0.0
 32
0.0
 14
1.000000000000000E+20
 24
1.000000000000000E+20
 34
1.000000000000000E+20
 15
-1.000000000000000E+20
 25
-1.000000000000000E+20
 35
-1.000000000000000E+20
146
0.0
 13
0.0
 23
0.0
 33
0.0
 16
1.0
 26
0.0
 36
0.0
 17
0.0
 27
1.0
 37
0.0
 76
     0
330
1B
  0
LAYOUT
  5
26
102
{ACAD_REACTORS
330
1A
102
}
330
1A
100
AcDbPlotSettings
  1

  2
none_device
  4

  6

 40
0.0
 41
0.0
 42
0.0
 43
0.0
 44
0.0
 45
0.0
 46
0.0
 47
0.0
 48
0.0
 49
0.0
140
0.0
141
0.0
142
1.0
143
1.0
 70
   688
 72
     1
 73
     0
 74
     5
  7

 75
    16
147
1.0
148
0.0
149
0.0
100
AcDbLayout
  1
Layout2
 70
     1
 71
     2
 10
0.0
 20
0.0
 11
0.0
 21
0.0
 12
0.0
 22
0.0
 32
0.0
 14
0.0
 24
0.0
 34
0.0
 15
0.0
 25
0.0
 35
0.0
146
0.0
 13
0.0
 23
0.0
 33
0.0
 16
1.0
 26
0.0
 36
0.0
 17
0.0
 27
1.0
 37
0.0
 76
     0
330
23
  0
LAYOUT
  5
22
102
{ACAD_REACTORS
330
1A
102
}
330
1A
100
AcDbPlotSettings
  1

  2
none_device
  4
ANSI_A_(11.00_x_8.50_Inches)
  6

 40
6.35
 41
19.05
 42
6.35000508
 43
19.05000254
 44
279.4
 45
215.9
 46
147.005509218096
 47
106.7168565163566
 48
0.0
 49
0.0
140
0.0
141
0.0
142
0.0589085814011888
143
1.0
 70
  1696
 72
     0
 73
     0
 74
     0
  7

 75
     0
147
0.0235690232323232
148
0.0
149
0.0
100
AcDbLayout
  1
Model
 70
     1
 71
     0
 10
0.0
 20
0.0
 11
420.0
 21
297.0
 12
0.0
 22
0.0
 32
0.0
 14
-101.8247403561404
 24
-49.97180738881174
 34
0.0
 15
82.24743691501448
 25
26.76413260158163
 35
0.0
146
0.0
 13
0.0
 23
0.0
 33
0.0
 16
1.0
 26
0.0
 36
0.0
 17
0.0
 27
1.0
 37
0.0
 76
     0
330
1F
331
29
  0
MLINESTYLE
  5
18
102
{ACAD_REACTORS
330
17
102
}
330
17
100
AcDbMlineStyle
  2
Standard
 70
     0
  3

 62
   256
 51
90.0
 52
90.0
 71
     2
 49
0.5
 62
   256
  6
BYLAYER
 49
-0.5
 62
   256
  6
BYLAYER
  0
ACDBPLACEHOLDER
  5
F
102
{ACAD_REACTORS
330
E
102
}
330
E
  0
SCALE
  5
48
102
{ACAD_REACTORS
330
47
102
}
330
47
100
AcDbScale
 70
     0
300
1:1
140
1.0
141
1.0
290
     1
  0
SCALE
  5
49
102
{ACAD_REACTORS
330
47
102
}
330
47
100
AcDbScale
 70
     0
300
1:2
140
1.0
141
2.0
290
     0
  0
SCALE
  5
4A
102
{ACAD_REACTORS
330
47
102
}
330
47
100
AcDbScale
 70
     0
300
1:4
140
1.0
141
4.0
290
     0
  0
SCALE
  5
4B
102
{ACAD_REACTORS
330
47
102
}
330
47
100
AcDbScale
 70
     0
300
1:5
140
1.0
141
5.0
290
     0
  0
SCALE
  5
4C
102
{ACAD_REACTORS
330
47
102
}
330
47
100
AcDbScale
 70
     0
300
1:8
140
1.0
141
8.0
290
     0
  0
SCALE
  5
4D
102
{ACAD_REACTORS
330
47
102
}
330
47
100
AcDbScale
 70
     0
300
1:10
140
1.0
141
10.0
290
     0
  0
SCALE
  5
4E
102
{ACAD_REACTORS
330
47
102
}
330
47
100
AcDbScale
 70
     0
300
1:16
140
1.0
141
16.0
290
     0
  0
SCALE
  5
4F
102
{ACAD_REACTORS
330
47
102
}
330
47
100
AcDbScale
 70
     0
300
1:20
140
1.0
141
20.0
290
     0
  0
SCALE
  5
50
102
{ACAD_REACTORS
330
47
102
}
330
47
100
AcDbScale
 70
     0
300
1:30
140
1.0
141
30.0
290
     0
  0
SCALE
  5
51
102
{ACAD_REACTORS
330
47
102
}
330
47
100
AcDbScale
 70
     0
300
1:40
140
1.0
141
40.0
290
     0
  0
SCALE
  5
52
102
{ACAD_REACTORS
330
47
102
}
330
47
100
AcDbScale
 70
     0
300
1:50
140
1.0
141
50.0
290
     0
  0
SCALE
  5
53
102
{ACAD_REACTORS
330
47
102
}
330
47
100
AcDbScale
 70
     0
300
1:100
140
1.0
141
100.0
290
     0
  0
SCALE
  5
54
102
{ACAD_REACTORS
330
47
102
}
330
47
100
AcDbScale
 70
     0
300
2:1
140
2.0
141
1.0
290
     0
  0
SCALE
  5
55
102
{ACAD_REACTORS
330
47
102
}
330
47
100
AcDbScale
 70
     0
300
4:1
140
4.0
141
1.0
290
     0
  0
SCALE
  5
56
102
{ACAD_REACTORS
330
47
102
}
330
47
100
AcDbScale
 70
     0
300
8:1
140
8.0
141
1.0
290
     0
  0
SCALE
  5
57
102
{ACAD_REACTORS
330
47
102
}
330
47
100
AcDbScale
 70
     0
300
10:1
140
10.0
141
1.0
290
     0
  0
SCALE
  5
58
102
{ACAD_REACTORS
330
47
102
}
330
47
100
AcDbScale
 70
     0
300
100:1
140
100.0
141
1.0
290
     0
  0
SCALE
  5
59
102
{ACAD_REACTORS
330
47
102
}
330
47
100
AcDbScale
 70
     0
300
1/128" = 1'-0"
140
0.0078125
141
12.0
290
     0
  0
SCALE
  5
5A
102
{ACAD_REACTORS
330
47
102
}
330
47
100
AcDbScale
 70
     0
300
1/64" = 1'-0"
140
0.015625
141
12.0
290
     0
  0
SCALE
  5
5B
102
{ACAD_REACTORS
330
47
102
}
330
47
100
AcDbScale
 70
     0
300
1/32" = 1'-0"
140
0.03125
141
12.0
290
     0
  0
SCALE
  5
5C
102
{ACAD_REACTORS
330
47
102
}
330
47
100
AcDbScale
 70
     0
300
1/16" = 1'-0"
140
0.0625
141
12.0
290
     0
  0
SCALE
  5
5D
102
{ACAD_REACTORS
330
47
102
}
330
47
100
AcDbScale
 70
     0
300
3/32" = 1'-0"
140
0.09375
141
12.0
290
     0
  0
SCALE
  5
5E
102
{ACAD_REACTORS
330
47
102
}
330
47
100
AcDbScale
 70
     0
300
1/8" = 1'-0"
140
0.125
141
12.0
290
     0
  0
SCALE
  5
5F
102
{ACAD_REACTORS
330
47
102
}
330
47
100
AcDbScale
 70
     0
300
3/16" = 1'-0"
140
0.1875
141
12.0
290
     0
  0
SCALE
  5
60
102
{ACAD_REACTORS
330
47
102
}
330
47
100
AcDbScale
 70
     0
300
1/4" = 1'-0"
140
0.25
141
12.0
290
     0
  0
SCALE
  5
61
102
{ACAD_REACTORS
330
47
102
}
330
47
100
AcDbScale
 70
     0
300
3/8" = 1'-0"
140
0.375
141
12.0
290
     0
  0
SCALE
  5
62
102
{ACAD_REACTORS
330
47
102
}
330
47
100
AcDbScale
 70
     0
300
1/2" = 1'-0"
140
0.5
141
12.0
290
     0
  0
SCALE
  5
63
102
{ACAD_REACTORS
330
47
102
}
330
47
100
AcDbScale
 70
     0
300
3/4" = 1'-0"
140
0.75
141
12.0
290
     0
  0
SCALE
  5
64
102
{ACAD_REACTORS
330
47
102
}
330
47
100
AcDbScale
 70
     0
300
1" = 1'-0"
140
1.0
141
12.0
290
     0
  0
SCALE
  5
65
102
{ACAD_REACTORS
330
47
102
}
330
47
100
AcDbScale
 70
     0
300
1-1/2" = 1'-0"
140
1.5
141
12.0
290
     0
  0
SCALE
  5
66
102
{ACAD_REACTORS
330
47
102
}
330
47
100
AcDbScale
 70
     0
300
3" = 1'-0"
140
3.0
141
12.0
290
     0
  0
SCALE
  5
67
102
{ACAD_REACTORS
330
47
102
}
330
47
100
AcDbScale
 70
     0
300
6" = 1'-0"
140
6.0
141
12.0
290
     0
  0
SCALE
  5
68
102
{ACAD_REACTORS
330
47
102
}
330
47
100
AcDbScale
 70
     0
300
1'-0" = 1'-0"
140
12.0
141
12.0
290
     0
  0
ENDSEC
  0
EOF
