  0
SECTION
  2
HEADER
  9
$ACADVER
  1
AC1015
  9
$ACADMAINTVER
 70
     6
  9
$DWGCODEPAGE
  3
ANSI_949
  9
$INSBASE
 10
0.0
 20
0.0
 30
0.0
  9
$EXTMIN
 10
-53.66023866113737
 20
-49.97180738881173
 30
0.0
  9
$EXTMAX
 10
81.74120831363855
 20
26.76413260158163
 30
0.0
  9
$LIMMIN
 10
0.0
 20
0.0
  9
$LIMMAX
 10
420.0
 20
297.0
  9
$ORTHOMODE
 70
     0
  9
$REGENMODE
 70
     1
  9
$FILLMODE
 70
     1
  9
$QTEXTMODE
 70
     0
  9
$MIRRTEXT
 70
     1
  9
$LTSCALE
 40
1.0
  9
$ATTMODE
 70
     1
  9
$TEXTSIZE
 40
3.5
  9
$TRACEWID
 40
1.0
  9
$TEXTSTYLE
  7
Standard
  9
$CLAYER
  8
0
  9
$CELTYPE
  6
ByLayer
  9
$CECOLOR
 62
   256
  9
$CELTSCALE
 40
1.0
  9
$DISPSILH
 70
     0
  9
$DIMSCALE
 40
1.0
  9
$DIMASZ
 40
3.302
  9
$DIMEXO
 40
1.0
  9
$DIMDLI
 40
3.75
  9
$DIMRND
 40
0.0
  9
$DIMDLE
 40
0.0
  9
$DIMEXE
 40
1.0
  9
$DIMTP
 40
0.0
  9
$DIMTM
 40
0.0
  9
$DIMTXT
 40
3.5
  9
$DIMCEN
 40
2.5
  9
$DIMTSZ
 40
0.0
  9
$DIMTOL
 70
     0
  9
$DIMLIM
 70
     0
  9
$DIMTIH
 70
     1
  9
$DIMTOH
 70
     1
  9
$DIMSE1
 70
     0
  9
$DIMSE2
 70
     0
  9
$DIMTAD
 70
     1
  9
$DIMZIN
 70
     0
  9
$DIMBLK
  1

  9
$DIMASO
 70
     1
  9
$DIMSHO
 70
     1
  9
$DIMPOST
  1

  9
$DIMAPOST
  1

  9
$DIMALT
 70
     0
  9
$DIMALTD
 70
     3
  9
$DIMALTF
 40
0.0393700787401575
  9
$DIMLFAC
 40
1.0
  9
$DIMTOFL
 70
     1
  9
$DIMTVP
 40
0.0
  9
$DIMTIX
 70
     0
  9
$DIMSOXD
 70
     0
  9
$DIMSAH
 70
     0
  9
$DIMBLK1
  1

  9
$DIMBLK2
  1

  9
$DIMSTYLE
  2
ISO-25
  9
$DIMCLRD
 70
     0
  9
$DIMCLRE
 70
     0
  9
$DIMCLRT
 70
     0
  9
$DIMTFAC
 40
1.0
  9
$DIMGAP
 40
1.524
  9
$DIMJUST
 70
     0
  9
$DIMSD1
 70
     0
  9
$DIMSD2
 70
     0
  9
$DIMTOLJ
 70
     0
  9
$DIMTZIN
 70
     0
  9
$DIMALTZ
 70
     0
  9
$DIMALTTZ
 70
     0
  9
$DIMUPT
 70
     0
  9
$DIMDEC
 70
     2
  9
$DIMTDEC
 70
     2
  9
$DIMALTU
 70
     2
  9
$DIMALTTD
 70
     3
  9
$DIMTXSTY
  7
Standard
  9
$DIMAUNIT
 70
     0
  9
$DIMADEC
 70
     2
  9
$DIMALTRND
 40
0.0
  9
$DIMAZIN
 70
     0
  9
$DIMDSEP
 70
    44
  9
$DIMATFIT
 70
     3
  9
$DIMFRAC
 70
     0
  9
$DIMLDRBLK
  1

  9
$DIMLUNIT
 70
     2
  9
$DIMLWD
 70
    -2
  9
$DIMLWE
 70
    -2
  9
$DIMTMOVE
 70
     0
  9
$LUNITS
 70
     2
  9
$LUPREC
 70
     2
  9
$SKETCHINC
 40
1.0
  9
$FILLETRAD
 40
10.0
  9
$AUNITS
 70
     0
  9
$AUPREC
 70
     2
  9
$MENU
  1
.
  9
$ELEVATION
 40
0.0
  9
$PELEVATION
 40
0.0
  9
$THICKNESS
 40
0.0
  9
$LIMCHECK
 70
     0
  9
$CHAMFERA
 40
0.0
  9
$CHAMFERB
 40
0.0
  9
$CHAMFERC
 40
0.0
  9
$CHAMFERD
 40
0.0
  9
$SKPOLY
 70
     0
  9
$TDCREATE
 40
2458260.57967118
  9
$TDUCREATE
 40
2458260.20467118
  9
$TDUPDATE
 40
2458268.58511125
  9
$TDUUPDATE
 40
2458268.21011125
  9
$TDINDWG
 40
0.0005514468
  9
$TDUSRTIMER
 40
2458268.209559838
  9
$USRTIMER
 70
     1
  9
$ANGBASE
 50
0.0
  9
$ANGDIR
 70
     0
  9
$PDMODE
 70
     0
  9
$PDSIZE
 40
-1.0
  9
$PLINEWID
 40
0.0
  9
$SPLFRAME
 70
     0
  9
$SPLINETYPE
 70
     6
  9
$SPLINESEGS
 70
     8
  9
$HANDSEED
  5
153
  9
$SURFTAB1
 70
     6
  9
$SURFTAB2
 70
     6
  9
$SURFTYPE
 70
     6
  9
$SURFU
 70
     6
  9
$SURFV
 70
     6
  9
$UCSBASE
  2

  9
$UCSNAME
  2

  9
$UCSORG
 10
0.0
 20
0.0
 30
0.0
  9
$UCSXDIR
 10
1.0
 20
0.0
 30
0.0
  9
$UCSYDIR
 10
0.0
 20
1.0
 30
0.0
  9
$UCSORTHOREF
  2

  9
$UCSORTHOVIEW
 70
     0
  9
$UCSORGTOP
 10
0.0
 20
0.0
 30
0.0
  9
$UCSORGBOTTOM
 10
0.0
 20
0.0
 30
0.0
  9
$UCSORGLEFT
 10
0.0
 20
0.0
 30
0.0
  9
$UCSORGRIGHT
 10
0.0
 20
0.0
 30
0.0
  9
$UCSORGFRONT
 10
0.0
 20
0.0
 30
0.0
  9
$UCSORGBACK
 10
0.0
 20
0.0
 30
0.0
  9
$PUCSBASE
  2

  9
$PUCSNAME
  2

  9
$PUCSORG
 10
0.0
 20
0.0
 30
0.0
  9
$PUCSXDIR
 10
1.0
 20
0.0
 30
0.0
  9
$PUCSYDIR
 10
0.0
 20
1.0
 30
0.0
  9
$PUCSORTHOREF
  2

  9
$PUCSORTHOVIEW
 70
     0
  9
$PUCSORGTOP
 10
0.0
 20
0.0
 30
0.0
  9
$PUCSORGBOTTOM
 10
0.0
 20
0.0
 30
0.0
  9
$PUCSORGLEFT
 10
0.0
 20
0.0
 30
0.0
  9
$PUCSORGRIGHT
 10
0.0
 20
0.0
 30
0.0
  9
$PUCSORGFRONT
 10
0.0
 20
0.0
 30
0.0
  9
$PUCSORGBACK
 10
0.0
 20
0.0
 30
0.0
  9
$USERI1
 70
     0
  9
$USERI2
 70
     0
  9
$USERI3
 70
     0
  9
$USERI4
 70
     0
  9
$USERI5
 70
     0
  9
$USERR1
 40
0.0
  9
$USERR2
 40
0.0
  9
$USERR3
 40
0.0
  9
$USERR4
 40
0.0
  9
$USERR5
 40
0.0
  9
$WORLDVIEW
 70
     1
  9
$SHADEDGE
 70
     3
  9
$SHADEDIF
 70
    70
  9
$TILEMODE
 70
     1
  9
$MAXACTVP
 70
    64
  9
$PINSBASE
 10
0.0
 20
0.0
 30
0.0
  9
$PLIMCHECK
 70
     0
  9
$PEXTMIN
 10
1.000000000000000E+20
 20
1.000000000000000E+20
 30
1.000000000000000E+20
  9
$PEXTMAX
 10
-1.000000000000000E+20
 20
-1.000000000000000E+20
 30
-1.000000000000000E+20
  9
$PLIMMIN
 10
0.0
 20
0.0
  9
$PLIMMAX
 10
0.0
 20
0.0
  9
$UNITMODE
 70
     0
  9
$VISRETAIN
 70
     1
  9
$PLINEGEN
 70
     0
  9
$PSLTSCALE
 70
     1
  9
$TREEDEPTH
 70
  3020
  9
$CMLSTYLE
  2
Standard
  9
$CMLJUST
 70
     0
  9
$CMLSCALE
 40
20.0
  9
$PROXYGRAPHICS
 70
     1
  9
$MEASUREMENT
 70
     1
  9
$CELWEIGHT
370
    -1
  9
$ENDCAPS
280
     0
  9
$JOINSTYLE
280
     0
  9
$LWDISPLAY
290
     1
  9
$INSUNITS
 70
     4
  9
$HYPERLINKBASE
  1

  9
$STYLESHEET
  1

  9
$XEDIT
290
     1
  9
$CEPSNTYPE
380
     0
  9
$PSTYLEMODE
290
     1
  9
$FINGERPRINTGUID
  2
{2B6A6CC4-AF00-412F-A8A2-2C63857E3F33}
  9
$VERSIONGUID
  2
{FAEB1C32-E019-11D5-929B-00C0DF256EC4}
  9
$EXTNAMES
290
     1
  9
$PSVPSCALE
 40
0.0
  9
$OLESTARTUP
290
     0
  0
ENDSEC
  0
SECTION
  2
CLASSES
  0
CLASS
  1
ACDBDICTIONARYWDFLT
  2
AcDbDictionaryWithDefault
  3
ObjectDBX Classes
 90
        0
280
     0
281
     0
  0
CLASS
  1
VISUALSTYLE
  2
AcDbVisualStyle
  3
ObjectDBX Classes
 90
     4095
280
     0
281
     0
  0
CLASS
  1
MATERIAL
  2
AcDbMaterial
  3
ObjectDBX Classes
 90
     1153
280
     0
281
     0
  0
CLASS
  1
SCALE
  2
AcDbScale
  3
ObjectDBX Classes
 90
     1153
280
     0
281
     0
  0
CLASS
  1
TABLESTYLE
  2
AcDbTableStyle
  3
ObjectDBX Classes
 90
     4095
280
     0
281
     0
  0
CLASS
  1
MLEADERSTYLE
  2
AcDbMLeaderStyle
  3
ACDB_MLEADERSTYLE_CLASS
 90
     4095
280
     0
281
     0
  0
CLASS
  1
SUN
  2
AcDbSun
  3
SCENEOE
 90
     1153
280
     0
281
     0
  0
CLASS
  1
ACDBPLACEHOLDER
  2
AcDbPlaceHolder
  3
ObjectDBX Classes
 90
        0
280
     0
281
     0
  0
CLASS
  1
LAYOUT
  2
AcDbLayout
  3
ObjectDBX Classes
 90
        0
280
     0
281
     0
  0
CLASS
  1
RASTERVARIABLES
  2
AcDbRasterVariables
  3
ISM
 90
        0
280
     0
281
     0
  0
ENDSEC
  0
SECTION
  2
TABLES
  0
TABLE
  2
VPORT
  5
8
330
0
100
AcDbSymbolTable
 70
     1
  0
VPORT
  5
29
330
8
100
AcDbSymbolTableRecord
100
AcDbViewportTableRecord
  2
*Active
 70
     0
 10
0.0
 20
0.0
 11
1.0
 21
1.0
 12
14.04048482625059
 22
-11.60383739361504
 13
0.0
 23
0.0
 14
10.0
 24
10.0
 15
10.0
 25
10.0
 16
0.0
 26
0.0
 36
1.0
 17
0.0
 27
0.0
 37
0.0
 40
79.41807901756769
 41
1.739018087855297
 42
50.0
 43
0.0
 44
0.0
 50
0.0
 51
0.0
 71
    16
 72
  2000
 73
     1
 74
     3
 75
     0
 76
     0
 77
     0
 78
     0
281
     0
 65
     1
110
0.0
120
0.0
130
0.0
111
1.0
121
0.0
131
0.0
112
0.0
122
1.0
132
0.0
 79
     0
146
0.0
  0
ENDTAB
  0
TABLE
  2
LTYPE
  5
5
330
0
100
AcDbSymbolTable
 70
     6
  0
LTYPE
  5
14
330
5
100
AcDbSymbolTableRecord
100
AcDbLinetypeTableRecord
  2
ByBlock
 70
     0
  3

 72
    65
 73
     0
 40
0.0
  0
LTYPE
  5
15
330
5
100
AcDbSymbolTableRecord
100
AcDbLinetypeTableRecord
  2
ByLayer
 70
     0
  3

 72
    65
 73
     0
 40
0.0
  0
LTYPE
  5
16
330
5
100
AcDbSymbolTableRecord
100
AcDbLinetypeTableRecord
  2
Continuous
 70
     0
  3
Solid line
 72
    65
 73
     0
 40
0.0
  0
LTYPE
  5
6E
330
5
100
AcDbSymbolTableRecord
100
AcDbLinetypeTableRecord
  2
HIDDEN
 70
     0
  3
Hidden __ __ __ __ __ __ __ __ __ __ __ __ __ __
 72
    65
 73
     2
 40
1.905
 49
1.27
 74
     0
 49
-0.635
 74
     0
  0
LTYPE
  5
6F
330
5
100
AcDbSymbolTableRecord
100
AcDbLinetypeTableRecord
  2
PHANTOM
 70
     0
  3
Phantom ______  __  __  ______  __  __  ______
 72
    65
 73
     6
 40
12.7
 49
6.35
 74
     0
 49
-1.27
 74
     0
 49
1.27
 74
     0
 49
-1.27
 74
     0
 49
1.27
 74
     0
 49
-1.27
 74
     0
  0
LTYPE
  5
70
330
5
100
AcDbSymbolTableRecord
100
AcDbLinetypeTableRecord
  2
CENTER
 70
     0
  3
Center ____ _ ____ _ ____ _ ____ _ ____ _ ____
 72
    65
 73
     4
 40
10.16
 49
6.35
 74
     0
 49
-1.27
 74
     0
 49
1.27
 74
     0
 49
-1.27
 74
     0
  0
LTYPE
  5
71
330
5
100
AcDbSymbolTableRecord
100
AcDbLinetypeTableRecord
  2
CENTERX2
 70
     0
  3
Center (2x) ________  __  ________  __  _____
 72
    65
 73
     4
 40
20.32
 49
12.7
 74
     0
 49
-2.54
 74
     0
 49
2.54
 74
     0
 49
-2.54
 74
     0
  0
LTYPE
  5
72
330
5
100
AcDbSymbolTableRecord
100
AcDbLinetypeTableRecord
  2
DOT2
 70
     0
  3
Dot (.5x) ........................................
 72
    65
 73
     2
 40
0.635
 49
0.0
 74
     0
 49
-0.635
 74
     0
  0
ENDTAB
  0
TABLE
  2
LAYER
  5
2
330
0
100
AcDbSymbolTable
 70
    17
  0
LAYER
  5
10
330
2
100
AcDbSymbolTableRecord
100
AcDbLayerTableRecord
  2
0
 70
     0
 62
     7
  6
Continuous
370
    -3
390
F
  0
LAYER
  5
73
330
2
100
AcDbSymbolTableRecord
100
AcDbLayerTableRecord
  2
FORMAT
 70
     0
 62
     2
  6
Continuous
370
    -3
390
F
  0
LAYER
  5
74
330
2
100
AcDbSymbolTableRecord
100
AcDbLayerTableRecord
  2
외형선
 70
     0
 62
   100
  6
Continuous
370
    35
390
F
  0
LAYER
  5
75
330
2
100
AcDbSymbolTableRecord
100
AcDbLayerTableRecord
  2
숨은선
 70
     0
 62
     2
  6
HIDDEN
370
    25
390
F
  0
LAYER
  5
76
330
2
100
AcDbSymbolTableRecord
100
AcDbLayerTableRecord
  2
중심선
 70
     0
 62
     1
  6
CENTERX2
370
    -3
390
F
  0
LAYER
  5
77
330
2
100
AcDbSymbolTableRecord
100
AcDbLayerTableRecord
  2
파단선
 70
     0
 62
     4
  6
Continuous
370
    -3
390
F
  0
LAYER
  5
78
330
2
100
AcDbSymbolTableRecord
100
AcDbLayerTableRecord
  2
해칭선
 70
     0
 62
   100
  6
Continuous
370
    -3
390
F
  0
LAYER
  5
79
330
2
100
AcDbSymbolTableRecord
100
AcDbLayerTableRecord
  2
가는실선
 70
     0
 62
     4
  6
Continuous
370
    -3
390
F
  0
LAYER
  5
7A
330
2
100
AcDbSymbolTableRecord
100
AcDbLayerTableRecord
  2
치수_보조선
 70
     0
 62
     4
  6
Continuous
370
    -3
390
F
  0
LAYER
  5
7B
330
2
100
AcDbSymbolTableRecord
100
AcDbLayerTableRecord
  2
치수문자_일반주서
 70
     0
 62
     7
  6
Continuous
370
    25
390
F
  0
LAYER
  5
7C
330
2
100
AcDbSymbolTableRecord
100
AcDbLayerTableRecord
  2
개별주서
 70
     0
 62
   100
  6
Continuous
370
    35
390
F
  0
LAYER
  5
7D
330
2
100
AcDbSymbolTableRecord
100
AcDbLayerTableRecord
  2
중간선
 70
     0
 62
     2
  6
Continuous
370
    25
390
F
  0
LAYER
  5
7E
330
2
100
AcDbSymbolTableRecord
100
AcDbLayerTableRecord
  2
윤곽선
 70
     0
 62
     3
  6
Continuous
370
    50
390
F
  0
LAYER
  5
7F
330
2
100
AcDbSymbolTableRecord
100
AcDbLayerTableRecord
  2
중심마크
 70
     0
 62
   100
  6
Continuous
370
    35
390
F
  0
LAYER
  5
80
330
2
100
AcDbSymbolTableRecord
100
AcDbLayerTableRecord
  2
가상선
 70
     0
 62
     4
  6
PHANTOM
370
    -3
390
F
  0
LAYER
  5
81
330
2
100
AcDbSymbolTableRecord
100
AcDbLayerTableRecord
  2
특수지정선
 70
     0
 62
     5
  6
CENTERX2
370
    70
390
F
  0
LAYER
  5
144
330
2
100
AcDbSymbolTableRecord
100
AcDbLayerTableRecord
  2
Defpoints
 70
     0
 62
     7
  6
Continuous
290
     0
370
    -3
390
F
  0
ENDTAB
  0
TABLE
  2
STYLE
  5
3
330
0
100
AcDbSymbolTable
 70
     2
  0
STYLE
  5
11
330
3
100
AcDbSymbolTableRecord
100
AcDbTextStyleTableRecord
  2
Standard
 70
     0
 40
0.0
 41
1.0
 50
0.0
 71
     0
 42
3.5
  3
txt
  4

  0
STYLE
  5
97
330
3
100
AcDbSymbolTableRecord
100
AcDbTextStyleTableRecord
  2
SLDTEXTSTYLE0
 70
     0
 40
0.0
 41
0.75
 50
0.0
 71
     0
 42
3.5
  3
TXT
  4

  0
ENDTAB
  0
TABLE
  2
VIEW
  5
6
330
0
100
AcDbSymbolTable
 70
     0
  0
ENDTAB
  0
TABLE
  2
UCS
  5
7
330
0
100
AcDbSymbolTable
 70
     0
  0
ENDTAB
  0
TABLE
  2
APPID
  5
9
330
0
100
AcDbSymbolTable
 70
     1
  0
APPID
  5
12
330
9
100
AcDbSymbolTableRecord
100
AcDbRegAppTableRecord
  2
ACAD
 70
     0
  0
ENDTAB
  0
TABLE
  2
DIMSTYLE
  5
A
330
0
100
AcDbSymbolTable
 70
     4
100
AcDbDimStyleTable
  0
DIMSTYLE
105
27
330
A
100
AcDbSymbolTableRecord
100
AcDbDimStyleTableRecord
  2
ISO-25
 70
     0
 41
2.5
 42
0.625
 43
3.75
 44
1.25
 73
     0
 74
     0
 77
     1
 78
     8
140
2.5
141
2.5
143
0.03937007874016
147
0.625
171
     3
172
     1
178
     0
271
     2
272
     2
274
     3
278
    44
283
     0
284
     8
340
11
  0
DIMSTYLE
105
E9
102
{ACAD_REACTORS
330
E8
102
}
330
A
100
AcDbSymbolTableRecord
100
AcDbDimStyleTableRecord
  2
SLDDIMSTYLE0
 70
     0
 41
3.302
 44
0.0
 45
0.000000001
 73
     0
 74
     0
 77
     1
 78
    12
 79
     3
140
3.5
147
0.875
172
     1
173
     1
178
     0
271
     1
272
     1
276
     2
284
    12
289
     0
340
97
  0
DIMSTYLE
105
F7
102
{ACAD_REACTORS
330
F6
330
10F
102
}
330
A
100
AcDbSymbolTableRecord
100
AcDbDimStyleTableRecord
  2
SLDDIMSTYLE1
 70
     0
 41
3.302
 44
0.0
 45
0.000000001
 73
     0
 74
     0
 77
     1
 78
    12
 79
     3
140
3.5
147
0.875
173
     1
178
     0
271
     2
272
     2
276
     2
284
    12
340
97
  0
DIMSTYLE
105
102
102
{ACAD_REACTORS
330
101
102
}
330
A
100
AcDbSymbolTableRecord
100
AcDbDimStyleTableRecord
  2
SLDDIMSTYLE2
 70
     0
 41
3.302
 44
0.0
 45
0.000000001
 73
     0
 74
     0
 77
     1
 78
    12
 79
     3
140
3.5
147
0.875
172
     1
173
     1
178
     0
271
     2
272
     2
276
     2
284
    12
289
     0
340
97
  0
ENDTAB
  0
TABLE
  2
BLOCK_RECORD
  5
1
330
0
100
AcDbSymbolTable
 70
     7
  0
BLOCK_RECORD
  5
1F
330
1
100
AcDbSymbolTableRecord
100
AcDbBlockTableRecord
  2
*Model_Space
340
22
  0
BLOCK_RECORD
  5
1B
330
1
100
AcDbSymbolTableRecord
100
AcDbBlockTableRecord
  2
*Paper_Space
340
1E
  0
BLOCK_RECORD
  5
23
330
1
100
AcDbSymbolTableRecord
100
AcDbBlockTableRecord
  2
*Paper_Space0
340
26
  0
BLOCK_RECORD
  5
82
330
1
100
AcDbSymbolTableRecord
100
AcDbBlockTableRecord
  2
블럭10
340
0
102
{BLKREFS
331
E1
102
}
  0
BLOCK_RECORD
  5
EA
330
1
100
AcDbSymbolTableRecord
100
AcDbBlockTableRecord
  2
_D
340
0
  0
BLOCK_RECORD
  5
F8
330
1
100
AcDbSymbolTableRecord
100
AcDbBlockTableRecord
  2
_D_1
340
0
  0
BLOCK_RECORD
  5
103
330
1
100
AcDbSymbolTableRecord
100
AcDbBlockTableRecord
  2
_D_2
340
0
  0
BLOCK_RECORD
  5
110
330
1
100
AcDbSymbolTableRecord
100
AcDbBlockTableRecord
  2
_D_3
340
0
  0
BLOCK_RECORD
  5
119
330
1
100
AcDbSymbolTableRecord
100
AcDbBlockTableRecord
  2
SW_DOWELSYMBOL_0
340
0
102
{BLKREFS
331
11F
102
}
  0
ENDTAB
  0
ENDSEC
  0
SECTION
  2
BLOCKS
  0
BLOCK
  5
20
330
1F
100
AcDbEntity
  8
0
100
AcDbBlockBegin
  2
*Model_Space
 70
     0
 10
0.0
 20
0.0
 30
0.0
  3
*Model_Space
  1

  0
ENDBLK
  5
21
330
1F
100
AcDbEntity
  8
0
100
AcDbBlockEnd
  0
BLOCK
  5
1C
330
1B
100
AcDbEntity
 67
     1
  8
0
100
AcDbBlockBegin
  2
*Paper_Space
 70
     0
 10
0.0
 20
0.0
 30
0.0
  3
*Paper_Space
  1

  0
ENDBLK
  5
1D
330
1B
100
AcDbEntity
 67
     1
  8
0
100
AcDbBlockEnd
  0
BLOCK
  5
24
330
23
100
AcDbEntity
  8
0
100
AcDbBlockBegin
  2
*Paper_Space0
 70
     0
 10
0.0
 20
0.0
 30
0.0
  3
*Paper_Space0
  1

  0
ENDBLK
  5
25
330
23
100
AcDbEntity
  8
0
100
AcDbBlockEnd
  0
BLOCK
  5
83
330
82
100
AcDbEntity
  8
0
100
AcDbBlockBegin
  2
블럭10
 70
     2
 10
0.0
 20
0.0
 30
0.0
  3
블럭10
  1

  0
ELLIPSE
  5
85
330
82
100
AcDbEntity
  8
중심선
100
AcDbEllipse
 10
20.54032771741204
 20
12.0471743016438
 30
0.0
 11
6.600054785286829
 21
-1.261213355974178E-13
 31
0.0
210
0.0
220
0.0
230
1.0
 40
0.636358354079598
 41
0.9219305317359503
 42
6.513795318482858
  0
ELLIPSE
  5
86
330
82
100
AcDbEntity
  8
중심선
100
AcDbEllipse
 10
20.54032771746488
 20
12.04717430159265
 30
0.0
 11
3.960054785062283
 21
1.540847449632565E-10
 31
0.0
210
0.0
220
0.0
230
1.0
 40
0.3939339440162632
 41
1.131841032648279
 42
5.62031148352944
  0
LINE
  5
87
330
82
100
AcDbEntity
  8
중심선
100
AcDbLine
 10
2.268634060543552
 20
16.24717430164393
 30
0.0
 11
5.714909304380834
 21
16.24717430164393
 31
0.0
  0
LINE
  5
88
330
82
100
AcDbEntity
  8
중심선
100
AcDbLine
 10
5.245725140726316
 20
7.84717430164391
 30
0.0
 11
8.692000384563599
 21
7.84717430164391
 31
0.0
  0
LINE
  5
89
330
82
100
AcDbEntity
  8
중심선
100
AcDbLine
 10
15.74043728645272
 20
16.24717430164393
 30
0.0
 11
8.692000384563599
 21
7.84717430164391
 31
0.0
  0
LINE
  5
8A
330
82
100
AcDbEntity
  8
중심선
100
AcDbLine
 10
0.1404042013395286
 20
13.71084872107135
 30
0.0
 11
3.58671253028996
 21
13.71088815037384
 31
0.0
  0
LINE
  5
8B
330
82
100
AcDbEntity
  8
중심선
100
AcDbLine
 10
2.750260043222114
 20
10.84717430164391
 30
0.0
 11
6.196535287059397
 21
10.84717430164391
 31
0.0
  0
LINE
  5
8C
330
82
100
AcDbEntity
  8
중심선
100
AcDbLine
 10
12.29416204261559
 20
16.24717430164393
 30
0.0
 11
5.245725140726316
 21
7.84717430164391
 31
0.0
  0
LINE
  5
8D
330
82
100
AcDbEntity
  8
중심선
100
AcDbLine
 10
10.72767329541681
 20
16.24717430164393
 30
0.0
 11
6.196535287059397
 21
10.84717430164391
 31
0.0
  0
LINE
  5
8E
330
82
100
AcDbEntity
  8
중심선
100
AcDbLine
 10
7.28139805157953
 20
16.24717430164393
 30
0.0
 11
2.750260043222114
 21
10.84717430164391
 31
0.0
  0
LINE
  5
8F
330
82
100
AcDbEntity
  8
중심선
100
AcDbLine
 10
5.714909304380834
 20
16.24717430164393
 30
0.0
 11
3.58671253028996
 21
13.71088815037384
 31
0.0
  0
LINE
  5
90
330
82
100
AcDbEntity
  8
중심선
100
AcDbLine
 10
2.268634060543552
 20
16.24717430164393
 30
0.0
 11
0.1404042013395286
 21
13.71084872107135
 31
0.0
  0
LINE
  5
91
330
82
100
AcDbEntity
  8
중심선
100
AcDbLine
 10
7.28139805157953
 20
16.24717430164393
 30
0.0
 11
10.72767329541681
 21
16.24717430164393
 31
0.0
  0
LINE
  5
92
330
82
100
AcDbEntity
  8
중심선
100
AcDbLine
 10
12.29416204261559
 20
16.24717430164393
 30
0.0
 11
15.74043728645272
 21
16.24717430164393
 31
0.0
  0
LINE
  5
93
330
82
100
AcDbEntity
  8
중심선
100
AcDbLine
 10
19.22036997980202
 20
11.08717430171403
 30
0.0
 11
23.66174974927406
 21
11.08717430171406
 31
0.0
  0
LINE
  5
94
330
82
100
AcDbEntity
  8
중심선
100
AcDbLine
 10
19.22039502424796
 20
13.00717430171391
 30
0.0
 11
19.22036997980202
 21
11.08717430171403
 31
0.0
  0
LINE
  5
95
330
82
100
AcDbEntity
  8
중심선
100
AcDbLine
 10
19.22039502424796
 20
13.00717430171391
 30
0.0
 11
26.96566020931264
 21
13.00717430171391
 31
0.0
  0
LINE
  5
96
330
82
100
AcDbEntity
  8
중심선
100
AcDbLine
 10
22.22332737316547
 20
13.45928029700563
 30
0.0
 11
24.52862924686651
 21
15.39360700705356
 31
0.0
  0
ATTDEF
  5
98
330
82
100
AcDbEntity
  8
FORMAT
 62
     2
100
AcDbText
 10
-16.11926103943555
 20
2.075366912832191
 30
0.0
 40
4.233333333333333
  1
SEME7210060E [ 4 FLUTE ]
 41
0.75
  7
SLDTEXTSTYLE0
 11
-16.11926103943555
 21
-0.0412997538344756
 31
0.0
100
AcDbAttributeDefinition
  3

  2
AUTOATTR0
 70
     0
 74
     1
  0
ENDBLK
  5
84
330
82
100
AcDbEntity
  8
0
100
AcDbBlockEnd
  0
BLOCK
  5
EB
330
EA
100
AcDbEntity
  8
0
100
AcDbBlockBegin
  2
_D
 70
     0
 10
0.0
 20
0.0
 30
0.0
  3
_D
  1

  0
LINE
  5
ED
330
EA
100
AcDbEntity
  8
치수문자_일반주서
 62
     0
370
    -2
100
AcDbLine
 10
70.06250000000001
 20
-5.000000000000012
 30
0.0
 11
81.19087498030521
 21
-4.999999999999968
 31
0.0
  0
LINE
  5
EE
330
EA
100
AcDbEntity
  8
치수문자_일반주서
 62
     0
370
    -2
100
AcDbLine
 10
70.06250000000001
 20
4.999999999999997
 30
0.0
 11
81.19087498030518
 21
5.000000000000039
 31
0.0
  0
LINE
  5
EF
330
EA
100
AcDbEntity
  8
치수문자_일반주서
 62
     0
370
    -2
100
AcDbLine
 10
81.19087498030521
 20
-4.999999999999968
 30
0.0
 11
81.19087498030514
 21
19.04150000000004
 31
0.0
  0
LINE
  5
F0
330
EA
100
AcDbEntity
  8
치수문자_일반주서
 62
     0
370
    -2
100
AcDbLine
 10
81.19087498030521
 20
-4.999999999999968
 30
0.0
 11
81.19087498030518
 21
5.000000000000039
 31
0.0
  0
LINE
  5
F1
330
EA
100
AcDbEntity
  8
치수문자_일반주서
 62
     0
370
    -2
100
AcDbLine
 10
81.19087498030522
 20
-8.301999999999968
 30
0.0
 11
81.19087498030524
 21
-11.60399999999997
 31
0.0
  0
LINE
  5
F2
330
EA
100
AcDbEntity
  8
치수문자_일반주서
 62
     0
370
    -2
100
AcDbLine
 10
81.19087498030517
 20
8.302000000000039
 30
0.0
 11
81.19087498030515
 21
11.60400000000004
 31
0.0
  0
SOLID
  5
F3
330
EA
100
AcDbEntity
  8
치수문자_일반주서
 62
     0
100
AcDbTrace
 10
81.74120831363855
 20
-8.301999999999966
 30
0.0
 11
80.6405416469719
 21
-8.30199999999997
 31
0.0
 12
81.19087498030521
 22
-4.999999999999968
 32
0.0
 13
81.19087498030521
 23
-4.999999999999968
 33
0.0
  0
SOLID
  5
F4
330
EA
100
AcDbEntity
  8
치수문자_일반주서
 62
     0
100
AcDbTrace
 10
80.64054164697184
 20
8.302000000000037
 30
0.0
 11
81.7412083136385
 21
8.30200000000004
 31
0.0
 12
81.19087498030518
 22
5.000000000000039
 32
0.0
 13
81.19087498030518
 23
5.000000000000039
 33
0.0
  0
MTEXT
  5
F5
330
EA
100
AcDbEntity
  8
치수문자_일반주서
 62
     0
100
AcDbMText
 10
76.81587498030515
 20
15.32275000000003
 30
0.0
 40
3.5
 41
0.0
 71
     2
 72
     1
  1
\A1;%%c10
  7
SLDTEXTSTYLE0
 11
-2.842170943040399E-15
 21
1.0
 31
0.0
 73
     1
 44
1.0
  0
POINT
  5
14E
330
EA
100
AcDbEntity
  8
Defpoints
 62
     0
100
AcDbPoint
 10
70.00000000000001
 20
-5.000000000000012
 30
0.0
  0
POINT
  5
14F
330
EA
100
AcDbEntity
  8
Defpoints
 62
     0
100
AcDbPoint
 10
70.00000000000001
 20
4.999999999999997
 30
0.0
  0
POINT
  5
150
330
EA
100
AcDbEntity
  8
Defpoints
 62
     0
100
AcDbPoint
 10
81.1908749803052
 20
5.000000000000039
 30
0.0
  0
ENDBLK
  5
EC
330
EA
100
AcDbEntity
  8
0
100
AcDbBlockEnd
  0
BLOCK
  5
F9
330
F8
100
AcDbEntity
  8
0
100
AcDbBlockBegin
  2
_D_1
 70
     0
 10
0.0
 20
0.0
 30
0.0
  3
_D_1
  1

  0
LINE
  5
FB
330
F8
100
AcDbEntity
  8
치수문자_일반주서
 62
     0
370
    -2
100
AcDbLine
 10
-40.0
 20
4.562499999999988
 30
0.0
 11
-40.0
 21
22.38913260158164
 31
0.0
  0
LINE
  5
FC
330
F8
100
AcDbEntity
  8
치수문자_일반주서
 62
     0
370
    -2
100
AcDbLine
 10
70.00000000000001
 20
5.0625
 30
0.0
 11
70.00000000000001
 21
22.38913260158164
 31
0.0
  0
LINE
  5
FD
330
F8
100
AcDbEntity
  8
치수문자_일반주서
 62
     0
370
    -2
100
AcDbLine
 10
-36.698
 20
22.38913260158164
 30
0.0
 11
66.69800000000001
 21
22.38913260158164
 31
0.0
  0
SOLID
  5
FE
330
F8
100
AcDbEntity
  8
치수문자_일반주서
 62
     0
100
AcDbTrace
 10
-36.698
 20
22.93946593491497
 30
0.0
 11
-36.698
 21
21.8387992682483
 31
0.0
 12
-40.0
 22
22.38913260158164
 32
0.0
 13
-40.0
 23
22.38913260158164
 33
0.0
  0
SOLID
  5
FF
330
F8
100
AcDbEntity
  8
치수문자_일반주서
 62
     0
100
AcDbTrace
 10
66.69800000000001
 20
21.8387992682483
 30
0.0
 11
66.69800000000001
 21
22.93946593491497
 31
0.0
 12
70.00000000000001
 22
22.38913260158164
 32
0.0
 13
70.00000000000001
 23
22.38913260158164
 33
0.0
  0
MTEXT
  5
100
330
F8
100
AcDbEntity
  8
치수문자_일반주서
 62
     0
100
AcDbMText
 10
15.0
 20
26.76413260158164
 30
0.0
 40
3.5
 41
0.0
 71
     2
 72
     1
  1
\A1;110
  7
SLDTEXTSTYLE0
 73
     1
 44
1.0
  0
POINT
  5
145
330
F8
100
AcDbEntity
  8
Defpoints
 62
     0
100
AcDbPoint
 10
-40.0
 20
4.499999999999988
 30
0.0
  0
POINT
  5
146
330
F8
100
AcDbEntity
  8
Defpoints
 62
     0
100
AcDbPoint
 10
70.00000000000001
 20
5.0
 30
0.0
  0
POINT
  5
147
330
F8
100
AcDbEntity
  8
Defpoints
 62
     0
100
AcDbPoint
 10
70.00000000000001
 20
22.38913260158164
 30
0.0
  0
ENDBLK
  5
FA
330
F8
100
AcDbEntity
  8
0
100
AcDbBlockEnd
  0
BLOCK
  5
104
330
103
100
AcDbEntity
  8
0
100
AcDbBlockBegin
  2
_D_2
 70
     0
 10
0.0
 20
0.0
 30
0.0
  3
_D_2
  1

  0
LINE
  5
106
330
103
100
AcDbEntity
  8
치수문자_일반주서
 62
     0
370
    -2
100
AcDbLine
 10
-39.56249999999999
 20
4.999999999999998
 30
0.0
 11
-49.28523866113734
 21
4.999999999999961
 31
0.0
  0
LINE
  5
107
330
103
100
AcDbEntity
  8
치수문자_일반주서
 62
     0
370
    -2
100
AcDbLine
 10
-39.56249999999999
 20
-5.000000000000011
 30
0.0
 11
-49.28523866113731
 21
-5.000000000000046
 31
0.0
  0
LINE
  5
108
330
103
100
AcDbEntity
  8
치수문자_일반주서
 62
     0
370
    -2
100
AcDbLine
 10
-49.28523866113734
 20
4.999999999999961
 30
0.0
 11
-49.28523866113739
 21
19.04149999999996
 31
0.0
  0
LINE
  5
109
330
103
100
AcDbEntity
  8
치수문자_일반주서
 62
     0
370
    -2
100
AcDbLine
 10
-49.28523866113734
 20
4.999999999999961
 30
0.0
 11
-49.28523866113731
 21
-5.000000000000046
 31
0.0
  0
LINE
  5
10A
330
103
100
AcDbEntity
  8
치수문자_일반주서
 62
     0
370
    -2
100
AcDbLine
 10
-49.28523866113736
 20
8.30199999999996
 30
0.0
 11
-49.28523866113737
 21
11.60399999999996
 31
0.0
  0
LINE
  5
10B
330
103
100
AcDbEntity
  8
치수문자_일반주서
 62
     0
370
    -2
100
AcDbLine
 10
-49.28523866113729
 20
-8.302000000000046
 30
0.0
 11
-49.28523866113728
 21
-11.60400000000005
 31
0.0
  0
SOLID
  5
10C
330
103
100
AcDbEntity
  8
치수문자_일반주서
 62
     0
100
AcDbTrace
 10
-49.83557199447069
 20
8.301999999999959
 30
0.0
 11
-48.73490532780402
 21
8.301999999999962
 31
0.0
 12
-49.28523866113734
 22
4.999999999999961
 32
0.0
 13
-49.28523866113734
 23
4.999999999999961
 33
0.0
  0
SOLID
  5
10D
330
103
100
AcDbEntity
  8
치수문자_일반주서
 62
     0
100
AcDbTrace
 10
-48.73490532780396
 20
-8.302000000000044
 30
0.0
 11
-49.83557199447063
 21
-8.302000000000048
 31
0.0
 12
-49.28523866113731
 22
-5.000000000000046
 32
0.0
 13
-49.28523866113731
 23
-5.000000000000046
 33
0.0
  0
MTEXT
  5
10E
330
103
100
AcDbEntity
  8
치수문자_일반주서
 62
     0
100
AcDbMText
 10
-53.66023866113738
 20
15.32274999999995
 30
0.0
 40
3.5
 41
0.0
 71
     2
 72
     1
  1
\A1;%%c10
  7
SLDTEXTSTYLE0
 11
-3.552713678800498E-15
 21
1.0
 31
0.0
 73
     1
 44
1.0
  0
POINT
  5
14B
330
103
100
AcDbEntity
  8
Defpoints
 62
     0
100
AcDbPoint
 10
-39.49999999999999
 20
4.999999999999998
 30
0.0
  0
POINT
  5
14C
330
103
100
AcDbEntity
  8
Defpoints
 62
     0
100
AcDbPoint
 10
-39.49999999999999
 20
-5.000000000000011
 30
0.0
  0
POINT
  5
14D
330
103
100
AcDbEntity
  8
Defpoints
 62
     0
100
AcDbPoint
 10
-49.28523866113731
 20
-5.000000000000047
 30
0.0
  0
ENDBLK
  5
105
330
103
100
AcDbEntity
  8
0
100
AcDbBlockEnd
  0
BLOCK
  5
111
330
110
100
AcDbEntity
  8
0
100
AcDbBlockBegin
  2
_D_3
 70
     0
 10
0.0
 20
0.0
 30
0.0
  3
_D_3
  1

  0
LINE
  5
113
330
110
100
AcDbEntity
  8
치수문자_일반주서
 62
     0
370
    -2
100
AcDbLine
 10
10.0
 20
4.624652357554076
 30
0.0
 11
10.0
 21
15.40807066014172
 31
0.0
  0
LINE
  5
114
330
110
100
AcDbEntity
  8
치수문자_일반주서
 62
     0
370
    -2
100
AcDbLine
 10
70.00000000000001
 20
5.0625
 30
0.0
 11
70.00000000000001
 21
15.40807066014172
 31
0.0
  0
LINE
  5
115
330
110
100
AcDbEntity
  8
치수문자_일반주서
 62
     0
370
    -2
100
AcDbLine
 10
13.302
 20
15.40807066014172
 30
0.0
 11
66.69800000000001
 21
15.40807066014172
 31
0.0
  0
SOLID
  5
116
330
110
100
AcDbEntity
  8
치수문자_일반주서
 62
     0
100
AcDbTrace
 10
13.302
 20
15.95840399347506
 30
0.0
 11
13.302
 21
14.85773732680839
 31
0.0
 12
10.0
 22
15.40807066014172
 32
0.0
 13
10.0
 23
15.40807066014172
 33
0.0
  0
SOLID
  5
117
330
110
100
AcDbEntity
  8
치수문자_일반주서
 62
     0
100
AcDbTrace
 10
66.69800000000001
 20
14.85773732680839
 30
0.0
 11
66.69800000000001
 21
15.95840399347506
 31
0.0
 12
70.00000000000001
 22
15.40807066014172
 32
0.0
 13
70.00000000000001
 23
15.40807066014172
 33
0.0
  0
MTEXT
  5
118
330
110
100
AcDbEntity
  8
치수문자_일반주서
 62
     0
100
AcDbMText
 10
40.0
 20
19.78307066014172
 30
0.0
 40
3.5
 41
0.0
 71
     2
 72
     1
  1
\A1;60
  7
SLDTEXTSTYLE0
 73
     1
 44
1.0
  0
POINT
  5
148
330
110
100
AcDbEntity
  8
Defpoints
 62
     0
100
AcDbPoint
 10
10.0
 20
4.562152357554076
 30
0.0
  0
POINT
  5
149
330
110
100
AcDbEntity
  8
Defpoints
 62
     0
100
AcDbPoint
 10
70.00000000000001
 20
5.0
 30
0.0
  0
POINT
  5
14A
330
110
100
AcDbEntity
  8
Defpoints
 62
     0
100
AcDbPoint
 10
70.00000000000001
 20
15.40807066014172
 30
0.0
  0
ENDBLK
  5
112
330
110
100
AcDbEntity
  8
0
100
AcDbBlockEnd
  0
BLOCK
  5
11A
330
119
100
AcDbEntity
  8
0
100
AcDbBlockBegin
  2
SW_DOWELSYMBOL_0
 70
     0
 10
0.0
 20
0.0
 30
0.0
  3
SW_DOWELSYMBOL_0
  1

  0
CIRCLE
  5
11C
330
119
100
AcDbEntity
  8
해칭선
 62
     0
100
AcDbCircle
 10
0.0
 20
0.0
 30
0.0
 40
3.0
  0
HATCH
  5
11D
330
119
100
AcDbEntity
  8
0
  6
Continuous
 62
     0
370
    18
100
AcDbHatch
 10
0.0
 20
0.0
 30
0.0
210
0.0
220
0.0
230
1.0
  2
SOLID
 70
     1
 71
     0
 91
        1
 92
        0
 93
        3
 72
     2
 10
0.0
 20
0.0
 40
3.0
 50
0.0
 51
90.0
 73
     1
 72
     1
 10
0.0
 20
3.0
 11
0.0
 21
0.0
 72
     1
 10
0.0
 20
0.0
 11
3.0
 21
0.0
 97
        0
 75
     0
 76
     1
 98
        1
 10
0.0
 20
0.0
  0
HATCH
  5
11E
330
119
100
AcDbEntity
  8
0
  6
Continuous
 62
     0
370
    18
100
AcDbHatch
 10
0.0
 20
0.0
 30
0.0
210
0.0
220
0.0
230
1.0
  2
SOLID
 70
     1
 71
     0
 91
        1
 92
        0
 93
        3
 72
     2
 10
0.0
 20
0.0
 40
3.0
 50
180.0
 51
270.0000000000008
 73
     1
 72
     1
 10
0.0
 20
-3.0
 11
0.0
 21
0.0
 72
     1
 10
0.0
 20
0.0
 11
-3.0
 21
0.0
 97
        0
 75
     0
 76
     1
 98
        1
 10
0.0
 20
0.0
  0
ENDBLK
  5
11B
330
119
100
AcDbEntity
  8
0
100
AcDbBlockEnd
  0
ENDSEC
  0
SECTION
  2
ENTITIES
  0
LINE
  5
99
330
1F
100
AcDbEntity
  8
0
  6
Continuous
 62
     4
370
    25
100
AcDbLine
 10
8.499875011763761
 20
4.999999999999994
 30
0.0
 11
-39.5
 21
4.999999999999991
 31
0.0
  0
LINE
  5
9A
330
1F
100
AcDbEntity
  8
0
  6
Continuous
 62
     4
370
    25
100
AcDbLine
 10
-39.5
 20
-5.000000000000009
 30
0.0
 11
8.499875011763761
 21
-5.000000000000006
 31
0.0
  0
LINE
  5
9B
330
1F
100
AcDbEntity
  8
0
  6
Continuous
 62
     4
370
    25
100
AcDbLine
 10
-39.5
 20
4.999999999999988
 30
0.0
 11
-40.0
 21
4.499999999999987
 31
0.0
  0
LINE
  5
9C
330
1F
100
AcDbEntity
  8
0
  6
Continuous
 62
     4
370
    25
100
AcDbLine
 10
-40.0
 20
-4.500000000000006
 30
0.0
 11
-39.5
 21
-5.000000000000005
 31
0.0
  0
LINE
  5
9D
330
1F
100
AcDbEntity
  8
0
  6
Continuous
 62
     1
370
    25
100
AcDbLine
 10
68.06595831251552
 20
-5.000000000000012
 30
0.0
 11
70.00000000000001
 21
-5.000000000000012
 31
0.0
  0
LINE
  5
9E
330
1F
100
AcDbEntity
  8
0
  6
Continuous
 62
     1
370
    25
100
AcDbLine
 10
13.65197738548901
 20
-5.000000000000012
 30
0.0
 11
17.52022451910953
 21
-5.000000000000012
 31
0.0
  0
LINE
  5
9F
330
1F
100
AcDbEntity
  8
0
  6
Continuous
 62
     1
370
    25
100
AcDbLine
 10
44.72707575618918
 20
5.0
 30
0.0
 11
40.8588980958847
 21
5.0
 31
0.0
  0
LINE
  5
A0
330
1F
100
AcDbEntity
  8
0
  6
Continuous
 62
     1
370
    25
100
AcDbLine
 10
27.25541291697948
 20
-5.000000000000012
 30
0.0
 11
31.12356731575753
 21
-5.000000000000012
 31
0.0
  0
LINE
  5
A1
330
1F
100
AcDbEntity
  8
0
  6
Continuous
 62
     1
370
    25
100
AcDbLine
 10
58.33059385306058
 20
5.0
 30
0.0
 11
54.46238699096717
 21
5.0
 31
0.0
  0
LINE
  5
A2
330
1F
100
AcDbEntity
  8
0
  6
Continuous
 62
     1
370
    25
100
AcDbLine
 10
54.46238699096709
 20
-5.000000000000012
 30
0.0
 11
58.33059385306053
 21
-5.000000000000012
 31
0.0
  0
LINE
  5
A3
330
1F
100
AcDbEntity
  8
0
  6
Continuous
 62
     1
370
    25
100
AcDbLine
 10
31.12356731575757
 20
5.0
 30
0.0
 11
27.25541291697947
 21
5.0
 31
0.0
  0
LINE
  5
A4
330
1F
100
AcDbEntity
  8
0
  6
Continuous
 62
     1
370
    25
100
AcDbLine
 10
14.95196215290065
 20
-0.7469315870582717
 30
0.0
 11
14.89402430131311
 21
-0.7143549096902196
 31
0.0
  0
SPLINE
  5
A5
330
1F
100
AcDbEntity
  8
0
  6
Continuous
 62
     1
370
    25
100
AcDbSpline
210
0.0
220
0.0
230
1.0
 70
     8
 71
     3
 72
     9
 73
     5
 74
     0
 42
0.000000001
 43
0.00000001
 40
0.0
 40
0.0
 40
0.0
 40
0.0
 40
0.1777935248055614
 40
1.0
 40
1.0
 40
1.0
 40
1.0
 10
15.3034713231987
 20
-0.9435015510428818
 30
0.0
 10
15.28256428004851
 20
-0.9321355744604621
 30
0.0
 10
15.16497257825249
 20
-0.8682076187328861
 30
0.0
 10
15.04807560293628
 20
-0.8016531237700288
 30
0.0
 10
14.95196215290065
 20
-0.7469315870582718
 30
0.0
  0
LINE
  5
A6
330
1F
100
AcDbEntity
  8
0
  6
Continuous
 62
     1
370
    25
100
AcDbLine
 10
15.692130358742
 20
-1.164874019501914
 30
0.0
 11
15.58601907297347
 21
-1.113227883245095
 31
0.0
  0
LINE
  5
A7
330
1F
100
AcDbEntity
  8
0
  6
Continuous
 62
     1
370
    25
100
AcDbLine
 10
69.37491810275516
 20
-0.7519779671884761
 30
0.0
 11
69.30800522833964
 21
-0.7143549096902163
 31
0.0
  0
LINE
  5
A8
330
1F
100
AcDbEntity
  8
0
  6
Continuous
 62
     1
370
    25
100
AcDbLine
 10
56.99390026118422
 20
0.7658847216808481
 30
0.0
 11
57.08849953990375
 21
0.7143549096901759
 31
0.0
  0
LINE
  5
A9
330
1F
100
AcDbEntity
  8
0
  6
Continuous
 62
     1
370
    25
100
AcDbLine
 10
29.83806785424525
 20
0.7380130944734242
 30
0.0
 11
29.88150907639039
 21
0.7143549096901861
 31
0.0
  0
SPLINE
  5
AA
330
1F
100
AcDbEntity
  8
0
  6
Continuous
 62
     1
370
    25
100
AcDbSpline
210
0.0
220
0.0
230
1.0
 70
     8
 71
     3
 72
    12
 73
     8
 74
     0
 42
0.000000001
 43
0.00000001
 40
0.0
 40
0.0
 40
0.0
 40
0.0
 40
0.0039496296560288
 40
0.1250506348619
 40
0.2607274738578329
 40
0.587869565543146
 40
1.0
 40
1.0
 40
1.0
 40
1.0
 10
42.93280032713131
 20
-1.184691006099568
 30
0.0
 10
42.93132574031052
 20
-1.183995160571119
 30
0.0
 10
42.88463832043641
 20
-1.161963746824366
 30
0.0
 10
42.79159147182406
 20
-1.114004179150511
 30
0.0
 10
42.60152598264968
 20
-1.011555834960725
 30
0.0
 10
42.35857683567242
 20
-0.8662950252010447
 30
0.0
 10
42.19320591926122
 20
-0.7687399928971583
 30
0.0
 10
42.1010147648263
 20
-0.7143549096902095
 30
0.0
  0
LINE
  5
AB
330
1F
100
AcDbEntity
  8
0
  6
Continuous
 62
     1
370
    25
100
AcDbLine
 10
55.77048563525869
 20
-0.7507958335144181
 30
0.0
 11
55.70450999658305
 21
-0.7143549096902156
 31
0.0
  0
LINE
  5
AC
330
1F
100
AcDbEntity
  8
0
  6
Continuous
 62
     1
370
    25
100
AcDbLine
 10
55.8983798639759
 20
-0.8214368146370379
 30
0.0
 11
55.83677803142911
 21
-0.7874117148830934
 31
0.0
  0
SPLINE
  5
AD
330
1F
100
AcDbEntity
  8
0
  6
Continuous
 62
     1
370
    25
100
AcDbSpline
210
0.0
220
0.0
230
1.0
 70
     8
 71
     3
 72
     9
 73
     5
 74
     0
 42
0.000000001
 43
0.00000001
 40
0.0
 40
0.0
 40
0.0
 40
0.0
 40
0.315110662337015
 40
1.0
 40
1.0
 40
1.0
 40
1.0
 10
42.91865823990631
 20
1.033411969106323
 30
0.0
 10
42.98559809486331
 20
0.997215156956774
 30
0.0
 10
43.19803094134504
 20
0.8823449971180167
 30
0.0
 10
43.36835273066811
 20
0.7826410678018983
 30
0.0
 10
43.48500430814715
 20
0.7143549096901848
 30
0.0
  0
LINE
  5
AE
330
1F
100
AcDbEntity
  8
0
  6
Continuous
 62
     1
370
    25
100
AcDbLine
 10
40.8588980958847
 20
-5.000000000000012
 30
0.0
 11
44.72707575618915
 21
-5.000000000000012
 31
0.0
  0
LINE
  5
AF
330
1F
100
AcDbEntity
  8
0
  6
Continuous
 62
     1
370
    25
100
AcDbLine
 10
17.52022451910953
 20
5.0
 30
0.0
 11
13.65197738548907
 21
5.0
 31
0.0
  0
LINE
  5
B0
330
1F
100
AcDbEntity
  8
0
  6
Continuous
 62
     1
370
    25
100
AcDbLine
 10
70.00000000000001
 20
5.0
 30
0.0
 11
68.06595831251555
 21
5.0
 31
0.0
  0
LINE
  5
B1
330
1F
100
AcDbEntity
  8
0
  6
Continuous
 62
     4
370
    25
100
AcDbLine
 10
9.996560775501909
 20
4.561338235954791
 30
0.0
 11
10.0000000000001
 21
4.562152357554086
 31
0.0
  0
SPLINE
  5
B2
330
1F
100
AcDbEntity
  8
0
  6
Continuous
 62
     4
370
    25
100
AcDbSpline
210
0.0
220
0.0
230
1.0
 70
     8
 71
     3
 72
    20
 73
    16
 74
     0
 42
0.000000001
 43
0.00000001
 40
0.0
 40
0.0
 40
0.0
 40
0.0
 40
0.125
 40
0.125
 40
0.2500000000000001
 40
0.2500000000000001
 40
0.3750000000000001
 40
0.3750000000000001
 40
0.5000000000000001
 40
0.5000000000000001
 40
0.6250000000000001
 40
0.6250000000000001
 40
0.7500000000000002
 40
0.7500000000000002
 40
1.0
 40
1.0
 40
1.0
 40
1.0
 10
8.499875011763761
 20
4.854883927279003
 30
0.0
 10
8.499875011763761
 20
4.833550824420423
 30
0.0
 10
8.509813991881881
 20
4.810300336350818
 30
0.0
 10
8.551071573441407
 20
4.760533305995652
 30
0.0
 10
8.582835827286171
 20
4.73393125002807
 30
0.0
 10
8.665771859788626
 20
4.681730281110759
 30
0.0
 10
8.718170268084226
 20
4.655364190205911
 30
0.0
 10
8.839517718478584
 20
4.606911490982235
 30
0.0
 10
8.908049791567564
 20
4.584815680054557
 30
0.0
 10
9.060541272774417
 20
4.547017552123519
 30
0.0
 10
9.141287381026375
 20
4.532105001035677
 30
0.0
 10
9.311557594982906
 20
4.511293312683356
 30
0.0
 10
9.400306248183753
 20
4.505656952083543
 30
0.0
 10
9.66465242297405
 20
4.504335436681845
 30
0.0
 10
9.841899791127398
 20
4.52471057298825
 30
0.0
 10
9.99656077550181
 20
4.561338235954779
 30
0.0
  0
LINE
  5
B3
330
1F
100
AcDbEntity
  8
0
  6
Continuous
 62
     4
370
    25
100
AcDbLine
 10
8.499875011763761
 20
4.999999999999994
 30
0.0
 11
8.499875011763761
 21
4.591974037165722
 31
0.0
  0
SPLINE
  5
B4
330
1F
100
AcDbEntity
  8
0
  6
Continuous
 62
     4
370
    25
100
AcDbSpline
210
0.0
220
0.0
230
1.0
 70
     8
 71
     3
 72
    14
 73
    10
 74
     0
 42
0.000000001
 43
0.00000001
 40
0.0
 40
0.0
 40
0.0
 40
0.0
 40
0.2500000000000001
 40
0.2500000000000001
 40
0.5
 40
0.5
 40
0.75
 40
0.75
 40
1.0
 40
1.0
 40
1.0
 40
1.0
 10
9.004400619231115
 20
4.161817977065569
 30
0.0
 10
8.925413951744181
 20
4.187047632828407
 30
0.0
 10
8.854434546810182
 20
4.217136089387637
 30
0.0
 10
8.72802103581746
 20
4.285129224746057
 30
0.0
 10
8.673567336428087
 20
4.322768681175995
 30
0.0
 10
8.58675968821817
 20
4.399840011193684
 30
0.0
 10
8.553540930989374
 20
4.440137473703381
 30
0.0
 10
8.510437121139473
 20
4.51779540284529
 30
0.0
 10
8.499875011763757
 20
4.555941324771908
 30
0.0
 10
8.499875011763757
 20
4.591974037165722
 30
0.0
  0
SPLINE
  5
B5
330
1F
100
AcDbEntity
  8
0
  6
Continuous
 62
     4
370
    25
100
AcDbSpline
210
0.0
220
0.0
230
1.0
 70
     8
 71
     3
 72
     8
 73
     4
 74
     0
 42
0.000000001
 43
0.00000001
 40
0.0
 40
0.0
 40
0.0
 40
0.0
 40
1.0
 40
1.0
 40
1.0
 40
1.0
 10
10.0000000000001
 20
3.816056872496776
 30
0.0
 10
9.66828927446157
 20
3.939979829308534
 30
0.0
 10
9.337709592398765
 20
4.055353545494558
 30
0.0
 10
9.004400619231118
 20
4.161817977065569
 30
0.0
  0
LINE
  5
B6
330
1F
100
AcDbEntity
  8
0
  6
Continuous
 62
     4
370
    25
100
AcDbLine
 10
10.0
 20
3.816056872496812
 30
0.0
 11
10.0
 21
2.046158807733076
 31
0.0
  0
LINE
  5
B7
330
1F
100
AcDbEntity
  8
0
  6
Continuous
 62
     4
370
    25
100
AcDbLine
 10
9.996560775501909
 20
2.047973021603692
 30
0.0
 11
10.0000000000001
 21
2.046158807733018
 31
0.0
  0
SPLINE
  5
B8
330
1F
100
AcDbEntity
  8
0
  6
Continuous
 62
     4
370
    25
100
AcDbSpline
210
0.0
220
0.0
230
1.0
 70
     8
 71
     3
 72
    20
 73
    16
 74
     0
 42
0.000000001
 43
0.00000001
 40
0.0
 40
0.0
 40
0.0
 40
0.0
 40
0.125
 40
0.125
 40
0.25
 40
0.25
 40
0.375
 40
0.375
 40
0.5
 40
0.5
 40
0.625
 40
0.625
 40
0.75
 40
0.75
 40
1.0
 40
1.0
 40
1.0
 40
1.0
 10
8.499875011763761
 20
1.195868743904566
 30
0.0
 10
8.499875011763761
 20
1.282475019647625
 30
0.0
 10
8.509813991881881
 20
1.366887971782747
 30
0.0
 10
8.551071573441407
 20
1.531239594513956
 30
0.0
 10
8.582835827286171
 20
1.611179527556651
 30
0.0
 10
8.665771859788626
 20
1.757101626241516
 30
0.0
 10
8.718170268084226
 20
1.825298465136848
 30
0.0
 10
8.839517718478584
 20
1.944349954236201
 30
0.0
 10
8.908049791567564
 20
1.995398603743049
 30
0.0
 10
9.060541272774417
 20
2.080091774074998
 30
0.0
 10
9.141287381026375
 20
2.112017675096543
 30
0.0
 10
9.311557594982906
 20
2.156113876229929
 30
0.0
 10
9.400306248183753
 20
2.167730717047275
 30
0.0
 10
9.66465242297405
 20
2.170476076764932
 30
0.0
 10
9.841899791127398
 20
2.129551810884899
 30
0.0
 10
9.99656077550181
 20
2.04797302160375
 30
0.0
  0
SPLINE
  5
B9
330
1F
100
AcDbEntity
  8
0
  6
Continuous
 62
     4
370
    25
100
AcDbSpline
210
0.0
220
0.0
230
1.0
 70
     8
 71
     3
 72
    14
 73
    10
 74
     0
 42
0.000000001
 43
0.00000001
 40
0.0
 40
0.0
 40
0.0
 40
0.0
 40
0.25
 40
0.25
 40
0.5
 40
0.5
 40
0.75
 40
0.75
 40
1.0
 40
1.0
 40
1.0
 40
1.0
 10
9.004400619231115
 20
-2.771149784071956
 30
0.0
 10
8.925413951744181
 20
-2.733258928979068
 30
0.0
 10
8.854434546810182
 20
-2.68699347171539
 30
0.0
 10
8.72802103581746
 20
-2.577176408530083
 30
0.0
 10
8.673567336428087
 20
-2.513937176118594
 30
0.0
 10
8.58675968821817
 20
-2.376471559334625
 30
0.0
 10
8.553540930989374
 20
-2.300611001194702
 30
0.0
 10
8.510437121139473
 20
-2.144098053315917
 30
0.0
 10
8.499875011763757
 20
-2.061963178752587
 30
0.0
 10
8.499875011763757
 20
-1.978326171791695
 30
0.0
  0
SPLINE
  5
BA
330
1F
100
AcDbEntity
  8
0
  6
Continuous
 62
     4
370
    25
100
AcDbSpline
210
0.0
220
0.0
230
1.0
 70
     8
 71
     3
 72
     8
 73
     4
 74
     0
 42
0.000000001
 43
0.00000001
 40
0.0
 40
0.0
 40
0.0
 40
0.0
 40
1.0
 40
1.0
 40
1.0
 40
1.0
 10
10.0000000000001
 20
-3.230744487863181
 30
0.0
 10
9.66828927446157
 20
-3.084370470116451
 30
0.0
 10
9.337709592398765
 20
-2.931042110274268
 30
0.0
 10
9.004400619231118
 20
-2.771149784071956
 30
0.0
  0
LINE
  5
BB
330
1F
100
AcDbEntity
  8
0
  6
Continuous
 62
     4
370
    25
100
AcDbLine
 10
10.0
 20
-3.230744487863138
 30
0.0
 11
10.0
 21
-4.562152357554089
 31
0.0
  0
LINE
  5
BC
330
1F
100
AcDbEntity
  8
0
  6
Continuous
 62
     4
370
    25
100
AcDbLine
 10
9.996560775501909
 20
-4.561338235954803
 30
0.0
 11
10.0000000000001
 21
-4.562152357554099
 31
0.0
  0
SPLINE
  5
BD
330
1F
100
AcDbEntity
  8
0
  6
Continuous
 62
     4
370
    25
100
AcDbSpline
210
0.0
220
0.0
230
1.0
 70
     8
 71
     3
 72
    20
 73
    16
 74
     0
 42
0.000000001
 43
0.00000001
 40
0.0
 40
0.0
 40
0.0
 40
0.0
 40
0.125
 40
0.125
 40
0.25
 40
0.25
 40
0.375
 40
0.375
 40
0.5
 40
0.5
 40
0.625
 40
0.625
 40
0.75
 40
0.75
 40
1.0
 40
1.0
 40
1.0
 40
1.0
 10
8.499875011763761
 20
-4.854883927279015
 30
0.0
 10
8.499875011763761
 20
-4.833550824420437
 30
0.0
 10
8.509813991881881
 20
-4.810300336350831
 30
0.0
 10
8.551071573441407
 20
-4.760533305995663
 30
0.0
 10
8.582835827286171
 20
-4.733931250028083
 30
0.0
 10
8.665771859788626
 20
-4.681730281110769
 30
0.0
 10
8.71817026808423
 20
-4.655364190205924
 30
0.0
 10
8.839517718478588
 20
-4.606911490982249
 30
0.0
 10
8.908049791567564
 20
-4.58481568005457
 30
0.0
 10
9.060541272774417
 20
-4.547017552123533
 30
0.0
 10
9.141287381026379
 20
-4.532105001035688
 30
0.0
 10
9.311557594982906
 20
-4.511293312683367
 30
0.0
 10
9.400306248183753
 20
-4.505656952083556
 30
0.0
 10
9.66465242297405
 20
-4.504335436681856
 30
0.0
 10
9.841899791127398
 20
-4.524710572988264
 30
0.0
 10
9.99656077550181
 20
-4.561338235954792
 30
0.0
  0
LINE
  5
BE
330
1F
100
AcDbEntity
  8
0
  6
Continuous
 62
     4
370
    25
100
AcDbLine
 10
8.499875011763761
 20
-4.854883927279015
 30
0.0
 11
8.499875011763761
 21
-5.000000000000006
 31
0.0
  0
LINE
  5
BF
330
1F
100
AcDbEntity
  8
0
  6
Continuous
 62
     4
370
    25
100
AcDbLine
 10
-39.5
 20
4.999999999999988
 30
0.0
 11
-39.5
 21
-5.000000000000005
 31
0.0
  0
LINE
  5
C0
330
1F
100
AcDbEntity
  8
0
  6
Continuous
 62
     4
370
    25
100
AcDbLine
 10
8.499875011763761
 20
1.195868743904566
 30
0.0
 11
8.499875011763761
 21
-1.978326171791695
 31
0.0
  0
LINE
  5
C1
330
1F
100
AcDbEntity
  8
0
  6
Continuous
 62
     4
370
    25
100
AcDbLine
 10
-40.0
 20
4.499999999999988
 30
0.0
 11
-40.0
 21
-4.500000000000008
 31
0.0
  0
SPLINE
  5
C2
330
1F
100
AcDbEntity
  8
0
  6
Continuous
 62
     4
370
    25
100
AcDbSpline
210
0.0
220
0.0
230
1.0
 70
    24
 71
     3
 72
    24
 73
    20
 74
     0
 42
0.000000001
 43
0.00000001
 40
0.0
 40
0.0
 40
0.0
 40
0.0
 40
0.0624999999999999
 40
0.0624999999999999
 40
0.1249999999999999
 40
0.1249999999999999
 40
0.2499999999999998
 40
0.2499999999999998
 40
0.3749999999999999
 40
0.3749999999999999
 40
0.4999999999999999
 40
0.4999999999999999
 40
0.6249999999999999
 40
0.6249999999999999
 40
0.75
 40
0.75
 40
0.875
 40
0.875
 40
1.0
 40
1.0
 40
1.0
 40
1.0
 10
10.0
 20
2.04615880773308
 30
0.0
 10
10.0
 20
1.999071022509275
 30
0.0
 10
10.0
 20
1.950832183306038
 30
0.0
 10
10.0
 20
1.853151173261051
 30
0.0
 10
10.0
 20
1.801650622361277
 30
0.0
 10
10.0
 20
1.63216619145452
 30
0.0
 10
10.0
 20
1.501489943877069
 30
0.0
 10
10.0
 20
1.19739089126527
 30
0.0
 10
10.0
 20
1.023858647123706
 30
0.0
 10
10.0
 20
0.6291041739125672
 30
0.0
 10
10.0
 20
0.407723919575519
 30
0.0
 10
10.0
 20
-0.0810540693955533
 30
0.0
 10
10.0
 20
-0.3485919649939043
 30
0.0
 10
10.0
 20
-0.9165799009193555
 30
0.0
 10
10.0
 20
-1.217008906209587
 30
0.0
 10
10.0
 20
-1.823850536273257
 30
0.0
 10
10.0
 20
-2.129965727606161
 30
0.0
 10
10.0
 20
-2.711907530696331
 30
0.0
 10
10.0
 20
-2.987271849739279
 30
0.0
 10
10.0
 20
-3.230744487863134
 30
0.0
  0
SPLINE
  5
C3
330
1F
100
AcDbEntity
  8
0
  6
Continuous
 62
     4
370
    25
100
AcDbSpline
210
0.0
220
0.0
230
1.0
 70
    24
 71
     3
 72
     9
 73
     5
 74
     0
 42
0.000000001
 43
0.00000001
 40
0.0
 40
0.0
 40
0.0
 40
0.0
 40
0.6546668892665044
 40
1.0
 40
1.0
 40
1.0
 40
1.0
 10
10.0
 20
4.562152357554076
 30
0.0
 10
10.0
 20
4.4013622598643
 30
0.0
 10
10.0
 20
4.155756287840989
 30
0.0
 10
10.0
 20
3.959554351355201
 30
0.0
 10
10.0
 20
3.891799326296627
 30
0.0
  0
SPLINE
  5
C4
330
1F
100
AcDbEntity
  8
0
  6
Continuous
 62
     1
370
    25
100
AcDbSpline
210
0.0
220
0.0
230
1.0
 70
     8
 71
     3
 72
     9
 73
     5
 74
     0
 42
0.000000001
 43
0.00000001
 40
0.0
 40
0.0
 40
0.0
 40
0.0
 40
0.5427203742731543
 40
1.0
 40
1.0
 40
1.0
 40
1.0
 10
10.0000000000001
 20
-4.5621523575541
 30
0.0
 10
10.66066667725331
 20
-4.700388495630787
 30
0.0
 10
11.87799093587916
 20
-4.955098185241797
 30
0.0
 10
13.09531835766689
 20
-4.974021413307105
 30
0.0
 10
13.65197738548901
 20
-4.98267461995435
 30
0.0
  0
SPLINE
  5
C5
330
1F
100
AcDbEntity
  8
0
  6
Continuous
 62
     1
370
    25
100
AcDbSpline
210
0.0
220
0.0
230
1.0
 70
     8
 71
     3
 72
    24
 73
    20
 74
     0
 42
0.000000001
 43
0.00000001
 40
0.0
 40
0.0
 40
0.0
 40
0.0
 40
0.0416394292890114
 40
0.1015594295780746
 40
0.1614795808238554
 40
0.2213998881525449
 40
0.2813203566857318
 40
0.3412409915402548
 40
0.4011617978280518
 40
0.4610827806560129
 40
0.5210039451258306
 40
0.5809252963338496
 40
0.6419638889537347
 40
0.7030025667936283
 40
0.7640413283040177
 40
0.8250801719342731
 40
0.8861415953301699
 40
0.9479348713267245
 40
1.0
 40
1.0
 40
1.0
 40
1.0
 10
35.99178889454877
 20
4.208716125461681
 30
0.0
 10
36.43696816018757
 20
4.344863531224546
 30
0.0
 10
37.5227696000789
 20
4.676929870843184
 30
0.0
 10
39.24919589834236
 20
4.949614744103953
 30
0.0
 10
41.17106935085055
 20
5.039214992251781
 30
0.0
 10
43.09294884047539
 20
4.873946656965925
 30
0.0
 10
45.01483453547871
 20
4.471699949391503
 30
0.0
 10
46.93672659126968
 20
3.849580695767953
 30
0.0
 10
48.85862539883354
 20
3.038802725674754
 30
0.0
 10
50.7805304185209
 20
2.078943906362182
 30
0.0
 10
52.70244459644416
 20
1.017126350541422
 30
0.0
 10
54.63630058830976
 20
-0.1014745898510428
 30
0.0
 10
56.58213638776602
 20
-1.222301494355026
 30
0.0
 10
58.53991104781944
 20
-2.287917101862439
 30
0.0
 10
60.49769071076114
 20
-3.2366039792012
 30
0.0
 10
62.45571541203199
 20
-4.022563084781191
 30
0.0
 10
64.42180036687888
 20
-4.59908290116988
 30
0.0
 10
66.29197293406924
 20
-4.947839209516621
 30
0.0
 10
67.50929962081374
 20
-4.97174362005166
 30
0.0
 10
68.06595831251553
 20
-4.982674619954343
 30
0.0
  0
SPLINE
  5
C6
330
1F
100
AcDbEntity
  8
0
  6
Continuous
 62
     1
370
    25
100
AcDbSpline
210
0.0
220
0.0
230
1.0
 70
     8
 71
     3
 72
    21
 73
    17
 74
     0
 42
0.000000001
 43
0.00000001
 40
0.0
 40
0.0
 40
0.0
 40
0.0
 40
0.0760488174578891
 40
0.1520973464488476
 40
0.2281455933797094
 40
0.3041935646655803
 40
0.3802412667296515
 40
0.4562887060030166
 40
0.5323358889244881
 40
0.6083828219404069
 40
0.68442951150446
 40
0.7604759640774936
 40
0.8365221861273231
 40
0.9125681841285499
 40
0.9886139645623703
 40
1.0
 40
1.0
 40
1.0
 40
1.0
 10
70.00000000000001
 20
-4.875828491775116
 30
0.0
 10
69.35933852550045
 20
-4.77071077920391
 30
0.0
 10
68.07801800664629
 20
-4.56047575279201
 30
0.0
 10
66.15604267240217
 20
-3.957365219578083
 30
0.0
 10
64.23407578219714
 20
-3.177327872607292
 30
0.0
 10
62.3121172770346
 20
-2.236853334066629
 30
0.0
 10
60.39016692605861
 20
-1.18789997587965
 30
0.0
 10
58.46822454419989
 20
-0.0803638071832838
 30
0.0
 10
56.54628993360267
 20
1.031056012216618
 30
0.0
 10
54.62436290030745
 20
2.091808611845574
 30
0.0
 10
52.7024432461283
 20
3.050405122819212
 30
0.0
 10
50.78053078449577
 20
3.857722538115918
 30
0.0
 10
48.85862528524409
 20
4.482060416434642
 30
0.0
 10
46.93672667965374
 20
4.863327329720658
 30
0.0
 10
45.55954416876909
 20
5.027771209663013
 30
0.0
 10
44.82299481049746
 20
4.98936687779165
 30
0.0
 10
44.72707575618919
 20
4.984365573869415
 30
0.0
  0
SPLINE
  5
C7
330
1F
100
AcDbEntity
  8
0
  6
Continuous
 62
     1
370
    25
100
AcDbSpline
210
0.0
220
0.0
230
1.0
 70
     8
 71
     3
 72
    14
 73
    10
 74
     0
 42
0.000000001
 43
0.00000001
 40
0.0
 40
0.0
 40
0.0
 40
0.0
 40
0.046866566915985
 40
0.2141969077196013
 40
0.3815113172114979
 40
0.5488650258977792
 40
0.7040857112605697
 40
0.8593058078432034
 40
1.0
 40
1.0
 40
1.0
 40
1.0
 10
22.38250909202574
 20
-4.208304721245987
 30
0.0
 10
22.18905593237903
 20
-4.274717538899099
 30
0.0
 10
21.30490607221984
 20
-4.578247776130755
 30
0.0
 10
19.73015614126673
 20
-4.873120367964592
 30
0.0
 10
17.65810759505374
 20
-5.050198009530413
 30
0.0
 10
15.63608817054411
 20
-4.925344774048201
 30
0.0
 10
13.66404335700938
 20
-4.548101831544632
 30
0.0
 10
11.80199810510744
 20
-3.985053018187782
 30
0.0
 10
10.58068195822891
 20
-3.473815417436986
 30
0.0
 10
10.0
 20
-3.230744487864035
 30
0.0
  0
LINE
  5
C8
330
1F
100
AcDbEntity
  8
0
  6
Continuous
 62
     1
370
    25
100
AcDbLine
 10
70.00000000000001
 20
-5.000000000000018
 30
0.0
 11
70.00000000000001
 21
-4.875828491776319
 31
0.0
  0
SPLINE
  5
C9
330
1F
100
AcDbEntity
  8
0
  6
Continuous
 62
     1
370
    25
100
AcDbSpline
210
0.0
220
0.0
230
1.0
 70
     8
 71
     3
 72
    16
 73
    12
 74
     0
 42
0.000000001
 43
0.00000001
 40
0.0
 40
0.0
 40
0.0
 40
0.0
 40
0.114862365245665
 40
0.2297257266411399
 40
0.3445900286418417
 40
0.459455215613034
 40
0.5743212318351041
 40
0.6891880215088636
 40
0.804055528760862
 40
0.9154341213402363
 40
1.0
 40
1.0
 40
1.0
 40
1.0
 10
10.0000000000001
 20
2.046158807733019
 30
0.0
 10
10.66066674567876
 20
1.687763465750413
 30
0.0
 10
11.98200596670263
 20
0.970969673583039
 30
0.0
 10
13.96402743182301
 20
-0.1834608630107902
 30
0.0
 10
15.9460682935103
 20
-1.320623145873377
 30
0.0
 10
17.92812685516779
 20
-2.391128211538896
 30
0.0
 10
19.91020514550796
 20
-3.335781241202604
 30
0.0
 10
21.89228982702701
 20
-4.108851009093603
 30
0.0
 10
23.85435343055067
 20
-4.653659800252108
 30
0.0
 10
25.64201069493227
 20
-4.961947701028396
 30
0.0
 10
26.76901811340732
 20
-4.972837989656026
 30
0.0
 10
27.25541291697948
 20
-4.977538029523597
 30
0.0
  0
SPLINE
  5
CA
330
1F
100
AcDbEntity
  8
0
  6
Continuous
 62
     1
370
    25
100
AcDbSpline
210
0.0
220
0.0
230
1.0
 70
     8
 71
     3
 72
    18
 73
    14
 74
     0
 42
0.000000001
 43
0.00000001
 40
0.0
 40
0.0
 40
0.0
 40
0.0
 40
0.0594985801045289
 40
0.155953105378491
 40
0.2524079312431495
 40
0.3506611699215685
 40
0.4489145457778197
 40
0.547168056317668
 40
0.6454216990450786
 40
0.7437116882052571
 40
0.8431797334962123
 40
0.9426486414289408
 40
1.0
 40
1.0
 40
1.0
 40
1.0
 10
49.59498599567957
 20
4.206176752495622
 30
0.0
 10
49.99016691517544
 20
4.329861253322549
 30
0.0
 10
51.02598476954167
 20
4.654053561059307
 30
0.0
 10
52.7024446436204
 20
4.931965714520535
 30
0.0
 10
54.63630057375965
 20
5.042488512110331
 30
0.0
 10
56.58213639798038
 20
4.891978389807926
 30
0.0
 10
58.53991102166406
 20
4.494036468580425
 30
0.0
 10
60.49769080516844
 20
3.866727124733316
 30
0.0
 10
62.45571506050265
 20
3.042772434804645
 30
0.0
 10
64.42180168576186
 20
2.059627770369122
 30
0.0
 10
66.39598312109901
 20
0.9666933760745068
 30
0.0
 10
68.09827334499455
 20
-0.0217208713576115
 30
0.0
 10
69.1398419181376
 20
-0.6176347825376763
 30
0.0
 10
69.52075807168356
 20
-0.8355688108333419
 30
0.0
  0
SPLINE
  5
CB
330
1F
100
AcDbEntity
  8
0
  6
Continuous
 62
     1
370
    25
100
AcDbSpline
210
0.0
220
0.0
230
1.0
 70
     8
 71
     3
 72
    14
 73
    10
 74
     0
 42
0.000000001
 43
0.00000001
 40
0.0
 40
0.0
 40
0.0
 40
0.0
 40
0.1647025140770356
 40
0.3294044034076216
 40
0.4941056818673408
 40
0.6588063633496906
 40
0.8235064617656791
 40
0.98820599104343
 40
1.0
 40
1.0
 40
1.0
 40
1.0
 10
70.00000000000001
 20
1.107382733648238
 30
0.0
 10
69.3593385256395
 20
1.462765395624445
 30
0.0
 10
68.07801800706348
 20
2.173529371546091
 30
0.0
 10
66.15604267073331
 20
3.118992715531164
 30
0.0
 10
64.23407578845533
 20
3.913474924978141
 30
0.0
 10
62.31211725367072
 20
4.522097382822695
 30
0.0
 10
60.3901670132555
 20
4.882584372026389
 30
0.0
 10
59.06299334969545
 20
5.034699936907773
 30
0.0
 10
58.37647010112887
 20
4.994526131902684
 30
0.0
 10
58.33059385306058
 20
4.991841556474091
 30
0.0
  0
SPLINE
  5
CC
330
1F
100
AcDbEntity
  8
0
  6
Continuous
 62
     1
370
    25
100
AcDbSpline
210
0.0
220
0.0
230
1.0
 70
     8
 71
     3
 72
    21
 73
    17
 74
     0
 42
0.000000001
 43
0.00000001
 40
0.0
 40
0.0
 40
0.0
 40
0.0
 40
0.0225584708944811
 40
0.0965007947881437
 40
0.1704429514074381
 40
0.2443849470990679
 40
0.3183267882144888
 40
0.3922684811097222
 40
0.4662100321451676
 40
0.5459316592397477
 40
0.6256470564446303
 40
0.7053548640466014
 40
0.785081393602255
 40
0.8590278071975684
 40
0.9329739403007496
 40
1.0
 40
1.0
 40
1.0
 40
1.0
 10
35.99178889454877
 20
-4.20871612546169
 30
0.0
 10
35.79634751979593
 20
-4.27501119872244
 30
0.0
 10
34.96028695140206
 20
-4.55860875682491
 30
0.0
 10
33.48360947739029
 20
-4.845732226045859
 30
0.0
 10
31.5617583242916
 20
-5.037231624634057
 30
0.0
 10
29.63991071996384
 20
-4.966814307072418
 30
0.0
 10
27.71807364080842
 20
-4.656784741369232
 30
0.0
 10
25.79621983549275
 20
-4.11728886560802
 30
0.0
 10
23.82437349570881
 20
-3.356865021818808
 30
0.0
 10
21.80218252327082
 20
-2.395930644196922
 30
0.0
 10
19.73015917474239
 20
-1.274622244259845
 30
0.0
 10
17.65810678002579
 20
-0.0809185531186191
 30
0.0
 10
15.63608837137342
 20
1.089754881358343
 30
0.0
 10
13.66404330499706
 20
2.168979160390609
 30
0.0
 10
11.80199811670079
 20
3.097519297642604
 30
0.0
 10
10.58068196196479
 20
3.584512896482728
 30
0.0
 10
10.0
 20
3.816056872497607
 30
0.0
  0
LINE
  5
CD
330
1F
100
AcDbEntity
  8
0
  6
Continuous
 62
     1
370
    25
100
AcDbLine
 10
70.00000000000001
 20
-0.50000000000002
 30
0.0
 11
70.00000000000001
 21
1.107382733648333
 31
0.0
  0
LINE
  5
CE
330
1F
100
AcDbEntity
  8
0
  6
Continuous
 62
     1
370
    25
100
AcDbLine
 10
70.00000000000001
 20
-0.5000000000000195
 30
0.0
 11
69.52075807168356
 21
-0.835568810833353
 31
0.0
  0
SPLINE
  5
CF
330
1F
100
AcDbEntity
  8
0
  6
Continuous
 62
     1
370
    25
100
AcDbSpline
210
0.0
220
0.0
230
1.0
 70
     8
 71
     3
 72
    24
 73
    20
 74
     0
 42
0.000000001
 43
0.00000001
 40
0.0
 40
0.0
 40
0.0
 40
0.0
 40
0.0465039902327886
 40
0.1064120159852459
 40
0.1663201566736182
 40
0.2262284174511513
 40
0.2861368034675436
 40
0.3460453198687945
 40
0.4059539717970529
 40
0.4658627643904673
 40
0.5257717027830345
 40
0.5856807921044512
 40
0.6455900374799618
 40
0.7054994440302098
 40
0.7654090168710891
 40
0.8253187611135939
 40
0.8852286818636715
 40
0.9451387842220726
 40
1.0
 40
1.0
 40
1.0
 40
1.0
 10
22.38250909202567
 20
4.208304721245977
 30
0.0
 10
22.87981029024326
 20
4.357809500488337
 30
0.0
 10
24.01775184728625
 20
4.699911433655177
 30
0.0
 10
25.79622723028581
 20
4.965477967234403
 30
0.0
 10
27.71807166007654
 20
5.035174420485087
 30
0.0
 10
29.63991124807809
 20
4.850885071104832
 30
0.0
 10
31.56175819257228
 20
4.43056907862779
 30
0.0
 10
33.48360947615169
 20
3.792449753114303
 30
0.0
 10
35.40546615826003
 20
2.968463899216909
 30
0.0
 10
37.3273282057423
 20
1.998851245981166
 30
0.0
 10
39.24919587801183
 20
0.9312150549154433
 30
0.0
 10
41.17106935581168
 20
-0.1821046738396247
 30
0.0
 10
43.0929488409614
 20
-1.286463784942533
 30
0.0
 10
45.01483452857352
 20
-2.327839515054626
 30
0.0
 10
46.93672661840453
 20
-3.254632398565531
 30
0.0
 10
48.85862529719891
 20
-4.023342190572795
 30
0.0
 10
50.78053079792612
 20
-4.588968343598382
 30
0.0
 10
52.64845186230416
 20
-4.940833941537455
 30
0.0
 10
53.87573840296073
 20
-4.974456431384743
 30
0.0
 10
54.46238699096709
 20
-4.990528135539192
 30
0.0
  0
SPLINE
  5
D0
330
1F
100
AcDbEntity
  8
0
  6
Continuous
 62
     1
370
    25
100
AcDbSpline
210
0.0
220
0.0
230
1.0
 70
     8
 71
     3
 72
    25
 73
    21
 74
     0
 42
0.000000001
 43
0.00000001
 40
0.0
 40
0.0
 40
0.0
 40
0.0
 40
0.0276109432833244
 40
0.0875327699408415
 40
0.1474543895322842
 40
0.2073758071311181
 40
0.2672970278167409
 40
0.3272180566743386
 40
0.3871388987947385
 40
0.447059559274259
 40
0.5069800432145657
 40
0.5669003557225205
 40
0.6268205019100339
 40
0.6867404868939166
 40
0.7466603157957301
 40
0.806579993741639
 40
0.8664995258622578
 40
0.9264189172925046
 40
0.9863381731714486
 40
1.0
 40
1.0
 40
1.0
 40
1.0
 10
63.19771737929536
 20
-4.205083370692753
 30
0.0
 10
62.90251663551116
 20
-4.301498918760151
 30
0.0
 10
61.96666527661779
 20
-4.607157436149555
 30
0.0
 10
60.3901669744463
 20
-4.892013967800772
 30
0.0
 10
58.46822453121305
 20
-5.042511572019732
 30
0.0
 10
56.54628993716268
 20
-4.934126625151828
 30
0.0
 10
54.62436289905425
 20
-4.586839105947463
 30
0.0
 10
52.70244324758092
 20
-4.013754222728156
 30
0.0
 10
50.78053077993852
 20
-3.244033014616054
 30
0.0
 10
48.85862530202046
 20
-2.315146591074025
 30
0.0
 10
46.93672661710586
 20
-1.272726645982082
 30
0.0
 10
45.01483452894658
 20
-0.1678892017576836
 30
0.0
 10
43.09294884076771
 20
0.9452081894573199
 30
0.0
 10
41.17106935621321
 20
2.011841502764636
 30
0.0
 10
39.24919587659932
 20
2.980193013302336
 30
0.0
 10
37.32732821099076
 20
3.800918567556737
 30
0.0
 10
35.40546613867873
 20
4.440675251812177
 30
0.0
 10
33.4836095492281
 20
4.842300428949154
 30
0.0
 10
32.0563104690449
 20
5.020564332397326
 30
0.0
 10
31.26963048012811
 20
4.984978251236331
 30
0.0
 10
31.12356731575756
 20
4.978370970391321
 30
0.0
  0
SPLINE
  5
D1
330
1F
100
AcDbEntity
  8
0
  6
Continuous
 62
     4
370
    25
100
AcDbSpline
210
0.0
220
0.0
230
1.0
 70
    24
 71
     3
 72
    24
 73
    20
 74
     0
 42
0.000000001
 43
0.00000001
 40
0.0
 40
0.0
 40
0.0
 40
0.0
 40
0.0624999999999998
 40
0.0624999999999998
 40
0.1249999999999997
 40
0.1249999999999997
 40
0.2499999999999997
 40
0.2499999999999997
 40
0.3749999999999996
 40
0.3749999999999996
 40
0.4999999999999997
 40
0.4999999999999997
 40
0.6249999999999998
 40
0.6249999999999998
 40
0.7499999999999998
 40
0.7499999999999998
 40
0.8749999999999999
 40
0.8749999999999999
 40
1.0
 40
1.0
 40
1.0
 40
1.0
 10
10.0
 20
2.046158807733081
 30
0.0
 10
10.0
 20
1.999071022509269
 30
0.0
 10
10.0
 20
1.950832183306024
 30
0.0
 10
10.0
 20
1.853151173261021
 30
0.0
 10
10.0
 20
1.801650622361236
 30
0.0
 10
10.0
 20
1.632166191454445
 30
0.0
 10
10.0
 20
1.501489943876965
 30
0.0
 10
10.0
 20
1.197390891265094
 30
0.0
 10
10.0
 20
1.023858647123486
 30
0.0
 10
10.0
 20
0.6291041739122432
 30
0.0
 10
10.0
 20
0.4077239195751345
 30
0.0
 10
10.0
 20
-0.0810540693960687
 30
0.0
 10
10.0
 20
-0.3485919649944894
 30
0.0
 10
10.0
 20
-0.9165799009200764
 30
0.0
 10
10.0
 20
-1.217008906210375
 30
0.0
 10
10.0
 20
-1.823850536274148
 30
0.0
 10
10.0
 20
-2.129965727607089
 30
0.0
 10
10.0
 20
-2.711907530697282
 30
0.0
 10
10.0
 20
-2.987271849740218
 30
0.0
 10
10.0
 20
-3.230744487864032
 30
0.0
  0
SPLINE
  5
D2
330
1F
100
AcDbEntity
  8
0
  6
Continuous
 62
     1
370
    25
100
AcDbSpline
210
0.0
220
0.0
230
1.0
 70
     8
 71
     3
 72
     8
 73
     4
 74
     0
 42
0.000000001
 43
0.00000001
 40
0.0
 40
0.0
 40
0.0
 40
0.0
 40
1.0
 40
1.0
 40
1.0
 40
1.0
 10
70.00000000000001
 20
-3.778128546404887
 30
0.0
 10
69.18469570654707
 20
-3.319047671130687
 30
0.0
 10
68.41618671949517
 20
-2.755421905771484
 30
0.0
 10
67.67680798191736
 20
-2.126716563770118
 30
0.0
  0
LINE
  5
D3
330
1F
100
AcDbEntity
  8
0
  6
Continuous
 62
     1
370
    25
100
AcDbLine
 10
70.00000000000001
 20
-4.875828491776319
 30
0.0
 11
70.00000000000001
 21
-3.778128546404887
 31
0.0
  0
SPLINE
  5
D4
330
1F
100
AcDbEntity
  8
0
  6
Continuous
 62
     1
370
    25
100
AcDbSpline
210
0.0
220
0.0
230
1.0
 70
    24
 71
     3
 72
    13
 73
     9
 74
     0
 42
0.000000001
 43
0.00000001
 40
0.0
 40
0.0
 40
0.0
 40
0.0
 40
0.1224093269973656
 40
0.2759043988340983
 40
0.4790629561001492
 40
0.6827963882890706
 40
0.8768452580153009
 40
0.9999999999999999
 40
0.9999999999999999
 40
0.9999999999999999
 40
0.9999999999999999
 10
69.51504797390695
 20
-0.8395670643404547
 30
0.0
 10
69.51180564895628
 20
-0.8418373647122337
 30
0.0
 10
69.50449761338184
 20
-0.8469545063109454
 30
0.0
 10
69.38151776124809
 20
-0.933065925822916
 30
0.0
 10
69.10188028022341
 20
-1.128870198002344
 30
0.0
 10
68.6253850884074
 20
-1.462515723232706
 30
0.0
 10
68.12308432746275
 20
-1.814230502494335
 30
0.0
 10
67.80161780493671
 20
-2.039323784849643
 30
0.0
 10
67.6768079819184
 20
-2.126716563769889
 30
0.0
  0
SPLINE
  5
D5
330
1F
100
AcDbEntity
  8
0
  6
Continuous
 62
     1
370
    25
100
AcDbSpline
210
0.0
220
0.0
230
1.0
 70
     8
 71
     3
 72
    25
 73
    21
 74
     0
 42
0.000000001
 43
0.00000001
 40
0.0
 40
0.0
 40
0.0
 40
0.0
 40
0.0229579213847603
 40
0.0828779066931321
 40
0.1427977205705787
 40
0.2027173681289679
 40
0.2626368544850678
 40
0.3225561847603974
 40
0.3824753640810786
 40
0.4423943975776832
 40
0.5023132903850865
 40
0.562232047642315
 40
0.6221506744923968
 40
0.6820691760822107
 40
0.7419875575623356
 40
0.801905824086898
 40
0.866507954190106
 40
0.931105035924892
 40
0.9956959674526064
 40
1.0
 40
1.0
 40
1.0
 40
1.0
 10
49.59498599567952
 20
-4.206176752495632
 30
0.0
 10
49.34953184721974
 20
-4.287927829150346
 30
0.0
 10
48.46344439737791
 20
-4.583048541060709
 30
0.0
 10
46.93672666285556
 20
-4.86967751088903
 30
0.0
 10
45.01483451664972
 20
-5.040616338258554
 30
0.0
 10
43.09294884420561
 20
-4.951216625406638
 30
0.0
 10
41.17106935475843
 20
-4.622496274983566
 30
0.0
 10
39.2491958789806
 20
-4.066121748237729
 30
0.0
 10
37.32732820292044
 20
-3.310575248158658
 30
0.0
 10
35.40546616857859
 20
-2.392594342513737
 30
0.0
 10
33.48360943769936
 20
-1.357284298736823
 30
0.0
 10
31.56175833606259
 20
-0.2554124338857418
 30
0.0
 10
29.63991071257076
 20
0.8590223163431228
 30
0.0
 10
27.7180736586098
 20
1.931182272312473
 30
0.0
 10
25.79621977168052
 20
2.909162002638252
 30
0.0
 10
23.82437374100578
 20
3.764177332290797
 30
0.0
 10
21.80218152804532
 20
4.448378379905161
 30
0.0
 10
19.73016287916171
 20
4.864765856232548
 30
0.0
 10
18.30284992182931
 20
5.04082901278989
 30
0.0
 10
17.56624216089626
 20
4.994052189914342
 30
0.0
 10
17.52022451910952
 20
4.991129930343953
 30
0.0
  0
SPLINE
  5
D6
330
1F
100
AcDbEntity
  8
0
  6
Continuous
 62
     4
370
    25
100
AcDbSpline
210
0.0
220
0.0
230
1.0
 70
    24
 71
     3
 72
     9
 73
     5
 74
     0
 42
0.000000001
 43
0.00000001
 40
0.0
 40
0.0
 40
0.0
 40
0.0
 40
0.6550990146898292
 40
0.9999999999999999
 40
0.9999999999999999
 40
0.9999999999999999
 40
0.9999999999999999
 10
10.0
 20
4.562152357554073
 30
0.0
 10
10.0
 20
4.401440453426978
 30
0.0
 10
10.0
 20
4.156115852834827
 30
0.0
 10
10.0
 20
3.959583521142584
 30
0.0
 10
10.0
 20
3.891799326296626
 30
0.0
  0
SPLINE
  5
D7
330
1F
100
AcDbEntity
  8
0
  6
Continuous
 62
     1
370
    25
100
AcDbSpline
210
0.0
220
0.0
230
1.0
 70
     8
 71
     3
 72
    23
 73
    19
 74
     0
 42
0.000000001
 43
0.00000001
 40
0.0
 40
0.0
 40
0.0
 40
0.0
 40
0.064227052837051
 40
0.1284546626865433
 40
0.1926827984898715
 40
0.2569114291380197
 40
0.3211405234745121
 40
0.3853700502983767
 40
0.449599978367117
 40
0.5118790262973253
 40
0.5741581937123482
 40
0.6364374859693853
 40
0.6987169084219483
 40
0.7609964664197034
 40
0.8232761653083139
 40
0.8855560104292846
 40
0.9478360071198038
 40
1.0
 40
1.0
 40
1.0
 40
1.0
 10
10.0000000000001
 20
4.562152357554088
 30
0.0
 10
10.66066674566522
 20
4.69515449039424
 30
0.0
 10
11.98200596666202
 20
4.961159909542433
 30
0.0
 10
13.96402743198544
 20
5.037678742838958
 30
0.0
 10
15.9460682929012
 20
4.868552560812756
 30
0.0
 10
17.92812685744181
 20
4.440939407535093
 30
0.0
 10
19.91020513702088
 20
3.782941372802974
 30
0.0
 10
21.89228985870158
 20
2.927322199155371
 30
0.0
 10
23.8543533138563
 20
1.929316354371351
 30
0.0
 10
25.79622758141104
 20
0.8449639296990525
 30
0.0
 10
27.71807156597045
 20
-0.2696310853303572
 30
0.0
 10
29.63991127337624
 20
-1.370968585229598
 30
0.0
 10
31.56175818548603
 20
-2.405198711627497
 30
0.0
 10
33.48360947919848
 20
-3.320977356785026
 30
0.0
 10
35.40546615315916
 20
-4.075704592498499
 30
0.0
 10
37.32732822309899
 20
-4.623724586270395
 30
0.0
 10
39.14513928460779
 20
-4.951632167211537
 30
0.0
 10
40.32233015289216
 20
-4.973378636466932
 30
0.0
 10
40.8588980958847
 20
-4.983290757423768
 30
0.0
  0
SPLINE
  5
D8
330
1F
100
AcDbEntity
  8
0
  6
Continuous
 62
     1
370
    25
100
AcDbSpline
210
0.0
220
0.0
230
1.0
 70
     8
 71
     3
 72
    11
 73
     7
 74
     0
 42
0.000000001
 43
0.00000001
 40
0.0
 40
0.0
 40
0.0
 40
0.0
 40
0.1923549469847043
 40
0.5058100325864238
 40
0.8192678366436039
 40
1.0
 40
1.0
 40
1.0
 40
1.0
 10
63.19771737929536
 20
4.205083370692746
 30
0.0
 10
63.60313798184869
 20
4.33195538770439
 30
0.0
 10
64.66921822258733
 20
4.665573732669901
 30
0.0
 10
66.39598331940219
 20
4.942220001284398
 30
0.0
 10
68.0982733189692
 20
5.035568249149683
 30
0.0
 10
69.13984191116849
 20
4.958040923968618
 30
0.0
 10
69.52075807168356
 20
4.929688099906767
 30
0.0
  0
SPLINE
  5
D9
330
1F
100
AcDbEntity
  8
0
  6
Continuous
 62
     1
370
    25
100
AcDbSpline
210
0.0
220
0.0
230
1.0
 70
     8
 71
     3
 72
    18
 73
    14
 74
     0
 42
0.000000001
 43
0.00000001
 40
0.0
 40
0.0
 40
0.0
 40
0.0
 40
0.249999999999999
 40
0.249999999999999
 40
0.3749999999999985
 40
0.3749999999999985
 40
0.499999999999998
 40
0.499999999999998
 40
0.6249999999999976
 40
0.6249999999999976
 40
0.749999999999997
 40
0.749999999999997
 40
1.0
 40
1.0
 40
1.0
 40
1.0
 10
69.52075807168357
 20
4.929688099906776
 30
0.0
 10
69.52699347436378
 20
4.606851837981958
 30
0.0
 10
69.49969480875362
 20
4.290337705371866
 30
0.0
 10
69.39005607498703
 20
3.828516671281821
 30
0.0
 10
69.34125743286381
 20
3.676235446349223
 30
0.0
 10
69.2207504669013
 20
3.391480187959264
 30
0.0
 10
69.14856080958637
 20
3.256893544584269
 30
0.0
 10
68.97862368036401
 20
3.007383037770182
 30
0.0
 10
68.88382477663743
 20
2.896667102584323
 30
0.0
 10
68.67533102073348
 20
2.702221710530231
 30
0.0
 10
68.56025913724947
 20
2.617982717210619
 30
0.0
 10
68.20199878948117
 20
2.415034884755323
 30
0.0
 10
67.93943782007103
 20
2.341734955811783
 30
0.0
 10
67.67680798191739
 20
2.323192018082634
 30
0.0
  0
LINE
  5
DA
330
1F
100
AcDbEntity
  8
0
  6
Continuous
 62
     1
370
    25
100
AcDbLine
 10
70.00000000000001
 20
1.11169808914591
 30
0.0
 11
70.00000000000001
 21
1.193141214989692
 31
0.0
  0
LINE
  5
DB
330
1F
100
AcDbEntity
  8
0
  6
Continuous
 62
     1
370
    25
100
AcDbLine
 10
70.00000000000001
 20
4.974937185533105
 30
0.0
 11
70.00000000000001
 21
5.000000000000005
 31
0.0
  0
ELLIPSE
  5
DC
330
1F
100
AcDbEntity
  8
0
  6
Continuous
 62
     1
370
    25
100
AcDbEllipse
 10
70.71407400337105
 20
-0.0000000000000063
 30
0.0
 11
7.140740033710557
 21
0.0
 31
0.0
210
0.0
220
0.0
230
1.0
 40
0.7002075382097122
 41
1.670963747956454
 42
1.738697861005222
  0
LINE
  5
DD
330
1F
100
AcDbEntity
  8
0
  6
Continuous
 62
     1
370
    25
100
AcDbLine
 10
70.00000000000001
 20
1.193141214989692
 30
0.0
 11
70.00000000000001
 21
4.974937185533105
 31
0.0
  0
LINE
  5
DE
330
1F
100
AcDbEntity
  8
0
  6
Continuous
 62
     1
370
    25
100
AcDbLine
 10
70.00000000000001
 20
-0.5000000000000027
 30
0.0
 11
70.00000000000001
 21
-3.778128546404887
 31
0.0
  0
LINE
  5
DF
330
1F
100
AcDbEntity
  8
중심선
100
AcDbLine
 10
-42.99999999999999
 20
-0.0000000000000115
 30
0.0
 11
73.00000000000001
 21
0.0000000000000137
 31
0.0
  0
CIRCLE
  5
E0
330
1F
100
AcDbEntity
  8
해칭선
100
AcDbCircle
 10
0.0000486949471874
 20
-0.0000000000000043
 30
0.0
 40
3.0
  0
INSERT
  5
E1
330
1F
100
AcDbEntity
  8
0
  6
Continuous
 62
     7
100
AcDbBlockReference
 66
     1
  2
블럭10
 10
2.559900751058219
 20
-52.04717430164393
 30
0.0
  0
ATTRIB
  5
E2
330
E1
100
AcDbEntity
  8
FORMAT
 62
     2
100
AcDbText
 10
-13.55936028837734
 20
-49.97180738881173
 30
0.0
 40
4.233333333333333
  1
SEME7210060E [ 4 FLUTE ]
 41
0.75
  7
SLDTEXTSTYLE0
 11
-13.55936028837734
 21
-52.0884740554784
 31
0.0
100
AcDbAttribute
  2
AUTOATTR0
 70
     0
 74
     1
  0
SEQEND
  5
E3
330
E1
100
AcDbEntity
  8
0
  6
Continuous
 62
     7
  0
HATCH
  5
E4
330
1F
100
AcDbEntity
  8
중심선
100
AcDbHatch
 10
0.0
 20
0.0
 30
0.0
210
0.0
220
0.0
230
1.0
  2
SOLID
 70
     1
 71
     0
 91
        1
 92
        0
 93
        4
 72
     1
 10
8.274810055439064
 20
-35.8
 11
4.828534811601781
 21
-35.8
 72
     1
 10
4.828534811601781
 20
-35.8
 11
2.70030495239773
 21
-38.33632558057257
 72
     1
 10
2.70030495239773
 20
-38.33632558057257
 11
6.14661328134819
 21
-38.33628615127008
 72
     1
 10
6.14661328134819
 20
-38.33628615127008
 11
8.274810055439064
 21
-35.8
 97
        0
 75
     0
 76
     1
 98
        1
 10
0.0
 20
0.0
  0
HATCH
  5
E5
330
1F
100
AcDbEntity
  8
중심선
100
AcDbHatch
 10
0.0
 20
0.0
 30
0.0
210
0.0
220
0.0
230
1.0
  2
SOLID
 70
     1
 71
     0
 91
        1
 92
        0
 93
        4
 72
     1
 10
13.28757404647504
 20
-35.79999999999997
 11
9.84129880263776
 21
-35.8
 72
     1
 10
9.84129880263776
 20
-35.8
 11
5.310160794280344
 21
-41.20000000000002
 72
     1
 10
5.310160794280344
 20
-41.20000000000002
 11
8.756436038117627
 21
-41.20000000000002
 72
     1
 10
8.756436038117627
 20
-41.20000000000002
 11
13.28757404647504
 21
-35.79999999999997
 97
        0
 75
     0
 76
     1
 98
        1
 10
0.0
 20
0.0
  0
HATCH
  5
E6
330
1F
100
AcDbEntity
  8
중심선
100
AcDbHatch
 10
0.0
 20
0.0
 30
0.0
210
0.0
220
0.0
230
1.0
  2
SOLID
 70
     1
 71
     0
 91
        1
 92
        0
 93
        4
 72
     1
 10
18.30033803751094
 20
-35.79999999999997
 11
14.85406279367382
 21
-35.79999999999997
 72
     1
 10
14.85406279367382
 20
-35.79999999999997
 11
7.805625891784546
 21
-44.20000000000002
 72
     1
 10
7.805625891784546
 20
-44.20000000000002
 11
11.25190113562183
 21
-44.20000000000002
 72
     1
 10
11.25190113562183
 20
-44.20000000000002
 11
18.30033803751094
 21
-35.79999999999997
 97
        0
 75
     0
 76
     1
 98
        1
 10
0.0
 20
0.0
  0
HATCH
  5
E7
330
1F
100
AcDbEntity
  8
중심선
100
AcDbHatch
 10
0.0
 20
0.0
 30
0.0
210
0.0
220
0.0
230
1.0
  2
SOLID
 70
     1
 71
     0
 91
        1
 92
        0
 93
        6
 72
     3
 10
23.10022846852311
 20
-40.00000000005127
 11
3.960054785062284
 21
1.540850780301639E-10
 40
0.3939339440162633
 50
17.09539180608434
 51
320.0019657685081
 73
     0
 72
     1
 10
24.78322812422368
 20
-38.58789400463833
 11
27.08852999792474
 21
-36.65356729459038
 72
     3
 10
23.10022846847026
 20
-40.00000000000015
 11
6.600054785286829
 21
-1.249000902703301E-13
 40
0.6363583540795982
 50
39.9987384933741
 51
368.4976242363725
 73
     1
 72
     1
 10
29.52556096037087
 20
-39.03999999993002
 11
21.78029577530619
 21
-39.03999999993002
 72
     1
 10
21.78029577530619
 20
-39.03999999993002
 11
21.78027073086025
 21
-40.95999999992991
 72
     1
 10
21.78027073086025
 20
-40.95999999992991
 11
26.22165050033229
 21
-40.95999999992988
 97
        0
 75
     0
 76
     1
 98
        1
 10
0.0
 20
0.0
  0
DIMENSION
  5
E8
330
1F
100
AcDbEntity
  8
치수문자_일반주서
100
AcDbDimension
  2
_D
 10
81.19087498030518
 20
5.000000000000039
 30
0.0
 11
81.19087498030515
 21
15.32275000000004
 31
0.0
 70
   160
  1
%%c<>
 71
     2
 42
10.00000000000001
 52
-270.0
  3
SLDDIMSTYLE0
100
AcDbAlignedDimension
 13
70.00000000000001
 23
-5.000000000000012
 33
0.0
 14
70.00000000000001
 24
4.999999999999997
 34
0.0
 50
90.0000000000002
100
AcDbRotatedDimension
  0
DIMENSION
  5
F6
330
1F
100
AcDbEntity
  8
치수문자_일반주서
100
AcDbDimension
  2
_D_1
 10
70.00000000000001
 20
22.38913260158164
 30
0.0
 11
15.0
 21
22.38913260158164
 31
0.0
 70
   160
  1
<>
 71
     2
 42
110.0
  3
SLDDIMSTYLE1
100
AcDbAlignedDimension
 13
-40.0
 23
4.499999999999988
 33
0.0
 14
70.00000000000001
 24
5.0
 34
0.0
 50
-0.0000000000000056
100
AcDbRotatedDimension
  0
DIMENSION
  5
101
330
1F
100
AcDbEntity
  8
치수문자_일반주서
100
AcDbDimension
  2
_D_2
 10
-49.28523866113731
 20
-5.000000000000046
 30
0.0
 11
-49.28523866113738
 21
15.32274999999996
 31
0.0
 70
   160
  1
%%c<>
 71
     2
 42
10.00000000000001
 52
-270.0
  3
SLDDIMSTYLE2
100
AcDbAlignedDimension
 13
-39.49999999999999
 23
4.999999999999998
 33
0.0
 14
-39.49999999999999
 24
-5.000000000000011
 34
0.0
 50
90.0000000000002
100
AcDbRotatedDimension
  0
DIMENSION
  5
10F
330
1F
100
AcDbEntity
  8
치수문자_일반주서
100
AcDbDimension
  2
_D_3
 10
70.00000000000001
 20
15.40807066014172
 30
0.0
 11
40.0
 21
15.40807066014172
 31
0.0
 70
   160
  1
<>
 71
     2
 42
60.00000000000001
  3
SLDDIMSTYLE1
100
AcDbAlignedDimension
 13
10.0
 23
4.562152357554076
 33
0.0
 14
70.00000000000001
 24
5.0
 34
0.0
 50
-0.0000000000000034
100
AcDbRotatedDimension
  0
INSERT
  5
11F
330
1F
100
AcDbEntity
  8
해칭선
100
AcDbBlockReference
  2
SW_DOWELSYMBOL_0
 10
0.0000486949471874
 20
-0.0000000000000043
 30
0.0
  0
ENDSEC
  0
SECTION
  2
OBJECTS
  0
DICTIONARY
  5
C
330
0
100
AcDbDictionary
281
     1
  3
ACAD_GROUP
350
D
  3
ACAD_IMAGE_VARS
350
143
  3
ACAD_LAYOUT
350
1A
  3
ACAD_MLINESTYLE
350
17
  3
ACAD_PLOTSETTINGS
350
19
  3
ACAD_PLOTSTYLENAME
350
E
  3
ACAD_SCALELIST
350
47
  3
APPDATA
350
141
  3
DWGPROPS
350
152
  0
DICTIONARY
  5
D
102
{ACAD_REACTORS
330
C
102
}
330
C
100
AcDbDictionary
281
     1
  0
RASTERVARIABLES
  5
143
102
{ACAD_REACTORS
330
C
102
}
330
C
100
AcDbRasterVariables
 90
        0
 70
     1
 71
     1
 72
     1
  0
DICTIONARY
  5
1A
102
{ACAD_REACTORS
330
C
102
}
330
C
100
AcDbDictionary
281
     1
  3
Layout1
350
1E
  3
Layout2
350
26
  3
Model
350
22
  0
DICTIONARY
  5
17
102
{ACAD_REACTORS
330
C
102
}
330
C
100
AcDbDictionary
281
     1
  3
Standard
350
18
  0
DICTIONARY
  5
19
102
{ACAD_REACTORS
330
C
102
}
330
C
100
AcDbDictionary
281
     1
  0
ACDBDICTIONARYWDFLT
  5
E
102
{ACAD_REACTORS
330
C
102
}
330
C
100
AcDbDictionary
281
     1
  3
Normal
350
F
100
AcDbDictionaryWithDefault
340
F
  0
DICTIONARY
  5
47
102
{ACAD_REACTORS
330
C
102
}
330
C
100
AcDbDictionary
281
     1
  3
A0
350
48
  3
A1
350
49
  3
A2
350
4A
  3
A3
350
4B
  3
A4
350
4C
  3
A5
350
4D
  3
A6
350
4E
  3
A7
350
4F
  3
A8
350
50
  3
A9
350
51
  3
B0
350
52
  3
B1
350
53
  3
B2
350
54
  3
B3
350
55
  3
B4
350
56
  3
B5
350
57
  3
B6
350
58
  3
B7
350
59
  3
B8
350
5A
  3
B9
350
5B
  3
C0
350
5C
  3
C1
350
5D
  3
C2
350
5E
  3
C3
350
5F
  3
C4
350
60
  3
C5
350
61
  3
C6
350
62
  3
C7
350
63
  3
C8
350
64
  3
C9
350
65
  3
D0
350
66
  3
D1
350
67
  3
D2
350
68
  0
DICTIONARY
  5
141
102
{ACAD_REACTORS
330
C
102
}
330
C
100
AcDbDictionary
281
     1
  0
XRECORD
  5
152
102
{ACAD_REACTORS
330
C
102
}
330
C
100
AcDbXrecord
280
     1
  1
DWGPROPS COOKIE
  2

  3

  4

  6

  7

  8
12014102
  9

300
=
301
=
302
=
303
=
304
=
305
=
306
=
307
=
308
=
309
=
 40
0.0
 41
2458260.20467118
 42
2458268.21011125
  1

 90
        0
  0
LAYOUT
  5
1E
102
{ACAD_REACTORS
330
1A
102
}
330
1A
100
AcDbPlotSettings
  1

  2
none_device
  4

  6

 40
0.0
 41
0.0
 42
0.0
 43
0.0
 44
0.0
 45
0.0
 46
0.0
 47
0.0
 48
0.0
 49
0.0
140
0.0
141
0.0
142
1.0
143
1.0
 70
   688
 72
     1
 73
     0
 74
     5
  7

 75
    16
147
1.0
148
0.0
149
0.0
100
AcDbLayout
  1
Layout1
 70
     1
 71
     1
 10
0.0
 20
0.0
 11
420.0
 21
297.0
 12
0.0
 22
0.0
 32
0.0
 14
1.000000000000000E+20
 24
1.000000000000000E+20
 34
1.000000000000000E+20
 15
-1.000000000000000E+20
 25
-1.000000000000000E+20
 35
-1.000000000000000E+20
146
0.0
 13
0.0
 23
0.0
 33
0.0
 16
1.0
 26
0.0
 36
0.0
 17
0.0
 27
1.0
 37
0.0
 76
     0
330
1B
  0
LAYOUT
  5
26
102
{ACAD_REACTORS
330
1A
102
}
330
1A
100
AcDbPlotSettings
  1

  2
none_device
  4

  6

 40
0.0
 41
0.0
 42
0.0
 43
0.0
 44
0.0
 45
0.0
 46
0.0
 47
0.0
 48
0.0
 49
0.0
140
0.0
141
0.0
142
1.0
143
1.0
 70
   688
 72
     1
 73
     0
 74
     5
  7

 75
    16
147
1.0
148
0.0
149
0.0
100
AcDbLayout
  1
Layout2
 70
     1
 71
     2
 10
0.0
 20
0.0
 11
0.0
 21
0.0
 12
0.0
 22
0.0
 32
0.0
 14
0.0
 24
0.0
 34
0.0
 15
0.0
 25
0.0
 35
0.0
146
0.0
 13
0.0
 23
0.0
 33
0.0
 16
1.0
 26
0.0
 36
0.0
 17
0.0
 27
1.0
 37
0.0
 76
     0
330
23
  0
LAYOUT
  5
22
102
{ACAD_REACTORS
330
1A
102
}
330
1A
100
AcDbPlotSettings
  1

  2
none_device
  4
ANSI_A_(11.00_x_8.50_Inches)
  6

 40
6.35
 41
19.05
 42
6.35000508
 43
19.05000254
 44
279.4
 45
215.9
 46
103.0402297494501
 47
111.6365098312842
 48
0.0
 49
0.0
140
0.0
141
0.0
142
0.0751746256859428
143
1.0
 70
  1696
 72
     0
 73
     0
 74
     0
  7

 75
     0
147
0.0235690232323232
148
0.0
149
0.0
100
AcDbLayout
  1
Model
 70
     1
 71
     0
 10
0.0
 20
0.0
 11
420.0
 21
297.0
 12
0.0
 22
0.0
 32
0.0
 14
-53.66023866113737
 24
-49.97180738881173
 34
0.0
 15
81.74120831363855
 25
26.76413260158163
 35
0.0
146
0.0
 13
0.0
 23
0.0
 33
0.0
 16
1.0
 26
0.0
 36
0.0
 17
0.0
 27
1.0
 37
0.0
 76
     0
330
1F
331
29
  0
MLINESTYLE
  5
18
102
{ACAD_REACTORS
330
17
102
}
330
17
100
AcDbMlineStyle
  2
Standard
 70
     0
  3

 62
   256
 51
90.0
 52
90.0
 71
     2
 49
0.5
 62
   256
  6
BYLAYER
 49
-0.5
 62
   256
  6
BYLAYER
  0
ACDBPLACEHOLDER
  5
F
102
{ACAD_REACTORS
330
E
102
}
330
E
  0
SCALE
  5
48
102
{ACAD_REACTORS
330
47
102
}
330
47
100
AcDbScale
 70
     0
300
1:1
140
1.0
141
1.0
290
     1
  0
SCALE
  5
49
102
{ACAD_REACTORS
330
47
102
}
330
47
100
AcDbScale
 70
     0
300
1:2
140
1.0
141
2.0
290
     0
  0
SCALE
  5
4A
102
{ACAD_REACTORS
330
47
102
}
330
47
100
AcDbScale
 70
     0
300
1:4
140
1.0
141
4.0
290
     0
  0
SCALE
  5
4B
102
{ACAD_REACTORS
330
47
102
}
330
47
100
AcDbScale
 70
     0
300
1:5
140
1.0
141
5.0
290
     0
  0
SCALE
  5
4C
102
{ACAD_REACTORS
330
47
102
}
330
47
100
AcDbScale
 70
     0
300
1:8
140
1.0
141
8.0
290
     0
  0
SCALE
  5
4D
102
{ACAD_REACTORS
330
47
102
}
330
47
100
AcDbScale
 70
     0
300
1:10
140
1.0
141
10.0
290
     0
  0
SCALE
  5
4E
102
{ACAD_REACTORS
330
47
102
}
330
47
100
AcDbScale
 70
     0
300
1:16
140
1.0
141
16.0
290
     0
  0
SCALE
  5
4F
102
{ACAD_REACTORS
330
47
102
}
330
47
100
AcDbScale
 70
     0
300
1:20
140
1.0
141
20.0
290
     0
  0
SCALE
  5
50
102
{ACAD_REACTORS
330
47
102
}
330
47
100
AcDbScale
 70
     0
300
1:30
140
1.0
141
30.0
290
     0
  0
SCALE
  5
51
102
{ACAD_REACTORS
330
47
102
}
330
47
100
AcDbScale
 70
     0
300
1:40
140
1.0
141
40.0
290
     0
  0
SCALE
  5
52
102
{ACAD_REACTORS
330
47
102
}
330
47
100
AcDbScale
 70
     0
300
1:50
140
1.0
141
50.0
290
     0
  0
SCALE
  5
53
102
{ACAD_REACTORS
330
47
102
}
330
47
100
AcDbScale
 70
     0
300
1:100
140
1.0
141
100.0
290
     0
  0
SCALE
  5
54
102
{ACAD_REACTORS
330
47
102
}
330
47
100
AcDbScale
 70
     0
300
2:1
140
2.0
141
1.0
290
     0
  0
SCALE
  5
55
102
{ACAD_REACTORS
330
47
102
}
330
47
100
AcDbScale
 70
     0
300
4:1
140
4.0
141
1.0
290
     0
  0
SCALE
  5
56
102
{ACAD_REACTORS
330
47
102
}
330
47
100
AcDbScale
 70
     0
300
8:1
140
8.0
141
1.0
290
     0
  0
SCALE
  5
57
102
{ACAD_REACTORS
330
47
102
}
330
47
100
AcDbScale
 70
     0
300
10:1
140
10.0
141
1.0
290
     0
  0
SCALE
  5
58
102
{ACAD_REACTORS
330
47
102
}
330
47
100
AcDbScale
 70
     0
300
100:1
140
100.0
141
1.0
290
     0
  0
SCALE
  5
59
102
{ACAD_REACTORS
330
47
102
}
330
47
100
AcDbScale
 70
     0
300
1/128" = 1'-0"
140
0.0078125
141
12.0
290
     0
  0
SCALE
  5
5A
102
{ACAD_REACTORS
330
47
102
}
330
47
100
AcDbScale
 70
     0
300
1/64" = 1'-0"
140
0.015625
141
12.0
290
     0
  0
SCALE
  5
5B
102
{ACAD_REACTORS
330
47
102
}
330
47
100
AcDbScale
 70
     0
300
1/32" = 1'-0"
140
0.03125
141
12.0
290
     0
  0
SCALE
  5
5C
102
{ACAD_REACTORS
330
47
102
}
330
47
100
AcDbScale
 70
     0
300
1/16" = 1'-0"
140
0.0625
141
12.0
290
     0
  0
SCALE
  5
5D
102
{ACAD_REACTORS
330
47
102
}
330
47
100
AcDbScale
 70
     0
300
3/32" = 1'-0"
140
0.09375
141
12.0
290
     0
  0
SCALE
  5
5E
102
{ACAD_REACTORS
330
47
102
}
330
47
100
AcDbScale
 70
     0
300
1/8" = 1'-0"
140
0.125
141
12.0
290
     0
  0
SCALE
  5
5F
102
{ACAD_REACTORS
330
47
102
}
330
47
100
AcDbScale
 70
     0
300
3/16" = 1'-0"
140
0.1875
141
12.0
290
     0
  0
SCALE
  5
60
102
{ACAD_REACTORS
330
47
102
}
330
47
100
AcDbScale
 70
     0
300
1/4" = 1'-0"
140
0.25
141
12.0
290
     0
  0
SCALE
  5
61
102
{ACAD_REACTORS
330
47
102
}
330
47
100
AcDbScale
 70
     0
300
3/8" = 1'-0"
140
0.375
141
12.0
290
     0
  0
SCALE
  5
62
102
{ACAD_REACTORS
330
47
102
}
330
47
100
AcDbScale
 70
     0
300
1/2" = 1'-0"
140
0.5
141
12.0
290
     0
  0
SCALE
  5
63
102
{ACAD_REACTORS
330
47
102
}
330
47
100
AcDbScale
 70
     0
300
3/4" = 1'-0"
140
0.75
141
12.0
290
     0
  0
SCALE
  5
64
102
{ACAD_REACTORS
330
47
102
}
330
47
100
AcDbScale
 70
     0
300
1" = 1'-0"
140
1.0
141
12.0
290
     0
  0
SCALE
  5
65
102
{ACAD_REACTORS
330
47
102
}
330
47
100
AcDbScale
 70
     0
300
1-1/2" = 1'-0"
140
1.5
141
12.0
290
     0
  0
SCALE
  5
66
102
{ACAD_REACTORS
330
47
102
}
330
47
100
AcDbScale
 70
     0
300
3" = 1'-0"
140
3.0
141
12.0
290
     0
  0
SCALE
  5
67
102
{ACAD_REACTORS
330
47
102
}
330
47
100
AcDbScale
 70
     0
300
6" = 1'-0"
140
6.0
141
12.0
290
     0
  0
SCALE
  5
68
102
{ACAD_REACTORS
330
47
102
}
330
47
100
AcDbScale
 70
     0
300
1'-0" = 1'-0"
140
12.0
141
12.0
290
     0
  0
ENDSEC
  0
EOF
