  0
SECTION
  2
HEADER
  9
$ACADVER
  1
AC1015
  9
$ACADMAINTVER
 70
     6
  9
$DWGCODEPAGE
  3
ANSI_949
  9
$INSBASE
 10
0.0
 20
0.0
 30
0.0
  9
$EXTMIN
 10
-100.7840664940378
 20
-49.97180738881174
 30
0.0
  9
$EXTMAX
 10
86.27614829390981
 20
27.76413260158163
 30
0.0
  9
$LIMMIN
 10
0.0
 20
0.0
  9
$LIMMAX
 10
420.0
 20
297.0
  9
$ORTHOMODE
 70
     0
  9
$REGENMODE
 70
     1
  9
$FILLMODE
 70
     1
  9
$QTEXTMODE
 70
     0
  9
$MIRRTEXT
 70
     1
  9
$LTSCALE
 40
1.0
  9
$ATTMODE
 70
     1
  9
$TEXTSIZE
 40
3.5
  9
$TRACEWID
 40
1.0
  9
$TEXTSTYLE
  7
Standard
  9
$CLAYER
  8
0
  9
$CELTYPE
  6
ByLayer
  9
$CECOLOR
 62
   256
  9
$CELTSCALE
 40
1.0
  9
$DISPSILH
 70
     0
  9
$DIMSCALE
 40
1.0
  9
$DIMASZ
 40
3.302
  9
$DIMEXO
 40
1.0
  9
$DIMDLI
 40
3.75
  9
$DIMRND
 40
0.0
  9
$DIMDLE
 40
0.0
  9
$DIMEXE
 40
1.0
  9
$DIMTP
 40
0.0
  9
$DIMTM
 40
0.0
  9
$DIMTXT
 40
3.5
  9
$DIMCEN
 40
2.5
  9
$DIMTSZ
 40
0.0
  9
$DIMTOL
 70
     0
  9
$DIMLIM
 70
     0
  9
$DIMTIH
 70
     1
  9
$DIMTOH
 70
     1
  9
$DIMSE1
 70
     0
  9
$DIMSE2
 70
     0
  9
$DIMTAD
 70
     1
  9
$DIMZIN
 70
     0
  9
$DIMBLK
  1

  9
$DIMASO
 70
     1
  9
$DIMSHO
 70
     1
  9
$DIMPOST
  1

  9
$DIMAPOST
  1

  9
$DIMALT
 70
     0
  9
$DIMALTD
 70
     3
  9
$DIMALTF
 40
0.0393700787401575
  9
$DIMLFAC
 40
1.0
  9
$DIMTOFL
 70
     1
  9
$DIMTVP
 40
0.0
  9
$DIMTIX
 70
     0
  9
$DIMSOXD
 70
     0
  9
$DIMSAH
 70
     0
  9
$DIMBLK1
  1

  9
$DIMBLK2
  1

  9
$DIMSTYLE
  2
ISO-25
  9
$DIMCLRD
 70
     0
  9
$DIMCLRE
 70
     0
  9
$DIMCLRT
 70
     0
  9
$DIMTFAC
 40
1.0
  9
$DIMGAP
 40
1.524
  9
$DIMJUST
 70
     0
  9
$DIMSD1
 70
     0
  9
$DIMSD2
 70
     0
  9
$DIMTOLJ
 70
     0
  9
$DIMTZIN
 70
     0
  9
$DIMALTZ
 70
     0
  9
$DIMALTTZ
 70
     0
  9
$DIMUPT
 70
     0
  9
$DIMDEC
 70
     2
  9
$DIMTDEC
 70
     2
  9
$DIMALTU
 70
     2
  9
$DIMALTTD
 70
     3
  9
$DIMTXSTY
  7
Standard
  9
$DIMAUNIT
 70
     0
  9
$DIMADEC
 70
     2
  9
$DIMALTRND
 40
0.0
  9
$DIMAZIN
 70
     0
  9
$DIMDSEP
 70
    44
  9
$DIMATFIT
 70
     3
  9
$DIMFRAC
 70
     0
  9
$DIMLDRBLK
  1

  9
$DIMLUNIT
 70
     2
  9
$DIMLWD
 70
    -2
  9
$DIMLWE
 70
    -2
  9
$DIMTMOVE
 70
     0
  9
$LUNITS
 70
     2
  9
$LUPREC
 70
     2
  9
$SKETCHINC
 40
1.0
  9
$FILLETRAD
 40
10.0
  9
$AUNITS
 70
     0
  9
$AUPREC
 70
     2
  9
$MENU
  1
.
  9
$ELEVATION
 40
0.0
  9
$PELEVATION
 40
0.0
  9
$THICKNESS
 40
0.0
  9
$LIMCHECK
 70
     0
  9
$CHAMFERA
 40
0.0
  9
$CHAMFERB
 40
0.0
  9
$CHAMFERC
 40
0.0
  9
$CHAMFERD
 40
0.0
  9
$SKPOLY
 70
     0
  9
$TDCREATE
 40
2458260.581183333
  9
$TDUCREATE
 40
2458260.206183333
  9
$TDUPDATE
 40
2458268.655576806
  9
$TDUUPDATE
 40
2458268.280576806
  9
$TDINDWG
 40
0.0006076852
  9
$TDUSRTIMER
 40
2458268.279969144
  9
$USRTIMER
 70
     1
  9
$ANGBASE
 50
0.0
  9
$ANGDIR
 70
     0
  9
$PDMODE
 70
     0
  9
$PDSIZE
 40
-1.0
  9
$PLINEWID
 40
0.0
  9
$SPLFRAME
 70
     0
  9
$SPLINETYPE
 70
     6
  9
$SPLINESEGS
 70
     8
  9
$HANDSEED
  5
14C
  9
$SURFTAB1
 70
     6
  9
$SURFTAB2
 70
     6
  9
$SURFTYPE
 70
     6
  9
$SURFU
 70
     6
  9
$SURFV
 70
     6
  9
$UCSBASE
  2

  9
$UCSNAME
  2

  9
$UCSORG
 10
0.0
 20
0.0
 30
0.0
  9
$UCSXDIR
 10
1.0
 20
0.0
 30
0.0
  9
$UCSYDIR
 10
0.0
 20
1.0
 30
0.0
  9
$UCSORTHOREF
  2

  9
$UCSORTHOVIEW
 70
     0
  9
$UCSORGTOP
 10
0.0
 20
0.0
 30
0.0
  9
$UCSORGBOTTOM
 10
0.0
 20
0.0
 30
0.0
  9
$UCSORGLEFT
 10
0.0
 20
0.0
 30
0.0
  9
$UCSORGRIGHT
 10
0.0
 20
0.0
 30
0.0
  9
$UCSORGFRONT
 10
0.0
 20
0.0
 30
0.0
  9
$UCSORGBACK
 10
0.0
 20
0.0
 30
0.0
  9
$PUCSBASE
  2

  9
$PUCSNAME
  2

  9
$PUCSORG
 10
0.0
 20
0.0
 30
0.0
  9
$PUCSXDIR
 10
1.0
 20
0.0
 30
0.0
  9
$PUCSYDIR
 10
0.0
 20
1.0
 30
0.0
  9
$PUCSORTHOREF
  2

  9
$PUCSORTHOVIEW
 70
     0
  9
$PUCSORGTOP
 10
0.0
 20
0.0
 30
0.0
  9
$PUCSORGBOTTOM
 10
0.0
 20
0.0
 30
0.0
  9
$PUCSORGLEFT
 10
0.0
 20
0.0
 30
0.0
  9
$PUCSORGRIGHT
 10
0.0
 20
0.0
 30
0.0
  9
$PUCSORGFRONT
 10
0.0
 20
0.0
 30
0.0
  9
$PUCSORGBACK
 10
0.0
 20
0.0
 30
0.0
  9
$USERI1
 70
     0
  9
$USERI2
 70
     0
  9
$USERI3
 70
     0
  9
$USERI4
 70
     0
  9
$USERI5
 70
     0
  9
$USERR1
 40
0.0
  9
$USERR2
 40
0.0
  9
$USERR3
 40
0.0
  9
$USERR4
 40
0.0
  9
$USERR5
 40
0.0
  9
$WORLDVIEW
 70
     1
  9
$SHADEDGE
 70
     3
  9
$SHADEDIF
 70
    70
  9
$TILEMODE
 70
     1
  9
$MAXACTVP
 70
    64
  9
$PINSBASE
 10
0.0
 20
0.0
 30
0.0
  9
$PLIMCHECK
 70
     0
  9
$PEXTMIN
 10
1.000000000000000E+20
 20
1.000000000000000E+20
 30
1.000000000000000E+20
  9
$PEXTMAX
 10
-1.000000000000000E+20
 20
-1.000000000000000E+20
 30
-1.000000000000000E+20
  9
$PLIMMIN
 10
0.0
 20
0.0
  9
$PLIMMAX
 10
0.0
 20
0.0
  9
$UNITMODE
 70
     0
  9
$VISRETAIN
 70
     1
  9
$PLINEGEN
 70
     0
  9
$PSLTSCALE
 70
     1
  9
$TREEDEPTH
 70
  3020
  9
$CMLSTYLE
  2
Standard
  9
$CMLJUST
 70
     0
  9
$CMLSCALE
 40
20.0
  9
$PROXYGRAPHICS
 70
     1
  9
$MEASUREMENT
 70
     1
  9
$CELWEIGHT
370
    -1
  9
$ENDCAPS
280
     0
  9
$JOINSTYLE
280
     0
  9
$LWDISPLAY
290
     1
  9
$INSUNITS
 70
     4
  9
$HYPERLINKBASE
  1

  9
$STYLESHEET
  1

  9
$XEDIT
290
     1
  9
$CEPSNTYPE
380
     0
  9
$PSTYLEMODE
290
     1
  9
$FINGERPRINTGUID
  2
{D08C6D24-F93B-424A-B8AA-5E83BDE15E58}
  9
$VERSIONGUID
  2
{FAEB1C32-E019-11D5-929B-00C0DF256EC4}
  9
$EXTNAMES
290
     1
  9
$PSVPSCALE
 40
0.0
  9
$OLESTARTUP
290
     0
  0
ENDSEC
  0
SECTION
  2
CLASSES
  0
CLASS
  1
ACDBDICTIONARYWDFLT
  2
AcDbDictionaryWithDefault
  3
ObjectDBX Classes
 90
        0
280
     0
281
     0
  0
CLASS
  1
VISUALSTYLE
  2
AcDbVisualStyle
  3
ObjectDBX Classes
 90
     4095
280
     0
281
     0
  0
CLASS
  1
MATERIAL
  2
AcDbMaterial
  3
ObjectDBX Classes
 90
     1153
280
     0
281
     0
  0
CLASS
  1
SCALE
  2
AcDbScale
  3
ObjectDBX Classes
 90
     1153
280
     0
281
     0
  0
CLASS
  1
TABLESTYLE
  2
AcDbTableStyle
  3
ObjectDBX Classes
 90
     4095
280
     0
281
     0
  0
CLASS
  1
MLEADERSTYLE
  2
AcDbMLeaderStyle
  3
ACDB_MLEADERSTYLE_CLASS
 90
     4095
280
     0
281
     0
  0
CLASS
  1
SUN
  2
AcDbSun
  3
SCENEOE
 90
     1153
280
     0
281
     0
  0
CLASS
  1
ACDBPLACEHOLDER
  2
AcDbPlaceHolder
  3
ObjectDBX Classes
 90
        0
280
     0
281
     0
  0
CLASS
  1
LAYOUT
  2
AcDbLayout
  3
ObjectDBX Classes
 90
        0
280
     0
281
     0
  0
CLASS
  1
RASTERVARIABLES
  2
AcDbRasterVariables
  3
ISM
 90
        0
280
     0
281
     0
  0
ENDSEC
  0
SECTION
  2
TABLES
  0
TABLE
  2
VPORT
  5
8
330
0
100
AcDbSymbolTable
 70
     1
  0
VPORT
  5
29
330
8
100
AcDbSymbolTableRecord
100
AcDbViewportTableRecord
  2
*Active
 70
     0
 10
0.0
 20
0.0
 11
1.0
 21
1.0
 12
-7.253959100064009
 22
-11.10383739361505
 13
0.0
 23
0.0
 14
10.0
 24
10.0
 15
10.0
 25
10.0
 16
0.0
 26
0.0
 36
1.0
 17
0.0
 27
0.0
 37
0.0
 40
110.1269935650924
 41
1.732558139534884
 42
50.0
 43
0.0
 44
0.0
 50
0.0
 51
0.0
 71
    16
 72
  2000
 73
     1
 74
     3
 75
     0
 76
     0
 77
     0
 78
     0
281
     0
 65
     1
110
0.0
120
0.0
130
0.0
111
1.0
121
0.0
131
0.0
112
0.0
122
1.0
132
0.0
 79
     0
146
0.0
  0
ENDTAB
  0
TABLE
  2
LTYPE
  5
5
330
0
100
AcDbSymbolTable
 70
     6
  0
LTYPE
  5
14
330
5
100
AcDbSymbolTableRecord
100
AcDbLinetypeTableRecord
  2
ByBlock
 70
     0
  3

 72
    65
 73
     0
 40
0.0
  0
LTYPE
  5
15
330
5
100
AcDbSymbolTableRecord
100
AcDbLinetypeTableRecord
  2
ByLayer
 70
     0
  3

 72
    65
 73
     0
 40
0.0
  0
LTYPE
  5
16
330
5
100
AcDbSymbolTableRecord
100
AcDbLinetypeTableRecord
  2
Continuous
 70
     0
  3
Solid line
 72
    65
 73
     0
 40
0.0
  0
LTYPE
  5
6E
330
5
100
AcDbSymbolTableRecord
100
AcDbLinetypeTableRecord
  2
HIDDEN
 70
     0
  3
Hidden __ __ __ __ __ __ __ __ __ __ __ __ __ __
 72
    65
 73
     2
 40
1.905
 49
1.27
 74
     0
 49
-0.635
 74
     0
  0
LTYPE
  5
6F
330
5
100
AcDbSymbolTableRecord
100
AcDbLinetypeTableRecord
  2
PHANTOM
 70
     0
  3
Phantom ______  __  __  ______  __  __  ______
 72
    65
 73
     6
 40
12.7
 49
6.35
 74
     0
 49
-1.27
 74
     0
 49
1.27
 74
     0
 49
-1.27
 74
     0
 49
1.27
 74
     0
 49
-1.27
 74
     0
  0
LTYPE
  5
70
330
5
100
AcDbSymbolTableRecord
100
AcDbLinetypeTableRecord
  2
CENTER
 70
     0
  3
Center ____ _ ____ _ ____ _ ____ _ ____ _ ____
 72
    65
 73
     4
 40
10.16
 49
6.35
 74
     0
 49
-1.27
 74
     0
 49
1.27
 74
     0
 49
-1.27
 74
     0
  0
LTYPE
  5
71
330
5
100
AcDbSymbolTableRecord
100
AcDbLinetypeTableRecord
  2
CENTERX2
 70
     0
  3
Center (2x) ________  __  ________  __  _____
 72
    65
 73
     4
 40
20.32
 49
12.7
 74
     0
 49
-2.54
 74
     0
 49
2.54
 74
     0
 49
-2.54
 74
     0
  0
LTYPE
  5
72
330
5
100
AcDbSymbolTableRecord
100
AcDbLinetypeTableRecord
  2
DOT2
 70
     0
  3
Dot (.5x) ........................................
 72
    65
 73
     2
 40
0.635
 49
0.0
 74
     0
 49
-0.635
 74
     0
  0
ENDTAB
  0
TABLE
  2
LAYER
  5
2
330
0
100
AcDbSymbolTable
 70
    17
  0
LAYER
  5
10
330
2
100
AcDbSymbolTableRecord
100
AcDbLayerTableRecord
  2
0
 70
     0
 62
     7
  6
Continuous
370
    -3
390
F
  0
LAYER
  5
73
330
2
100
AcDbSymbolTableRecord
100
AcDbLayerTableRecord
  2
FORMAT
 70
     0
 62
     2
  6
Continuous
370
    -3
390
F
  0
LAYER
  5
74
330
2
100
AcDbSymbolTableRecord
100
AcDbLayerTableRecord
  2
외형선
 70
     0
 62
   100
  6
Continuous
370
    35
390
F
  0
LAYER
  5
75
330
2
100
AcDbSymbolTableRecord
100
AcDbLayerTableRecord
  2
숨은선
 70
     0
 62
     2
  6
HIDDEN
370
    25
390
F
  0
LAYER
  5
76
330
2
100
AcDbSymbolTableRecord
100
AcDbLayerTableRecord
  2
중심선
 70
     0
 62
     1
  6
CENTERX2
370
    -3
390
F
  0
LAYER
  5
77
330
2
100
AcDbSymbolTableRecord
100
AcDbLayerTableRecord
  2
파단선
 70
     0
 62
     4
  6
Continuous
370
    -3
390
F
  0
LAYER
  5
78
330
2
100
AcDbSymbolTableRecord
100
AcDbLayerTableRecord
  2
해칭선
 70
     0
 62
   100
  6
Continuous
370
    -3
390
F
  0
LAYER
  5
79
330
2
100
AcDbSymbolTableRecord
100
AcDbLayerTableRecord
  2
가는실선
 70
     0
 62
     4
  6
Continuous
370
    -3
390
F
  0
LAYER
  5
7A
330
2
100
AcDbSymbolTableRecord
100
AcDbLayerTableRecord
  2
치수_보조선
 70
     0
 62
     4
  6
Continuous
370
    -3
390
F
  0
LAYER
  5
7B
330
2
100
AcDbSymbolTableRecord
100
AcDbLayerTableRecord
  2
치수문자_일반주서
 70
     0
 62
     7
  6
Continuous
370
    25
390
F
  0
LAYER
  5
7C
330
2
100
AcDbSymbolTableRecord
100
AcDbLayerTableRecord
  2
개별주서
 70
     0
 62
   100
  6
Continuous
370
    35
390
F
  0
LAYER
  5
7D
330
2
100
AcDbSymbolTableRecord
100
AcDbLayerTableRecord
  2
중간선
 70
     0
 62
     2
  6
Continuous
370
    25
390
F
  0
LAYER
  5
7E
330
2
100
AcDbSymbolTableRecord
100
AcDbLayerTableRecord
  2
윤곽선
 70
     0
 62
     3
  6
Continuous
370
    50
390
F
  0
LAYER
  5
7F
330
2
100
AcDbSymbolTableRecord
100
AcDbLayerTableRecord
  2
중심마크
 70
     0
 62
   100
  6
Continuous
370
    35
390
F
  0
LAYER
  5
80
330
2
100
AcDbSymbolTableRecord
100
AcDbLayerTableRecord
  2
가상선
 70
     0
 62
     4
  6
PHANTOM
370
    -3
390
F
  0
LAYER
  5
81
330
2
100
AcDbSymbolTableRecord
100
AcDbLayerTableRecord
  2
특수지정선
 70
     0
 62
     5
  6
CENTERX2
370
    70
390
F
  0
LAYER
  5
13D
330
2
100
AcDbSymbolTableRecord
100
AcDbLayerTableRecord
  2
Defpoints
 70
     0
 62
     7
  6
Continuous
290
     0
370
    -3
390
F
  0
ENDTAB
  0
TABLE
  2
STYLE
  5
3
330
0
100
AcDbSymbolTable
 70
     2
  0
STYLE
  5
11
330
3
100
AcDbSymbolTableRecord
100
AcDbTextStyleTableRecord
  2
Standard
 70
     0
 40
0.0
 41
1.0
 50
0.0
 71
     0
 42
3.5
  3
txt
  4

  0
STYLE
  5
97
330
3
100
AcDbSymbolTableRecord
100
AcDbTextStyleTableRecord
  2
SLDTEXTSTYLE0
 70
     0
 40
0.0
 41
0.75
 50
0.0
 71
     0
 42
3.5
  3
TXT
  4

  0
ENDTAB
  0
TABLE
  2
VIEW
  5
6
330
0
100
AcDbSymbolTable
 70
     0
  0
ENDTAB
  0
TABLE
  2
UCS
  5
7
330
0
100
AcDbSymbolTable
 70
     0
  0
ENDTAB
  0
TABLE
  2
APPID
  5
9
330
0
100
AcDbSymbolTable
 70
     1
  0
APPID
  5
12
330
9
100
AcDbSymbolTableRecord
100
AcDbRegAppTableRecord
  2
ACAD
 70
     0
  0
ENDTAB
  0
TABLE
  2
DIMSTYLE
  5
A
330
0
100
AcDbSymbolTable
 70
     4
100
AcDbDimStyleTable
  0
DIMSTYLE
105
27
330
A
100
AcDbSymbolTableRecord
100
AcDbDimStyleTableRecord
  2
ISO-25
 70
     0
 41
2.5
 42
0.625
 43
3.75
 44
1.25
 73
     0
 74
     0
 77
     1
 78
     8
140
2.5
141
2.5
143
0.03937007874016
147
0.625
171
     3
172
     1
178
     0
271
     2
272
     2
274
     3
278
    44
283
     0
284
     8
340
11
  0
DIMSTYLE
105
E2
102
{ACAD_REACTORS
330
E1
102
}
330
A
100
AcDbSymbolTableRecord
100
AcDbDimStyleTableRecord
  2
SLDDIMSTYLE0
 70
     0
 41
3.302
 44
0.0
 45
0.000000001
 73
     0
 74
     0
 77
     1
 78
    12
 79
     3
140
3.5
147
0.875
172
     1
173
     1
178
     0
271
     1
272
     1
276
     2
284
    12
289
     0
340
97
  0
DIMSTYLE
105
F0
102
{ACAD_REACTORS
330
EF
330
108
102
}
330
A
100
AcDbSymbolTableRecord
100
AcDbDimStyleTableRecord
  2
SLDDIMSTYLE1
 70
     0
 41
3.302
 44
0.0
 45
0.000000001
 73
     0
 74
     0
 77
     1
 78
    12
 79
     3
140
3.5
147
0.875
173
     1
178
     0
271
     2
272
     2
276
     2
284
    12
340
97
  0
DIMSTYLE
105
FB
102
{ACAD_REACTORS
330
FA
102
}
330
A
100
AcDbSymbolTableRecord
100
AcDbDimStyleTableRecord
  2
SLDDIMSTYLE2
 70
     0
 41
3.302
 44
0.0
 45
0.000000001
 73
     0
 74
     0
 77
     1
 78
    12
 79
     3
140
3.5
147
0.875
172
     1
173
     1
178
     0
271
     2
272
     2
276
     2
284
    12
289
     0
340
97
  0
ENDTAB
  0
TABLE
  2
BLOCK_RECORD
  5
1
330
0
100
AcDbSymbolTable
 70
     7
  0
BLOCK_RECORD
  5
1F
330
1
100
AcDbSymbolTableRecord
100
AcDbBlockTableRecord
  2
*Model_Space
340
22
  0
BLOCK_RECORD
  5
1B
330
1
100
AcDbSymbolTableRecord
100
AcDbBlockTableRecord
  2
*Paper_Space
340
1E
  0
BLOCK_RECORD
  5
23
330
1
100
AcDbSymbolTableRecord
100
AcDbBlockTableRecord
  2
*Paper_Space0
340
26
  0
BLOCK_RECORD
  5
82
330
1
100
AcDbSymbolTableRecord
100
AcDbBlockTableRecord
  2
블럭10
340
0
102
{BLKREFS
331
DA
102
}
  0
BLOCK_RECORD
  5
E3
330
1
100
AcDbSymbolTableRecord
100
AcDbBlockTableRecord
  2
_D
340
0
  0
BLOCK_RECORD
  5
F1
330
1
100
AcDbSymbolTableRecord
100
AcDbBlockTableRecord
  2
_D_1
340
0
  0
BLOCK_RECORD
  5
FC
330
1
100
AcDbSymbolTableRecord
100
AcDbBlockTableRecord
  2
_D_2
340
0
  0
BLOCK_RECORD
  5
109
330
1
100
AcDbSymbolTableRecord
100
AcDbBlockTableRecord
  2
_D_3
340
0
  0
BLOCK_RECORD
  5
112
330
1
100
AcDbSymbolTableRecord
100
AcDbBlockTableRecord
  2
SW_DOWELSYMBOL_0
340
0
102
{BLKREFS
331
118
102
}
  0
ENDTAB
  0
ENDSEC
  0
SECTION
  2
BLOCKS
  0
BLOCK
  5
20
330
1F
100
AcDbEntity
  8
0
100
AcDbBlockBegin
  2
*Model_Space
 70
     0
 10
0.0
 20
0.0
 30
0.0
  3
*Model_Space
  1

  0
ENDBLK
  5
21
330
1F
100
AcDbEntity
  8
0
100
AcDbBlockEnd
  0
BLOCK
  5
1C
330
1B
100
AcDbEntity
 67
     1
  8
0
100
AcDbBlockBegin
  2
*Paper_Space
 70
     0
 10
0.0
 20
0.0
 30
0.0
  3
*Paper_Space
  1

  0
ENDBLK
  5
1D
330
1B
100
AcDbEntity
 67
     1
  8
0
100
AcDbBlockEnd
  0
BLOCK
  5
24
330
23
100
AcDbEntity
  8
0
100
AcDbBlockBegin
  2
*Paper_Space0
 70
     0
 10
0.0
 20
0.0
 30
0.0
  3
*Paper_Space0
  1

  0
ENDBLK
  5
25
330
23
100
AcDbEntity
  8
0
100
AcDbBlockEnd
  0
BLOCK
  5
83
330
82
100
AcDbEntity
  8
0
100
AcDbBlockBegin
  2
블럭10
 70
     2
 10
0.0
 20
0.0
 30
0.0
  3
블럭10
  1

  0
ELLIPSE
  5
85
330
82
100
AcDbEntity
  8
중심선
100
AcDbEllipse
 10
20.54032771741204
 20
12.0471743016438
 30
0.0
 11
6.600054785286829
 21
-1.261213355974178E-13
 31
0.0
210
0.0
220
0.0
230
1.0
 40
0.636358354079598
 41
0.9219305317359503
 42
6.513795318482858
  0
ELLIPSE
  5
86
330
82
100
AcDbEntity
  8
중심선
100
AcDbEllipse
 10
20.54032771746488
 20
12.04717430159265
 30
0.0
 11
3.960054785062283
 21
1.540847449632565E-10
 31
0.0
210
0.0
220
0.0
230
1.0
 40
0.3939339440162632
 41
1.131841032648279
 42
5.62031148352944
  0
LINE
  5
87
330
82
100
AcDbEntity
  8
중심선
100
AcDbLine
 10
2.268634060543552
 20
16.24717430164393
 30
0.0
 11
5.714909304380834
 21
16.24717430164393
 31
0.0
  0
LINE
  5
88
330
82
100
AcDbEntity
  8
중심선
100
AcDbLine
 10
5.245725140726316
 20
7.84717430164391
 30
0.0
 11
8.692000384563599
 21
7.84717430164391
 31
0.0
  0
LINE
  5
89
330
82
100
AcDbEntity
  8
중심선
100
AcDbLine
 10
15.74043728645272
 20
16.24717430164393
 30
0.0
 11
8.692000384563599
 21
7.84717430164391
 31
0.0
  0
LINE
  5
8A
330
82
100
AcDbEntity
  8
중심선
100
AcDbLine
 10
0.1404042013395286
 20
13.71084872107135
 30
0.0
 11
3.58671253028996
 21
13.71088815037384
 31
0.0
  0
LINE
  5
8B
330
82
100
AcDbEntity
  8
중심선
100
AcDbLine
 10
2.750260043222114
 20
10.84717430164391
 30
0.0
 11
6.196535287059397
 21
10.84717430164391
 31
0.0
  0
LINE
  5
8C
330
82
100
AcDbEntity
  8
중심선
100
AcDbLine
 10
12.29416204261559
 20
16.24717430164393
 30
0.0
 11
5.245725140726316
 21
7.84717430164391
 31
0.0
  0
LINE
  5
8D
330
82
100
AcDbEntity
  8
중심선
100
AcDbLine
 10
10.72767329541681
 20
16.24717430164393
 30
0.0
 11
6.196535287059397
 21
10.84717430164391
 31
0.0
  0
LINE
  5
8E
330
82
100
AcDbEntity
  8
중심선
100
AcDbLine
 10
7.28139805157953
 20
16.24717430164393
 30
0.0
 11
2.750260043222114
 21
10.84717430164391
 31
0.0
  0
LINE
  5
8F
330
82
100
AcDbEntity
  8
중심선
100
AcDbLine
 10
5.714909304380834
 20
16.24717430164393
 30
0.0
 11
3.58671253028996
 21
13.71088815037384
 31
0.0
  0
LINE
  5
90
330
82
100
AcDbEntity
  8
중심선
100
AcDbLine
 10
2.268634060543552
 20
16.24717430164393
 30
0.0
 11
0.1404042013395286
 21
13.71084872107135
 31
0.0
  0
LINE
  5
91
330
82
100
AcDbEntity
  8
중심선
100
AcDbLine
 10
7.28139805157953
 20
16.24717430164393
 30
0.0
 11
10.72767329541681
 21
16.24717430164393
 31
0.0
  0
LINE
  5
92
330
82
100
AcDbEntity
  8
중심선
100
AcDbLine
 10
12.29416204261559
 20
16.24717430164393
 30
0.0
 11
15.74043728645272
 21
16.24717430164393
 31
0.0
  0
LINE
  5
93
330
82
100
AcDbEntity
  8
중심선
100
AcDbLine
 10
19.22036997980202
 20
11.08717430171403
 30
0.0
 11
23.66174974927406
 21
11.08717430171406
 31
0.0
  0
LINE
  5
94
330
82
100
AcDbEntity
  8
중심선
100
AcDbLine
 10
19.22039502424796
 20
13.00717430171391
 30
0.0
 11
19.22036997980202
 21
11.08717430171403
 31
0.0
  0
LINE
  5
95
330
82
100
AcDbEntity
  8
중심선
100
AcDbLine
 10
19.22039502424796
 20
13.00717430171391
 30
0.0
 11
26.96566020931264
 21
13.00717430171391
 31
0.0
  0
LINE
  5
96
330
82
100
AcDbEntity
  8
중심선
100
AcDbLine
 10
22.22332737316547
 20
13.45928029700563
 30
0.0
 11
24.52862924686651
 21
15.39360700705356
 31
0.0
  0
ATTDEF
  5
98
330
82
100
AcDbEntity
  8
FORMAT
 62
     2
100
AcDbText
 10
-20.85824753159254
 20
2.075366912832191
 30
0.0
 40
4.233333333333333
  1
SEME7212060150E [ 4 FLUTE ]
 41
0.75
  7
SLDTEXTSTYLE0
 11
-20.85824753159254
 21
-0.0412997538344756
 31
0.0
100
AcDbAttributeDefinition
  3

  2
AUTOATTR0
 70
     0
 74
     1
  0
ENDBLK
  5
84
330
82
100
AcDbEntity
  8
0
100
AcDbBlockEnd
  0
BLOCK
  5
E4
330
E3
100
AcDbEntity
  8
0
100
AcDbBlockBegin
  2
_D
 70
     0
 10
0.0
 20
0.0
 30
0.0
  3
_D
  1

  0
LINE
  5
E6
330
E3
100
AcDbEntity
  8
치수문자_일반주서
 62
     0
370
    -2
100
AcDbLine
 10
70.06250000000001
 20
-6.00000000000001
 30
0.0
 11
85.72581496057646
 21
-5.999999999999954
 31
0.0
  0
LINE
  5
E7
330
E3
100
AcDbEntity
  8
치수문자_일반주서
 62
     0
370
    -2
100
AcDbLine
 10
70.06250000000001
 20
5.999999999999996
 30
0.0
 11
85.72581496057641
 21
6.000000000000055
 31
0.0
  0
LINE
  5
E8
330
E3
100
AcDbEntity
  8
치수문자_일반주서
 62
     0
370
    -2
100
AcDbLine
 10
85.72581496057646
 20
-5.999999999999954
 30
0.0
 11
85.72581496057636
 21
20.47900000000006
 31
0.0
  0
LINE
  5
E9
330
E3
100
AcDbEntity
  8
치수문자_일반주서
 62
     0
370
    -2
100
AcDbLine
 10
85.72581496057646
 20
-5.999999999999954
 30
0.0
 11
85.72581496057641
 21
6.000000000000055
 31
0.0
  0
LINE
  5
EA
330
E3
100
AcDbEntity
  8
치수문자_일반주서
 62
     0
370
    -2
100
AcDbLine
 10
85.72581496057647
 20
-9.301999999999953
 30
0.0
 11
85.72581496057649
 21
-12.60399999999995
 31
0.0
  0
LINE
  5
EB
330
E3
100
AcDbEntity
  8
치수문자_일반주서
 62
     0
370
    -2
100
AcDbLine
 10
85.7258149605764
 20
9.302000000000055
 30
0.0
 11
85.72581496057639
 21
12.60400000000005
 31
0.0
  0
SOLID
  5
EC
330
E3
100
AcDbEntity
  8
치수문자_일반주서
 62
     0
100
AcDbTrace
 10
86.2761482939098
 20
-9.301999999999952
 30
0.0
 11
85.17548162724314
 21
-9.301999999999955
 31
0.0
 12
85.72581496057646
 22
-5.999999999999954
 32
0.0
 13
85.72581496057646
 23
-5.999999999999954
 33
0.0
  0
SOLID
  5
ED
330
E3
100
AcDbEntity
  8
치수문자_일반주서
 62
     0
100
AcDbTrace
 10
85.17548162724307
 20
9.302000000000053
 30
0.0
 11
86.27614829390973
 21
9.302000000000056
 31
0.0
 12
85.72581496057641
 22
6.000000000000055
 32
0.0
 13
85.72581496057641
 23
6.000000000000055
 33
0.0
  0
MTEXT
  5
EE
330
E3
100
AcDbEntity
  8
치수문자_일반주서
 62
     0
100
AcDbMText
 10
81.35081496057637
 20
16.54150000000004
 30
0.0
 40
3.5
 41
0.0
 71
     2
 72
     1
  1
\A1;%%c12
  7
SLDTEXTSTYLE0
 11
-3.552713678800499E-15
 21
1.0
 31
0.0
 73
     1
 44
1.0
  0
POINT
  5
147
330
E3
100
AcDbEntity
  8
Defpoints
 62
     0
100
AcDbPoint
 10
70.00000000000001
 20
-6.00000000000001
 30
0.0
  0
POINT
  5
148
330
E3
100
AcDbEntity
  8
Defpoints
 62
     0
100
AcDbPoint
 10
70.00000000000001
 20
5.999999999999996
 30
0.0
  0
POINT
  5
149
330
E3
100
AcDbEntity
  8
Defpoints
 62
     0
100
AcDbPoint
 10
85.7258149605764
 20
6.000000000000054
 30
0.0
  0
ENDBLK
  5
E5
330
E3
100
AcDbEntity
  8
0
100
AcDbBlockEnd
  0
BLOCK
  5
F2
330
F1
100
AcDbEntity
  8
0
100
AcDbBlockBegin
  2
_D_1
 70
     0
 10
0.0
 20
0.0
 30
0.0
  3
_D_1
  1

  0
LINE
  5
F4
330
F1
100
AcDbEntity
  8
치수문자_일반주서
 62
     0
370
    -2
100
AcDbLine
 10
-79.99999999999999
 20
5.562499999999983
 30
0.0
 11
-79.99999999999999
 21
23.38913260158163
 31
0.0
  0
LINE
  5
F5
330
F1
100
AcDbEntity
  8
치수문자_일반주서
 62
     0
370
    -2
100
AcDbLine
 10
70.00000000000001
 20
6.062499999999999
 30
0.0
 11
70.00000000000001
 21
23.38913260158163
 31
0.0
  0
LINE
  5
F6
330
F1
100
AcDbEntity
  8
치수문자_일반주서
 62
     0
370
    -2
100
AcDbLine
 10
-76.69799999999998
 20
23.38913260158163
 30
0.0
 11
66.69800000000001
 21
23.38913260158163
 31
0.0
  0
SOLID
  5
F7
330
F1
100
AcDbEntity
  8
치수문자_일반주서
 62
     0
100
AcDbTrace
 10
-76.69799999999998
 20
23.93946593491497
 30
0.0
 11
-76.69799999999998
 21
22.8387992682483
 31
0.0
 12
-79.99999999999999
 22
23.38913260158163
 32
0.0
 13
-79.99999999999999
 23
23.38913260158163
 33
0.0
  0
SOLID
  5
F8
330
F1
100
AcDbEntity
  8
치수문자_일반주서
 62
     0
100
AcDbTrace
 10
66.69800000000001
 20
22.8387992682483
 30
0.0
 11
66.69800000000001
 21
23.93946593491497
 31
0.0
 12
70.00000000000001
 22
23.38913260158163
 32
0.0
 13
70.00000000000001
 23
23.38913260158163
 33
0.0
  0
MTEXT
  5
F9
330
F1
100
AcDbEntity
  8
치수문자_일반주서
 62
     0
100
AcDbMText
 10
-4.999999999999995
 20
27.76413260158163
 30
0.0
 40
3.5
 41
0.0
 71
     2
 72
     1
  1
\A1;150
  7
SLDTEXTSTYLE0
 73
     1
 44
1.0
  0
POINT
  5
13E
330
F1
100
AcDbEntity
  8
Defpoints
 62
     0
100
AcDbPoint
 10
-79.99999999999999
 20
5.499999999999983
 30
0.0
  0
POINT
  5
13F
330
F1
100
AcDbEntity
  8
Defpoints
 62
     0
100
AcDbPoint
 10
70.00000000000001
 20
5.999999999999999
 30
0.0
  0
POINT
  5
140
330
F1
100
AcDbEntity
  8
Defpoints
 62
     0
100
AcDbPoint
 10
70.00000000000001
 20
23.38913260158163
 30
0.0
  0
ENDBLK
  5
F3
330
F1
100
AcDbEntity
  8
0
100
AcDbBlockEnd
  0
BLOCK
  5
FD
330
FC
100
AcDbEntity
  8
0
100
AcDbBlockBegin
  2
_D_2
 70
     0
 10
0.0
 20
0.0
 30
0.0
  3
_D_2
  1

  0
LINE
  5
FF
330
FC
100
AcDbEntity
  8
치수문자_일반주서
 62
     0
370
    -2
100
AcDbLine
 10
-79.56249999999999
 20
5.999999999999999
 30
0.0
 11
-96.40906649403777
 21
5.999999999999936
 31
0.0
  0
LINE
  5
100
330
FC
100
AcDbEntity
  8
치수문자_일반주서
 62
     0
370
    -2
100
AcDbLine
 10
-79.56249999999999
 20
-6.000000000000012
 30
0.0
 11
-96.40906649403773
 21
-6.000000000000075
 31
0.0
  0
LINE
  5
101
330
FC
100
AcDbEntity
  8
치수문자_일반주서
 62
     0
370
    -2
100
AcDbLine
 10
-96.40906649403777
 20
5.999999999999936
 30
0.0
 11
-96.40906649403783
 21
20.47899999999994
 31
0.0
  0
LINE
  5
102
330
FC
100
AcDbEntity
  8
치수문자_일반주서
 62
     0
370
    -2
100
AcDbLine
 10
-96.40906649403777
 20
5.999999999999936
 30
0.0
 11
-96.40906649403773
 21
-6.000000000000075
 31
0.0
  0
LINE
  5
103
330
FC
100
AcDbEntity
  8
치수문자_일반주서
 62
     0
370
    -2
100
AcDbLine
 10
-96.40906649403779
 20
9.301999999999936
 30
0.0
 11
-96.4090664940378
 21
12.60399999999994
 31
0.0
  0
LINE
  5
104
330
FC
100
AcDbEntity
  8
치수문자_일반주서
 62
     0
370
    -2
100
AcDbLine
 10
-96.40906649403772
 20
-9.302000000000074
 30
0.0
 11
-96.4090664940377
 21
-12.60400000000007
 31
0.0
  0
SOLID
  5
105
330
FC
100
AcDbEntity
  8
치수문자_일반주서
 62
     0
100
AcDbTrace
 10
-96.95939982737112
 20
9.301999999999934
 30
0.0
 11
-95.85873316070446
 21
9.301999999999937
 31
0.0
 12
-96.40906649403777
 22
5.999999999999936
 32
0.0
 13
-96.40906649403777
 23
5.999999999999936
 33
0.0
  0
SOLID
  5
106
330
FC
100
AcDbEntity
  8
치수문자_일반주서
 62
     0
100
AcDbTrace
 10
-95.85873316070439
 20
-9.302000000000072
 30
0.0
 11
-96.95939982737104
 21
-9.302000000000076
 31
0.0
 12
-96.40906649403773
 22
-6.000000000000075
 32
0.0
 13
-96.40906649403773
 23
-6.000000000000075
 33
0.0
  0
MTEXT
  5
107
330
FC
100
AcDbEntity
  8
치수문자_일반주서
 62
     0
100
AcDbMText
 10
-100.7840664940378
 20
16.54149999999992
 30
0.0
 40
3.5
 41
0.0
 71
     2
 72
     1
  1
\A1;%%c12
  7
SLDTEXTSTYLE0
 11
-3.552713678800498E-15
 21
1.0
 31
0.0
 73
     1
 44
1.0
  0
POINT
  5
144
330
FC
100
AcDbEntity
  8
Defpoints
 62
     0
100
AcDbPoint
 10
-79.49999999999999
 20
5.999999999999999
 30
0.0
  0
POINT
  5
145
330
FC
100
AcDbEntity
  8
Defpoints
 62
     0
100
AcDbPoint
 10
-79.49999999999999
 20
-6.000000000000012
 30
0.0
  0
POINT
  5
146
330
FC
100
AcDbEntity
  8
Defpoints
 62
     0
100
AcDbPoint
 10
-96.40906649403775
 20
-6.000000000000075
 30
0.0
  0
ENDBLK
  5
FE
330
FC
100
AcDbEntity
  8
0
100
AcDbBlockEnd
  0
BLOCK
  5
10A
330
109
100
AcDbEntity
  8
0
100
AcDbBlockBegin
  2
_D_3
 70
     0
 10
0.0
 20
0.0
 30
0.0
  3
_D_3
  1

  0
LINE
  5
10C
330
109
100
AcDbEntity
  8
치수문자_일반주서
 62
     0
370
    -2
100
AcDbLine
 10
10.0
 20
5.818137757292765
 30
0.0
 11
10.0
 21
16.60155605988042
 31
0.0
  0
LINE
  5
10D
330
109
100
AcDbEntity
  8
치수문자_일반주서
 62
     0
370
    -2
100
AcDbLine
 10
70.00000000000001
 20
6.062499999999999
 30
0.0
 11
70.00000000000001
 21
16.60155605988042
 31
0.0
  0
LINE
  5
10E
330
109
100
AcDbEntity
  8
치수문자_일반주서
 62
     0
370
    -2
100
AcDbLine
 10
13.302
 20
16.60155605988042
 30
0.0
 11
66.69800000000001
 21
16.60155605988042
 31
0.0
  0
SOLID
  5
10F
330
109
100
AcDbEntity
  8
치수문자_일반주서
 62
     0
100
AcDbTrace
 10
13.302
 20
17.15188939321375
 30
0.0
 11
13.302
 21
16.05122272654708
 31
0.0
 12
10.0
 22
16.60155605988042
 32
0.0
 13
10.0
 23
16.60155605988042
 33
0.0
  0
SOLID
  5
110
330
109
100
AcDbEntity
  8
치수문자_일반주서
 62
     0
100
AcDbTrace
 10
66.69800000000001
 20
16.05122272654708
 30
0.0
 11
66.69800000000001
 21
17.15188939321375
 31
0.0
 12
70.00000000000001
 22
16.60155605988042
 32
0.0
 13
70.00000000000001
 23
16.60155605988042
 33
0.0
  0
MTEXT
  5
111
330
109
100
AcDbEntity
  8
치수문자_일반주서
 62
     0
100
AcDbMText
 10
40.0
 20
20.97655605988042
 30
0.0
 40
3.5
 41
0.0
 71
     2
 72
     1
  1
\A1;60
  7
SLDTEXTSTYLE0
 73
     1
 44
1.0
  0
POINT
  5
141
330
109
100
AcDbEntity
  8
Defpoints
 62
     0
100
AcDbPoint
 10
10.0
 20
5.755637757292765
 30
0.0
  0
POINT
  5
142
330
109
100
AcDbEntity
  8
Defpoints
 62
     0
100
AcDbPoint
 10
70.00000000000001
 20
5.999999999999999
 30
0.0
  0
POINT
  5
143
330
109
100
AcDbEntity
  8
Defpoints
 62
     0
100
AcDbPoint
 10
70.00000000000001
 20
16.60155605988042
 30
0.0
  0
ENDBLK
  5
10B
330
109
100
AcDbEntity
  8
0
100
AcDbBlockEnd
  0
BLOCK
  5
113
330
112
100
AcDbEntity
  8
0
100
AcDbBlockBegin
  2
SW_DOWELSYMBOL_0
 70
     0
 10
0.0
 20
0.0
 30
0.0
  3
SW_DOWELSYMBOL_0
  1

  0
CIRCLE
  5
115
330
112
100
AcDbEntity
  8
해칭선
 62
     0
100
AcDbCircle
 10
0.0
 20
0.0
 30
0.0
 40
3.000000000000003
  0
HATCH
  5
116
330
112
100
AcDbEntity
  8
0
  6
Continuous
 62
     0
370
    18
100
AcDbHatch
 10
0.0
 20
0.0
 30
0.0
210
0.0
220
0.0
230
1.0
  2
SOLID
 70
     1
 71
     0
 91
        1
 92
        0
 93
        3
 72
     2
 10
0.0
 20
0.0
 40
3.000000000000003
 50
0.0
 51
90.0
 73
     1
 72
     1
 10
0.0
 20
3.000000000000003
 11
0.0
 21
0.0
 72
     1
 10
0.0
 20
0.0
 11
3.000000000000003
 21
0.0
 97
        0
 75
     0
 76
     1
 98
        1
 10
0.0
 20
0.0
  0
HATCH
  5
117
330
112
100
AcDbEntity
  8
0
  6
Continuous
 62
     0
370
    18
100
AcDbHatch
 10
0.0
 20
0.0
 30
0.0
210
0.0
220
0.0
230
1.0
  2
SOLID
 70
     1
 71
     0
 91
        1
 92
        0
 93
        3
 72
     2
 10
0.0
 20
0.0
 40
3.000000000000003
 50
180.0
 51
270.0000000000008
 73
     1
 72
     1
 10
0.0
 20
-3.000000000000003
 11
0.0
 21
0.0
 72
     1
 10
0.0
 20
0.0
 11
-3.000000000000003
 21
0.0
 97
        0
 75
     0
 76
     1
 98
        1
 10
0.0
 20
0.0
  0
ENDBLK
  5
114
330
112
100
AcDbEntity
  8
0
100
AcDbBlockEnd
  0
ENDSEC
  0
SECTION
  2
ENTITIES
  0
LINE
  5
99
330
1F
100
AcDbEntity
  8
0
  6
Continuous
 62
     4
370
    25
100
AcDbLine
 10
8.500169802310731
 20
5.999999999999994
 30
0.0
 11
-79.49999999999999
 21
5.999999999999988
 31
0.0
  0
LINE
  5
9A
330
1F
100
AcDbEntity
  8
0
  6
Continuous
 62
     4
370
    25
100
AcDbLine
 10
-79.49999999999999
 20
-6.000000000000012
 30
0.0
 11
8.500169802310728
 21
-6.000000000000006
 31
0.0
  0
LINE
  5
9B
330
1F
100
AcDbEntity
  8
0
  6
Continuous
 62
     4
370
    25
100
AcDbLine
 10
-79.49999999999999
 20
5.999999999999981
 30
0.0
 11
-79.99999999999999
 21
5.499999999999983
 31
0.0
  0
LINE
  5
9C
330
1F
100
AcDbEntity
  8
0
  6
Continuous
 62
     4
370
    25
100
AcDbLine
 10
-79.99999999999999
 20
-5.500000000000006
 30
0.0
 11
-79.49999999999999
 21
-6.000000000000004
 31
0.0
  0
LINE
  5
9D
330
1F
100
AcDbEntity
  8
0
  6
Continuous
 62
     1
370
    25
100
AcDbLine
 10
67.67861720435889
 20
-6.000000000000012
 30
0.0
 11
70.00000000000001
 21
-6.000000000000012
 31
0.0
  0
LINE
  5
9E
330
1F
100
AcDbEntity
  8
0
  6
Continuous
 62
     1
370
    25
100
AcDbLine
 10
39.67180535202268
 20
5.999999999999999
 30
0.0
 11
35.03012139549668
 21
5.999999999999999
 31
0.0
  0
LINE
  5
9F
330
1F
100
AcDbEntity
  8
0
  6
Continuous
 62
     1
370
    25
100
AcDbLine
 10
52.93162140322702
 20
-0.9043061140204978
 30
0.0
 11
52.84385170226866
 21
-0.8570652328209842
 31
0.0
  0
LINE
  5
A0
330
1F
100
AcDbEntity
  8
0
  6
Continuous
 62
     1
370
    25
100
AcDbLine
 10
53.11812637949382
 20
-1.004689951845324
 30
0.0
 11
53.02238172115964
 21
-0.953156655269572
 31
0.0
  0
LINE
  5
A1
330
1F
100
AcDbEntity
  8
0
  6
Continuous
 62
     1
370
    25
100
AcDbLine
 10
37.94988413188697
 20
0.9829244829067721
 30
0.0
 11
38.18210512104326
 21
0.8572837085915366
 31
0.0
  0
LINE
  5
A2
330
1F
100
AcDbEntity
  8
0
  6
Continuous
 62
     1
370
    25
100
AcDbLine
 10
51.35670703420305
 20
-6.000000000000012
 30
0.0
 11
55.99679296867053
 21
-6.000000000000012
 31
0.0
  0
LINE
  5
A3
330
1F
100
AcDbEntity
  8
0
  6
Continuous
 62
     1
370
    25
100
AcDbLine
 10
23.34998518709678
 20
5.999999999999999
 30
0.0
 11
18.70802119774823
 21
5.999999999999999
 31
0.0
  0
LINE
  5
A4
330
1F
100
AcDbEntity
  8
0
  6
Continuous
 62
     1
370
    25
100
AcDbLine
 10
18.70802119774821
 20
-6.000000000000012
 30
0.0
 11
23.34998518709677
 21
-6.000000000000012
 31
0.0
  0
LINE
  5
A5
330
1F
100
AcDbEntity
  8
0
  6
Continuous
 62
     1
370
    25
100
AcDbLine
 10
55.99679296867053
 20
5.999999999999999
 30
0.0
 11
51.35670703420311
 21
5.999999999999999
 31
0.0
  0
LINE
  5
A6
330
1F
100
AcDbEntity
  8
0
  6
Continuous
 62
     1
370
    25
100
AcDbLine
 10
35.03012139549665
 20
-6.000000000000012
 30
0.0
 11
39.67180535202257
 21
-6.000000000000012
 31
0.0
  0
LINE
  5
A7
330
1F
100
AcDbEntity
  8
0
  6
Continuous
 62
     1
370
    25
100
AcDbLine
 10
70.00000000000001
 20
5.999999999999999
 30
0.0
 11
67.6786172043589
 21
5.999999999999999
 31
0.0
  0
SPLINE
  5
A8
330
1F
100
AcDbEntity
  8
0
  6
Continuous
 62
     4
370
    25
100
AcDbSpline
210
0.0
220
0.0
230
1.0
 70
    24
 71
     3
 72
    12
 73
     8
 74
     0
 42
0.000000001
 43
0.00000001
 40
0.0
 40
0.0
 40
0.0
 40
0.0
 40
0.5
 40
0.5
 40
0.75
 40
0.75
 40
1.0
 40
1.0
 40
1.0
 40
1.0
 10
10.0
 20
4.425787593338846
 30
0.0
 10
10.0
 20
4.133870062039341
 30
0.0
 10
10.0
 20
3.82087615791632
 30
0.0
 10
10.0
 20
3.318538225124988
 30
0.0
 10
10.0
 20
3.145834105028178
 30
0.0
 10
10.0
 20
2.797548826809125
 30
0.0
 10
10.0
 20
2.620947847021033
 30
0.0
 10
10.0
 20
2.441755841818747
 30
0.0
  0
SPLINE
  5
A9
330
1F
100
AcDbEntity
  8
0
  6
Continuous
 62
     4
370
    25
100
AcDbSpline
210
0.0
220
0.0
230
1.0
 70
     8
 71
     3
 72
    14
 73
    10
 74
     0
 42
0.000000001
 43
0.00000001
 40
0.0
 40
0.0
 40
0.0
 40
0.0
 40
0.2499999999999998
 40
0.2499999999999998
 40
0.4999999999999999
 40
0.4999999999999999
 40
0.7499999999999999
 40
0.7499999999999999
 40
1.0
 40
1.0
 40
1.0
 40
1.0
 10
9.103367180411569
 20
-1.192552669523403
 30
0.0
 10
9.008893588803708
 20
-1.138925335969728
 30
0.0
 10
8.924015323454338
 20
-1.073855742777919
 30
0.0
 10
8.772882865030224
 20
-0.921100862364408
 30
0.0
 10
8.707778342503692
 20
-0.8338576807744537
 30
0.0
 10
8.604018835724801
 20
-0.6464701759667387
 30
0.0
 10
8.564312266822553
 20
-0.5440960609947265
 30
0.0
 10
8.512791197396748
 20
-0.3353885138817306
 30
0.0
 10
8.500169802310731
 20
-0.2270888878763056
 30
0.0
 10
8.500169802310731
 20
-0.118050210326923
 30
0.0
  0
SPLINE
  5
AA
330
1F
100
AcDbEntity
  8
0
  6
Continuous
 62
     4
370
    25
100
AcDbSpline
210
0.0
220
0.0
230
1.0
 70
     8
 71
     3
 72
    18
 73
    14
 74
     0
 42
0.000000001
 43
0.00000001
 40
0.0
 40
0.0
 40
0.0
 40
0.0
 40
0.1249999999999999
 40
0.1249999999999999
 40
0.2499999999999997
 40
0.2499999999999997
 40
0.4999999999999994
 40
0.4999999999999994
 40
0.6249999999999996
 40
0.6249999999999996
 40
0.7499999999999996
 40
0.7499999999999996
 40
1.0
 40
1.0
 40
1.0
 40
1.0
 10
8.500169802310731
 20
3.529069804419316
 30
0.0
 10
8.500169802310731
 20
3.60470580203371
 30
0.0
 10
8.509299328197526
 20
3.677814740562504
 30
0.0
 10
8.546878259488325
 20
3.81910335116651
 30
0.0
 10
8.57590594493745
 20
3.887981441966808
 30
0.0
 10
8.69042923248488
 20
4.077947795001378
 30
0.0
 10
8.806515524026556
 20
4.187048501060672
 30
0.0
 10
9.021614703569544
 20
4.309808012010656
 30
0.0
 10
9.101473414305975
 20
4.344764288434891
 30
0.0
 10
9.268314549904435
 20
4.399588422294033
 30
0.0
 10
9.355811649678394
 20
4.419957339245945
 30
0.0
 10
9.630281209196381
 20
4.460100082099766
 30
0.0
 10
9.818705018492167
 20
4.457601296257647
 30
0.0
 10
9.999999999999968
 20
4.425787593338657
 30
0.0
  0
SPLINE
  5
AB
330
1F
100
AcDbEntity
  8
0
  6
Continuous
 62
     4
370
    25
100
AcDbSpline
210
0.0
220
0.0
230
1.0
 70
     8
 71
     3
 72
    14
 73
    10
 74
     0
 42
0.000000001
 43
0.00000001
 40
0.0
 40
0.0
 40
0.0
 40
0.0
 40
0.2499999999999999
 40
0.2499999999999999
 40
0.5
 40
0.5
 40
0.75
 40
0.75
 40
1.0
 40
1.0
 40
1.0
 40
1.0
 10
9.103367180411569
 20
5.880290650163079
 30
0.0
 10
9.008893588803708
 20
5.891166544501243
 30
0.0
 10
8.924015323454338
 20
5.903628813322637
 30
0.0
 10
8.772882865030224
 20
5.929382136710524
 30
0.0
 10
8.707778342503692
 20
5.942524340886019
 30
0.0
 10
8.604018835724801
 20
5.965818509257128
 30
0.0
 10
8.564312266822553
 20
5.976195110287179
 30
0.0
 10
8.512791197396748
 20
5.991532613995069
 30
0.0
 10
8.500169802310731
 20
5.996692811414468
 30
0.0
 10
8.500169802310731
 20
5.998838566576174
 30
0.0
  0
SPLINE
  5
AC
330
1F
100
AcDbEntity
  8
0
  6
Continuous
 62
     4
370
    25
100
AcDbSpline
210
0.0
220
0.0
230
1.0
 70
     8
 71
     3
 72
     8
 73
     4
 74
     0
 42
0.000000001
 43
0.00000001
 40
0.0
 40
0.0
 40
0.0
 40
0.0
 40
1.0
 40
1.0
 40
1.0
 40
1.0
 10
10.0
 20
5.755637757292765
 30
0.0
 10
9.700295815718873
 20
5.804432038880684
 30
0.0
 10
9.400864228119044
 20
5.846042492538119
 30
0.0
 10
9.103367180411565
 20
5.880290650163078
 30
0.0
  0
LINE
  5
AD
330
1F
100
AcDbEntity
  8
0
  6
Continuous
 62
     4
370
    25
100
AcDbLine
 10
10.0
 20
5.755637757292765
 30
0.0
 11
10.0
 21
4.425787593338844
 31
0.0
  0
SPLINE
  5
AE
330
1F
100
AcDbEntity
  8
0
  6
Continuous
 62
     4
370
    25
100
AcDbSpline
210
0.0
220
0.0
230
1.0
 70
     8
 71
     3
 72
     8
 73
     4
 74
     0
 42
0.000000001
 43
0.00000001
 40
0.0
 40
0.0
 40
0.0
 40
0.0
 40
1.0
 40
1.0
 40
1.0
 40
1.0
 10
10.0
 20
-1.694884658851028
 30
0.0
 10
9.700295815718873
 20
-1.529184764182217
 30
0.0
 10
9.400864228119048
 20
-1.361424976981176
 30
0.0
 10
9.103367180411565
 20
-1.192552669523403
 30
0.0
  0
LINE
  5
AF
330
1F
100
AcDbEntity
  8
0
  6
Continuous
 62
     4
370
    25
100
AcDbLine
 10
10.0
 20
-1.694884658851028
 30
0.0
 11
10.0
 21
-4.051222553581582
 31
0.0
  0
SPLINE
  5
B0
330
1F
100
AcDbEntity
  8
0
  6
Continuous
 62
     4
370
    25
100
AcDbSpline
210
0.0
220
0.0
230
1.0
 70
     8
 71
     3
 72
    18
 73
    14
 74
     0
 42
0.000000001
 43
0.00000001
 40
0.0
 40
0.0
 40
0.0
 40
0.0
 40
0.1249999999999998
 40
0.1249999999999998
 40
0.2499999999999997
 40
0.2499999999999997
 40
0.4999999999999994
 40
0.4999999999999994
 40
0.6249999999999996
 40
0.6249999999999996
 40
0.7499999999999998
 40
0.7499999999999998
 40
1.0
 40
1.0
 40
1.0
 40
1.0
 10
8.500169802310731
 20
-4.85238769221256
 30
0.0
 10
8.500169802310731
 20
-4.797378749762132
 30
0.0
 10
8.50929932819753
 20
-4.741504418918169
 30
0.0
 10
8.546878259488325
 20
-4.628459248349077
 30
0.0
 10
8.575905944937457
 20
-4.570632415104999
 30
0.0
 10
8.690429232484886
 20
-4.404391359721604
 30
0.0
 10
8.806515524026556
 20
-4.299091608806822
 30
0.0
 10
9.021614703569544
 20
-4.174798899635256
 30
0.0
 10
9.101473414305975
 20
-4.138191084132878
 30
0.0
 10
9.268314549904435
 20
-4.079855865747255
 30
0.0
 10
9.355811649678394
 20
-4.05763126263724
 30
0.0
 10
9.630281209196381
 20
-4.013612417111784
 30
0.0
 10
9.818705018492167
 20
-4.016467442053158
 30
0.0
 10
9.999999999999968
 20
-4.051222553581788
 30
0.0
  0
LINE
  5
B1
330
1F
100
AcDbEntity
  8
0
  6
Continuous
 62
     4
370
    25
100
AcDbLine
 10
8.500169802310731
 20
-4.852387692212561
 30
0.0
 11
8.500169802310731
 21
-6.000000000000006
 31
0.0
  0
SPLINE
  5
B2
330
1F
100
AcDbEntity
  8
0
  6
Continuous
 62
     4
370
    25
100
AcDbSpline
210
0.0
220
0.0
230
1.0
 70
     8
 71
     3
 72
    14
 73
    10
 74
     0
 42
0.000000001
 43
0.00000001
 40
0.0
 40
0.0
 40
0.0
 40
0.0
 40
0.25
 40
0.25
 40
0.5
 40
0.5
 40
0.75
 40
0.75
 40
1.0
 40
1.0
 40
1.0
 40
1.0
 10
9.103367180411569
 20
-5.880290650163094
 30
0.0
 10
9.008893588803708
 20
-5.891166544501255
 30
0.0
 10
8.924015323454338
 20
-5.903628813322653
 30
0.0
 10
8.772882865030224
 20
-5.929382136710545
 30
0.0
 10
8.707778342503692
 20
-5.942524340886038
 30
0.0
 10
8.604018835724801
 20
-5.965818509257144
 30
0.0
 10
8.564312266822553
 20
-5.976195110287193
 30
0.0
 10
8.512791197396748
 20
-5.991532613995082
 30
0.0
 10
8.500169802310731
 20
-5.996692811414481
 30
0.0
 10
8.500169802310731
 20
-5.998838566576187
 30
0.0
  0
SPLINE
  5
B3
330
1F
100
AcDbEntity
  8
0
  6
Continuous
 62
     4
370
    25
100
AcDbSpline
210
0.0
220
0.0
230
1.0
 70
     8
 71
     3
 72
     8
 73
     4
 74
     0
 42
0.000000001
 43
0.00000001
 40
0.0
 40
0.0
 40
0.0
 40
0.0
 40
1.0
 40
1.0
 40
1.0
 40
1.0
 10
10.0
 20
-5.755637757292789
 30
0.0
 10
9.700295815718873
 20
-5.804432038880708
 30
0.0
 10
9.400864228119048
 20
-5.846042492538141
 30
0.0
 10
9.103367180411565
 20
-5.880290650163097
 30
0.0
  0
LINE
  5
B4
330
1F
100
AcDbEntity
  8
0
  6
Continuous
 62
     4
370
    25
100
AcDbLine
 10
8.500169802310731
 20
5.999999999999994
 30
0.0
 11
8.500169802310731
 21
5.998838566576174
 31
0.0
  0
LINE
  5
B5
330
1F
100
AcDbEntity
  8
0
  6
Continuous
 62
     4
370
    25
100
AcDbLine
 10
-79.49999999999999
 20
5.999999999999981
 30
0.0
 11
-79.49999999999999
 21
-6.000000000000004
 31
0.0
  0
LINE
  5
B6
330
1F
100
AcDbEntity
  8
0
  6
Continuous
 62
     4
370
    25
100
AcDbLine
 10
8.500169802310731
 20
3.529069804419317
 30
0.0
 11
8.500169802310731
 21
-0.118050210326923
 31
0.0
  0
LINE
  5
B7
330
1F
100
AcDbEntity
  8
0
  6
Continuous
 62
     4
370
    25
100
AcDbLine
 10
-79.99999999999999
 20
5.499999999999983
 30
0.0
 11
-79.99999999999999
 21
-5.500000000000006
 31
0.0
  0
SPLINE
  5
B8
330
1F
100
AcDbEntity
  8
0
  6
Continuous
 62
     4
370
    25
100
AcDbSpline
210
0.0
220
0.0
230
1.0
 70
    24
 71
     3
 72
    14
 73
    10
 74
     0
 42
0.000000001
 43
0.00000001
 40
0.0
 40
0.0
 40
0.0
 40
0.0
 40
0.25
 40
0.25
 40
0.5
 40
0.5
 40
0.75
 40
0.75
 40
1.0
 40
1.0
 40
1.0
 40
1.0
 10
10.0
 20
2.441755841816443
 30
0.0
 10
10.0
 20
2.105256000773138
 30
0.0
 10
10.0
 20
1.738623780210823
 30
0.0
 10
10.0
 20
0.9727748518280169
 30
0.0
 10
10.0
 20
0.5735882388401433
 30
0.0
 10
10.0
 20
-0.2003663407330341
 30
0.0
 10
10.0
 20
-0.5742099078681023
 30
0.0
 10
10.0
 20
-1.223315381451378
 30
0.0
 10
10.0
 20
-1.497220255887821
 30
0.0
 10
10.0
 20
-1.694884658851027
 30
0.0
  0
SPLINE
  5
B9
330
1F
100
AcDbEntity
  8
0
  6
Continuous
 62
     4
370
    25
100
AcDbSpline
210
0.0
220
0.0
230
1.0
 70
    24
 71
     3
 72
    11
 73
     7
 74
     0
 42
0.000000001
 43
0.00000001
 40
0.0
 40
0.0
 40
0.0
 40
0.0
 40
0.2943070820167887
 40
0.6292510646378735
 40
0.9739084454456798
 40
0.9999999999999999
 40
0.9999999999999999
 40
0.9999999999999999
 40
0.9999999999999999
 10
10.0
 20
-4.154304425067255
 30
0.0
 10
10.0
 20
-4.281717029724837
 30
0.0
 10
10.0
 20
-4.554134929354225
 30
0.0
 10
10.0
 20
-5.08215902672433
 30
0.0
 10
10.0
 20
-5.505681516903906
 30
0.0
 10
10.0
 20
-5.739203580216575
 30
0.0
 10
10.0
 20
-5.755637757292789
 30
0.0
  0
SPLINE
  5
BA
330
1F
100
AcDbEntity
  8
0
  6
Continuous
 62
     1
370
    25
100
AcDbSpline
210
0.0
220
0.0
230
1.0
 70
     8
 71
     3
 72
    23
 73
    19
 74
     0
 42
0.000000001
 43
0.00000001
 40
0.0
 40
0.0
 40
0.0
 40
0.0
 40
0.0615945091263322
 40
0.1281943384339113
 40
0.1947924727548763
 40
0.2613715741774031
 40
0.3279181870697087
 40
0.3944833157346441
 40
0.4610751380092757
 40
0.5276763583585958
 40
0.5942696181376461
 40
0.6608376121640682
 40
0.7245569618381703
 40
0.7882918439797608
 40
0.8520422723006986
 40
0.9158018817883371
 40
0.9795642758325229
 40
1.0
 40
1.0
 40
1.0
 40
1.0
 10
29.19032433293468
 20
5.066265938317322
 30
0.0
 10
29.98055799811633
 20
5.28834204398397
 30
0.0
 10
31.62524164529649
 20
5.750540701814405
 30
0.0
 10
34.12454002846735
 20
6.033613744240688
 30
0.0
 10
36.68775068257418
 20
5.985486903074761
 30
0.0
 10
39.2501732118717
 20
5.568240298552872
 30
0.0
 10
41.81175882227768
 20
4.815851819117266
 30
0.0
 10
44.37376817023477
 20
3.771777748854553
 30
0.0
 10
46.93670358499566
 20
2.499695379451669
 30
0.0
 10
49.50006878935087
 20
1.076271329131878
 30
0.0
 10
52.06306082304825
 20
-0.4121910550850484
 30
0.0
 10
54.58891401272048
 20
-1.854893975426799
 30
0.0
 10
57.07768434858876
 20
-3.169417628315405
 30
0.0
 10
59.53056705467593
 20
-4.287093654950236
 30
0.0
 10
61.9840636955705
 20
-5.173361496590911
 30
0.0
 10
64.43798665809648
 20
-5.749085677243481
 30
0.0
 10
66.33623043140419
 20
-6.015804705318608
 30
0.0
 10
67.4164396412071
 20
-5.973827953429099
 30
0.0
 10
67.67861720435889
 20
-5.963639776528233
 30
0.0
  0
SPLINE
  5
BB
330
1F
100
AcDbEntity
  8
0
  6
Continuous
 62
     1
370
    25
100
AcDbSpline
210
0.0
220
0.0
230
1.0
 70
     8
 71
     3
 72
    19
 73
    15
 74
     0
 42
0.000000001
 43
0.00000001
 40
0.0
 40
0.0
 40
0.0
 40
0.0
 40
0.0844623821111041
 40
0.1689647100817946
 40
0.2534850831605818
 40
0.3380014794792912
 40
0.4224919038835668
 40
0.5069425623559627
 40
0.5914218751721877
 40
0.6759332519472429
 40
0.7604547312275012
 40
0.8449642837116608
 40
0.9294399601892385
 40
1.0
 40
1.0
 40
1.0
 40
1.0
 10
70.0
 20
-5.850994190131569
 30
0.0
 10
69.1462140248401
 20
-5.707373451389914
 30
0.0
 10
67.43823828275137
 20
-5.420064049539329
 30
0.0
 10
64.87554852869556
 20
-4.566513042532609
 30
0.0
 10
62.3122278414929
 20
-3.4620581858792
 30
0.0
 10
59.74905291857666
 20
-2.141357484303932
 30
0.0
 10
57.1867105102373
 20
-0.6931201724773204
 30
0.0
 10
54.62515057787149
 20
0.797958528575294
 30
0.0
 10
52.06306627771559
 20
2.240419710377056
 30
0.0
 10
49.50006704053248
 20
3.546738928377005
 30
0.0
 10
46.93670512398994
 20
4.641259202187715
 30
0.0
 10
44.37376376443917
 20
5.444822783639022
 30
0.0
 10
41.95220998810889
 20
5.928742536896373
 30
0.0
 10
40.38505211113372
 20
5.960541989291995
 30
0.0
 10
39.67180535202267
 20
5.975014593932478
 30
0.0
  0
SPLINE
  5
BC
330
1F
100
AcDbEntity
  8
0
  6
Continuous
 62
     1
370
    25
100
AcDbSpline
210
0.0
220
0.0
230
1.0
 70
     8
 71
     3
 72
     9
 73
     5
 74
     0
 42
0.000000001
 43
0.00000001
 40
0.0
 40
0.0
 40
0.0
 40
0.0
 40
0.1933941102091002
 40
0.9999999999999999
 40
0.9999999999999999
 40
0.9999999999999999
 40
0.9999999999999999
 10
12.86717906116837
 20
-5.054056295580966
 30
0.0
 10
12.68234718718041
 20
-5.117935498869936
 30
0.0
 10
11.72662069795009
 20
-5.44824133507096
 30
0.0
 10
10.77089443373984
 20
-5.618392680176294
 30
0.0
 10
10.0
 20
-5.755637757294102
 30
0.0
  0
LINE
  5
BD
330
1F
100
AcDbEntity
  8
0
  6
Continuous
 62
     1
370
    25
100
AcDbLine
 10
70.00000000000001
 20
-6.000000000000019
 30
0.0
 11
70.00000000000001
 21
-5.850994190131579
 31
0.0
  0
SPLINE
  5
BE
330
1F
100
AcDbEntity
  8
0
  6
Continuous
 62
     1
370
    25
100
AcDbSpline
210
0.0
220
0.0
230
1.0
 70
     8
 71
     3
 72
    23
 73
    19
 74
     0
 42
0.000000001
 43
0.00000001
 40
0.0
 40
0.0
 40
0.0
 40
0.0
 40
0.0536179703784107
 40
0.1202418457680773
 40
0.1868343642257721
 40
0.2534494777106088
 40
0.320089874832173
 40
0.3867382381588135
 40
0.453377196758437
 40
0.5199894428535711
 40
0.58658316006988
 40
0.6532093888130764
 40
0.7198546639269487
 40
0.786501635227214
 40
0.8531329411351428
 40
0.9197316587620185
 40
0.9863366834943093
 40
1.0
 40
1.0
 40
1.0
 40
1.0
 10
61.81115052617649
 20
-5.060053674372251
 30
0.0
 10
61.12369882373358
 20
-5.261395530498924
 30
0.0
 10
59.58204290138582
 20
-5.712917963000208
 30
0.0
 10
57.18671151066665
 20
-6.015546775106788
 30
0.0
 10
54.62515033019692
 20
-6.009911457683389
 30
0.0
 10
52.06306626781053
 20
-5.631456504592429
 30
0.0
 10
49.50006732810294
 20
-4.91484180556419
 30
0.0
 10
46.9367039835602
 20
-3.900184050161715
 30
0.0
 10
44.37376803715109
 20
-2.649833406602214
 30
0.0
 10
41.81175895617183
 20
-1.239177286250527
 30
0.0
 10
39.25017280934333
 20
0.2468168770802384
 30
0.0
 10
36.68775215978696
 20
1.717286679919616
 30
0.0
 10
34.12453452068907
 20
3.08460559482196
 30
0.0
 10
31.56124194173371
 20
4.263323633863668
 30
0.0
 10
28.99862170036843
 20
5.191464582346778
 30
0.0
 10
26.43696932488156
 20
5.778005499737166
 30
0.0
 10
24.55408906342048
 20
6.028138311970409
 30
0.0
 10
23.52513436217932
 20
5.981849261990765
 30
0.0
 10
23.34998518709677
 20
5.973969917147393
 30
0.0
  0
SPLINE
  5
BF
330
1F
100
AcDbEntity
  8
0
  6
Continuous
 62
     1
370
    25
100
AcDbSpline
210
0.0
220
0.0
230
1.0
 70
     8
 71
     3
 72
    13
 73
     9
 74
     0
 42
0.000000001
 43
0.00000001
 40
0.0
 40
0.0
 40
0.0
 40
0.0
 40
0.1829301209917114
 40
0.365946757432604
 40
0.5490024762877611
 40
0.732049582205608
 40
0.915040437691831
 40
1.0
 40
1.0
 40
1.0
 40
1.0
 10
70.0
 20
1.328859280378005
 30
0.0
 10
69.14621401246423
 20
1.80198369721804
 30
0.0
 10
67.43823824561787
 20
2.74845629159547
 30
0.0
 10
64.87554867732487
 20
3.978686912433307
 30
0.0
 10
62.31222728401995
 20
4.979521904089509
 30
0.0
 10
59.74905499941261
 20
5.657397442543466
 30
0.0
 10
57.64389076509427
 20
5.995207522809252
 30
0.0
 10
56.39331535611403
 20
5.964455561655624
 30
0.0
 10
55.99679296867053
 20
5.954704977270515
 30
0.0
  0
SPLINE
  5
C0
330
1F
100
AcDbEntity
  8
0
  6
Continuous
 62
     1
370
    25
100
AcDbSpline
210
0.0
220
0.0
230
1.0
 70
     8
 71
     3
 72
    16
 73
    12
 74
     0
 42
0.000000001
 43
0.00000001
 40
0.0
 40
0.0
 40
0.0
 40
0.0
 40
0.0100065170612297
 40
0.1434723314006406
 40
0.276950785367215
 40
0.3974491328721949
 40
0.517953436892841
 40
0.6384621888983498
 40
0.7589738766921401
 40
0.8794869856562442
 40
1.0
 40
1.0
 40
1.0
 40
1.0
 10
29.19032433293468
 20
-5.066265938317332
 30
0.0
 10
29.12630781701388
 20
-5.089308937482492
 30
0.0
 10
28.20844611437513
 20
-5.419696902891356
 30
0.0
 10
26.43698304579351
 20
-5.775476320840018
 30
0.0
 10
23.95841630232277
 20
-6.049683486321275
 30
0.0
 10
21.56306949363613
 20
-5.959378025085122
 30
0.0
 10
19.2505780214752
 20
-5.585598194241067
 30
0.0
 10
16.93800603191527
 20
-4.934870438882873
 30
0.0
 10
14.62536070501837
 20
-4.039728093696301
 30
0.0
 10
12.31268378166255
 20
-2.951250077151837
 30
0.0
 10
10.77089439213256
 20
-2.113673022014987
 30
0.0
 10
10.0
 20
-1.694884658851629
 30
0.0
  0
SPLINE
  5
C1
330
1F
100
AcDbEntity
  8
0
  6
Continuous
 62
     4
370
    25
100
AcDbSpline
210
0.0
220
0.0
230
1.0
 70
    24
 71
     3
 72
    24
 73
    20
 74
     0
 42
0.000000001
 43
0.00000001
 40
0.0
 40
0.0
 40
0.0
 40
0.0
 40
0.0624999999999999
 40
0.0624999999999999
 40
0.1249999999999997
 40
0.1249999999999997
 40
0.2499999999999997
 40
0.2499999999999997
 40
0.3749999999999996
 40
0.3749999999999996
 40
0.4999999999999994
 40
0.4999999999999994
 40
0.6249999999999996
 40
0.6249999999999996
 40
0.7499999999999998
 40
0.7499999999999998
 40
0.8749999999999999
 40
0.8749999999999999
 40
1.0
 40
1.0
 40
1.0
 40
1.0
 10
10.0
 20
4.458878332285249
 30
0.0
 10
10.0
 20
4.371160747970476
 30
0.0
 10
10.0
 20
4.284295965705317
 30
0.0
 10
10.0
 20
4.113145469097216
 30
0.0
 10
10.0
 20
4.025193972177288
 30
0.0
 10
10.0
 20
3.743445922356342
 30
0.0
 10
10.0
 20
3.535728801814108
 30
0.0
 10
10.0
 20
3.077265057425089
 30
0.0
 10
10.0
 20
2.826385865794417
 30
0.0
 10
10.0
 20
2.283688896210272
 30
0.0
 10
10.0
 20
1.99172300333246
 30
0.0
 10
10.0
 20
1.378858492457418
 30
0.0
 10
10.0
 20
1.057899435597268
 30
0.0
 10
10.0
 20
0.4125799066386828
 30
0.0
 10
10.0
 20
0.0883987846747605
 30
0.0
 10
10.0
 20
-0.52551827424101
 30
0.0
 10
10.0
 20
-0.814794005885857
 30
0.0
 10
10.0
 20
-1.318418596237522
 30
0.0
 10
10.0
 20
-1.532272786147987
 30
0.0
 10
10.0
 20
-1.694884658851626
 30
0.0
  0
SPLINE
  5
C2
330
1F
100
AcDbEntity
  8
0
  6
Continuous
 62
     1
370
    25
100
AcDbSpline
210
0.0
220
0.0
230
1.0
 70
     8
 71
     3
 72
    18
 73
    14
 74
     0
 42
0.000000001
 43
0.00000001
 40
0.0
 40
0.0
 40
0.0
 40
0.0
 40
0.0923989060376624
 40
0.1847978846219847
 40
0.2771957735764194
 40
0.3695914116235388
 40
0.4619836393424243
 40
0.5543713001227564
 40
0.6567109784825574
 40
0.7590409658747141
 40
0.8614210256782945
 40
0.9638251556060061
 40
1.0
 40
1.0
 40
1.0
 40
1.0
 10
10.0
 20
4.458878332285221
 30
0.0
 10
10.77089439012674
 20
4.139768916754286
 30
0.0
 10
12.31268377564509
 20
3.501549835144835
 30
0.0
 10
14.62536072908813
 20
2.312658356395267
 30
0.0
 10
16.93800594165582
 20
1.025530467348744
 30
0.0
 10
19.25057835842954
 20
-0.3164016197385737
 30
0.0
 10
21.56306823615128
 20
-1.641499740025207
 30
0.0
 10
23.95842120872634
 20
-2.930962134694391
 30
0.0
 10
26.43696252650977
 20
-4.103013050663333
 30
0.0
 10
28.99862410437216
 20
-5.072839999107862
 30
0.0
 10
31.56123912566559
 20
-5.711298924713262
 30
0.0
 10
33.57191635020837
 20
-6.012386199325966
 30
0.0
 10
34.72826624294254
 20
-5.969561683466264
 30
0.0
 10
35.03012139549665
 20
-5.958382713459773
 30
0.0
  0
SPLINE
  5
C3
330
1F
100
AcDbEntity
  8
0
  6
Continuous
 62
     1
370
    25
100
AcDbSpline
210
0.0
220
0.0
230
1.0
 70
     8
 71
     3
 72
    11
 73
     7
 74
     0
 42
0.000000001
 43
0.00000001
 40
0.0
 40
0.0
 40
0.0
 40
0.0
 40
0.022935007551398
 40
0.3486200224755722
 40
0.6743192609551938
 40
1.0
 40
1.0
 40
1.0
 40
1.0
 10
61.81115052617648
 20
5.060053674372245
 30
0.0
 10
61.86875300704713
 20
5.080748093403312
 30
0.0
 10
62.74433057687223
 20
5.395310397843857
 30
0.0
 10
64.43799350973731
 20
5.741392204266099
 30
0.0
 10
66.89204336875471
 20
6.058075360026225
 30
0.0
 10
68.52805848439382
 20
5.968051706865324
 30
0.0
 10
69.34604281049302
 20
5.923041158637573
 30
0.0
  0
SPLINE
  5
C4
330
1F
100
AcDbEntity
  8
0
  6
Continuous
 62
     1
370
    25
100
AcDbSpline
210
0.0
220
0.0
230
1.0
 70
     8
 71
     3
 72
    20
 73
    16
 74
     0
 42
0.000000001
 43
0.00000001
 40
0.0
 40
0.0
 40
0.0
 40
0.0
 40
0.2499999999999997
 40
0.2499999999999997
 40
0.3749999999999997
 40
0.3749999999999997
 40
0.4999999999999998
 40
0.4999999999999998
 40
0.6249999999999998
 40
0.6249999999999998
 40
0.7499999999999999
 40
0.7499999999999999
 40
0.8749999999999999
 40
0.8749999999999999
 40
1.0
 40
1.0
 40
1.0
 40
1.0
 10
69.34604281049303
 20
5.923041158637583
 30
0.0
 10
69.35112885140026
 20
5.542534979233882
 30
0.0
 10
69.31712971161333
 20
5.169800947532967
 30
0.0
 10
69.18707733190624
 20
4.626419842655087
 30
0.0
 10
69.12953167146965
 20
4.446911123490398
 30
0.0
 10
68.98808935692882
 20
4.110784893826114
 30
0.0
 10
68.903948343804
 20
3.952221520663267
 30
0.0
 10
68.7056584670619
 20
3.656336941975042
 30
0.0
 10
68.59458529726811
 20
3.523839668565572
 30
0.0
 10
68.35152993231178
 20
3.291097136675006
 30
0.0
 10
68.2175038399301
 20
3.189532317023827
 30
0.0
 10
67.9377562980897
 20
3.024135119926172
 30
0.0
 10
67.79214789655806
 20
2.959667403985351
 30
0.0
 10
67.49048002212702
 20
2.863956824433934
 30
0.0
 10
67.33578115845351
 20
2.833394590183151
 30
0.0
 10
67.18130034237637
 20
2.818699657623622
 30
0.0
  0
SPLINE
  5
C5
330
1F
100
AcDbEntity
  8
0
  6
Continuous
 62
     1
370
    25
100
AcDbSpline
210
0.0
220
0.0
230
1.0
 70
     8
 71
     3
 72
     9
 73
     5
 74
     0
 42
0.000000001
 43
0.00000001
 40
0.0
 40
0.0
 40
0.0
 40
0.0
 40
0.5961123877953918
 40
1.0
 40
1.0
 40
1.0
 40
1.0
 10
70.00000000000001
 20
1.446523558810438
 30
0.0
 10
69.51675903539811
 20
1.701208994174109
 30
0.0
 10
68.70610491296148
 20
2.128452984700084
 30
0.0
 10
67.94673240952292
 20
2.469677071255246
 30
0.0
 10
67.64003126233528
 20
2.607493252800708
 30
0.0
  0
LINE
  5
C6
330
1F
100
AcDbEntity
  8
0
  6
Continuous
 62
     1
370
    25
100
AcDbLine
 10
70.00000000000001
 20
1.334158149573429
 30
0.0
 11
70.00000000000001
 21
1.446523558810438
 31
0.0
  0
SPLINE
  5
C7
330
1F
100
AcDbEntity
  8
0
  6
Continuous
 62
     4
370
    25
100
AcDbSpline
210
0.0
220
0.0
230
1.0
 70
    24
 71
     3
 72
    11
 73
     7
 74
     0
 42
0.000000001
 43
0.00000001
 40
0.0
 40
0.0
 40
0.0
 40
0.0
 40
0.2943070820165857
 40
0.6292510646374376
 40
0.9739084454450055
 40
1.0
 40
1.0
 40
1.0
 40
1.0
 10
10.0
 20
-4.154304425067254
 30
0.0
 10
10.0
 20
-4.281717029724836
 30
0.0
 10
10.0
 20
-4.554134929354225
 30
0.0
 10
10.0
 20
-5.082159026724329
 30
0.0
 10
9.999999999999996
 20
-5.505681516904313
 30
0.0
 10
10.0
 20
-5.739203580217444
 30
0.0
 10
10.0
 20
-5.755637757294097
 30
0.0
  0
SPLINE
  5
C8
330
1F
100
AcDbEntity
  8
0
  6
Continuous
 62
     1
370
    25
100
AcDbSpline
210
0.0
220
0.0
230
1.0
 70
     8
 71
     3
 72
    11
 73
     7
 74
     0
 42
0.000000001
 43
0.00000001
 40
0.0
 40
0.0
 40
0.0
 40
0.0
 40
0.2655802984778887
 40
0.531160805475168
 40
0.7967381805713979
 40
1.0
 40
1.0
 40
1.0
 40
1.0
 10
10.0
 20
-4.014773221226486
 30
0.0
 10
10.77089439572608
 20
-4.326779136493263
 30
0.0
 10
12.31268379244312
 20
-4.95079121199711
 30
0.0
 10
14.62536066189627
 20
-5.580798923058031
 30
0.0
 10
16.7571431051604
 20
-5.953589355086876
 30
0.0
 10
18.11802204233811
 20
-5.967393079013871
 30
0.0
 10
18.70802119774821
 20
-5.973377583025178
 30
0.0
  0
SPLINE
  5
C9
330
1F
100
AcDbEntity
  8
0
  6
Continuous
 62
     1
370
    25
100
AcDbSpline
210
0.0
220
0.0
230
1.0
 70
     8
 71
     3
 72
    17
 73
    13
 74
     0
 42
0.000000001
 43
0.00000001
 40
0.0
 40
0.0
 40
0.0
 40
0.0
 40
0.0596956935385838
 40
0.1672536825170833
 40
0.2747988155310094
 40
0.3823031454856453
 40
0.4852070423514659
 40
0.5881360234568571
 40
0.6910901109458566
 40
0.7940590256080163
 40
0.8970324372043299
 40
0.9999999999999999
 40
0.9999999999999999
 40
0.9999999999999999
 40
0.9999999999999999
 10
45.51383183935162
 20
5.038849794978314
 30
0.0
 10
45.98808314733743
 20
5.190453261962441
 30
0.0
 10
47.31682686396591
 20
5.615211508871211
 30
0.0
 10
49.50007329762244
 20
5.955606735251998
 30
0.0
 10
52.06305961219018
 20
6.049544998242999
 30
0.0
 10
54.58891432787546
 20
5.766944410816785
 30
0.0
 10
57.07768424382331
 20
5.160723748776852
 30
0.0
 10
59.53056716470881
 20
4.276294931291106
 30
0.0
 10
61.98406336013501
 20
3.15459096060884
 30
0.0
 10
64.43798788998068
 20
1.858762387898057
 30
0.0
 10
66.89204477362634
 20
0.4559981419088247
 30
0.0
 10
68.52805895267552
 20
-0.4866133787097229
 30
0.0
 10
69.34604281049303
 20
-0.9579057537592524
 30
0.0
  0
SPLINE
  5
CA
330
1F
100
AcDbEntity
  8
0
  6
Continuous
 62
     1
370
    25
100
AcDbSpline
210
0.0
220
0.0
230
1.0
 70
     8
 71
     3
 72
     8
 73
     4
 74
     0
 42
0.000000001
 43
0.00000001
 40
0.0
 40
0.0
 40
0.0
 40
0.0
 40
1.0
 40
1.0
 40
1.0
 40
1.0
 10
70.00000000000001
 20
-4.474290814540881
 30
0.0
 10
69.0112668397746
 20
-3.917955780000528
 30
0.0
 10
68.07855960571099
 20
-3.235662551569951
 30
0.0
 10
67.18130034237619
 20
-2.47367474821733
 30
0.0
  0
LINE
  5
CB
330
1F
100
AcDbEntity
  8
0
  6
Continuous
 62
     1
370
    25
100
AcDbLine
 10
70.00000000000001
 20
-5.850994190131579
 30
0.0
 11
70.00000000000001
 21
-4.474290814540881
 31
0.0
  0
LINE
  5
CC
330
1F
100
AcDbEntity
  8
0
  6
Continuous
 62
     1
370
    25
100
AcDbLine
 10
69.34604281049303
 20
-0.9579057537592445
 30
0.0
 11
69.33613205223833
 21
-0.964845341398567
 31
0.0
  0
SPLINE
  5
CD
330
1F
100
AcDbEntity
  8
0
  6
Continuous
 62
     1
370
    25
100
AcDbSpline
210
0.0
220
0.0
230
1.0
 70
    24
 71
     3
 72
    15
 73
    11
 74
     0
 42
0.000000001
 43
0.00000001
 40
0.0
 40
0.0
 40
0.0
 40
0.0
 40
0.1162865831563683
 40
0.2422102508235421
 40
0.3715719153312401
 40
0.4975997742509404
 40
0.6276643433127113
 40
0.7483825540769052
 40
0.8720286912901144
 40
1.0
 40
1.0
 40
1.0
 40
1.0
 10
69.25169232648167
 20
-1.023970673897714
 30
0.0
 10
69.22732584670023
 20
-1.041032266720324
 30
0.0
 10
69.17657354992308
 20
-1.076569407505144
 30
0.0
 10
69.01386062452205
 20
-1.190502224435103
 30
0.0
 10
68.8028300497708
 20
-1.338267423668626
 30
0.0
 10
68.5353616093567
 20
-1.525550841879765
 30
0.0
 10
68.23213312089388
 20
-1.737873715301421
 30
0.0
 10
67.90006123116913
 20
-1.970392955714178
 30
0.0
 10
67.55028334889046
 20
-2.215310065584773
 30
0.0
 10
67.3056961198038
 20
-2.386571887141087
 30
0.0
 10
67.18130034237623
 20
-2.473674748217337
 30
0.0
  0
SPLINE
  5
CE
330
1F
100
AcDbEntity
  8
0
  6
Continuous
 62
     1
370
    25
100
AcDbSpline
210
0.0
220
0.0
230
1.0
 70
     8
 71
     3
 72
    22
 73
    18
 74
     0
 42
0.000000001
 43
0.00000001
 40
0.0
 40
0.0
 40
0.0
 40
0.0
 40
0.0321077658900207
 40
0.1042453455045532
 40
0.1763628593121243
 40
0.2485155814034077
 40
0.3206889297182692
 40
0.392864114914307
 40
0.4650223353095295
 40
0.5371452643002914
 40
0.6092750235564429
 40
0.6743905275049289
 40
0.7395092502653524
 40
0.8046303766502394
 40
0.8697530894911849
 40
0.9348765703113026
 40
1.0
 40
1.0
 40
1.0
 40
1.0
 10
45.51383183935155
 20
-5.038849794978324
 30
0.0
 10
45.13370516403138
 20
-5.16435250884693
 30
0.0
 10
43.89953531428283
 20
-5.571826321064374
 30
0.0
 10
41.81176436160942
 20
-5.922083925296834
 30
0.0
 10
39.25017136885775
 20
-6.059032334764861
 30
0.0
 10
36.68775251422066
 20
-5.811920053709717
 30
0.0
 10
34.1245345442174
 20
-5.217920974230195
 30
0.0
 10
31.56124149316829
 20
-4.306964722369201
 30
0.0
 10
28.99862347025702
 20
-3.135960481920486
 30
0.0
 10
26.43696269698158
 20
-1.774881185284986
 30
0.0
 10
23.95842116796451
 20
-0.3543465435448662
 30
0.0
 10
21.56306824659832
 20
1.034631648812867
 30
0.0
 10
19.25057835563016
 20
2.324201710032418
 30
0.0
 10
16.93800594240567
 20
3.500617594402994
 30
0.0
 10
14.62536072888816
 20
4.498988338696051
 30
0.0
 10
12.31268377569508
 20
5.295899854650492
 30
0.0
 10
10.7708943901434
 20
5.602391829853041
 30
0.0
 10
10.0
 20
5.755637757294079
 30
0.0
  0
SPLINE
  5
CF
330
1F
100
AcDbEntity
  8
0
  6
Continuous
 62
     1
370
    25
100
AcDbSpline
210
0.0
220
0.0
230
1.0
 70
     8
 71
     3
 72
    23
 73
    19
 74
     0
 42
0.000000001
 43
0.00000001
 40
0.0
 40
0.0
 40
0.0
 40
0.0
 40
0.0456824894114878
 40
0.1057715525854594
 40
0.1658591519282395
 40
0.2259445334343244
 40
0.2860269449260254
 40
0.3525814459839292
 40
0.4191296447207132
 40
0.4857104070184979
 40
0.5523068228255338
 40
0.6189015437328302
 40
0.6854772327171986
 40
0.7520204348365095
 40
0.8185821517794448
 40
0.8851705609639249
 40
0.9517683677414055
 40
1.0
 40
1.0
 40
1.0
 40
1.0
 10
12.8671790611683
 20
5.054056295580954
 30
0.0
 10
13.45324254722934
 20
5.229663886092937
 30
0.0
 10
14.81019234643916
 20
5.636259230031728
 30
0.0
 10
16.93800593577177
 20
5.957122592911619
 30
0.0
 10
19.25057835743912
 20
6.042833221088817
 30
0.0
 10
21.56306824599606
 20
5.822340700605565
 30
0.0
 10
23.95842116860785
 20
5.298948091925853
 30
0.0
 10
26.43696269484627
 20
4.460174972857902
 30
0.0
 10
28.99862347806272
 20
3.323378487313239
 30
0.0
 10
31.56124146406229
 20
1.985776069384607
 30
0.0
 10
34.12453465285621
 20
0.5278781135760896
 30
0.0
 10
36.68775210884241
 20
-0.9618798344301162
 30
0.0
 10
39.25017288095626
 20
-2.393511419249243
 30
0.0
 10
41.81175872072958
 20
-3.679849739037789
 30
0.0
 10
44.37376890776416
 20
-4.746645841142116
 30
0.0
 10
46.93670073505007
 20
-5.513724813296601
 30
0.0
 10
49.26452041997192
 20
-5.950228952364902
 30
0.0
 10
50.73786174763188
 20
-5.959675803543854
 30
0.0
 10
51.35670703420306
 20
-5.963643749881395
 30
0.0
  0
LINE
  5
D0
330
1F
100
AcDbEntity
  8
0
  6
Continuous
 62
     4
370
    25
100
AcDbLine
 10
10.0
 20
-4.014773221226496
 30
0.0
 11
10.0
 21
-1.694884658851626
 31
0.0
  0
LINE
  5
D1
330
1F
100
AcDbEntity
  8
0
  6
Continuous
 62
     1
370
    25
100
AcDbLine
 10
70.00000000000001
 20
-0.5000000000000234
 30
0.0
 11
70.00000000000001
 21
1.328859280378006
 31
0.0
  0
LINE
  5
D2
330
1F
100
AcDbEntity
  8
0
  6
Continuous
 62
     1
370
    25
100
AcDbLine
 10
70.00000000000001
 20
-0.5000000000000231
 30
0.0
 11
69.34604281049303
 21
-0.9579057537592477
 31
0.0
  0
LINE
  5
D3
330
1F
100
AcDbEntity
  8
0
  6
Continuous
 62
     4
370
    25
100
AcDbLine
 10
10.0
 20
4.458878332285235
 30
0.0
 11
10.0
 21
5.755637757294073
 31
0.0
  0
LINE
  5
D4
330
1F
100
AcDbEntity
  8
0
  6
Continuous
 62
     1
370
    25
100
AcDbLine
 10
70.00000000000001
 20
5.979130371550704
 30
0.0
 11
70.00000000000001
 21
6.000000000000006
 31
0.0
  0
ELLIPSE
  5
D5
330
1F
100
AcDbEntity
  8
0
  6
Continuous
 62
     1
370
    25
100
AcDbEllipse
 10
70.71407400337105
 20
-0.0000000000000062
 30
0.0
 11
8.568888040452663
 21
5.350968460038300E-17
 31
0.0
210
0.0
220
0.0
230
1.0
 40
0.7002075382097125
 41
1.65422641340551
 42
1.731133393454127
  0
LINE
  5
D6
330
1F
100
AcDbEntity
  8
0
  6
Continuous
 62
     1
370
    25
100
AcDbLine
 10
70.00000000000001
 20
-0.5000000000000026
 30
0.0
 11
70.00000000000001
 21
-4.474290814540881
 31
0.0
  0
LINE
  5
D7
330
1F
100
AcDbEntity
  8
0
  6
Continuous
 62
     1
370
    25
100
AcDbLine
 10
70.00000000000001
 20
1.446523558810438
 30
0.0
 11
70.00000000000001
 21
5.979130371550704
 31
0.0
  0
LINE
  5
D8
330
1F
100
AcDbEntity
  8
중심선
100
AcDbLine
 10
-82.99999999999999
 20
-0.0000000000000114
 30
0.0
 11
73.00000000000001
 21
0.0000000000000077
 31
0.0
  0
CIRCLE
  5
D9
330
1F
100
AcDbEntity
  8
해칭선
100
AcDbCircle
 10
0.0003434854941569
 20
-0.0000000000000043
 30
0.0
 40
3.000000000000003
  0
INSERT
  5
DA
330
1F
100
AcDbEntity
  8
0
  6
Continuous
 62
     7
100
AcDbBlockReference
 66
     1
  2
블럭10
 10
-17.44009924894178
 20
-52.04717430164393
 30
0.0
  0
ATTRIB
  5
DB
330
DA
100
AcDbEntity
  8
FORMAT
 62
     2
100
AcDbText
 10
-38.29834678053432
 20
-49.97180738881174
 30
0.0
 40
4.233333333333333
  1
SEME7212060150E [ 4 FLUTE ]
 41
0.75
  7
SLDTEXTSTYLE0
 11
-38.29834678053432
 21
-52.08847405547841
 31
0.0
100
AcDbAttribute
  2
AUTOATTR0
 70
     0
 74
     1
  0
SEQEND
  5
DC
330
DA
100
AcDbEntity
  8
0
  6
Continuous
 62
     7
  0
HATCH
  5
DD
330
1F
100
AcDbEntity
  8
중심선
100
AcDbHatch
 10
0.0
 20
0.0
 30
0.0
210
0.0
220
0.0
230
1.0
  2
SOLID
 70
     1
 71
     0
 91
        1
 92
        0
 93
        4
 72
     1
 10
-11.72518994456093
 20
-35.8
 11
-15.17146518839821
 21
-35.8
 72
     1
 10
-15.17146518839821
 20
-35.8
 11
-17.29969504760223
 21
-38.33632558057262
 72
     1
 10
-17.29969504760223
 20
-38.33632558057262
 11
-13.85338671865177
 21
-38.33628615127013
 72
     1
 10
-13.85338671865177
 20
-38.33628615127013
 11
-11.72518994456093
 21
-35.8
 97
        0
 75
     0
 76
     1
 98
        1
 10
0.0
 20
0.0
  0
HATCH
  5
DE
330
1F
100
AcDbEntity
  8
중심선
100
AcDbHatch
 10
0.0
 20
0.0
 30
0.0
210
0.0
220
0.0
230
1.0
  2
SOLID
 70
     1
 71
     0
 91
        1
 92
        0
 93
        4
 72
     1
 10
-6.71242595352492
 20
-35.8
 11
-10.1587011973622
 21
-35.8
 72
     1
 10
-10.1587011973622
 20
-35.8
 11
-14.68983920571965
 21
-41.20000000000002
 72
     1
 10
-14.68983920571965
 20
-41.20000000000002
 11
-11.24356396188236
 21
-41.20000000000002
 72
     1
 10
-11.24356396188236
 20
-41.20000000000002
 11
-6.71242595352492
 21
-35.8
 97
        0
 75
     0
 76
     1
 98
        1
 10
0.0
 20
0.0
  0
HATCH
  5
DF
330
1F
100
AcDbEntity
  8
중심선
100
AcDbHatch
 10
0.0
 20
0.0
 30
0.0
210
0.0
220
0.0
230
1.0
  2
SOLID
 70
     1
 71
     0
 91
        1
 92
        0
 93
        4
 72
     1
 10
-1.69966196248908
 20
-35.8
 11
-5.145937206326168
 21
-35.8
 72
     1
 10
-5.145937206326168
 20
-35.8
 11
-12.19437410821545
 21
-44.20000000000002
 72
     1
 10
-12.19437410821545
 20
-44.20000000000002
 11
-8.748098864378163
 21
-44.20000000000002
 72
     1
 10
-8.748098864378163
 20
-44.20000000000002
 11
-1.699661962489079
 21
-35.8
 97
        0
 75
     0
 76
     1
 98
        1
 10
0.0
 20
0.0
  0
HATCH
  5
E0
330
1F
100
AcDbEntity
  8
중심선
100
AcDbHatch
 10
0.0
 20
0.0
 30
0.0
210
0.0
220
0.0
230
1.0
  2
SOLID
 70
     1
 71
     0
 91
        1
 92
        0
 93
        6
 72
     3
 10
3.100228468523119
 20
-40.00000000005127
 11
3.960054785062284
 21
1.540850780301639E-10
 40
0.3939339440162633
 50
17.09539180608433
 51
320.0019657685079
 73
     0
 72
     1
 10
4.783228124223715
 20
-38.5878940046383
 11
7.088529997924753
 21
-36.65356729459038
 72
     3
 10
3.100228468470273
 20
-40.00000000000015
 11
6.600054785286829
 21
-1.249000902703301E-13
 40
0.6363583540795982
 50
39.99873849337408
 51
368.4976242363725
 73
     1
 72
     1
 10
9.525560960370882
 20
-39.03999999993002
 11
1.780295775306195
 21
-39.03999999993002
 72
     1
 10
1.780295775306195
 20
-39.03999999993002
 11
1.780270730860262
 21
-40.95999999992991
 72
     1
 10
1.780270730860262
 20
-40.95999999992991
 11
6.221650500332299
 21
-40.95999999992988
 97
        0
 75
     0
 76
     1
 98
        1
 10
0.0
 20
0.0
  0
DIMENSION
  5
E1
330
1F
100
AcDbEntity
  8
치수문자_일반주서
100
AcDbDimension
  2
_D
 10
85.72581496057641
 20
6.000000000000055
 30
0.0
 11
85.72581496057637
 21
16.54150000000006
 31
0.0
 70
   160
  1
%%c<>
 71
     2
 42
12.00000000000001
 52
-270.0
  3
SLDDIMSTYLE0
100
AcDbAlignedDimension
 13
70.00000000000001
 23
-6.00000000000001
 33
0.0
 14
70.00000000000001
 24
5.999999999999996
 34
0.0
 50
90.0000000000002
100
AcDbRotatedDimension
  0
DIMENSION
  5
EF
330
1F
100
AcDbEntity
  8
치수문자_일반주서
100
AcDbDimension
  2
_D_1
 10
70.00000000000001
 20
23.38913260158163
 30
0.0
 11
-4.999999999999995
 21
23.38913260158163
 31
0.0
 70
   160
  1
<>
 71
     2
 42
150.0
  3
SLDDIMSTYLE1
100
AcDbAlignedDimension
 13
-79.99999999999999
 23
5.499999999999983
 33
0.0
 14
70.00000000000001
 24
5.999999999999999
 34
0.0
 50
-0.0000000000000027
100
AcDbRotatedDimension
  0
DIMENSION
  5
FA
330
1F
100
AcDbEntity
  8
치수문자_일반주서
100
AcDbDimension
  2
_D_2
 10
-96.40906649403773
 20
-6.000000000000075
 30
0.0
 11
-96.40906649403782
 21
16.54149999999994
 31
0.0
 70
   160
  1
%%c<>
 71
     2
 42
12.00000000000001
 52
-270.0
  3
SLDDIMSTYLE2
100
AcDbAlignedDimension
 13
-79.49999999999999
 23
5.999999999999999
 33
0.0
 14
-79.49999999999999
 24
-6.000000000000012
 34
0.0
 50
90.0000000000002
100
AcDbRotatedDimension
  0
DIMENSION
  5
108
330
1F
100
AcDbEntity
  8
치수문자_일반주서
100
AcDbDimension
  2
_D_3
 10
70.00000000000001
 20
16.60155605988042
 30
0.0
 11
40.0
 21
16.60155605988042
 31
0.0
 70
   160
  1
<>
 71
     2
 42
60.00000000000001
  3
SLDDIMSTYLE1
100
AcDbAlignedDimension
 13
10.0
 23
5.755637757292765
 33
0.0
 14
70.00000000000001
 24
5.999999999999999
 34
0.0
 50
-0.0000000000000034
100
AcDbRotatedDimension
  0
INSERT
  5
118
330
1F
100
AcDbEntity
  8
해칭선
100
AcDbBlockReference
  2
SW_DOWELSYMBOL_0
 10
0.0003434854941569
 20
-0.0000000000000043
 30
0.0
  0
ENDSEC
  0
SECTION
  2
OBJECTS
  0
DICTIONARY
  5
C
330
0
100
AcDbDictionary
281
     1
  3
ACAD_GROUP
350
D
  3
ACAD_IMAGE_VARS
350
13C
  3
ACAD_LAYOUT
350
1A
  3
ACAD_MLINESTYLE
350
17
  3
ACAD_PLOTSETTINGS
350
19
  3
ACAD_PLOTSTYLENAME
350
E
  3
ACAD_SCALELIST
350
47
  3
APPDATA
350
13A
  3
DWGPROPS
350
14B
  0
DICTIONARY
  5
D
102
{ACAD_REACTORS
330
C
102
}
330
C
100
AcDbDictionary
281
     1
  0
RASTERVARIABLES
  5
13C
102
{ACAD_REACTORS
330
C
102
}
330
C
100
AcDbRasterVariables
 90
        0
 70
     1
 71
     1
 72
     1
  0
DICTIONARY
  5
1A
102
{ACAD_REACTORS
330
C
102
}
330
C
100
AcDbDictionary
281
     1
  3
Layout1
350
1E
  3
Layout2
350
26
  3
Model
350
22
  0
DICTIONARY
  5
17
102
{ACAD_REACTORS
330
C
102
}
330
C
100
AcDbDictionary
281
     1
  3
Standard
350
18
  0
DICTIONARY
  5
19
102
{ACAD_REACTORS
330
C
102
}
330
C
100
AcDbDictionary
281
     1
  0
ACDBDICTIONARYWDFLT
  5
E
102
{ACAD_REACTORS
330
C
102
}
330
C
100
AcDbDictionary
281
     1
  3
Normal
350
F
100
AcDbDictionaryWithDefault
340
F
  0
DICTIONARY
  5
47
102
{ACAD_REACTORS
330
C
102
}
330
C
100
AcDbDictionary
281
     1
  3
A0
350
48
  3
A1
350
49
  3
A2
350
4A
  3
A3
350
4B
  3
A4
350
4C
  3
A5
350
4D
  3
A6
350
4E
  3
A7
350
4F
  3
A8
350
50
  3
A9
350
51
  3
B0
350
52
  3
B1
350
53
  3
B2
350
54
  3
B3
350
55
  3
B4
350
56
  3
B5
350
57
  3
B6
350
58
  3
B7
350
59
  3
B8
350
5A
  3
B9
350
5B
  3
C0
350
5C
  3
C1
350
5D
  3
C2
350
5E
  3
C3
350
5F
  3
C4
350
60
  3
C5
350
61
  3
C6
350
62
  3
C7
350
63
  3
C8
350
64
  3
C9
350
65
  3
D0
350
66
  3
D1
350
67
  3
D2
350
68
  0
DICTIONARY
  5
13A
102
{ACAD_REACTORS
330
C
102
}
330
C
100
AcDbDictionary
281
     1
  0
XRECORD
  5
14B
102
{ACAD_REACTORS
330
C
102
}
330
C
100
AcDbXrecord
280
     1
  1
DWGPROPS COOKIE
  2

  3

  4

  6

  7

  8
12014102
  9

300
=
301
=
302
=
303
=
304
=
305
=
306
=
307
=
308
=
309
=
 40
0.0
 41
2458260.206183333
 42
2458268.280576806
  1

 90
        0
  0
LAYOUT
  5
1E
102
{ACAD_REACTORS
330
1A
102
}
330
1A
100
AcDbPlotSettings
  1

  2
none_device
  4

  6

 40
0.0
 41
0.0
 42
0.0
 43
0.0
 44
0.0
 45
0.0
 46
0.0
 47
0.0
 48
0.0
 49
0.0
140
0.0
141
0.0
142
1.0
143
1.0
 70
   688
 72
     1
 73
     0
 74
     5
  7

 75
    16
147
1.0
148
0.0
149
0.0
100
AcDbLayout
  1
Layout1
 70
     1
 71
     1
 10
0.0
 20
0.0
 11
420.0
 21
297.0
 12
0.0
 22
0.0
 32
0.0
 14
1.000000000000000E+20
 24
1.000000000000000E+20
 34
1.000000000000000E+20
 15
-1.000000000000000E+20
 25
-1.000000000000000E+20
 35
-1.000000000000000E+20
146
0.0
 13
0.0
 23
0.0
 33
0.0
 16
1.0
 26
0.0
 36
0.0
 17
0.0
 27
1.0
 37
0.0
 76
     0
330
1B
  0
LAYOUT
  5
26
102
{ACAD_REACTORS
330
1A
102
}
330
1A
100
AcDbPlotSettings
  1

  2
none_device
  4

  6

 40
0.0
 41
0.0
 42
0.0
 43
0.0
 44
0.0
 45
0.0
 46
0.0
 47
0.0
 48
0.0
 49
0.0
140
0.0
141
0.0
142
1.0
143
1.0
 70
   688
 72
     1
 73
     0
 74
     5
  7

 75
    16
147
1.0
148
0.0
149
0.0
100
AcDbLayout
  1
Layout2
 70
     1
 71
     2
 10
0.0
 20
0.0
 11
0.0
 21
0.0
 12
0.0
 22
0.0
 32
0.0
 14
0.0
 24
0.0
 34
0.0
 15
0.0
 25
0.0
 35
0.0
146
0.0
 13
0.0
 23
0.0
 33
0.0
 16
1.0
 26
0.0
 36
0.0
 17
0.0
 27
1.0
 37
0.0
 76
     0
330
23
  0
LAYOUT
  5
22
102
{ACAD_REACTORS
330
1A
102
}
330
1A
100
AcDbPlotSettings
  1

  2
none_device
  4
ANSI_A_(11.00_x_8.50_Inches)
  6

 40
6.35
 41
19.05
 42
6.35000508
 43
19.05000254
 44
279.4
 45
215.9
 46
139.524119380145
 47
105.9687175325615
 48
0.0
 49
0.0
140
0.0
141
0.0
142
0.0589085814011889
143
1.0
 70
  1696
 72
     0
 73
     0
 74
     0
  7

 75
     0
147
0.0235690232323232
148
0.0
149
0.0
100
AcDbLayout
  1
Model
 70
     1
 71
     0
 10
0.0
 20
0.0
 11
420.0
 21
297.0
 12
0.0
 22
0.0
 32
0.0
 14
-100.7840664940378
 24
-49.97180738881174
 34
0.0
 15
86.27614829390981
 25
27.76413260158163
 35
0.0
146
0.0
 13
0.0
 23
0.0
 33
0.0
 16
1.0
 26
0.0
 36
0.0
 17
0.0
 27
1.0
 37
0.0
 76
     0
330
1F
331
29
  0
MLINESTYLE
  5
18
102
{ACAD_REACTORS
330
17
102
}
330
17
100
AcDbMlineStyle
  2
Standard
 70
     0
  3

 62
   256
 51
90.0
 52
90.0
 71
     2
 49
0.5
 62
   256
  6
BYLAYER
 49
-0.5
 62
   256
  6
BYLAYER
  0
ACDBPLACEHOLDER
  5
F
102
{ACAD_REACTORS
330
E
102
}
330
E
  0
SCALE
  5
48
102
{ACAD_REACTORS
330
47
102
}
330
47
100
AcDbScale
 70
     0
300
1:1
140
1.0
141
1.0
290
     1
  0
SCALE
  5
49
102
{ACAD_REACTORS
330
47
102
}
330
47
100
AcDbScale
 70
     0
300
1:2
140
1.0
141
2.0
290
     0
  0
SCALE
  5
4A
102
{ACAD_REACTORS
330
47
102
}
330
47
100
AcDbScale
 70
     0
300
1:4
140
1.0
141
4.0
290
     0
  0
SCALE
  5
4B
102
{ACAD_REACTORS
330
47
102
}
330
47
100
AcDbScale
 70
     0
300
1:5
140
1.0
141
5.0
290
     0
  0
SCALE
  5
4C
102
{ACAD_REACTORS
330
47
102
}
330
47
100
AcDbScale
 70
     0
300
1:8
140
1.0
141
8.0
290
     0
  0
SCALE
  5
4D
102
{ACAD_REACTORS
330
47
102
}
330
47
100
AcDbScale
 70
     0
300
1:10
140
1.0
141
10.0
290
     0
  0
SCALE
  5
4E
102
{ACAD_REACTORS
330
47
102
}
330
47
100
AcDbScale
 70
     0
300
1:16
140
1.0
141
16.0
290
     0
  0
SCALE
  5
4F
102
{ACAD_REACTORS
330
47
102
}
330
47
100
AcDbScale
 70
     0
300
1:20
140
1.0
141
20.0
290
     0
  0
SCALE
  5
50
102
{ACAD_REACTORS
330
47
102
}
330
47
100
AcDbScale
 70
     0
300
1:30
140
1.0
141
30.0
290
     0
  0
SCALE
  5
51
102
{ACAD_REACTORS
330
47
102
}
330
47
100
AcDbScale
 70
     0
300
1:40
140
1.0
141
40.0
290
     0
  0
SCALE
  5
52
102
{ACAD_REACTORS
330
47
102
}
330
47
100
AcDbScale
 70
     0
300
1:50
140
1.0
141
50.0
290
     0
  0
SCALE
  5
53
102
{ACAD_REACTORS
330
47
102
}
330
47
100
AcDbScale
 70
     0
300
1:100
140
1.0
141
100.0
290
     0
  0
SCALE
  5
54
102
{ACAD_REACTORS
330
47
102
}
330
47
100
AcDbScale
 70
     0
300
2:1
140
2.0
141
1.0
290
     0
  0
SCALE
  5
55
102
{ACAD_REACTORS
330
47
102
}
330
47
100
AcDbScale
 70
     0
300
4:1
140
4.0
141
1.0
290
     0
  0
SCALE
  5
56
102
{ACAD_REACTORS
330
47
102
}
330
47
100
AcDbScale
 70
     0
300
8:1
140
8.0
141
1.0
290
     0
  0
SCALE
  5
57
102
{ACAD_REACTORS
330
47
102
}
330
47
100
AcDbScale
 70
     0
300
10:1
140
10.0
141
1.0
290
     0
  0
SCALE
  5
58
102
{ACAD_REACTORS
330
47
102
}
330
47
100
AcDbScale
 70
     0
300
100:1
140
100.0
141
1.0
290
     0
  0
SCALE
  5
59
102
{ACAD_REACTORS
330
47
102
}
330
47
100
AcDbScale
 70
     0
300
1/128" = 1'-0"
140
0.0078125
141
12.0
290
     0
  0
SCALE
  5
5A
102
{ACAD_REACTORS
330
47
102
}
330
47
100
AcDbScale
 70
     0
300
1/64" = 1'-0"
140
0.015625
141
12.0
290
     0
  0
SCALE
  5
5B
102
{ACAD_REACTORS
330
47
102
}
330
47
100
AcDbScale
 70
     0
300
1/32" = 1'-0"
140
0.03125
141
12.0
290
     0
  0
SCALE
  5
5C
102
{ACAD_REACTORS
330
47
102
}
330
47
100
AcDbScale
 70
     0
300
1/16" = 1'-0"
140
0.0625
141
12.0
290
     0
  0
SCALE
  5
5D
102
{ACAD_REACTORS
330
47
102
}
330
47
100
AcDbScale
 70
     0
300
3/32" = 1'-0"
140
0.09375
141
12.0
290
     0
  0
SCALE
  5
5E
102
{ACAD_REACTORS
330
47
102
}
330
47
100
AcDbScale
 70
     0
300
1/8" = 1'-0"
140
0.125
141
12.0
290
     0
  0
SCALE
  5
5F
102
{ACAD_REACTORS
330
47
102
}
330
47
100
AcDbScale
 70
     0
300
3/16" = 1'-0"
140
0.1875
141
12.0
290
     0
  0
SCALE
  5
60
102
{ACAD_REACTORS
330
47
102
}
330
47
100
AcDbScale
 70
     0
300
1/4" = 1'-0"
140
0.25
141
12.0
290
     0
  0
SCALE
  5
61
102
{ACAD_REACTORS
330
47
102
}
330
47
100
AcDbScale
 70
     0
300
3/8" = 1'-0"
140
0.375
141
12.0
290
     0
  0
SCALE
  5
62
102
{ACAD_REACTORS
330
47
102
}
330
47
100
AcDbScale
 70
     0
300
1/2" = 1'-0"
140
0.5
141
12.0
290
     0
  0
SCALE
  5
63
102
{ACAD_REACTORS
330
47
102
}
330
47
100
AcDbScale
 70
     0
300
3/4" = 1'-0"
140
0.75
141
12.0
290
     0
  0
SCALE
  5
64
102
{ACAD_REACTORS
330
47
102
}
330
47
100
AcDbScale
 70
     0
300
1" = 1'-0"
140
1.0
141
12.0
290
     0
  0
SCALE
  5
65
102
{ACAD_REACTORS
330
47
102
}
330
47
100
AcDbScale
 70
     0
300
1-1/2" = 1'-0"
140
1.5
141
12.0
290
     0
  0
SCALE
  5
66
102
{ACAD_REACTORS
330
47
102
}
330
47
100
AcDbScale
 70
     0
300
3" = 1'-0"
140
3.0
141
12.0
290
     0
  0
SCALE
  5
67
102
{ACAD_REACTORS
330
47
102
}
330
47
100
AcDbScale
 70
     0
300
6" = 1'-0"
140
6.0
141
12.0
290
     0
  0
SCALE
  5
68
102
{ACAD_REACTORS
330
47
102
}
330
47
100
AcDbScale
 70
     0
300
1'-0" = 1'-0"
140
12.0
141
12.0
290
     0
  0
ENDSEC
  0
EOF
