  0
SECTION
  2
HEADER
  9
$ACADVER
  1
AC1015
  9
$ACADMAINTVER
 70
     6
  9
$DWGCODEPAGE
  3
ANSI_949
  9
$INSBASE
 10
0.0
 20
0.0
 30
0.0
  9
$EXTMIN
 10
-58.21968220311899
 20
-49.97180738881173
 30
0.0
  9
$EXTMAX
 10
94.86559367790093
 20
27.76413260158164
 30
0.0
  9
$LIMMIN
 10
0.0
 20
0.0
  9
$LIMMAX
 10
420.0
 20
297.0
  9
$ORTHOMODE
 70
     0
  9
$REGENMODE
 70
     1
  9
$FILLMODE
 70
     1
  9
$QTEXTMODE
 70
     0
  9
$MIRRTEXT
 70
     1
  9
$LTSCALE
 40
1.0
  9
$ATTMODE
 70
     1
  9
$TEXTSIZE
 40
3.5
  9
$TRACEWID
 40
1.0
  9
$TEXTSTYLE
  7
Standard
  9
$CLAYER
  8
0
  9
$CELTYPE
  6
ByLayer
  9
$CECOLOR
 62
   256
  9
$CELTSCALE
 40
1.0
  9
$DISPSILH
 70
     0
  9
$DIMSCALE
 40
1.0
  9
$DIMASZ
 40
3.302
  9
$DIMEXO
 40
1.0
  9
$DIMDLI
 40
3.75
  9
$DIMRND
 40
0.0
  9
$DIMDLE
 40
0.0
  9
$DIMEXE
 40
1.0
  9
$DIMTP
 40
0.0
  9
$DIMTM
 40
0.0
  9
$DIMTXT
 40
3.5
  9
$DIMCEN
 40
2.5
  9
$DIMTSZ
 40
0.0
  9
$DIMTOL
 70
     0
  9
$DIMLIM
 70
     0
  9
$DIMTIH
 70
     1
  9
$DIMTOH
 70
     1
  9
$DIMSE1
 70
     0
  9
$DIMSE2
 70
     0
  9
$DIMTAD
 70
     1
  9
$DIMZIN
 70
     0
  9
$DIMBLK
  1

  9
$DIMASO
 70
     1
  9
$DIMSHO
 70
     1
  9
$DIMPOST
  1

  9
$DIMAPOST
  1

  9
$DIMALT
 70
     0
  9
$DIMALTD
 70
     3
  9
$DIMALTF
 40
0.0393700787401575
  9
$DIMLFAC
 40
1.0
  9
$DIMTOFL
 70
     1
  9
$DIMTVP
 40
0.0
  9
$DIMTIX
 70
     0
  9
$DIMSOXD
 70
     0
  9
$DIMSAH
 70
     0
  9
$DIMBLK1
  1

  9
$DIMBLK2
  1

  9
$DIMSTYLE
  2
ISO-25
  9
$DIMCLRD
 70
     0
  9
$DIMCLRE
 70
     0
  9
$DIMCLRT
 70
     0
  9
$DIMTFAC
 40
1.0
  9
$DIMGAP
 40
1.524
  9
$DIMJUST
 70
     0
  9
$DIMSD1
 70
     0
  9
$DIMSD2
 70
     0
  9
$DIMTOLJ
 70
     0
  9
$DIMTZIN
 70
     0
  9
$DIMALTZ
 70
     0
  9
$DIMALTTZ
 70
     0
  9
$DIMUPT
 70
     0
  9
$DIMDEC
 70
     2
  9
$DIMTDEC
 70
     2
  9
$DIMALTU
 70
     2
  9
$DIMALTTD
 70
     3
  9
$DIMTXSTY
  7
Standard
  9
$DIMAUNIT
 70
     0
  9
$DIMADEC
 70
     2
  9
$DIMALTRND
 40
0.0
  9
$DIMAZIN
 70
     0
  9
$DIMDSEP
 70
    44
  9
$DIMATFIT
 70
     3
  9
$DIMFRAC
 70
     0
  9
$DIMLDRBLK
  1

  9
$DIMLUNIT
 70
     2
  9
$DIMLWD
 70
    -2
  9
$DIMLWE
 70
    -2
  9
$DIMTMOVE
 70
     0
  9
$LUNITS
 70
     2
  9
$LUPREC
 70
     2
  9
$SKETCHINC
 40
1.0
  9
$FILLETRAD
 40
10.0
  9
$AUNITS
 70
     0
  9
$AUPREC
 70
     2
  9
$MENU
  1
.
  9
$ELEVATION
 40
0.0
  9
$PELEVATION
 40
0.0
  9
$THICKNESS
 40
0.0
  9
$LIMCHECK
 70
     0
  9
$CHAMFERA
 40
0.0
  9
$CHAMFERB
 40
0.0
  9
$CHAMFERC
 40
0.0
  9
$CHAMFERD
 40
0.0
  9
$SKPOLY
 70
     0
  9
$TDCREATE
 40
2458260.582128727
  9
$TDUCREATE
 40
2458260.207128727
  9
$TDUPDATE
 40
2458268.590503959
  9
$TDUUPDATE
 40
2458268.215503959
  9
$TDINDWG
 40
0.0005574421
  9
$TDUSRTIMER
 40
2458268.214946562
  9
$USRTIMER
 70
     1
  9
$ANGBASE
 50
0.0
  9
$ANGDIR
 70
     0
  9
$PDMODE
 70
     0
  9
$PDSIZE
 40
-1.0
  9
$PLINEWID
 40
0.0
  9
$SPLFRAME
 70
     0
  9
$SPLINETYPE
 70
     6
  9
$SPLINESEGS
 70
     8
  9
$HANDSEED
  5
153
  9
$SURFTAB1
 70
     6
  9
$SURFTAB2
 70
     6
  9
$SURFTYPE
 70
     6
  9
$SURFU
 70
     6
  9
$SURFV
 70
     6
  9
$UCSBASE
  2

  9
$UCSNAME
  2

  9
$UCSORG
 10
0.0
 20
0.0
 30
0.0
  9
$UCSXDIR
 10
1.0
 20
0.0
 30
0.0
  9
$UCSYDIR
 10
0.0
 20
1.0
 30
0.0
  9
$UCSORTHOREF
  2

  9
$UCSORTHOVIEW
 70
     0
  9
$UCSORGTOP
 10
0.0
 20
0.0
 30
0.0
  9
$UCSORGBOTTOM
 10
0.0
 20
0.0
 30
0.0
  9
$UCSORGLEFT
 10
0.0
 20
0.0
 30
0.0
  9
$UCSORGRIGHT
 10
0.0
 20
0.0
 30
0.0
  9
$UCSORGFRONT
 10
0.0
 20
0.0
 30
0.0
  9
$UCSORGBACK
 10
0.0
 20
0.0
 30
0.0
  9
$PUCSBASE
  2

  9
$PUCSNAME
  2

  9
$PUCSORG
 10
0.0
 20
0.0
 30
0.0
  9
$PUCSXDIR
 10
1.0
 20
0.0
 30
0.0
  9
$PUCSYDIR
 10
0.0
 20
1.0
 30
0.0
  9
$PUCSORTHOREF
  2

  9
$PUCSORTHOVIEW
 70
     0
  9
$PUCSORGTOP
 10
0.0
 20
0.0
 30
0.0
  9
$PUCSORGBOTTOM
 10
0.0
 20
0.0
 30
0.0
  9
$PUCSORGLEFT
 10
0.0
 20
0.0
 30
0.0
  9
$PUCSORGRIGHT
 10
0.0
 20
0.0
 30
0.0
  9
$PUCSORGFRONT
 10
0.0
 20
0.0
 30
0.0
  9
$PUCSORGBACK
 10
0.0
 20
0.0
 30
0.0
  9
$USERI1
 70
     0
  9
$USERI2
 70
     0
  9
$USERI3
 70
     0
  9
$USERI4
 70
     0
  9
$USERI5
 70
     0
  9
$USERR1
 40
0.0
  9
$USERR2
 40
0.0
  9
$USERR3
 40
0.0
  9
$USERR4
 40
0.0
  9
$USERR5
 40
0.0
  9
$WORLDVIEW
 70
     1
  9
$SHADEDGE
 70
     3
  9
$SHADEDIF
 70
    70
  9
$TILEMODE
 70
     1
  9
$MAXACTVP
 70
    64
  9
$PINSBASE
 10
0.0
 20
0.0
 30
0.0
  9
$PLIMCHECK
 70
     0
  9
$PEXTMIN
 10
1.000000000000000E+20
 20
1.000000000000000E+20
 30
1.000000000000000E+20
  9
$PEXTMAX
 10
-1.000000000000000E+20
 20
-1.000000000000000E+20
 30
-1.000000000000000E+20
  9
$PLIMMIN
 10
0.0
 20
0.0
  9
$PLIMMAX
 10
0.0
 20
0.0
  9
$UNITMODE
 70
     0
  9
$VISRETAIN
 70
     1
  9
$PLINEGEN
 70
     0
  9
$PSLTSCALE
 70
     1
  9
$TREEDEPTH
 70
  3020
  9
$CMLSTYLE
  2
Standard
  9
$CMLJUST
 70
     0
  9
$CMLSCALE
 40
20.0
  9
$PROXYGRAPHICS
 70
     1
  9
$MEASUREMENT
 70
     1
  9
$CELWEIGHT
370
    -1
  9
$ENDCAPS
280
     0
  9
$JOINSTYLE
280
     0
  9
$LWDISPLAY
290
     1
  9
$INSUNITS
 70
     4
  9
$HYPERLINKBASE
  1

  9
$STYLESHEET
  1

  9
$XEDIT
290
     1
  9
$CEPSNTYPE
380
     0
  9
$PSTYLEMODE
290
     1
  9
$FINGERPRINTGUID
  2
{644FB7B3-EE66-4B4F-BA79-9FB73C223403}
  9
$VERSIONGUID
  2
{FAEB1C32-E019-11D5-929B-00C0DF256EC4}
  9
$EXTNAMES
290
     1
  9
$PSVPSCALE
 40
0.0
  9
$OLESTARTUP
290
     0
  0
ENDSEC
  0
SECTION
  2
CLASSES
  0
CLASS
  1
ACDBDICTIONARYWDFLT
  2
AcDbDictionaryWithDefault
  3
ObjectDBX Classes
 90
        0
280
     0
281
     0
  0
CLASS
  1
VISUALSTYLE
  2
AcDbVisualStyle
  3
ObjectDBX Classes
 90
     4095
280
     0
281
     0
  0
CLASS
  1
MATERIAL
  2
AcDbMaterial
  3
ObjectDBX Classes
 90
     1153
280
     0
281
     0
  0
CLASS
  1
SCALE
  2
AcDbScale
  3
ObjectDBX Classes
 90
     1153
280
     0
281
     0
  0
CLASS
  1
TABLESTYLE
  2
AcDbTableStyle
  3
ObjectDBX Classes
 90
     4095
280
     0
281
     0
  0
CLASS
  1
MLEADERSTYLE
  2
AcDbMLeaderStyle
  3
ACDB_MLEADERSTYLE_CLASS
 90
     4095
280
     0
281
     0
  0
CLASS
  1
SUN
  2
AcDbSun
  3
SCENEOE
 90
     1153
280
     0
281
     0
  0
CLASS
  1
ACDBPLACEHOLDER
  2
AcDbPlaceHolder
  3
ObjectDBX Classes
 90
        0
280
     0
281
     0
  0
CLASS
  1
LAYOUT
  2
AcDbLayout
  3
ObjectDBX Classes
 90
        0
280
     0
281
     0
  0
CLASS
  1
RASTERVARIABLES
  2
AcDbRasterVariables
  3
ISM
 90
        0
280
     0
281
     0
  0
ENDSEC
  0
SECTION
  2
TABLES
  0
TABLE
  2
VPORT
  5
8
330
0
100
AcDbSymbolTable
 70
     1
  0
VPORT
  5
29
330
8
100
AcDbSymbolTableRecord
100
AcDbViewportTableRecord
  2
*Active
 70
     0
 10
0.0
 20
0.0
 11
1.0
 21
1.0
 12
18.32295573739097
 22
-11.10383739361505
 13
0.0
 23
0.0
 14
10.0
 24
10.0
 15
10.0
 25
10.0
 16
0.0
 26
0.0
 36
1.0
 17
0.0
 27
0.0
 37
0.0
 40
89.79031471214532
 41
1.739018087855297
 42
50.0
 43
0.0
 44
0.0
 50
0.0
 51
0.0
 71
    16
 72
  2000
 73
     1
 74
     3
 75
     0
 76
     0
 77
     0
 78
     0
281
     0
 65
     1
110
0.0
120
0.0
130
0.0
111
1.0
121
0.0
131
0.0
112
0.0
122
1.0
132
0.0
 79
     0
146
0.0
  0
ENDTAB
  0
TABLE
  2
LTYPE
  5
5
330
0
100
AcDbSymbolTable
 70
     6
  0
LTYPE
  5
14
330
5
100
AcDbSymbolTableRecord
100
AcDbLinetypeTableRecord
  2
ByBlock
 70
     0
  3

 72
    65
 73
     0
 40
0.0
  0
LTYPE
  5
15
330
5
100
AcDbSymbolTableRecord
100
AcDbLinetypeTableRecord
  2
ByLayer
 70
     0
  3

 72
    65
 73
     0
 40
0.0
  0
LTYPE
  5
16
330
5
100
AcDbSymbolTableRecord
100
AcDbLinetypeTableRecord
  2
Continuous
 70
     0
  3
Solid line
 72
    65
 73
     0
 40
0.0
  0
LTYPE
  5
6E
330
5
100
AcDbSymbolTableRecord
100
AcDbLinetypeTableRecord
  2
HIDDEN
 70
     0
  3
Hidden __ __ __ __ __ __ __ __ __ __ __ __ __ __
 72
    65
 73
     2
 40
1.905
 49
1.27
 74
     0
 49
-0.635
 74
     0
  0
LTYPE
  5
6F
330
5
100
AcDbSymbolTableRecord
100
AcDbLinetypeTableRecord
  2
PHANTOM
 70
     0
  3
Phantom ______  __  __  ______  __  __  ______
 72
    65
 73
     6
 40
12.7
 49
6.35
 74
     0
 49
-1.27
 74
     0
 49
1.27
 74
     0
 49
-1.27
 74
     0
 49
1.27
 74
     0
 49
-1.27
 74
     0
  0
LTYPE
  5
70
330
5
100
AcDbSymbolTableRecord
100
AcDbLinetypeTableRecord
  2
CENTER
 70
     0
  3
Center ____ _ ____ _ ____ _ ____ _ ____ _ ____
 72
    65
 73
     4
 40
10.16
 49
6.35
 74
     0
 49
-1.27
 74
     0
 49
1.27
 74
     0
 49
-1.27
 74
     0
  0
LTYPE
  5
71
330
5
100
AcDbSymbolTableRecord
100
AcDbLinetypeTableRecord
  2
CENTERX2
 70
     0
  3
Center (2x) ________  __  ________  __  _____
 72
    65
 73
     4
 40
20.32
 49
12.7
 74
     0
 49
-2.54
 74
     0
 49
2.54
 74
     0
 49
-2.54
 74
     0
  0
LTYPE
  5
72
330
5
100
AcDbSymbolTableRecord
100
AcDbLinetypeTableRecord
  2
DOT2
 70
     0
  3
Dot (.5x) ........................................
 72
    65
 73
     2
 40
0.635
 49
0.0
 74
     0
 49
-0.635
 74
     0
  0
ENDTAB
  0
TABLE
  2
LAYER
  5
2
330
0
100
AcDbSymbolTable
 70
    17
  0
LAYER
  5
10
330
2
100
AcDbSymbolTableRecord
100
AcDbLayerTableRecord
  2
0
 70
     0
 62
     7
  6
Continuous
370
    -3
390
F
  0
LAYER
  5
73
330
2
100
AcDbSymbolTableRecord
100
AcDbLayerTableRecord
  2
FORMAT
 70
     0
 62
     2
  6
Continuous
370
    -3
390
F
  0
LAYER
  5
74
330
2
100
AcDbSymbolTableRecord
100
AcDbLayerTableRecord
  2
외형선
 70
     0
 62
   100
  6
Continuous
370
    35
390
F
  0
LAYER
  5
75
330
2
100
AcDbSymbolTableRecord
100
AcDbLayerTableRecord
  2
숨은선
 70
     0
 62
     2
  6
HIDDEN
370
    25
390
F
  0
LAYER
  5
76
330
2
100
AcDbSymbolTableRecord
100
AcDbLayerTableRecord
  2
중심선
 70
     0
 62
     1
  6
CENTERX2
370
    -3
390
F
  0
LAYER
  5
77
330
2
100
AcDbSymbolTableRecord
100
AcDbLayerTableRecord
  2
파단선
 70
     0
 62
     4
  6
Continuous
370
    -3
390
F
  0
LAYER
  5
78
330
2
100
AcDbSymbolTableRecord
100
AcDbLayerTableRecord
  2
해칭선
 70
     0
 62
   100
  6
Continuous
370
    -3
390
F
  0
LAYER
  5
79
330
2
100
AcDbSymbolTableRecord
100
AcDbLayerTableRecord
  2
가는실선
 70
     0
 62
     4
  6
Continuous
370
    -3
390
F
  0
LAYER
  5
7A
330
2
100
AcDbSymbolTableRecord
100
AcDbLayerTableRecord
  2
치수_보조선
 70
     0
 62
     4
  6
Continuous
370
    -3
390
F
  0
LAYER
  5
7B
330
2
100
AcDbSymbolTableRecord
100
AcDbLayerTableRecord
  2
치수문자_일반주서
 70
     0
 62
     7
  6
Continuous
370
    25
390
F
  0
LAYER
  5
7C
330
2
100
AcDbSymbolTableRecord
100
AcDbLayerTableRecord
  2
개별주서
 70
     0
 62
   100
  6
Continuous
370
    35
390
F
  0
LAYER
  5
7D
330
2
100
AcDbSymbolTableRecord
100
AcDbLayerTableRecord
  2
중간선
 70
     0
 62
     2
  6
Continuous
370
    25
390
F
  0
LAYER
  5
7E
330
2
100
AcDbSymbolTableRecord
100
AcDbLayerTableRecord
  2
윤곽선
 70
     0
 62
     3
  6
Continuous
370
    50
390
F
  0
LAYER
  5
7F
330
2
100
AcDbSymbolTableRecord
100
AcDbLayerTableRecord
  2
중심마크
 70
     0
 62
   100
  6
Continuous
370
    35
390
F
  0
LAYER
  5
80
330
2
100
AcDbSymbolTableRecord
100
AcDbLayerTableRecord
  2
가상선
 70
     0
 62
     4
  6
PHANTOM
370
    -3
390
F
  0
LAYER
  5
81
330
2
100
AcDbSymbolTableRecord
100
AcDbLayerTableRecord
  2
특수지정선
 70
     0
 62
     5
  6
CENTERX2
370
    70
390
F
  0
LAYER
  5
142
330
2
100
AcDbSymbolTableRecord
100
AcDbLayerTableRecord
  2
Defpoints
 70
     0
 62
     7
  6
Continuous
290
     0
370
    -3
390
F
  0
ENDTAB
  0
TABLE
  2
STYLE
  5
3
330
0
100
AcDbSymbolTable
 70
     2
  0
STYLE
  5
11
330
3
100
AcDbSymbolTableRecord
100
AcDbTextStyleTableRecord
  2
Standard
 70
     0
 40
0.0
 41
1.0
 50
0.0
 71
     0
 42
3.5
  3
txt
  4

  0
STYLE
  5
97
330
3
100
AcDbSymbolTableRecord
100
AcDbTextStyleTableRecord
  2
SLDTEXTSTYLE0
 70
     0
 40
0.0
 41
0.75
 50
0.0
 71
     0
 42
3.5
  3
TXT
  4

  0
ENDTAB
  0
TABLE
  2
VIEW
  5
6
330
0
100
AcDbSymbolTable
 70
     0
  0
ENDTAB
  0
TABLE
  2
UCS
  5
7
330
0
100
AcDbSymbolTable
 70
     0
  0
ENDTAB
  0
TABLE
  2
APPID
  5
9
330
0
100
AcDbSymbolTable
 70
     1
  0
APPID
  5
12
330
9
100
AcDbSymbolTableRecord
100
AcDbRegAppTableRecord
  2
ACAD
 70
     0
  0
ENDTAB
  0
TABLE
  2
DIMSTYLE
  5
A
330
0
100
AcDbSymbolTable
 70
     4
100
AcDbDimStyleTable
  0
DIMSTYLE
105
27
330
A
100
AcDbSymbolTableRecord
100
AcDbDimStyleTableRecord
  2
ISO-25
 70
     0
 41
2.5
 42
0.625
 43
3.75
 44
1.25
 73
     0
 74
     0
 77
     1
 78
     8
140
2.5
141
2.5
143
0.03937007874016
147
0.625
171
     3
172
     1
178
     0
271
     2
272
     2
274
     3
278
    44
283
     0
284
     8
340
11
  0
DIMSTYLE
105
E7
102
{ACAD_REACTORS
330
E6
102
}
330
A
100
AcDbSymbolTableRecord
100
AcDbDimStyleTableRecord
  2
SLDDIMSTYLE0
 70
     0
 41
3.302
 44
0.0
 45
0.000000001
 73
     0
 74
     0
 77
     1
 78
    12
 79
     3
140
3.5
147
0.875
172
     1
173
     1
178
     0
271
     1
272
     1
276
     2
284
    12
289
     0
340
97
  0
DIMSTYLE
105
F5
102
{ACAD_REACTORS
330
F4
330
10D
102
}
330
A
100
AcDbSymbolTableRecord
100
AcDbDimStyleTableRecord
  2
SLDDIMSTYLE1
 70
     0
 41
3.302
 44
0.0
 45
0.000000001
 73
     0
 74
     0
 77
     1
 78
    12
 79
     3
140
3.5
147
0.875
173
     1
178
     0
271
     2
272
     2
276
     2
284
    12
340
97
  0
DIMSTYLE
105
100
102
{ACAD_REACTORS
330
FF
102
}
330
A
100
AcDbSymbolTableRecord
100
AcDbDimStyleTableRecord
  2
SLDDIMSTYLE2
 70
     0
 41
3.302
 44
0.0
 45
0.000000001
 73
     0
 74
     0
 77
     1
 78
    12
 79
     3
140
3.5
147
0.875
172
     1
173
     1
178
     0
271
     2
272
     2
276
     2
284
    12
289
     0
340
97
  0
ENDTAB
  0
TABLE
  2
BLOCK_RECORD
  5
1
330
0
100
AcDbSymbolTable
 70
     7
  0
BLOCK_RECORD
  5
1F
330
1
100
AcDbSymbolTableRecord
100
AcDbBlockTableRecord
  2
*Model_Space
340
22
  0
BLOCK_RECORD
  5
1B
330
1
100
AcDbSymbolTableRecord
100
AcDbBlockTableRecord
  2
*Paper_Space
340
1E
  0
BLOCK_RECORD
  5
23
330
1
100
AcDbSymbolTableRecord
100
AcDbBlockTableRecord
  2
*Paper_Space0
340
26
  0
BLOCK_RECORD
  5
82
330
1
100
AcDbSymbolTableRecord
100
AcDbBlockTableRecord
  2
블럭10
340
0
102
{BLKREFS
331
DF
102
}
  0
BLOCK_RECORD
  5
E8
330
1
100
AcDbSymbolTableRecord
100
AcDbBlockTableRecord
  2
_D
340
0
  0
BLOCK_RECORD
  5
F6
330
1
100
AcDbSymbolTableRecord
100
AcDbBlockTableRecord
  2
_D_1
340
0
  0
BLOCK_RECORD
  5
101
330
1
100
AcDbSymbolTableRecord
100
AcDbBlockTableRecord
  2
_D_2
340
0
  0
BLOCK_RECORD
  5
10E
330
1
100
AcDbSymbolTableRecord
100
AcDbBlockTableRecord
  2
_D_3
340
0
  0
BLOCK_RECORD
  5
117
330
1
100
AcDbSymbolTableRecord
100
AcDbBlockTableRecord
  2
SW_DOWELSYMBOL_0
340
0
102
{BLKREFS
331
11D
102
}
  0
ENDTAB
  0
ENDSEC
  0
SECTION
  2
BLOCKS
  0
BLOCK
  5
20
330
1F
100
AcDbEntity
  8
0
100
AcDbBlockBegin
  2
*Model_Space
 70
     0
 10
0.0
 20
0.0
 30
0.0
  3
*Model_Space
  1

  0
ENDBLK
  5
21
330
1F
100
AcDbEntity
  8
0
100
AcDbBlockEnd
  0
BLOCK
  5
1C
330
1B
100
AcDbEntity
 67
     1
  8
0
100
AcDbBlockBegin
  2
*Paper_Space
 70
     0
 10
0.0
 20
0.0
 30
0.0
  3
*Paper_Space
  1

  0
ENDBLK
  5
1D
330
1B
100
AcDbEntity
 67
     1
  8
0
100
AcDbBlockEnd
  0
BLOCK
  5
24
330
23
100
AcDbEntity
  8
0
100
AcDbBlockBegin
  2
*Paper_Space0
 70
     0
 10
0.0
 20
0.0
 30
0.0
  3
*Paper_Space0
  1

  0
ENDBLK
  5
25
330
23
100
AcDbEntity
  8
0
100
AcDbBlockEnd
  0
BLOCK
  5
83
330
82
100
AcDbEntity
  8
0
100
AcDbBlockBegin
  2
블럭10
 70
     2
 10
0.0
 20
0.0
 30
0.0
  3
블럭10
  1

  0
ELLIPSE
  5
85
330
82
100
AcDbEntity
  8
중심선
100
AcDbEllipse
 10
20.54032771741204
 20
12.0471743016438
 30
0.0
 11
6.600054785286829
 21
-1.261213355974178E-13
 31
0.0
210
0.0
220
0.0
230
1.0
 40
0.636358354079598
 41
0.9219305317359503
 42
6.513795318482858
  0
ELLIPSE
  5
86
330
82
100
AcDbEntity
  8
중심선
100
AcDbEllipse
 10
20.54032771746488
 20
12.04717430159265
 30
0.0
 11
3.960054785062283
 21
1.540847449632565E-10
 31
0.0
210
0.0
220
0.0
230
1.0
 40
0.3939339440162632
 41
1.131841032648279
 42
5.62031148352944
  0
LINE
  5
87
330
82
100
AcDbEntity
  8
중심선
100
AcDbLine
 10
2.268634060543552
 20
16.24717430164393
 30
0.0
 11
5.714909304380834
 21
16.24717430164393
 31
0.0
  0
LINE
  5
88
330
82
100
AcDbEntity
  8
중심선
100
AcDbLine
 10
5.245725140726316
 20
7.84717430164391
 30
0.0
 11
8.692000384563599
 21
7.84717430164391
 31
0.0
  0
LINE
  5
89
330
82
100
AcDbEntity
  8
중심선
100
AcDbLine
 10
15.74043728645272
 20
16.24717430164393
 30
0.0
 11
8.692000384563599
 21
7.84717430164391
 31
0.0
  0
LINE
  5
8A
330
82
100
AcDbEntity
  8
중심선
100
AcDbLine
 10
0.1404042013395286
 20
13.71084872107135
 30
0.0
 11
3.58671253028996
 21
13.71088815037384
 31
0.0
  0
LINE
  5
8B
330
82
100
AcDbEntity
  8
중심선
100
AcDbLine
 10
2.750260043222114
 20
10.84717430164391
 30
0.0
 11
6.196535287059397
 21
10.84717430164391
 31
0.0
  0
LINE
  5
8C
330
82
100
AcDbEntity
  8
중심선
100
AcDbLine
 10
12.29416204261559
 20
16.24717430164393
 30
0.0
 11
5.245725140726316
 21
7.84717430164391
 31
0.0
  0
LINE
  5
8D
330
82
100
AcDbEntity
  8
중심선
100
AcDbLine
 10
10.72767329541681
 20
16.24717430164393
 30
0.0
 11
6.196535287059397
 21
10.84717430164391
 31
0.0
  0
LINE
  5
8E
330
82
100
AcDbEntity
  8
중심선
100
AcDbLine
 10
7.28139805157953
 20
16.24717430164393
 30
0.0
 11
2.750260043222114
 21
10.84717430164391
 31
0.0
  0
LINE
  5
8F
330
82
100
AcDbEntity
  8
중심선
100
AcDbLine
 10
5.714909304380834
 20
16.24717430164393
 30
0.0
 11
3.58671253028996
 21
13.71088815037384
 31
0.0
  0
LINE
  5
90
330
82
100
AcDbEntity
  8
중심선
100
AcDbLine
 10
2.268634060543552
 20
16.24717430164393
 30
0.0
 11
0.1404042013395286
 21
13.71084872107135
 31
0.0
  0
LINE
  5
91
330
82
100
AcDbEntity
  8
중심선
100
AcDbLine
 10
7.28139805157953
 20
16.24717430164393
 30
0.0
 11
10.72767329541681
 21
16.24717430164393
 31
0.0
  0
LINE
  5
92
330
82
100
AcDbEntity
  8
중심선
100
AcDbLine
 10
12.29416204261559
 20
16.24717430164393
 30
0.0
 11
15.74043728645272
 21
16.24717430164393
 31
0.0
  0
LINE
  5
93
330
82
100
AcDbEntity
  8
중심선
100
AcDbLine
 10
19.22036997980202
 20
11.08717430171403
 30
0.0
 11
23.66174974927406
 21
11.08717430171406
 31
0.0
  0
LINE
  5
94
330
82
100
AcDbEntity
  8
중심선
100
AcDbLine
 10
19.22039502424796
 20
13.00717430171391
 30
0.0
 11
19.22036997980202
 21
11.08717430171403
 31
0.0
  0
LINE
  5
95
330
82
100
AcDbEntity
  8
중심선
100
AcDbLine
 10
19.22039502424796
 20
13.00717430171391
 30
0.0
 11
26.96566020931264
 21
13.00717430171391
 31
0.0
  0
LINE
  5
96
330
82
100
AcDbEntity
  8
중심선
100
AcDbLine
 10
22.22332737316547
 20
13.45928029700563
 30
0.0
 11
24.52862924686651
 21
15.39360700705356
 31
0.0
  0
ATTDEF
  5
98
330
82
100
AcDbEntity
  8
FORMAT
 62
     2
100
AcDbText
 10
-16.11926103943555
 20
2.075366912832191
 30
0.0
 40
4.233333333333333
  1
SEME7212070E [ 4 FLUTE ]
 41
0.75
  7
SLDTEXTSTYLE0
 11
-16.11926103943555
 21
-0.0412997538344756
 31
0.0
100
AcDbAttributeDefinition
  3

  2
AUTOATTR0
 70
     0
 74
     1
  0
ENDBLK
  5
84
330
82
100
AcDbEntity
  8
0
100
AcDbBlockEnd
  0
BLOCK
  5
E9
330
E8
100
AcDbEntity
  8
0
100
AcDbBlockBegin
  2
_D
 70
     0
 10
0.0
 20
0.0
 30
0.0
  3
_D
  1

  0
LINE
  5
EB
330
E8
100
AcDbEntity
  8
치수문자_일반주서
 62
     0
370
    -2
100
AcDbLine
 10
80.06250000000003
 20
-6.000000000000009
 30
0.0
 11
94.3152603445676
 21
-5.999999999999954
 31
0.0
  0
LINE
  5
EC
330
E8
100
AcDbEntity
  8
치수문자_일반주서
 62
     0
370
    -2
100
AcDbLine
 10
80.06250000000003
 20
5.999999999999996
 30
0.0
 11
94.31526034456756
 21
6.00000000000005
 31
0.0
  0
LINE
  5
ED
330
E8
100
AcDbEntity
  8
치수문자_일반주서
 62
     0
370
    -2
100
AcDbLine
 10
94.3152603445676
 20
-5.999999999999954
 30
0.0
 11
94.3152603445675
 21
20.47900000000005
 31
0.0
  0
LINE
  5
EE
330
E8
100
AcDbEntity
  8
치수문자_일반주서
 62
     0
370
    -2
100
AcDbLine
 10
94.3152603445676
 20
-5.999999999999954
 30
0.0
 11
94.31526034456756
 21
6.00000000000005
 31
0.0
  0
LINE
  5
EF
330
E8
100
AcDbEntity
  8
치수문자_일반주서
 62
     0
370
    -2
100
AcDbLine
 10
94.31526034456762
 20
-9.301999999999953
 30
0.0
 11
94.31526034456763
 21
-12.60399999999995
 31
0.0
  0
LINE
  5
F0
330
E8
100
AcDbEntity
  8
치수문자_일반주서
 62
     0
370
    -2
100
AcDbLine
 10
94.31526034456755
 20
9.30200000000005
 30
0.0
 11
94.31526034456753
 21
12.60400000000005
 31
0.0
  0
SOLID
  5
F1
330
E8
100
AcDbEntity
  8
치수문자_일반주서
 62
     0
100
AcDbTrace
 10
94.86559367790095
 20
-9.301999999999952
 30
0.0
 11
93.76492701123429
 21
-9.301999999999955
 31
0.0
 12
94.3152603445676
 22
-5.999999999999954
 32
0.0
 13
94.3152603445676
 23
-5.999999999999954
 33
0.0
  0
SOLID
  5
F2
330
E8
100
AcDbEntity
  8
치수문자_일반주서
 62
     0
100
AcDbTrace
 10
93.76492701123422
 20
9.302000000000048
 30
0.0
 11
94.86559367790088
 21
9.302000000000051
 31
0.0
 12
94.31526034456756
 22
6.00000000000005
 32
0.0
 13
94.31526034456756
 23
6.00000000000005
 33
0.0
  0
MTEXT
  5
F3
330
E8
100
AcDbEntity
  8
치수문자_일반주서
 62
     0
100
AcDbMText
 10
89.94026034456752
 20
16.54150000000003
 30
0.0
 40
3.5
 41
0.0
 71
     2
 72
     1
  1
\A1;%%c12
  7
SLDTEXTSTYLE0
 11
-3.552713678800499E-15
 21
1.0
 31
0.0
 73
     1
 44
1.0
  0
POINT
  5
14C
330
E8
100
AcDbEntity
  8
Defpoints
 62
     0
100
AcDbPoint
 10
80.00000000000003
 20
-6.000000000000009
 30
0.0
  0
POINT
  5
14D
330
E8
100
AcDbEntity
  8
Defpoints
 62
     0
100
AcDbPoint
 10
80.00000000000003
 20
5.999999999999996
 30
0.0
  0
POINT
  5
14E
330
E8
100
AcDbEntity
  8
Defpoints
 62
     0
100
AcDbPoint
 10
94.31526034456756
 20
6.00000000000005
 30
0.0
  0
ENDBLK
  5
EA
330
E8
100
AcDbEntity
  8
0
100
AcDbBlockEnd
  0
BLOCK
  5
F7
330
F6
100
AcDbEntity
  8
0
100
AcDbBlockBegin
  2
_D_1
 70
     0
 10
0.0
 20
0.0
 30
0.0
  3
_D_1
  1

  0
LINE
  5
F9
330
F6
100
AcDbEntity
  8
치수문자_일반주서
 62
     0
370
    -2
100
AcDbLine
 10
-39.99999999999997
 20
5.562499999999988
 30
0.0
 11
-39.99999999999997
 21
23.38913260158164
 31
0.0
  0
LINE
  5
FA
330
F6
100
AcDbEntity
  8
치수문자_일반주서
 62
     0
370
    -2
100
AcDbLine
 10
80.00000000000003
 20
6.062500000000009
 30
0.0
 11
80.00000000000003
 21
23.38913260158164
 31
0.0
  0
LINE
  5
FB
330
F6
100
AcDbEntity
  8
치수문자_일반주서
 62
     0
370
    -2
100
AcDbLine
 10
-36.69799999999997
 20
23.38913260158164
 30
0.0
 11
76.69800000000004
 21
23.38913260158164
 31
0.0
  0
SOLID
  5
FC
330
F6
100
AcDbEntity
  8
치수문자_일반주서
 62
     0
100
AcDbTrace
 10
-36.69799999999997
 20
23.93946593491497
 30
0.0
 11
-36.69799999999997
 21
22.83879926824831
 31
0.0
 12
-39.99999999999997
 22
23.38913260158164
 32
0.0
 13
-39.99999999999997
 23
23.38913260158164
 33
0.0
  0
SOLID
  5
FD
330
F6
100
AcDbEntity
  8
치수문자_일반주서
 62
     0
100
AcDbTrace
 10
76.69800000000004
 20
22.83879926824831
 30
0.0
 11
76.69800000000004
 21
23.93946593491497
 31
0.0
 12
80.00000000000003
 22
23.38913260158164
 32
0.0
 13
80.00000000000003
 23
23.38913260158164
 33
0.0
  0
MTEXT
  5
FE
330
F6
100
AcDbEntity
  8
치수문자_일반주서
 62
     0
100
AcDbMText
 10
20.00000000000002
 20
27.76413260158164
 30
0.0
 40
3.5
 41
0.0
 71
     2
 72
     1
  1
\A1;120
  7
SLDTEXTSTYLE0
 73
     1
 44
1.0
  0
POINT
  5
143
330
F6
100
AcDbEntity
  8
Defpoints
 62
     0
100
AcDbPoint
 10
-39.99999999999997
 20
5.499999999999988
 30
0.0
  0
POINT
  5
144
330
F6
100
AcDbEntity
  8
Defpoints
 62
     0
100
AcDbPoint
 10
80.00000000000003
 20
6.000000000000009
 30
0.0
  0
POINT
  5
145
330
F6
100
AcDbEntity
  8
Defpoints
 62
     0
100
AcDbPoint
 10
80.00000000000003
 20
23.38913260158164
 30
0.0
  0
ENDBLK
  5
F8
330
F6
100
AcDbEntity
  8
0
100
AcDbBlockEnd
  0
BLOCK
  5
102
330
101
100
AcDbEntity
  8
0
100
AcDbBlockBegin
  2
_D_2
 70
     0
 10
0.0
 20
0.0
 30
0.0
  3
_D_2
  1

  0
LINE
  5
104
330
101
100
AcDbEntity
  8
치수문자_일반주서
 62
     0
370
    -2
100
AcDbLine
 10
-39.56249999999997
 20
6.0
 30
0.0
 11
-53.84468220311894
 21
5.999999999999947
 31
0.0
  0
LINE
  5
105
330
101
100
AcDbEntity
  8
치수문자_일반주서
 62
     0
370
    -2
100
AcDbLine
 10
-39.56249999999997
 20
-6.000000000000011
 30
0.0
 11
-53.84468220311889
 21
-6.000000000000064
 31
0.0
  0
LINE
  5
106
330
101
100
AcDbEntity
  8
치수문자_일반주서
 62
     0
370
    -2
100
AcDbLine
 10
-53.84468220311894
 20
5.999999999999947
 30
0.0
 11
-53.84468220311899
 21
20.47899999999995
 31
0.0
  0
LINE
  5
107
330
101
100
AcDbEntity
  8
치수문자_일반주서
 62
     0
370
    -2
100
AcDbLine
 10
-53.84468220311894
 20
5.999999999999947
 30
0.0
 11
-53.84468220311889
 21
-6.000000000000064
 31
0.0
  0
LINE
  5
108
330
101
100
AcDbEntity
  8
치수문자_일반주서
 62
     0
370
    -2
100
AcDbLine
 10
-53.84468220311895
 20
9.301999999999946
 30
0.0
 11
-53.84468220311896
 21
12.60399999999995
 31
0.0
  0
LINE
  5
109
330
101
100
AcDbEntity
  8
치수문자_일반주서
 62
     0
370
    -2
100
AcDbLine
 10
-53.84468220311888
 20
-9.302000000000064
 30
0.0
 11
-53.84468220311886
 21
-12.60400000000006
 31
0.0
  0
SOLID
  5
10A
330
101
100
AcDbEntity
  8
치수문자_일반주서
 62
     0
100
AcDbTrace
 10
-54.39501553645228
 20
9.301999999999945
 30
0.0
 11
-53.29434886978562
 21
9.301999999999948
 31
0.0
 12
-53.84468220311894
 22
5.999999999999947
 32
0.0
 13
-53.84468220311894
 23
5.999999999999947
 33
0.0
  0
SOLID
  5
10B
330
101
100
AcDbEntity
  8
치수문자_일반주서
 62
     0
100
AcDbTrace
 10
-53.29434886978554
 20
-9.302000000000062
 30
0.0
 11
-54.39501553645221
 21
-9.302000000000065
 31
0.0
 12
-53.84468220311889
 22
-6.000000000000064
 32
0.0
 13
-53.84468220311889
 23
-6.000000000000064
 33
0.0
  0
MTEXT
  5
10C
330
101
100
AcDbEntity
  8
치수문자_일반주서
 62
     0
100
AcDbMText
 10
-58.21968220311897
 20
16.54149999999993
 30
0.0
 40
3.5
 41
0.0
 71
     2
 72
     1
  1
\A1;%%c12
  7
SLDTEXTSTYLE0
 11
-3.552713678800498E-15
 21
1.0
 31
0.0
 73
     1
 44
1.0
  0
POINT
  5
149
330
101
100
AcDbEntity
  8
Defpoints
 62
     0
100
AcDbPoint
 10
-39.49999999999997
 20
6.0
 30
0.0
  0
POINT
  5
14A
330
101
100
AcDbEntity
  8
Defpoints
 62
     0
100
AcDbPoint
 10
-39.49999999999997
 20
-6.000000000000011
 30
0.0
  0
POINT
  5
14B
330
101
100
AcDbEntity
  8
Defpoints
 62
     0
100
AcDbPoint
 10
-53.8446822031189
 20
-6.000000000000064
 30
0.0
  0
ENDBLK
  5
103
330
101
100
AcDbEntity
  8
0
100
AcDbBlockEnd
  0
BLOCK
  5
10F
330
10E
100
AcDbEntity
  8
0
100
AcDbBlockBegin
  2
_D_3
 70
     0
 10
0.0
 20
0.0
 30
0.0
  3
_D_3
  1

  0
LINE
  5
111
330
10E
100
AcDbEntity
  8
치수문자_일반주서
 62
     0
370
    -2
100
AcDbLine
 10
10.0
 20
5.905441232452092
 30
0.0
 11
10.0
 21
16.68885953503977
 31
0.0
  0
LINE
  5
112
330
10E
100
AcDbEntity
  8
치수문자_일반주서
 62
     0
370
    -2
100
AcDbLine
 10
80.00000000000003
 20
6.062500000000009
 30
0.0
 11
80.00000000000003
 21
16.68885953503977
 31
0.0
  0
LINE
  5
113
330
10E
100
AcDbEntity
  8
치수문자_일반주서
 62
     0
370
    -2
100
AcDbLine
 10
13.302
 20
16.68885953503977
 30
0.0
 11
76.69800000000004
 21
16.68885953503977
 31
0.0
  0
SOLID
  5
114
330
10E
100
AcDbEntity
  8
치수문자_일반주서
 62
     0
100
AcDbTrace
 10
13.302
 20
17.23919286837311
 30
0.0
 11
13.302
 21
16.13852620170644
 31
0.0
 12
10.0
 22
16.68885953503977
 32
0.0
 13
10.0
 23
16.68885953503977
 33
0.0
  0
SOLID
  5
115
330
10E
100
AcDbEntity
  8
치수문자_일반주서
 62
     0
100
AcDbTrace
 10
76.69800000000004
 20
16.13852620170644
 30
0.0
 11
76.69800000000004
 21
17.23919286837311
 31
0.0
 12
80.00000000000003
 22
16.68885953503977
 32
0.0
 13
80.00000000000003
 23
16.68885953503977
 33
0.0
  0
MTEXT
  5
116
330
10E
100
AcDbEntity
  8
치수문자_일반주서
 62
     0
100
AcDbMText
 10
45.0
 20
21.06385953503977
 30
0.0
 40
3.5
 41
0.0
 71
     2
 72
     1
  1
\A1;70
  7
SLDTEXTSTYLE0
 73
     1
 44
1.0
  0
POINT
  5
146
330
10E
100
AcDbEntity
  8
Defpoints
 62
     0
100
AcDbPoint
 10
10.0
 20
5.842941232452092
 30
0.0
  0
POINT
  5
147
330
10E
100
AcDbEntity
  8
Defpoints
 62
     0
100
AcDbPoint
 10
80.00000000000003
 20
6.000000000000009
 30
0.0
  0
POINT
  5
148
330
10E
100
AcDbEntity
  8
Defpoints
 62
     0
100
AcDbPoint
 10
80.00000000000003
 20
16.68885953503977
 30
0.0
  0
ENDBLK
  5
110
330
10E
100
AcDbEntity
  8
0
100
AcDbBlockEnd
  0
BLOCK
  5
118
330
117
100
AcDbEntity
  8
0
100
AcDbBlockBegin
  2
SW_DOWELSYMBOL_0
 70
     0
 10
0.0
 20
0.0
 30
0.0
  3
SW_DOWELSYMBOL_0
  1

  0
CIRCLE
  5
11A
330
117
100
AcDbEntity
  8
해칭선
 62
     0
100
AcDbCircle
 10
0.0
 20
0.0
 30
0.0
 40
3.000000000000003
  0
HATCH
  5
11B
330
117
100
AcDbEntity
  8
0
  6
Continuous
 62
     0
370
    18
100
AcDbHatch
 10
0.0
 20
0.0
 30
0.0
210
0.0
220
0.0
230
1.0
  2
SOLID
 70
     1
 71
     0
 91
        1
 92
        0
 93
        3
 72
     2
 10
0.0
 20
0.0
 40
3.000000000000003
 50
0.0
 51
90.0
 73
     1
 72
     1
 10
0.0
 20
3.000000000000003
 11
0.0
 21
0.0
 72
     1
 10
0.0
 20
0.0
 11
3.000000000000003
 21
0.0
 97
        0
 75
     0
 76
     1
 98
        1
 10
0.0
 20
0.0
  0
HATCH
  5
11C
330
117
100
AcDbEntity
  8
0
  6
Continuous
 62
     0
370
    18
100
AcDbHatch
 10
0.0
 20
0.0
 30
0.0
210
0.0
220
0.0
230
1.0
  2
SOLID
 70
     1
 71
     0
 91
        1
 92
        0
 93
        3
 72
     2
 10
0.0
 20
0.0
 40
3.000000000000003
 50
180.0
 51
270.0000000000008
 73
     1
 72
     1
 10
0.0
 20
-3.000000000000003
 11
0.0
 21
0.0
 72
     1
 10
0.0
 20
0.0
 11
-3.000000000000003
 21
0.0
 97
        0
 75
     0
 76
     1
 98
        1
 10
0.0
 20
0.0
  0
ENDBLK
  5
119
330
117
100
AcDbEntity
  8
0
100
AcDbBlockEnd
  0
ENDSEC
  0
SECTION
  2
ENTITIES
  0
LINE
  5
99
330
1F
100
AcDbEntity
  8
0
  6
Continuous
 62
     4
370
    25
100
AcDbLine
 10
8.499836730708742
 20
5.999999999999995
 30
0.0
 11
-39.49999999999997
 21
5.999999999999992
 31
0.0
  0
LINE
  5
9A
330
1F
100
AcDbEntity
  8
0
  6
Continuous
 62
     4
370
    25
100
AcDbLine
 10
-39.49999999999997
 20
-6.000000000000008
 30
0.0
 11
8.499836730708745
 21
-6.000000000000005
 31
0.0
  0
LINE
  5
9B
330
1F
100
AcDbEntity
  8
0
  6
Continuous
 62
     4
370
    25
100
AcDbLine
 10
-39.49999999999997
 20
5.999999999999988
 30
0.0
 11
-39.99999999999997
 21
5.499999999999987
 31
0.0
  0
LINE
  5
9C
330
1F
100
AcDbEntity
  8
0
  6
Continuous
 62
     4
370
    25
100
AcDbLine
 10
-39.99999999999997
 20
-5.500000000000004
 30
0.0
 11
-39.49999999999997
 21
-6.000000000000004
 31
0.0
  0
LINE
  5
9D
330
1F
100
AcDbEntity
  8
0
  6
Continuous
 62
     1
370
    25
100
AcDbLine
 10
77.67953609690211
 20
-6.000000000000012
 30
0.0
 11
80.00000000000003
 21
-6.000000000000012
 31
0.0
  0
LINE
  5
9E
330
1F
100
AcDbEntity
  8
0
  6
Continuous
 62
     1
370
    25
100
AcDbLine
 10
12.38266409661661
 20
-6.000000000000012
 30
0.0
 11
17.02372122322867
 21
-6.000000000000012
 31
0.0
  0
LINE
  5
9F
330
1F
100
AcDbEntity
  8
0
  6
Continuous
 62
     1
370
    25
100
AcDbLine
 10
49.67242684350998
 20
6.000000000000002
 30
0.0
 11
45.03056104929799
 21
6.000000000000002
 31
0.0
  0
LINE
  5
A0
330
1F
100
AcDbEntity
  8
0
  6
Continuous
 62
     1
370
    25
100
AcDbLine
 10
14.24735633986892
 20
-1.067905297542231
 30
0.0
 11
13.87261504703043
 21
-0.8572185718100543
 31
0.0
  0
LINE
  5
A1
330
1F
100
AcDbEntity
  8
0
  6
Continuous
 62
     1
370
    25
100
AcDbLine
 10
14.83199947120098
 20
-1.398461531147165
 30
0.0
 11
14.70322288756818
 21
-1.335873651619482
 31
0.0
  0
LINE
  5
A2
330
1F
100
AcDbEntity
  8
0
  6
Continuous
 62
     1
370
    25
100
AcDbLine
 10
79.23788281974363
 20
-0.8957253316299071
 30
0.0
 11
79.16939215946226
 21
-0.8572185718100502
 31
0.0
  0
SPLINE
  5
A3
330
1F
100
AcDbEntity
  8
0
  6
Continuous
 62
     1
370
    25
100
AcDbSpline
210
0.0
220
0.0
230
1.0
 70
     8
 71
     3
 72
     9
 73
     5
 74
     0
 42
0.000000001
 43
0.00000001
 40
0.0
 40
0.0
 40
0.0
 40
0.0
 40
0.2237604106959028
 40
1.0
 40
1.0
 40
1.0
 40
1.0
 10
63.88810602071197
 20
1.206937076286258
 30
0.0
 10
63.94076746372549
 20
1.178718370014469
 30
0.0
 10
64.17611491795002
 20
1.052607114748051
 30
0.0
 10
64.36286902385869
 20
0.942495325162063
 30
0.0
 10
64.50783495433014
 20
0.8570221948362964
 30
0.0
  0
LINE
  5
A4
330
1F
100
AcDbEntity
  8
0
  6
Continuous
 62
     1
370
    25
100
AcDbLine
 10
31.67985872606244
 20
0.9546683533274535
 30
0.0
 11
31.85944639811409
 21
0.8570221948363067
 31
0.0
  0
SPLINE
  5
A5
330
1F
100
AcDbEntity
  8
0
  6
Continuous
 62
     1
370
    25
100
AcDbSpline
210
0.0
220
0.0
230
1.0
 70
     8
 71
     3
 72
    12
 73
     8
 74
     0
 42
0.000000001
 43
0.00000001
 40
0.0
 40
0.0
 40
0.0
 40
0.0
 40
0.0259821233235658
 40
0.124054848171198
 40
0.2442894750790542
 40
0.5633077709034753
 40
1.0
 40
1.0
 40
1.0
 40
1.0
 10
47.35052454101874
 20
-1.323257208210973
 30
0.0
 10
47.34121975912922
 20
-1.318655665189457
 30
0.0
 10
47.2967929318759
 20
-1.296685031235544
 30
0.0
 10
47.21072066373779
 20
-1.252039952566611
 30
0.0
 10
47.04121638539205
 20
-1.159728626925809
 30
0.0
 10
46.80015594396976
 20
-1.019405976132242
 30
0.0
 10
46.62323722986054
 20
-0.9166162701852087
 30
0.0
 10
46.52100360324626
 20
-0.8572185718100515
 30
0.0
  0
LINE
  5
A6
330
1F
100
AcDbEntity
  8
0
  6
Continuous
 62
     1
370
    25
100
AcDbLine
 10
61.35592313388456
 20
-6.000000000000012
 30
0.0
 11
65.99723952475144
 21
-6.000000000000012
 31
0.0
  0
LINE
  5
A7
330
1F
100
AcDbEntity
  8
0
  6
Continuous
 62
     1
370
    25
100
AcDbLine
 10
33.34833575020015
 20
6.000000000000002
 30
0.0
 11
28.70523661546924
 21
6.000000000000002
 31
0.0
  0
LINE
  5
A8
330
1F
100
AcDbEntity
  8
0
  6
Continuous
 62
     1
370
    25
100
AcDbLine
 10
28.70523661546935
 20
-6.000000000000012
 30
0.0
 11
33.34833575020018
 21
-6.000000000000012
 31
0.0
  0
LINE
  5
A9
330
1F
100
AcDbEntity
  8
0
  6
Continuous
 62
     1
370
    25
100
AcDbLine
 10
65.99723952475144
 20
6.000000000000002
 30
0.0
 11
61.35592313388457
 21
6.000000000000002
 31
0.0
  0
LINE
  5
AA
330
1F
100
AcDbEntity
  8
0
  6
Continuous
 62
     1
370
    25
100
AcDbLine
 10
45.03056104929797
 20
-6.000000000000012
 30
0.0
 11
49.67242684350995
 21
-6.000000000000012
 31
0.0
  0
LINE
  5
AB
330
1F
100
AcDbEntity
  8
0
  6
Continuous
 62
     1
370
    25
100
AcDbLine
 10
17.02372122322853
 20
6.000000000000002
 30
0.0
 11
12.38266409661662
 21
6.000000000000002
 31
0.0
  0
LINE
  5
AC
330
1F
100
AcDbEntity
  8
0
  6
Continuous
 62
     1
370
    25
100
AcDbLine
 10
80.00000000000003
 20
6.000000000000002
 30
0.0
 11
77.67953609690208
 21
6.000000000000002
 31
0.0
  0
SPLINE
  5
AD
330
1F
100
AcDbEntity
  8
0
  6
Continuous
 62
     4
370
    25
100
AcDbSpline
210
0.0
220
0.0
230
1.0
 70
    24
 71
     3
 72
    12
 73
     8
 74
     0
 42
0.000000001
 43
0.00000001
 40
0.0
 40
0.0
 40
0.0
 40
0.0
 40
0.5
 40
0.5
 40
0.75
 40
0.75
 40
1.0
 40
1.0
 40
1.0
 40
1.0
 10
10.00000000000001
 20
1.315339415728592
 30
0.0
 10
10.00000000000001
 20
1.19541443203962
 30
0.0
 10
10.00000000000001
 20
1.034524812530091
 30
0.0
 10
10.00000000000001
 20
0.7293109483784175
 30
0.0
 10
10.00000000000001
 20
0.6168494548248694
 30
0.0
 10
10.00000000000001
 20
0.3750805914077818
 30
0.0
 10
10.00000000000001
 20
0.2451776691881121
 30
0.0
 10
10.00000000000001
 20
0.1057674819651073
 30
0.0
  0
SPLINE
  5
AE
330
1F
100
AcDbEntity
  8
0
  6
Continuous
 62
     4
370
    25
100
AcDbSpline
210
0.0
220
0.0
230
1.0
 70
     8
 71
     3
 72
    14
 73
    10
 74
     0
 42
0.000000001
 43
0.00000001
 40
0.0
 40
0.0
 40
0.0
 40
0.0
 40
0.25
 40
0.25
 40
0.5
 40
0.5
 40
0.75
 40
0.75
 40
1.0
 40
1.0
 40
1.0
 40
1.0
 10
9.105239666416121
 20
-4.340874560038781
 30
0.0
 10
9.010459441709797
 20
-4.30316259400319
 30
0.0
 10
8.925287784050125
 20
-4.256927235209193
 30
0.0
 10
8.773598492299136
 20
-4.146280216557749
 30
0.0
 10
8.708257025792884
 20
-4.082164151961917
 30
0.0
 10
8.604092971334257
 20
-3.941542724293304
 30
0.0
 10
8.564232451148131
 20
-3.863352111155733
 30
0.0
 10
8.512510528873142
 20
-3.70058761551032
 30
0.0
 10
8.499836730708735
 20
-3.614485493085585
 30
0.0
 10
8.499836730708735
 20
-3.526067804522398
 30
0.0
  0
SPLINE
  5
AF
330
1F
100
AcDbEntity
  8
0
  6
Continuous
 62
     4
370
    25
100
AcDbSpline
210
0.0
220
0.0
230
1.0
 70
     8
 71
     3
 72
    18
 73
    14
 74
     0
 42
0.000000001
 43
0.00000001
 40
0.0
 40
0.0
 40
0.0
 40
0.0
 40
0.1250000000000001
 40
0.1250000000000001
 40
0.2500000000000002
 40
0.2500000000000002
 40
0.5000000000000001
 40
0.5000000000000001
 40
0.6250000000000001
 40
0.6250000000000001
 40
0.75
 40
0.75
 40
1.0
 40
1.0
 40
1.0
 40
1.0
 10
8.499836730708742
 20
0.1217777573848712
 30
0.0
 10
8.499836730708742
 20
0.2152936970364687
 30
0.0
 10
8.5089711049674
 20
0.3072299816381962
 30
0.0
 10
8.54656790142026
 20
0.4877976801856995
 30
0.0
 10
8.575608770712767
 20
0.5773761663712342
 30
0.0
 10
8.690177445559213
 20
0.8282866773821457
 30
0.0
 10
8.806303867869799
 20
0.9779960777427352
 30
0.0
 10
9.021464668482249
 20
1.149751205457293
 30
0.0
 10
9.101344167675833
 20
1.199349040549311
 30
0.0
 10
9.268219029691588
 20
1.277651057428835
 30
0.0
 10
9.355743181412393
 20
1.307055005817855
 30
0.0
 10
9.630244617545292
 20
1.36509417554813
 30
0.0
 10
9.818697652567113
 20
1.36136554086825
 30
0.0
 10
9.999999999999979
 20
1.315339415728314
 30
0.0
  0
SPLINE
  5
B0
330
1F
100
AcDbEntity
  8
0
  6
Continuous
 62
     4
370
    25
100
AcDbSpline
210
0.0
220
0.0
230
1.0
 70
     8
 71
     3
 72
    18
 73
    14
 74
     0
 42
0.000000001
 43
0.00000001
 40
0.0
 40
0.0
 40
0.0
 40
0.0
 40
0.1249999999999999
 40
0.1249999999999999
 40
0.2499999999999998
 40
0.2499999999999998
 40
0.4999999999999999
 40
0.4999999999999999
 40
0.6249999999999999
 40
0.6249999999999999
 40
0.75
 40
0.75
 40
1.0
 40
1.0
 40
1.0
 40
1.0
 10
8.499836730708742
 20
5.998764054187015
 30
0.0
 10
8.499836730708742
 20
5.996865636228311
 30
0.0
 10
8.5089711049674
 20
5.992812098510958
 30
0.0
 10
8.546567901420257
 20
5.980822730434515
 30
0.0
 10
8.575608770712767
 20
5.972747929312695
 30
0.0
 10
8.690177445559213
 20
5.944936117275111
 30
0.0
 10
8.806303867869799
 20
5.920902321264717
 30
0.0
 10
9.021464668482249
 20
5.889096902077512
 30
0.0
 10
9.101344167675833
 20
5.879044386319016
 30
0.0
 10
9.268219029691588
 20
5.862525803169373
 30
0.0
 10
9.35574318141239
 20
5.855937220106353
 30
0.0
 10
9.630244617545292
 20
5.842781182632691
 30
0.0
 10
9.818697652567113
 20
5.843706804429796
 30
0.0
 10
9.999999999999975
 20
5.854048361726385
 30
0.0
  0
LINE
  5
B1
330
1F
100
AcDbEntity
  8
0
  6
Continuous
 62
     4
370
    25
100
AcDbLine
 10
8.499836730708742
 20
5.999999999999995
 30
0.0
 11
8.499836730708742
 21
4.854569583177351
 31
0.0
  0
SPLINE
  5
B2
330
1F
100
AcDbEntity
  8
0
  6
Continuous
 62
     4
370
    25
100
AcDbSpline
210
0.0
220
0.0
230
1.0
 70
     8
 71
     3
 72
    14
 73
    10
 74
     0
 42
0.000000001
 43
0.00000001
 40
0.0
 40
0.0
 40
0.0
 40
0.0
 40
0.25
 40
0.25
 40
0.5
 40
0.5
 40
0.75
 40
0.75
 40
1.0
 40
1.0
 40
1.0
 40
1.0
 10
9.105239666416121
 20
4.142077746009983
 30
0.0
 10
9.010459441709797
 20
4.181599677758038
 30
0.0
 10
8.925287784050125
 20
4.229015993806616
 30
0.0
 10
8.773598492299136
 20
4.33755301149389
 30
0.0
 10
8.708257025792884
 20
4.398281114846024
 30
0.0
 10
8.604092971334257
 20
4.524730034084318
 30
0.0
 10
8.564232451148131
 20
4.591895002763305
 30
0.0
 10
8.512510528873142
 20
4.724049168997473
 30
0.0
 10
8.499836730708749
 20
4.790348284120621
 30
0.0
 10
8.499836730708749
 20
4.85456958317735
 30
0.0
  0
SPLINE
  5
B3
330
1F
100
AcDbEntity
  8
0
  6
Continuous
 62
     4
370
    25
100
AcDbSpline
210
0.0
220
0.0
230
1.0
 70
     8
 71
     3
 72
     8
 73
     4
 74
     0
 42
0.000000001
 43
0.00000001
 40
0.0
 40
0.0
 40
0.0
 40
0.0
 40
1.0
 40
1.0
 40
1.0
 40
1.0
 10
9.999999999998948
 20
3.753909038662757
 30
0.0
 10
9.702559729224518
 20
3.887966566379813
 30
0.0
 10
9.403755422829102
 20
4.017601154113009
 30
0.0
 10
9.105239666416121
 20
4.142077746009983
 30
0.0
  0
LINE
  5
B4
330
1F
100
AcDbEntity
  8
0
  6
Continuous
 62
     4
370
    25
100
AcDbLine
 10
10.00000000000001
 20
3.75390903866228
 30
0.0
 11
10.00000000000001
 21
1.315339415728591
 31
0.0
  0
SPLINE
  5
B5
330
1F
100
AcDbEntity
  8
0
  6
Continuous
 62
     4
370
    25
100
AcDbSpline
210
0.0
220
0.0
230
1.0
 70
     8
 71
     3
 72
     8
 73
     4
 74
     0
 42
0.000000001
 43
0.00000001
 40
0.0
 40
0.0
 40
0.0
 40
0.0
 40
1.0
 40
1.0
 40
1.0
 40
1.0
 10
9.999999999998948
 20
-4.680616084387727
 30
0.0
 10
9.702559729224518
 20
-4.573100373651183
 30
0.0
 10
9.403755422829102
 20
-4.459650561064487
 30
0.0
 10
9.105239666416121
 20
-4.340874560038784
 30
0.0
  0
LINE
  5
B6
330
1F
100
AcDbEntity
  8
0
  6
Continuous
 62
     4
370
    25
100
AcDbLine
 10
10.00000000000001
 20
-4.680616084388108
 30
0.0
 11
10.00000000000001
 21
-5.854048361726334
 31
0.0
  0
SPLINE
  5
B7
330
1F
100
AcDbEntity
  8
0
  6
Continuous
 62
     4
370
    25
100
AcDbSpline
210
0.0
220
0.0
230
1.0
 70
     8
 71
     3
 72
    18
 73
    14
 74
     0
 42
0.000000001
 43
0.00000001
 40
0.0
 40
0.0
 40
0.0
 40
0.0
 40
0.1249999999999999
 40
0.1249999999999999
 40
0.2499999999999999
 40
0.2499999999999999
 40
0.4999999999999997
 40
0.4999999999999997
 40
0.6249999999999998
 40
0.6249999999999998
 40
0.7499999999999998
 40
0.7499999999999998
 40
1.0
 40
1.0
 40
1.0
 40
1.0
 10
8.499836730708742
 20
-5.998764054187027
 30
0.0
 10
8.499836730708742
 20
-5.996865636228319
 30
0.0
 10
8.5089711049674
 20
-5.992812098510966
 30
0.0
 10
8.54656790142026
 20
-5.980822730434523
 30
0.0
 10
8.57560877071277
 20
-5.972747929312706
 30
0.0
 10
8.690177445559213
 20
-5.944936117275121
 30
0.0
 10
8.806303867869799
 20
-5.920902321264728
 30
0.0
 10
9.021464668482249
 20
-5.889096902077522
 30
0.0
 10
9.101344167675833
 20
-5.879044386319031
 30
0.0
 10
9.268219029691588
 20
-5.862525803169384
 30
0.0
 10
9.355743181412393
 20
-5.855937220106364
 30
0.0
 10
9.630244617545292
 20
-5.842781182632701
 30
0.0
 10
9.818697652567113
 20
-5.843706804429806
 30
0.0
 10
9.999999999999979
 20
-5.854048361726396
 30
0.0
  0
LINE
  5
B8
330
1F
100
AcDbEntity
  8
0
  6
Continuous
 62
     4
370
    25
100
AcDbLine
 10
8.499836730708742
 20
-5.998764054187026
 30
0.0
 11
8.499836730708742
 21
-6.000000000000005
 31
0.0
  0
LINE
  5
B9
330
1F
100
AcDbEntity
  8
0
  6
Continuous
 62
     4
370
    25
100
AcDbLine
 10
-39.49999999999997
 20
5.999999999999988
 30
0.0
 11
-39.49999999999997
 21
-6.000000000000004
 31
0.0
  0
LINE
  5
BA
330
1F
100
AcDbEntity
  8
0
  6
Continuous
 62
     4
370
    25
100
AcDbLine
 10
8.499836730708742
 20
0.1217777573848712
 30
0.0
 11
8.499836730708742
 21
-3.526067804522397
 31
0.0
  0
LINE
  5
BB
330
1F
100
AcDbEntity
  8
0
  6
Continuous
 62
     4
370
    25
100
AcDbLine
 10
-39.99999999999997
 20
5.499999999999988
 30
0.0
 11
-39.99999999999997
 21
-5.500000000000004
 31
0.0
  0
SPLINE
  5
BC
330
1F
100
AcDbEntity
  8
0
  6
Continuous
 62
     4
370
    25
100
AcDbSpline
210
0.0
220
0.0
230
1.0
 70
    24
 71
     3
 72
     9
 73
     5
 74
     0
 42
0.000000001
 43
0.00000001
 40
0.0
 40
0.0
 40
0.0
 40
0.0
 40
0.786114992775222
 40
1.0
 40
1.0
 40
1.0
 40
1.0
 10
10.0
 20
4.116655896580127
 30
0.0
 10
10.0
 20
4.034745835349368
 30
0.0
 10
10.0
 20
3.930549805527332
 30
0.0
 10
10.0
 20
3.853218480450613
 30
0.0
 10
10.0
 20
3.836678469427878
 30
0.0
  0
SPLINE
  5
BD
330
1F
100
AcDbEntity
  8
0
  6
Continuous
 62
     4
370
    25
100
AcDbSpline
210
0.0
220
0.0
230
1.0
 70
    24
 71
     3
 72
    12
 73
     8
 74
     0
 42
0.000000001
 43
0.00000001
 40
0.0
 40
0.0
 40
0.0
 40
0.0
 40
0.5
 40
0.5
 40
0.75
 40
0.75
 40
1.0
 40
1.0
 40
1.0
 40
1.0
 10
10.00000000000001
 20
5.854048361726324
 30
0.0
 10
10.00000000000001
 20
5.515194274399969
 30
0.0
 10
10.00000000000001
 20
5.198189747465872
 30
0.0
 10
10.00000000000001
 20
4.756754725126071
 30
0.0
 10
10.00000000000001
 20
4.615802639009877
 30
0.0
 10
10.00000000000001
 20
4.353038920223741
 30
0.0
 10
10.00000000000001
 20
4.230294583476917
 30
0.0
 10
10.00000000000001
 20
4.116655896580127
 30
0.0
  0
SPLINE
  5
BE
330
1F
100
AcDbEntity
  8
0
  6
Continuous
 62
     4
370
    25
100
AcDbSpline
210
0.0
220
0.0
230
1.0
 70
    24
 71
     3
 72
    14
 73
    10
 74
     0
 42
0.000000001
 43
0.00000001
 40
0.0
 40
0.0
 40
0.0
 40
0.0
 40
0.25
 40
0.25
 40
0.4999999999999999
 40
0.4999999999999999
 40
0.75
 40
0.75
 40
1.0
 40
1.0
 40
1.0
 40
1.0
 10
10.00000000000001
 20
0.1057674819632333
 30
0.0
 10
10.00000000000001
 20
-0.1557634455096009
 30
0.0
 10
10.00000000000001
 20
-0.4640726958569587
 30
0.0
 10
10.00000000000001
 20
-1.173771260972857
 30
0.0
 10
10.00000000000001
 20
-1.575615451686225
 30
0.0
 10
10.00000000000001
 20
-2.440259001903907
 30
0.0
 10
10.00000000000001
 20
-2.902706382291945
 30
0.0
 10
10.00000000000001
 20
-3.819294560470675
 30
0.0
 10
10.00000000000001
 20
-4.272083705095726
 30
0.0
 10
10.00000000000001
 20
-4.680616084388109
 30
0.0
  0
SPLINE
  5
BF
330
1F
100
AcDbEntity
  8
0
  6
Continuous
 62
     1
370
    25
100
AcDbSpline
210
0.0
220
0.0
230
1.0
 70
     8
 71
     3
 72
     9
 73
     5
 74
     0
 42
0.000000001
 43
0.00000001
 40
0.0
 40
0.0
 40
0.0
 40
0.0
 40
0.981767903848496
 40
1.0
 40
1.0
 40
1.0
 40
1.0
 10
9.999999999998934
 20
-5.842941232451951
 30
0.0
 10
10.77975041015118
 20
-5.944818441457262
 30
0.0
 10
11.57398131451835
 20
-6.048587579362417
 30
0.0
 10
12.36818411479811
 20
-5.998159582398873
 30
0.0
 10
12.38266409661661
 20
-5.997240174309507
 30
0.0
  0
SPLINE
  5
C0
330
1F
100
AcDbEntity
  8
0
  6
Continuous
 62
     1
370
    25
100
AcDbSpline
210
0.0
220
0.0
230
1.0
 70
     8
 71
     3
 72
    27
 73
    23
 74
     0
 42
0.000000001
 43
0.00000001
 40
0.0
 40
0.0
 40
0.0
 40
0.0
 40
0.0293754826662244
 40
0.0804552333907636
 40
0.1315299919031062
 40
0.1835327899355182
 40
0.2355356883613642
 40
0.2875402939527774
 40
0.3395482111848677
 40
0.391561040080391
 40
0.4426545206102275
 40
0.4937596471298785
 40
0.5448601748814814
 40
0.5959495855382997
 40
0.6529707913336263
 40
0.7099919317629487
 40
0.7670130049762172
 40
0.8240340091243885
 40
0.881054942359451
 40
0.938101066834068
 40
0.9988688350422157
 40
1.0
 40
1.0
 40
1.0
 40
1.0
 10
39.18848632487233
 20
5.054068081585174
 30
0.0
 10
39.56537362911224
 20
5.172970054987218
 30
0.0
 10
40.59761389454637
 20
5.498625504784574
 30
0.0
 10
42.28507605712147
 20
5.82115385720169
 30
0.0
 10
44.2627875299098
 20
6.021494765238233
 30
0.0
 10
46.2524008721366
 20
5.995165995803957
 30
0.0
 10
48.25392528115692
 20
5.749207675336797
 30
0.0
 10
50.25553431290736
 20
5.289959248849621
 30
0.0
 10
52.25729230586954
 20
4.635174574182895
 30
0.0
 10
54.24740836673014
 20
3.813731850734913
 30
0.0
 10
56.2259553349876
 20
2.85916590602851
 30
0.0
 10
58.19293877743324
 20
1.80838721171828
 30
0.0
 10
60.15982786011483
 20
0.6929828941630397
 30
0.0
 10
62.20243274335789
 20
-0.4913016302323098
 30
0.0
 10
64.32130220169938
 20
-1.701689816316099
 30
0.0
 10
66.51619221801323
 20
-2.879734755844105
 30
0.0
 10
68.71110598424191
 20
-3.93027775555387
 30
0.0
 10
70.90599953984731
 20
-4.80442447075438
 30
0.0
 10
73.1012552156395
 20
-5.471573697607822
 30
0.0
 10
75.34443440055537
 20
-5.880252567127954
 30
0.0
 10
76.87093041772937
 20
-6.035080595320762
 30
0.0
 10
77.66502451535338
 20
-5.998654899493146
 30
0.0
 10
77.67953609690211
 20
-5.99798924229074
 30
0.0
  0
LINE
  5
C1
330
1F
100
AcDbEntity
  8
0
  6
Continuous
 62
     4
370
    25
100
AcDbLine
 10
10.0
 20
-5.842941232452103
 30
0.0
 11
10.0
 21
-4.680616084389347
 31
0.0
  0
SPLINE
  5
C2
330
1F
100
AcDbEntity
  8
0
  6
Continuous
 62
     1
370
    25
100
AcDbSpline
210
0.0
220
0.0
230
1.0
 70
     8
 71
     3
 72
    23
 73
    19
 74
     0
 42
0.000000001
 43
0.00000001
 40
0.0
 40
0.0
 40
0.0
 40
0.0
 40
0.0660320547997588
 40
0.1320534997413388
 40
0.1980663438820203
 40
0.2640726078025187
 40
0.3300743209164798
 40
0.3948929293162325
 40
0.4597114525408633
 40
0.5245334562535604
 40
0.5893624993345402
 40
0.6553781410316697
 40
0.7214030921651247
 40
0.7874377951986262
 40
0.8534658870554162
 40
0.9194840747563591
 40
0.9843153905593026
 40
1.0
 40
1.0
 40
1.0
 40
1.0
 10
80.00000000000003
 20
-5.850994190130136
 30
0.0
 10
79.33242398717046
 20
-5.744694598646501
 30
0.0
 10
77.99737922588223
 20
-5.532112495620082
 30
0.0
 10
75.99503773366499
 20
-4.950519965077745
 30
0.0
 10
73.99300211096681
 20
-4.201340826878255
 30
0.0
 10
71.99121303098273
 20
-3.292599305893566
 30
0.0
 10
70.0015023853026
 20
-2.269341618744041
 30
0.0
 10
68.02389129658752
 20
-1.169938061905813
 30
0.0
 10
66.05818791775326
 20
-0.0354955251242018
 30
0.0
 10
64.09236023948374
 20
1.100256399425285
 30
0.0
 10
62.11439699284246
 20
2.203430677262811
 30
0.0
 10
60.12417015251022
 20
3.233147877063819
 30
0.0
 10
58.1217209820352
 20
4.149799976120685
 30
0.0
 10
56.11904780260691
 20
4.911567083153705
 30
0.0
 10
54.11651526946818
 20
5.496437312520959
 30
0.0
 10
52.12619742270856
 20
5.857905419815608
 30
0.0
 10
50.6448896471878
 20
6.01680509297896
 30
0.0
 10
49.83097792975228
 20
5.986278572811191
 30
0.0
 10
49.67242684350998
 20
5.980331966037857
 30
0.0
  0
SPLINE
  5
C3
330
1F
100
AcDbEntity
  8
0
  6
Continuous
 62
     1
370
    25
100
AcDbSpline
210
0.0
220
0.0
230
1.0
 70
     8
 71
     3
 72
    14
 73
    10
 74
     0
 42
0.000000001
 43
0.00000001
 40
0.0
 40
0.0
 40
0.0
 40
0.0
 40
0.0900739901017334
 40
0.2714977078313322
 40
0.4529041487747258
 40
0.6343651193875935
 40
0.7900353337968621
 40
0.9456805355224793
 40
0.9999999999999999
 40
0.9999999999999999
 40
0.9999999999999999
 40
0.9999999999999999
 10
22.8648473946869
 20
-5.044871739823012
 30
0.0
 10
22.47854320880622
 20
-5.169958960245917
 30
0.0
 10
21.31415934090164
 20
-5.546992259042318
 30
0.0
 10
19.37180001270498
 20
-5.88844439573591
 30
0.0
 10
17.03757906024702
 20
-6.052856447228755
 30
0.0
 10
14.81375363941775
 20
-5.907333304326019
 30
0.0
 10
12.70079621340442
 20
-5.521312398769719
 30
0.0
 10
11.13215891691828
 20
-5.079892379181659
 30
0.0
 10
10.23269753621628
 20
-4.762681074276665
 30
0.0
 10
10.0
 20
-4.680616084389347
 30
0.0
  0
LINE
  5
C4
330
1F
100
AcDbEntity
  8
0
  6
Continuous
 62
     1
370
    25
100
AcDbLine
 10
80.00000000000003
 20
-6.00000000000002
 30
0.0
 11
80.00000000000003
 21
-5.85099419013158
 31
0.0
  0
SPLINE
  5
C5
330
1F
100
AcDbEntity
  8
0
  6
Continuous
 62
     4
370
    25
100
AcDbSpline
210
0.0
220
0.0
230
1.0
 70
    24
 71
     3
 72
    24
 73
    20
 74
     0
 42
0.000000001
 43
0.00000001
 40
0.0
 40
0.0
 40
0.0
 40
0.0
 40
0.0625
 40
0.0625
 40
0.125
 40
0.125
 40
0.25
 40
0.25
 40
0.375
 40
0.375
 40
0.5
 40
0.5
 40
0.625
 40
0.625
 40
0.75
 40
0.75
 40
0.875
 40
0.875
 40
1.0
 40
1.0
 40
1.0
 40
1.0
 10
10.00000000000002
 20
1.363832010957011
 30
0.0
 10
10.00000000000002
 20
1.32540499147023
 30
0.0
 10
10.00000000000002
 20
1.28462166873674
 30
0.0
 10
10.00000000000002
 20
1.199793861279151
 30
0.0
 10
10.00000000000002
 20
1.153989843128568
 30
0.0
 10
10.00000000000002
 20
0.9996148018660811
 30
0.0
 10
10.00000000000002
 20
0.8760887913341068
 30
0.0
 10
10.00000000000002
 20
0.5768480662553337
 30
0.0
 10
10.00000000000002
 20
0.4010103313824535
 30
0.0
 10
10.00000000000002
 20
-0.0122304152968951
 30
0.0
 10
10.00000000000002
 20
-0.2498315380522691
 30
0.0
 10
10.00000000000002
 20
-0.7894373515927108
 30
0.0
 10
10.00000000000002
 20
-1.091651293135856
 30
0.0
 10
10.00000000000002
 20
-1.75031642547122
 30
0.0
 10
10.00000000000002
 20
-2.106816718161371
 30
0.0
 10
10.00000000000002
 20
-2.84625551325786
 30
0.0
 10
10.00000000000002
 20
-3.228906908548398
 30
0.0
 10
10.00000000000002
 20
-3.978240337687939
 30
0.0
 10
10.00000000000002
 20
-4.344371824737906
 30
0.0
 10
10.00000000000002
 20
-4.680616084389352
 30
0.0
  0
SPLINE
  5
C6
330
1F
100
AcDbEntity
  8
0
  6
Continuous
 62
     1
370
    25
100
AcDbSpline
210
0.0
220
0.0
230
1.0
 70
     8
 71
     3
 72
    16
 73
    12
 74
     0
 42
0.000000001
 43
0.00000001
 40
0.0
 40
0.0
 40
0.0
 40
0.0
 40
0.125055375872887
 40
0.2500959816613924
 40
0.3751319049759284
 40
0.5001829887287998
 40
0.625247014738696
 40
0.7503213223477294
 40
0.8754032386988374
 40
0.982428742505756
 40
1.0
 40
1.0
 40
1.0
 40
1.0
 10
9.999999999998934
 20
1.363832010957614
 30
0.0
 10
10.77974561352063
 20
0.9187301013753663
 30
0.0
 10
12.33914474609446
 20
0.028578852463985
 30
0.0
 10
14.67809202052579
 20
-1.326648696987382
 30
0.0
 10
17.01698618837828
 20
-2.60988889497343
 30
0.0
 10
19.35610300268022
 20
-3.763202168362891
 30
0.0
 10
21.6955188282107
 20
-4.724466451965929
 30
0.0
 10
24.03510173041384
 20
-5.454335140482857
 30
0.0
 10
26.26246892251605
 20
-5.862504616634414
 30
0.0
 10
27.81890270198052
 20
-6.023918016210201
 30
0.0
 10
28.59569016788041
 20
-5.98959274688858
 30
0.0
 10
28.70523661546935
 20
-5.984752025994145
 30
0.0
  0
SPLINE
  5
C7
330
1F
100
AcDbEntity
  8
0
  6
Continuous
 62
     1
370
    25
100
AcDbSpline
210
0.0
220
0.0
230
1.0
 70
     8
 71
     3
 72
    19
 73
    15
 74
     0
 42
0.000000001
 43
0.00000001
 40
0.0
 40
0.0
 40
0.0
 40
0.0
 40
0.0298614878602674
 40
0.1124043291172354
 40
0.1949397426383417
 40
0.2774572002976285
 40
0.3695554428572029
 40
0.4616535798403689
 40
0.5537516082590042
 40
0.6458495251266124
 40
0.7379473274583634
 40
0.8300858176159595
 40
0.9282353494993533
 40
0.9999999999999999
 40
0.9999999999999999
 40
0.9999999999999999
 40
0.9999999999999999
 10
55.5142027650181
 20
5.05651476952879
 30
0.0
 10
55.75141006549624
 20
5.134964250019466
 30
0.0
 10
56.6443035340576
 20
5.430263039731914
 30
0.0
 10
58.19294230419706
 20
5.751194703866688
 30
0.0
 10
60.15982691644598
 20
5.9979791052387
 30
0.0
 10
62.20243303838619
 20
6.019641809949397
 30
0.0
 10
64.32130207923954
 20
5.800487118489994
 30
0.0
 10
66.51619239782745
 20
5.314648712606318
 30
0.0
 10
68.71110538744573
 20
4.592875366664129
 30
0.0
 10
70.90600174721413
 20
3.666972583356641
 30
0.0
 10
73.10124698144092
 20
2.577732630264484
 30
0.0
 10
75.34446599245122
 20
1.348385709050519
 30
0.0
 10
77.42652466473517
 20
0.1445770037716751
 30
0.0
 10
78.77605682034351
 20
-0.6305320701278525
 30
0.0
 10
79.34604281049306
 20
-0.9579057537592444
 30
0.0
  0
SPLINE
  5
C8
330
1F
100
AcDbEntity
  8
0
  6
Continuous
 62
     1
370
    25
100
AcDbSpline
210
0.0
220
0.0
230
1.0
 70
     8
 71
     3
 72
     8
 73
     4
 74
     0
 42
0.000000001
 43
0.00000001
 40
0.0
 40
0.0
 40
0.0
 40
0.0
 40
1.0
 40
1.0
 40
1.0
 40
1.0
 10
80.00000000000003
 20
-4.474290814540879
 30
0.0
 10
79.01126683977465
 20
-3.917955780000516
 30
0.0
 10
78.07855960571105
 20
-3.235662551569958
 30
0.0
 10
77.18130034237623
 20
-2.47367474821734
 30
0.0
  0
LINE
  5
C9
330
1F
100
AcDbEntity
  8
0
  6
Continuous
 62
     1
370
    25
100
AcDbLine
 10
80.00000000000003
 20
-5.85099419013158
 30
0.0
 11
80.00000000000003
 21
-4.47429081454088
 31
0.0
  0
SPLINE
  5
CA
330
1F
100
AcDbEntity
  8
0
  6
Continuous
 62
     1
370
    25
100
AcDbSpline
210
0.0
220
0.0
230
1.0
 70
    24
 71
     3
 72
    15
 73
    11
 74
     0
 42
0.000000001
 43
0.00000001
 40
0.0
 40
0.0
 40
0.0
 40
0.0
 40
0.1331270101127146
 40
0.2878459599439627
 40
0.390824497644759
 40
0.4937333013963463
 40
0.596991278280217
 40
0.7002665524277455
 40
0.8967846879364074
 40
1.0
 40
1.0
 40
1.0
 40
1.0
 10
79.34067268251886
 20
-0.9616659578479099
 30
0.0
 10
79.33550201642576
 20
-0.9652864972238615
 30
0.0
 10
79.32432205118913
 20
-0.973114793159475
 30
0.0
 10
79.20086806674838
 20
-1.059558203686897
 30
0.0
 10
79.01443954573907
 20
-1.190096859434912
 30
0.0
 10
78.8002304610824
 20
-1.340087675264505
 30
0.0
 10
78.53345449577927
 20
-1.526886217182952
 30
0.0
 10
78.1317602086423
 20
-1.808155585092016
 30
0.0
 10
77.66645934134385
 20
-2.133962759909915
 30
0.0
 10
77.30557380465007
 20
-2.386657533133744
 30
0.0
 10
77.1813003423762
 20
-2.473674748217318
 30
0.0
  0
SPLINE
  5
CB
330
1F
100
AcDbEntity
  8
0
  6
Continuous
 62
     1
370
    25
100
AcDbSpline
210
0.0
220
0.0
230
1.0
 70
     8
 71
     3
 72
    27
 73
    23
 74
     0
 42
0.000000001
 43
0.00000001
 40
0.0
 40
0.0
 40
0.0
 40
0.0
 40
0.0363141923883136
 40
0.0883329806639352
 40
0.1394165775911971
 40
0.1904939403413866
 40
0.2415678709720817
 40
0.2926411782282533
 40
0.344646231486818
 40
0.3966543961840807
 40
0.4486672730395082
 40
0.5006864564442947
 40
0.5527135323348821
 40
0.6038197412623507
 40
0.6549144777914622
 40
0.7059996399073579
 40
0.7570780144929475
 40
0.8177233584172529
 40
0.8783652782308593
 40
0.9390025962186411
 40
0.9996341397796168
 40
1.0
 40
1.0
 40
1.0
 40
1.0
 10
55.51420276501804
 20
-5.056514769528794
 30
0.0
 10
55.04827416080064
 20
-5.199013576414313
 30
0.0
 10
53.91491941213899
 20
-5.54563685302897
 30
0.0
 10
52.12619706058082
 20
-5.864725864445842
 30
0.0
 10
50.14815356141573
 20
-6.030692990935669
 30
0.0
 10
48.1822759189801
 20
-5.973682364978953
 30
0.0
 10
46.21655306489441
 20
-5.705308470287803
 30
0.0
 10
44.23895260326225
 20
-5.229992750307813
 30
0.0
 10
42.24927663515403
 20
-4.561220984918961
 30
0.0
 10
40.24754401443916
 20
-3.719647812996701
 30
0.0
 10
38.24558800978022
 20
-2.740443524320892
 30
0.0
 10
36.24334266212355
 20
-1.65980334129233
 30
0.0
 10
34.25266817078622
 20
-0.5244590283528019
 30
0.0
 10
32.27378729592688
 20
0.6226509353489975
 30
0.0
 10
30.30713702732733
 20
1.740825776474861
 30
0.0
 10
28.34085901028946
 20
2.796606026708826
 30
0.0
 10
26.25229922013954
 20
3.812859136891884
 30
0.0
 10
24.04034737070073
 20
4.721343458915803
 30
0.0
 10
21.70599999544
 20
5.452938358410268
 30
0.0
 10
19.37180496472136
 20
5.873753895493681
 30
0.0
 10
17.81106976678473
 20
6.049625075959657
 30
0.0
 10
17.02841555486735
 20
5.999396888976021
 30
0.0
 10
17.02372122322854
 20
5.999095622128253
 30
0.0
  0
SPLINE
  5
CC
330
1F
100
AcDbEntity
  8
0
  6
Continuous
 62
     1
370
    25
100
AcDbSpline
210
0.0
220
0.0
230
1.0
 70
     8
 71
     3
 72
    27
 73
    23
 74
     0
 42
0.000000001
 43
0.00000001
 40
0.0
 40
0.0
 40
0.0
 40
0.0
 40
0.0303991945067763
 40
0.0911790632448265
 40
0.1431849507685556
 40
0.195195187336534
 40
0.2472113689203749
 40
0.299235083518116
 40
0.35126564982535
 40
0.402363088279573
 40
0.4534499579271992
 40
0.5045290395279519
 40
0.5556031289819038
 40
0.6076052457989881
 40
0.6596074630081912
 40
0.7116113873605983
 40
0.7636186233103014
 40
0.8156307708590969
 40
0.866723582085292
 40
0.9178280391487439
 40
0.9689278975043898
 40
1.0
 40
1.0
 40
1.0
 40
1.0
 10
22.86484739468683
 20
5.044871739823004
 30
0.0
 10
23.25492667383013
 20
5.171082307107871
 30
0.0
 10
24.42492686102505
 20
5.549637116975186
 30
0.0
 10
26.26246348467839
 20
5.870557580379567
 30
0.0
 10
28.37662013057305
 20
6.035967980670219
 30
0.0
 10
30.37855554279998
 20
5.958705878427099
 30
0.0
 10
32.38072015242089
 20
5.663814244842438
 30
0.0
 10
34.38321060278813
 20
5.158580181741023
 30
0.0
 10
36.37399944205389
 20
4.466843182077475
 30
0.0
 10
38.35267218971873
 20
3.617510078701951
 30
0.0
 10
40.31905182072971
 20
2.644182362242769
 30
0.0
 10
42.28507808053493
 20
1.576548233698329
 30
0.0
 10
44.2627869766095
 20
0.4458630505488738
 30
0.0
 10
46.25240102218127
 20
-0.7080894285180727
 30
0.0
 10
48.2539252384865
 20
-1.842785225605848
 30
0.0
 10
50.25553433354064
 20
-2.909278747379685
 30
0.0
 10
52.25729226600583
 20
-3.868358114407819
 30
0.0
 10
54.24740850451055
 20
-4.678847189679603
 30
0.0
 10
56.2259548334076
 20
-5.317317252207392
 30
0.0
 10
58.1929406501755
 20
-5.752843877146709
 30
0.0
 10
59.90299038035303
 20
-5.983050700857317
 30
0.0
 10
60.95726492520934
 20
-5.976795090129449
 30
0.0
 10
61.35592313388454
 20
-5.974429624151819
 30
0.0
  0
SPLINE
  5
CD
330
1F
100
AcDbEntity
  8
0
  6
Continuous
 62
     1
370
    25
100
AcDbSpline
210
0.0
220
0.0
230
1.0
 70
     8
 71
     3
 72
    27
 73
    23
 74
     0
 42
0.000000001
 43
0.00000001
 40
0.0
 40
0.0
 40
0.0
 40
0.0
 40
0.0489397184367345
 40
0.0999633905637553
 40
0.1509869956429389
 40
0.2020133404798298
 40
0.2530452265405776
 40
0.3050111749058322
 40
0.3569844514386993
 40
0.4089654044361322
 40
0.4609411532719636
 40
0.5129091057910717
 40
0.5639427808846789
 40
0.6149702278936103
 40
0.6659942461371124
 40
0.7170176416152886
 40
0.7689718725399899
 40
0.8209292118627121
 40
0.8728912587386065
 40
0.9248596060007365
 40
0.9768358380356759
 40
1.0
 40
1.0
 40
1.0
 40
1.0
 10
71.87500235464715
 20
-5.059978315270541
 30
0.0
 10
71.24651607489601
 20
-5.240587747232758
 30
0.0
 10
69.96278127924239
 20
-5.609497331583476
 30
0.0
 10
68.02389150024209
 20
-5.918887389067828
 30
0.0
 10
66.05818786334373
 20
-6.036474226007068
 30
0.0
 10
64.09236025345795
 20
-5.934589627026424
 30
0.0
 10
62.11439699126886
 20
-5.620106527662663
 30
0.0
 10
60.12417014436006
 20
-5.098470857857663
 30
0.0
 10
58.1217210161777
 20
-4.385103113602895
 30
0.0
 10
56.11904767417371
 20
-3.509526195141744
 30
0.0
 10
54.11651574896804
 20
-2.504044180473464
 30
0.0
 10
52.12619564700817
 20
-1.412472668861547
 30
0.0
 10
50.14815393710951
 20
-0.2765854244019907
 30
0.0
 10
48.18227581874994
 20
0.8623032074933297
 30
0.0
 10
46.21655309016758
 20
1.970400886449936
 30
0.0
 10
44.23895260223654
 20
3.01441965104577
 30
0.0
 10
42.24927661298189
 20
3.95531868508013
 30
0.0
 10
40.24754410403612
 20
4.754679020050057
 30
0.0
 10
38.24558767351631
 20
5.381495675274563
 30
0.0
 10
36.24334391781484
 20
5.79680858289692
 30
0.0
 10
34.6108826177083
 20
5.998339660413496
 30
0.0
 10
33.64583813795664
 20
5.979272483818484
 30
0.0
 10
33.34833575020016
 20
5.973394484737809
 30
0.0
  0
SPLINE
  5
CE
330
1F
100
AcDbEntity
  8
0
  6
Continuous
 62
     1
370
    25
100
AcDbSpline
210
0.0
220
0.0
230
1.0
 70
     8
 71
     3
 72
    15
 73
    11
 74
     0
 42
0.000000001
 43
0.00000001
 40
0.0
 40
0.0
 40
0.0
 40
0.0
 40
0.1430124938111849
 40
0.2860020087482193
 40
0.4289728960355618
 40
0.5719295318551727
 40
0.7148763115194099
 40
0.8552607181644856
 40
0.9956449403369344
 40
1.0
 40
1.0
 40
1.0
 40
1.0
 10
80.00000000000003
 20
1.328859280377892
 30
0.0
 10
79.3324239879421
 20
1.699853221743018
 30
0.0
 10
77.99737922819698
 20
2.441781494135308
 30
0.0
 10
75.99503772440809
 20
3.451089803361031
 30
0.0
 10
73.99300214567388
 20
4.336673615949629
 30
0.0
 10
71.99121290142715
 20
5.059000885486158
 30
0.0
 10
70.00150286512431
 20
5.598066153513265
 30
0.0
 10
68.02388954155859
 20
5.905771585807304
 30
0.0
 10
66.69312282340572
 20
6.033362979815648
 30
0.0
 10
66.01756634100558
 20
5.997849791450026
 30
0.0
 10
65.99723952475144
 20
5.996781235269584
 30
0.0
  0
SPLINE
  5
CF
330
1F
100
AcDbEntity
  8
0
  6
Continuous
 62
     1
370
    25
100
AcDbSpline
210
0.0
220
0.0
230
1.0
 70
     8
 71
     3
 72
    22
 73
    18
 74
     0
 42
0.000000001
 43
0.00000001
 40
0.0
 40
0.0
 40
0.0
 40
0.0
 40
0.0323027882876976
 40
0.1009008346600226
 40
0.1695092889063573
 40
0.2369033897064412
 40
0.3042823617777946
 40
0.3716487080061653
 40
0.4390061034727551
 40
0.518979525631518
 40
0.5989484323925152
 40
0.6789112706949046
 40
0.7588664942218997
 40
0.8388457518013186
 40
0.907457686002002
 40
0.9760585958162199
 40
1.0
 40
1.0
 40
1.0
 40
1.0
 10
39.18848632487233
 20
-5.05406808158518
 30
0.0
 10
38.8742122593831
 20
-5.155683905622593
 30
0.0
 10
37.89254729481598
 20
-5.473090606515522
 30
0.0
 10
36.24334113187194
 20
-5.798125584308549
 30
0.0
 10
34.25266857341376
 20
-6.015439332845961
 30
0.0
 10
32.27378718654683
 20
-6.003253651150163
 30
0.0
 10
30.3071370653626
 20
-5.77955167170219
 30
0.0
 10
28.34085896750645
 20
-5.348848640307107
 30
0.0
 10
26.2522993642063
 20
-4.688674975336358
 30
0.0
 10
24.04034673025404
 20
-3.782034601679475
 30
0.0
 10
21.70600236939615
 20
-2.635048166988024
 30
0.0
 10
19.37179611037044
 20
-1.35566598949682
 30
0.0
 10
17.03758011166351
 20
-0.0082417250540227
 30
0.0
 10
14.81375340132844
 20
1.276632026177699
 30
0.0
 10
12.70079627467765
 20
2.438748436697102
 30
0.0
 10
11.13215891243256
 20
3.234226555612449
 30
0.0
 10
10.23269753529431
 20
3.647096442292006
 30
0.0
 10
10.0
 20
3.75390903866301
 30
0.0
  0
SPLINE
  5
D0
330
1F
100
AcDbEntity
  8
0
  6
Continuous
 62
     4
370
    25
100
AcDbSpline
210
0.0
220
0.0
230
1.0
 70
    24
 71
     3
 72
    11
 73
     7
 74
     0
 42
0.000000001
 43
0.00000001
 40
0.0
 40
0.0
 40
0.0
 40
0.0
 40
0.4252331786491438
 40
0.6890623302958963
 40
0.9605425452134629
 40
1.0
 40
1.0
 40
1.0
 40
1.0
 10
10.0
 20
5.842941232452093
 30
0.0
 10
10.00000000000002
 20
5.502078903964343
 30
0.0
 10
10.00000000000005
 20
4.949733973768648
 30
0.0
 10
9.999999999999986
 20
4.325125107166952
 30
0.0
 10
10.0
 20
3.984678288376016
 30
0.0
 10
10.0
 20
3.853344500877521
 30
0.0
 10
10.0
 20
3.836678469427879
 30
0.0
  0
SPLINE
  5
D1
330
1F
100
AcDbEntity
  8
0
  6
Continuous
 62
     1
370
    25
100
AcDbSpline
210
0.0
220
0.0
230
1.0
 70
     8
 71
     3
 72
    24
 73
    20
 74
     0
 42
0.000000001
 43
0.00000001
 40
0.0
 40
0.0
 40
0.0
 40
0.0
 40
0.0667726769337997
 40
0.1335374674567529
 40
0.2002997577967317
 40
0.2670701429750498
 40
0.3338474386051664
 40
0.4006302240424403
 40
0.467417072128544
 40
0.5245627912909132
 40
0.5817132893210823
 40
0.6388703199232945
 40
0.696035628040174
 40
0.7532084650328236
 40
0.8093559515359459
 40
0.8654918246990709
 40
0.9216191401092061
 40
0.9777409699900544
 40
1.0
 40
1.0
 40
1.0
 40
1.0
 10
9.999999999998934
 20
5.84294123245194
 30
0.0
 10
10.77974561246055
 20
5.916666792783594
 30
0.0
 10
12.33914474291434
 20
6.064109205842454
 30
0.0
 10
14.67809203324431
 20
5.900298939666687
 30
0.0
 10
17.0169861406832
 20
5.459902115455326
 30
0.0
 10
19.35610318077396
 20
4.738347511305942
 30
0.0
 10
21.69551816344239
 20
3.77917166276423
 30
0.0
 10
24.03510421164893
 20
2.628833165320613
 30
0.0
 10
26.26246022684046
 20
1.407661889717255
 30
0.0
 10
28.37662094538597
 20
0.1911739746325229
 30
0.0
 10
30.37855532478842
 20
-0.9676010827453269
 30
0.0
 10
32.38072020953769
 20
-2.090658115505065
 30
0.0
 10
34.38321059237515
 20
-3.136333579705105
 30
0.0
 10
36.3739994266049
 20
-4.060653463837589
 30
0.0
 10
38.35267226020026
 20
-4.8311317725701
 30
0.0
 10
40.31905155381062
 20
-5.428202864441681
 30
0.0
 10
42.28507907754702
 20
-5.817794559418894
 30
0.0
 10
43.8555156089091
 20
-6.00401910222697
 30
0.0
 10
44.77067034645179
 20
-5.980291541518873
 30
0.0
 10
45.03056104929799
 20
-5.973553257624054
 30
0.0
  0
SPLINE
  5
D2
330
1F
100
AcDbEntity
  8
0
  6
Continuous
 62
     1
370
    25
100
AcDbSpline
210
0.0
220
0.0
230
1.0
 70
     8
 71
     3
 72
    11
 73
     7
 74
     0
 42
0.000000001
 43
0.00000001
 40
0.0
 40
0.0
 40
0.0
 40
0.0
 40
0.164083719757391
 40
0.4579943416666959
 40
0.7710794585013058
 40
1.0
 40
1.0
 40
1.0
 40
1.0
 10
71.87500235464718
 20
5.059978315270539
 30
0.0
 10
72.28363939759714
 20
5.189205925764981
 30
0.0
 10
73.42423673256259
 20
5.549909074627482
 30
0.0
 10
75.34446497922872
 20
5.885574662381454
 30
0.0
 10
77.4265248451053
 20
6.048074058034968
 30
0.0
 10
78.77605687390303
 20
5.960168706049298
 30
0.0
 10
79.34604281049306
 20
5.923041158637572
 30
0.0
  0
SPLINE
  5
D3
330
1F
100
AcDbEntity
  8
0
  6
Continuous
 62
     1
370
    25
100
AcDbSpline
210
0.0
220
0.0
230
1.0
 70
     8
 71
     3
 72
    20
 73
    16
 74
     0
 42
0.000000001
 43
0.00000001
 40
0.0
 40
0.0
 40
0.0
 40
0.0
 40
0.25
 40
0.25
 40
0.375
 40
0.375
 40
0.5
 40
0.5
 40
0.625
 40
0.625
 40
0.75
 40
0.75
 40
0.875
 40
0.875
 40
1.0
 40
1.0
 40
1.0
 40
1.0
 10
79.34604281049303
 20
5.923041158637584
 30
0.0
 10
79.35112885140029
 20
5.542534979233886
 30
0.0
 10
79.31712971161335
 20
5.169800947532972
 30
0.0
 10
79.1870773319063
 20
4.626419842655096
 30
0.0
 10
79.1295316714697
 20
4.446911123490405
 30
0.0
 10
78.98808935692887
 20
4.11078489382612
 30
0.0
 10
78.90394834380403
 20
3.952221520663271
 30
0.0
 10
78.70565846706191
 20
3.656336941975046
 30
0.0
 10
78.59458529726814
 20
3.523839668565574
 30
0.0
 10
78.35152993231178
 20
3.291097136675008
 30
0.0
 10
78.2175038399301
 20
3.189532317023828
 30
0.0
 10
77.93775629808974
 20
3.024135119926173
 30
0.0
 10
77.79214789655809
 20
2.959667403985352
 30
0.0
 10
77.49048002212706
 20
2.863956824433935
 30
0.0
 10
77.33578115845356
 20
2.833394590183149
 30
0.0
 10
77.18130034237643
 20
2.818699657623619
 30
0.0
  0
SPLINE
  5
D4
330
1F
100
AcDbEntity
  8
0
  6
Continuous
 62
     1
370
    25
100
AcDbSpline
210
0.0
220
0.0
230
1.0
 70
     8
 71
     3
 72
     9
 73
     5
 74
     0
 42
0.000000001
 43
0.00000001
 40
0.0
 40
0.0
 40
0.0
 40
0.0
 40
0.5756683154928096
 40
1.0
 40
1.0
 40
1.0
 40
1.0
 10
80.00000000000003
 20
1.446523558810439
 30
0.0
 10
79.51696735782598
 20
1.700859553661424
 30
0.0
 10
78.6778858430468
 20
2.142669512636249
 30
0.0
 10
77.8919071437748
 20
2.495404688486905
 30
0.0
 10
77.55839147832596
 20
2.645081399840554
 30
0.0
  0
LINE
  5
D5
330
1F
100
AcDbEntity
  8
0
  6
Continuous
 62
     1
370
    25
100
AcDbLine
 10
80.00000000000003
 20
1.333895559362348
 30
0.0
 11
80.00000000000003
 21
1.446523558810439
 31
0.0
  0
LINE
  5
D6
330
1F
100
AcDbEntity
  8
0
  6
Continuous
 62
     4
370
    25
100
AcDbLine
 10
10.0
 20
1.363832010957016
 30
0.0
 11
10.0
 21
3.75390903866301
 31
0.0
  0
LINE
  5
D7
330
1F
100
AcDbEntity
  8
0
  6
Continuous
 62
     1
370
    25
100
AcDbLine
 10
80.00000000000003
 20
-0.500000000000022
 30
0.0
 11
80.00000000000003
 21
1.328859280378006
 31
0.0
  0
LINE
  5
D8
330
1F
100
AcDbEntity
  8
0
  6
Continuous
 62
     1
370
    25
100
AcDbLine
 10
80.00000000000003
 20
-0.5000000000000258
 30
0.0
 11
79.34604281049306
 21
-0.9579057537592506
 31
0.0
  0
LINE
  5
D9
330
1F
100
AcDbEntity
  8
0
  6
Continuous
 62
     1
370
    25
100
AcDbLine
 10
80.00000000000003
 20
5.979130371550707
 30
0.0
 11
80.00000000000003
 21
6.000000000000009
 31
0.0
  0
ELLIPSE
  5
DA
330
1F
100
AcDbEntity
  8
0
  6
Continuous
 62
     1
370
    25
100
AcDbEllipse
 10
80.7140740033711
 20
-0.0000000000000054
 30
0.0
 11
8.568888040452663
 21
5.350968460038300E-17
 31
0.0
210
0.0
220
0.0
230
1.0
 40
0.7002075382097126
 41
1.654226413405513
 42
1.731133393454129
  0
LINE
  5
DB
330
1F
100
AcDbEntity
  8
0
  6
Continuous
 62
     1
370
    25
100
AcDbLine
 10
80.00000000000003
 20
-0.5000000000000011
 30
0.0
 11
80.00000000000003
 21
-4.47429081454088
 31
0.0
  0
LINE
  5
DC
330
1F
100
AcDbEntity
  8
0
  6
Continuous
 62
     1
370
    25
100
AcDbLine
 10
80.00000000000003
 20
1.446523558810439
 30
0.0
 11
80.00000000000003
 21
5.979130371550707
 31
0.0
  0
LINE
  5
DD
330
1F
100
AcDbEntity
  8
중심선
100
AcDbLine
 10
-42.99999999999997
 20
-0.0000000000000106
 30
0.0
 11
83.00000000000003
 21
0.0000000000000146
 31
0.0
  0
CIRCLE
  5
DE
330
1F
100
AcDbEntity
  8
해칭선
100
AcDbCircle
 10
0.0000104138921566
 20
-0.0000000000000043
 30
0.0
 40
3.000000000000003
  0
INSERT
  5
DF
330
1F
100
AcDbEntity
  8
0
  6
Continuous
 62
     7
100
AcDbBlockReference
 66
     1
  2
블럭10
 10
7.559900751058245
 20
-52.04717430164393
 30
0.0
  0
ATTRIB
  5
E0
330
DF
100
AcDbEntity
  8
FORMAT
 62
     2
100
AcDbText
 10
-8.55936028837731
 20
-49.97180738881173
 30
0.0
 40
4.233333333333333
  1
SEME7212070E [ 4 FLUTE ]
 41
0.75
  7
SLDTEXTSTYLE0
 11
-8.55936028837731
 21
-52.0884740554784
 31
0.0
100
AcDbAttribute
  2
AUTOATTR0
 70
     0
 74
     1
  0
SEQEND
  5
E1
330
DF
100
AcDbEntity
  8
0
  6
Continuous
 62
     7
  0
HATCH
  5
E2
330
1F
100
AcDbEntity
  8
중심선
100
AcDbHatch
 10
0.0
 20
0.0
 30
0.0
210
0.0
220
0.0
230
1.0
  2
SOLID
 70
     1
 71
     0
 91
        1
 92
        0
 93
        4
 72
     1
 10
13.2748100554391
 20
-35.8
 11
9.828534811601813
 21
-35.8
 72
     1
 10
9.828534811601813
 20
-35.8
 11
7.700304952397791
 21
-38.33632558057257
 72
     1
 10
7.700304952397791
 20
-38.33632558057257
 11
11.14661328134822
 21
-38.33628615127008
 72
     1
 10
11.14661328134822
 20
-38.33628615127008
 11
13.2748100554391
 21
-35.8
 97
        0
 75
     0
 76
     1
 98
        1
 10
0.0
 20
0.0
  0
HATCH
  5
E3
330
1F
100
AcDbEntity
  8
중심선
100
AcDbHatch
 10
0.0
 20
0.0
 30
0.0
210
0.0
220
0.0
230
1.0
  2
SOLID
 70
     1
 71
     0
 91
        1
 92
        0
 93
        4
 72
     1
 10
18.28757404647508
 20
-35.8
 11
14.84129880263782
 21
-35.79999999999997
 72
     1
 10
14.84129880263782
 20
-35.79999999999997
 11
10.31016079428038
 21
-41.20000000000002
 72
     1
 10
10.31016079428038
 20
-41.20000000000002
 11
13.75643603811766
 21
-41.20000000000002
 72
     1
 10
13.75643603811766
 20
-41.20000000000002
 11
18.28757404647508
 21
-35.8
 97
        0
 75
     0
 76
     1
 98
        1
 10
0.0
 20
0.0
  0
HATCH
  5
E4
330
1F
100
AcDbEntity
  8
중심선
100
AcDbHatch
 10
0.0
 20
0.0
 30
0.0
210
0.0
220
0.0
230
1.0
  2
SOLID
 70
     1
 71
     0
 91
        1
 92
        0
 93
        4
 72
     1
 10
23.30033803751094
 20
-35.8
 11
19.85406279367383
 21
-35.8
 72
     1
 10
19.85406279367383
 20
-35.8
 11
12.80562589178458
 21
-44.20000000000002
 72
     1
 10
12.80562589178458
 20
-44.20000000000002
 11
16.25190113562186
 21
-44.20000000000002
 72
     1
 10
16.25190113562186
 20
-44.20000000000002
 11
23.30033803751094
 21
-35.8
 97
        0
 75
     0
 76
     1
 98
        1
 10
0.0
 20
0.0
  0
HATCH
  5
E5
330
1F
100
AcDbEntity
  8
중심선
100
AcDbHatch
 10
0.0
 20
0.0
 30
0.0
210
0.0
220
0.0
230
1.0
  2
SOLID
 70
     1
 71
     0
 91
        1
 92
        0
 93
        6
 72
     3
 10
28.10022846852314
 20
-40.00000000005127
 11
3.960054785062284
 21
1.540850780301639E-10
 40
0.3939339440162633
 50
17.09539180608449
 51
320.0019657685085
 73
     0
 72
     1
 10
29.78322812422376
 20
-38.5878940046383
 11
32.08852999792474
 21
-36.65356729459038
 72
     3
 10
28.10022846847029
 20
-40.00000000000015
 11
6.600054785286829
 21
-1.249000902703301E-13
 40
0.6363583540795982
 50
39.99873849337429
 51
368.4976242363726
 73
     1
 72
     1
 10
34.52556096037087
 20
-39.03999999993002
 11
26.78029577530619
 21
-39.03999999993002
 72
     1
 10
26.78029577530619
 20
-39.03999999993002
 11
26.78027073086028
 21
-40.95999999992991
 72
     1
 10
26.78027073086028
 20
-40.95999999992991
 11
31.22165050033229
 21
-40.95999999992988
 97
        0
 75
     0
 76
     1
 98
        1
 10
0.0
 20
0.0
  0
DIMENSION
  5
E6
330
1F
100
AcDbEntity
  8
치수문자_일반주서
100
AcDbDimension
  2
_D
 10
94.31526034456756
 20
6.00000000000005
 30
0.0
 11
94.31526034456752
 21
16.54150000000005
 31
0.0
 70
   160
  1
%%c<>
 71
     2
 42
12.00000000000001
 52
-270.0
  3
SLDDIMSTYLE0
100
AcDbAlignedDimension
 13
80.00000000000003
 23
-6.000000000000009
 33
0.0
 14
80.00000000000003
 24
5.999999999999996
 34
0.0
 50
90.0000000000002
100
AcDbRotatedDimension
  0
DIMENSION
  5
F4
330
1F
100
AcDbEntity
  8
치수문자_일반주서
100
AcDbDimension
  2
_D_1
 10
80.00000000000003
 20
23.38913260158164
 30
0.0
 11
20.00000000000002
 21
23.38913260158164
 31
0.0
 70
   160
  1
<>
 71
     2
 42
120.0
  3
SLDDIMSTYLE1
100
AcDbAlignedDimension
 13
-39.99999999999997
 23
5.499999999999988
 33
0.0
 14
80.00000000000003
 24
6.000000000000009
 34
0.0
 50
-0.0000000000000034
100
AcDbRotatedDimension
  0
DIMENSION
  5
FF
330
1F
100
AcDbEntity
  8
치수문자_일반주서
100
AcDbDimension
  2
_D_2
 10
-53.84468220311889
 20
-6.000000000000064
 30
0.0
 11
-53.84468220311897
 21
16.54149999999995
 31
0.0
 70
   160
  1
%%c<>
 71
     2
 42
12.00000000000001
 52
-270.0
  3
SLDDIMSTYLE2
100
AcDbAlignedDimension
 13
-39.49999999999997
 23
6.0
 33
0.0
 14
-39.49999999999997
 24
-6.000000000000011
 34
0.0
 50
90.0000000000002
100
AcDbRotatedDimension
  0
DIMENSION
  5
10D
330
1F
100
AcDbEntity
  8
치수문자_일반주서
100
AcDbDimension
  2
_D_3
 10
80.00000000000003
 20
16.68885953503977
 30
0.0
 11
45.0
 21
16.68885953503977
 31
0.0
 70
   160
  1
<>
 71
     2
 42
70.00000000000003
  3
SLDDIMSTYLE1
100
AcDbAlignedDimension
 13
10.0
 23
5.842941232452092
 33
0.0
 14
80.00000000000003
 24
6.000000000000009
 34
0.0
 50
0.0000000000000465
100
AcDbRotatedDimension
  0
INSERT
  5
11D
330
1F
100
AcDbEntity
  8
해칭선
100
AcDbBlockReference
  2
SW_DOWELSYMBOL_0
 10
0.0000104138921566
 20
-0.0000000000000043
 30
0.0
  0
ENDSEC
  0
SECTION
  2
OBJECTS
  0
DICTIONARY
  5
C
330
0
100
AcDbDictionary
281
     1
  3
ACAD_GROUP
350
D
  3
ACAD_IMAGE_VARS
350
141
  3
ACAD_LAYOUT
350
1A
  3
ACAD_MLINESTYLE
350
17
  3
ACAD_PLOTSETTINGS
350
19
  3
ACAD_PLOTSTYLENAME
350
E
  3
ACAD_SCALELIST
350
47
  3
APPDATA
350
13F
  3
DWGPROPS
350
152
  0
DICTIONARY
  5
D
102
{ACAD_REACTORS
330
C
102
}
330
C
100
AcDbDictionary
281
     1
  0
RASTERVARIABLES
  5
141
102
{ACAD_REACTORS
330
C
102
}
330
C
100
AcDbRasterVariables
 90
        0
 70
     1
 71
     1
 72
     1
  0
DICTIONARY
  5
1A
102
{ACAD_REACTORS
330
C
102
}
330
C
100
AcDbDictionary
281
     1
  3
Layout1
350
1E
  3
Layout2
350
26
  3
Model
350
22
  0
DICTIONARY
  5
17
102
{ACAD_REACTORS
330
C
102
}
330
C
100
AcDbDictionary
281
     1
  3
Standard
350
18
  0
DICTIONARY
  5
19
102
{ACAD_REACTORS
330
C
102
}
330
C
100
AcDbDictionary
281
     1
  0
ACDBDICTIONARYWDFLT
  5
E
102
{ACAD_REACTORS
330
C
102
}
330
C
100
AcDbDictionary
281
     1
  3
Normal
350
F
100
AcDbDictionaryWithDefault
340
F
  0
DICTIONARY
  5
47
102
{ACAD_REACTORS
330
C
102
}
330
C
100
AcDbDictionary
281
     1
  3
A0
350
48
  3
A1
350
49
  3
A2
350
4A
  3
A3
350
4B
  3
A4
350
4C
  3
A5
350
4D
  3
A6
350
4E
  3
A7
350
4F
  3
A8
350
50
  3
A9
350
51
  3
B0
350
52
  3
B1
350
53
  3
B2
350
54
  3
B3
350
55
  3
B4
350
56
  3
B5
350
57
  3
B6
350
58
  3
B7
350
59
  3
B8
350
5A
  3
B9
350
5B
  3
C0
350
5C
  3
C1
350
5D
  3
C2
350
5E
  3
C3
350
5F
  3
C4
350
60
  3
C5
350
61
  3
C6
350
62
  3
C7
350
63
  3
C8
350
64
  3
C9
350
65
  3
D0
350
66
  3
D1
350
67
  3
D2
350
68
  0
DICTIONARY
  5
13F
102
{ACAD_REACTORS
330
C
102
}
330
C
100
AcDbDictionary
281
     1
  0
XRECORD
  5
152
102
{ACAD_REACTORS
330
C
102
}
330
C
100
AcDbXrecord
280
     1
  1
DWGPROPS COOKIE
  2

  3

  4

  6

  7

  8
12014102
  9

300
=
301
=
302
=
303
=
304
=
305
=
306
=
307
=
308
=
309
=
 40
0.0
 41
2458260.207128727
 42
2458268.215503959
  1

 90
        0
  0
LAYOUT
  5
1E
102
{ACAD_REACTORS
330
1A
102
}
330
1A
100
AcDbPlotSettings
  1

  2
none_device
  4

  6

 40
0.0
 41
0.0
 42
0.0
 43
0.0
 44
0.0
 45
0.0
 46
0.0
 47
0.0
 48
0.0
 49
0.0
140
0.0
141
0.0
142
1.0
143
1.0
 70
   688
 72
     1
 73
     0
 74
     5
  7

 75
    16
147
1.0
148
0.0
149
0.0
100
AcDbLayout
  1
Layout1
 70
     1
 71
     1
 10
0.0
 20
0.0
 11
420.0
 21
297.0
 12
0.0
 22
0.0
 32
0.0
 14
1.000000000000000E+20
 24
1.000000000000000E+20
 34
1.000000000000000E+20
 15
-1.000000000000000E+20
 25
-1.000000000000000E+20
 35
-1.000000000000000E+20
146
0.0
 13
0.0
 23
0.0
 33
0.0
 16
1.0
 26
0.0
 36
0.0
 17
0.0
 27
1.0
 37
0.0
 76
     0
330
1B
  0
LAYOUT
  5
26
102
{ACAD_REACTORS
330
1A
102
}
330
1A
100
AcDbPlotSettings
  1

  2
none_device
  4

  6

 40
0.0
 41
0.0
 42
0.0
 43
0.0
 44
0.0
 45
0.0
 46
0.0
 47
0.0
 48
0.0
 49
0.0
140
0.0
141
0.0
142
1.0
143
1.0
 70
   688
 72
     1
 73
     0
 74
     5
  7

 75
    16
147
1.0
148
0.0
149
0.0
100
AcDbLayout
  1
Layout2
 70
     1
 71
     2
 10
0.0
 20
0.0
 11
0.0
 21
0.0
 12
0.0
 22
0.0
 32
0.0
 14
0.0
 24
0.0
 34
0.0
 15
0.0
 25
0.0
 35
0.0
146
0.0
 13
0.0
 23
0.0
 33
0.0
 16
1.0
 26
0.0
 36
0.0
 17
0.0
 27
1.0
 37
0.0
 76
     0
330
23
  0
LAYOUT
  5
22
102
{ACAD_REACTORS
330
1A
102
}
330
1A
100
AcDbPlotSettings
  1

  2
none_device
  4
ANSI_A_(11.00_x_8.50_Inches)
  6

 40
6.35
 41
19.05
 42
6.35000508
 43
19.05000254
 44
279.4
 45
215.9
 46
96.06674773493613
 47
109.2752692781774
 48
0.0
 49
0.0
140
0.0
141
0.0
142
0.0703203501998302
143
1.0
 70
  1696
 72
     0
 73
     0
 74
     0
  7

 75
     0
147
0.0235690232323232
148
0.0
149
0.0
100
AcDbLayout
  1
Model
 70
     1
 71
     0
 10
0.0
 20
0.0
 11
420.0
 21
297.0
 12
0.0
 22
0.0
 32
0.0
 14
-58.21968220311899
 24
-49.97180738881173
 34
0.0
 15
94.86559367790093
 25
27.76413260158164
 35
0.0
146
0.0
 13
0.0
 23
0.0
 33
0.0
 16
1.0
 26
0.0
 36
0.0
 17
0.0
 27
1.0
 37
0.0
 76
     0
330
1F
331
29
  0
MLINESTYLE
  5
18
102
{ACAD_REACTORS
330
17
102
}
330
17
100
AcDbMlineStyle
  2
Standard
 70
     0
  3

 62
   256
 51
90.0
 52
90.0
 71
     2
 49
0.5
 62
   256
  6
BYLAYER
 49
-0.5
 62
   256
  6
BYLAYER
  0
ACDBPLACEHOLDER
  5
F
102
{ACAD_REACTORS
330
E
102
}
330
E
  0
SCALE
  5
48
102
{ACAD_REACTORS
330
47
102
}
330
47
100
AcDbScale
 70
     0
300
1:1
140
1.0
141
1.0
290
     1
  0
SCALE
  5
49
102
{ACAD_REACTORS
330
47
102
}
330
47
100
AcDbScale
 70
     0
300
1:2
140
1.0
141
2.0
290
     0
  0
SCALE
  5
4A
102
{ACAD_REACTORS
330
47
102
}
330
47
100
AcDbScale
 70
     0
300
1:4
140
1.0
141
4.0
290
     0
  0
SCALE
  5
4B
102
{ACAD_REACTORS
330
47
102
}
330
47
100
AcDbScale
 70
     0
300
1:5
140
1.0
141
5.0
290
     0
  0
SCALE
  5
4C
102
{ACAD_REACTORS
330
47
102
}
330
47
100
AcDbScale
 70
     0
300
1:8
140
1.0
141
8.0
290
     0
  0
SCALE
  5
4D
102
{ACAD_REACTORS
330
47
102
}
330
47
100
AcDbScale
 70
     0
300
1:10
140
1.0
141
10.0
290
     0
  0
SCALE
  5
4E
102
{ACAD_REACTORS
330
47
102
}
330
47
100
AcDbScale
 70
     0
300
1:16
140
1.0
141
16.0
290
     0
  0
SCALE
  5
4F
102
{ACAD_REACTORS
330
47
102
}
330
47
100
AcDbScale
 70
     0
300
1:20
140
1.0
141
20.0
290
     0
  0
SCALE
  5
50
102
{ACAD_REACTORS
330
47
102
}
330
47
100
AcDbScale
 70
     0
300
1:30
140
1.0
141
30.0
290
     0
  0
SCALE
  5
51
102
{ACAD_REACTORS
330
47
102
}
330
47
100
AcDbScale
 70
     0
300
1:40
140
1.0
141
40.0
290
     0
  0
SCALE
  5
52
102
{ACAD_REACTORS
330
47
102
}
330
47
100
AcDbScale
 70
     0
300
1:50
140
1.0
141
50.0
290
     0
  0
SCALE
  5
53
102
{ACAD_REACTORS
330
47
102
}
330
47
100
AcDbScale
 70
     0
300
1:100
140
1.0
141
100.0
290
     0
  0
SCALE
  5
54
102
{ACAD_REACTORS
330
47
102
}
330
47
100
AcDbScale
 70
     0
300
2:1
140
2.0
141
1.0
290
     0
  0
SCALE
  5
55
102
{ACAD_REACTORS
330
47
102
}
330
47
100
AcDbScale
 70
     0
300
4:1
140
4.0
141
1.0
290
     0
  0
SCALE
  5
56
102
{ACAD_REACTORS
330
47
102
}
330
47
100
AcDbScale
 70
     0
300
8:1
140
8.0
141
1.0
290
     0
  0
SCALE
  5
57
102
{ACAD_REACTORS
330
47
102
}
330
47
100
AcDbScale
 70
     0
300
10:1
140
10.0
141
1.0
290
     0
  0
SCALE
  5
58
102
{ACAD_REACTORS
330
47
102
}
330
47
100
AcDbScale
 70
     0
300
100:1
140
100.0
141
1.0
290
     0
  0
SCALE
  5
59
102
{ACAD_REACTORS
330
47
102
}
330
47
100
AcDbScale
 70
     0
300
1/128" = 1'-0"
140
0.0078125
141
12.0
290
     0
  0
SCALE
  5
5A
102
{ACAD_REACTORS
330
47
102
}
330
47
100
AcDbScale
 70
     0
300
1/64" = 1'-0"
140
0.015625
141
12.0
290
     0
  0
SCALE
  5
5B
102
{ACAD_REACTORS
330
47
102
}
330
47
100
AcDbScale
 70
     0
300
1/32" = 1'-0"
140
0.03125
141
12.0
290
     0
  0
SCALE
  5
5C
102
{ACAD_REACTORS
330
47
102
}
330
47
100
AcDbScale
 70
     0
300
1/16" = 1'-0"
140
0.0625
141
12.0
290
     0
  0
SCALE
  5
5D
102
{ACAD_REACTORS
330
47
102
}
330
47
100
AcDbScale
 70
     0
300
3/32" = 1'-0"
140
0.09375
141
12.0
290
     0
  0
SCALE
  5
5E
102
{ACAD_REACTORS
330
47
102
}
330
47
100
AcDbScale
 70
     0
300
1/8" = 1'-0"
140
0.125
141
12.0
290
     0
  0
SCALE
  5
5F
102
{ACAD_REACTORS
330
47
102
}
330
47
100
AcDbScale
 70
     0
300
3/16" = 1'-0"
140
0.1875
141
12.0
290
     0
  0
SCALE
  5
60
102
{ACAD_REACTORS
330
47
102
}
330
47
100
AcDbScale
 70
     0
300
1/4" = 1'-0"
140
0.25
141
12.0
290
     0
  0
SCALE
  5
61
102
{ACAD_REACTORS
330
47
102
}
330
47
100
AcDbScale
 70
     0
300
3/8" = 1'-0"
140
0.375
141
12.0
290
     0
  0
SCALE
  5
62
102
{ACAD_REACTORS
330
47
102
}
330
47
100
AcDbScale
 70
     0
300
1/2" = 1'-0"
140
0.5
141
12.0
290
     0
  0
SCALE
  5
63
102
{ACAD_REACTORS
330
47
102
}
330
47
100
AcDbScale
 70
     0
300
3/4" = 1'-0"
140
0.75
141
12.0
290
     0
  0
SCALE
  5
64
102
{ACAD_REACTORS
330
47
102
}
330
47
100
AcDbScale
 70
     0
300
1" = 1'-0"
140
1.0
141
12.0
290
     0
  0
SCALE
  5
65
102
{ACAD_REACTORS
330
47
102
}
330
47
100
AcDbScale
 70
     0
300
1-1/2" = 1'-0"
140
1.5
141
12.0
290
     0
  0
SCALE
  5
66
102
{ACAD_REACTORS
330
47
102
}
330
47
100
AcDbScale
 70
     0
300
3" = 1'-0"
140
3.0
141
12.0
290
     0
  0
SCALE
  5
67
102
{ACAD_REACTORS
330
47
102
}
330
47
100
AcDbScale
 70
     0
300
6" = 1'-0"
140
6.0
141
12.0
290
     0
  0
SCALE
  5
68
102
{ACAD_REACTORS
330
47
102
}
330
47
100
AcDbScale
 70
     0
300
1'-0" = 1'-0"
140
12.0
141
12.0
290
     0
  0
ENDSEC
  0
EOF
