  0
SECTION
  2
HEADER
  9
$ACADVER
  1
AC1015
  9
$ACADMAINTVER
 70
     6
  9
$DWGCODEPAGE
  3
ANSI_949
  9
$INSBASE
 10
0.0
 20
0.0
 30
0.0
  9
$EXTMIN
 10
-65.7935491322131
 20
-49.97180738881174
 30
0.0
  9
$EXTMAX
 10
116.7376553354104
 20
29.76413260158164
 30
0.0
  9
$LIMMIN
 10
0.0
 20
0.0
  9
$LIMMAX
 10
420.0
 20
297.0
  9
$ORTHOMODE
 70
     0
  9
$REGENMODE
 70
     1
  9
$FILLMODE
 70
     1
  9
$QTEXTMODE
 70
     0
  9
$MIRRTEXT
 70
     1
  9
$LTSCALE
 40
1.0
  9
$ATTMODE
 70
     1
  9
$TEXTSIZE
 40
3.5
  9
$TRACEWID
 40
1.0
  9
$TEXTSTYLE
  7
Standard
  9
$CLAYER
  8
0
  9
$CELTYPE
  6
ByLayer
  9
$CECOLOR
 62
   256
  9
$CELTSCALE
 40
1.0
  9
$DISPSILH
 70
     0
  9
$DIMSCALE
 40
1.0
  9
$DIMASZ
 40
3.302
  9
$DIMEXO
 40
1.0
  9
$DIMDLI
 40
3.75
  9
$DIMRND
 40
0.0
  9
$DIMDLE
 40
0.0
  9
$DIMEXE
 40
1.0
  9
$DIMTP
 40
0.0
  9
$DIMTM
 40
0.0
  9
$DIMTXT
 40
3.5
  9
$DIMCEN
 40
2.5
  9
$DIMTSZ
 40
0.0
  9
$DIMTOL
 70
     0
  9
$DIMLIM
 70
     0
  9
$DIMTIH
 70
     1
  9
$DIMTOH
 70
     1
  9
$DIMSE1
 70
     0
  9
$DIMSE2
 70
     0
  9
$DIMTAD
 70
     1
  9
$DIMZIN
 70
     0
  9
$DIMBLK
  1

  9
$DIMASO
 70
     1
  9
$DIMSHO
 70
     1
  9
$DIMPOST
  1

  9
$DIMAPOST
  1

  9
$DIMALT
 70
     0
  9
$DIMALTD
 70
     3
  9
$DIMALTF
 40
0.0393700787401575
  9
$DIMLFAC
 40
1.0
  9
$DIMTOFL
 70
     1
  9
$DIMTVP
 40
0.0
  9
$DIMTIX
 70
     0
  9
$DIMSOXD
 70
     0
  9
$DIMSAH
 70
     0
  9
$DIMBLK1
  1

  9
$DIMBLK2
  1

  9
$DIMSTYLE
  2
ISO-25
  9
$DIMCLRD
 70
     0
  9
$DIMCLRE
 70
     0
  9
$DIMCLRT
 70
     0
  9
$DIMTFAC
 40
1.0
  9
$DIMGAP
 40
1.524
  9
$DIMJUST
 70
     0
  9
$DIMSD1
 70
     0
  9
$DIMSD2
 70
     0
  9
$DIMTOLJ
 70
     0
  9
$DIMTZIN
 70
     0
  9
$DIMALTZ
 70
     0
  9
$DIMALTTZ
 70
     0
  9
$DIMUPT
 70
     0
  9
$DIMDEC
 70
     2
  9
$DIMTDEC
 70
     2
  9
$DIMALTU
 70
     2
  9
$DIMALTTD
 70
     3
  9
$DIMTXSTY
  7
Standard
  9
$DIMAUNIT
 70
     0
  9
$DIMADEC
 70
     2
  9
$DIMALTRND
 40
0.0
  9
$DIMAZIN
 70
     0
  9
$DIMDSEP
 70
    44
  9
$DIMATFIT
 70
     3
  9
$DIMFRAC
 70
     0
  9
$DIMLDRBLK
  1

  9
$DIMLUNIT
 70
     2
  9
$DIMLWD
 70
    -2
  9
$DIMLWE
 70
    -2
  9
$DIMTMOVE
 70
     0
  9
$LUNITS
 70
     2
  9
$LUPREC
 70
     2
  9
$SKETCHINC
 40
1.0
  9
$FILLETRAD
 40
10.0
  9
$AUNITS
 70
     0
  9
$AUPREC
 70
     2
  9
$MENU
  1
.
  9
$ELEVATION
 40
0.0
  9
$PELEVATION
 40
0.0
  9
$THICKNESS
 40
0.0
  9
$LIMCHECK
 70
     0
  9
$CHAMFERA
 40
0.0
  9
$CHAMFERB
 40
0.0
  9
$CHAMFERC
 40
0.0
  9
$CHAMFERD
 40
0.0
  9
$SKPOLY
 70
     0
  9
$TDCREATE
 40
2458260.584586273
  9
$TDUCREATE
 40
2458260.209586273
  9
$TDUPDATE
 40
2458268.596930197
  9
$TDUUPDATE
 40
2458268.221930197
  9
$TDINDWG
 40
0.0006109375
  9
$TDUSRTIMER
 40
2458268.221319294
  9
$USRTIMER
 70
     1
  9
$ANGBASE
 50
0.0
  9
$ANGDIR
 70
     0
  9
$PDMODE
 70
     0
  9
$PDSIZE
 40
-1.0
  9
$PLINEWID
 40
0.0
  9
$SPLFRAME
 70
     0
  9
$SPLINETYPE
 70
     6
  9
$SPLINESEGS
 70
     8
  9
$HANDSEED
  5
151
  9
$SURFTAB1
 70
     6
  9
$SURFTAB2
 70
     6
  9
$SURFTYPE
 70
     6
  9
$SURFU
 70
     6
  9
$SURFV
 70
     6
  9
$UCSBASE
  2

  9
$UCSNAME
  2

  9
$UCSORG
 10
0.0
 20
0.0
 30
0.0
  9
$UCSXDIR
 10
1.0
 20
0.0
 30
0.0
  9
$UCSYDIR
 10
0.0
 20
1.0
 30
0.0
  9
$UCSORTHOREF
  2

  9
$UCSORTHOVIEW
 70
     0
  9
$UCSORGTOP
 10
0.0
 20
0.0
 30
0.0
  9
$UCSORGBOTTOM
 10
0.0
 20
0.0
 30
0.0
  9
$UCSORGLEFT
 10
0.0
 20
0.0
 30
0.0
  9
$UCSORGRIGHT
 10
0.0
 20
0.0
 30
0.0
  9
$UCSORGFRONT
 10
0.0
 20
0.0
 30
0.0
  9
$UCSORGBACK
 10
0.0
 20
0.0
 30
0.0
  9
$PUCSBASE
  2

  9
$PUCSNAME
  2

  9
$PUCSORG
 10
0.0
 20
0.0
 30
0.0
  9
$PUCSXDIR
 10
1.0
 20
0.0
 30
0.0
  9
$PUCSYDIR
 10
0.0
 20
1.0
 30
0.0
  9
$PUCSORTHOREF
  2

  9
$PUCSORTHOVIEW
 70
     0
  9
$PUCSORGTOP
 10
0.0
 20
0.0
 30
0.0
  9
$PUCSORGBOTTOM
 10
0.0
 20
0.0
 30
0.0
  9
$PUCSORGLEFT
 10
0.0
 20
0.0
 30
0.0
  9
$PUCSORGRIGHT
 10
0.0
 20
0.0
 30
0.0
  9
$PUCSORGFRONT
 10
0.0
 20
0.0
 30
0.0
  9
$PUCSORGBACK
 10
0.0
 20
0.0
 30
0.0
  9
$USERI1
 70
     0
  9
$USERI2
 70
     0
  9
$USERI3
 70
     0
  9
$USERI4
 70
     0
  9
$USERI5
 70
     0
  9
$USERR1
 40
0.0
  9
$USERR2
 40
0.0
  9
$USERR3
 40
0.0
  9
$USERR4
 40
0.0
  9
$USERR5
 40
0.0
  9
$WORLDVIEW
 70
     1
  9
$SHADEDGE
 70
     3
  9
$SHADEDIF
 70
    70
  9
$TILEMODE
 70
     1
  9
$MAXACTVP
 70
    64
  9
$PINSBASE
 10
0.0
 20
0.0
 30
0.0
  9
$PLIMCHECK
 70
     0
  9
$PEXTMIN
 10
1.000000000000000E+20
 20
1.000000000000000E+20
 30
1.000000000000000E+20
  9
$PEXTMAX
 10
-1.000000000000000E+20
 20
-1.000000000000000E+20
 30
-1.000000000000000E+20
  9
$PLIMMIN
 10
0.0
 20
0.0
  9
$PLIMMAX
 10
0.0
 20
0.0
  9
$UNITMODE
 70
     0
  9
$VISRETAIN
 70
     1
  9
$PLINEGEN
 70
     0
  9
$PSLTSCALE
 70
     1
  9
$TREEDEPTH
 70
  3020
  9
$CMLSTYLE
  2
Standard
  9
$CMLJUST
 70
     0
  9
$CMLSCALE
 40
20.0
  9
$PROXYGRAPHICS
 70
     1
  9
$MEASUREMENT
 70
     1
  9
$CELWEIGHT
370
    -1
  9
$ENDCAPS
280
     0
  9
$JOINSTYLE
280
     0
  9
$LWDISPLAY
290
     1
  9
$INSUNITS
 70
     4
  9
$HYPERLINKBASE
  1

  9
$STYLESHEET
  1

  9
$XEDIT
290
     1
  9
$CEPSNTYPE
380
     0
  9
$PSTYLEMODE
290
     1
  9
$FINGERPRINTGUID
  2
{65F55877-58B0-4B4C-873F-1EAC520C3AC9}
  9
$VERSIONGUID
  2
{FAEB1C32-E019-11D5-929B-00C0DF256EC4}
  9
$EXTNAMES
290
     1
  9
$PSVPSCALE
 40
0.0
  9
$OLESTARTUP
290
     0
  0
ENDSEC
  0
SECTION
  2
CLASSES
  0
CLASS
  1
ACDBDICTIONARYWDFLT
  2
AcDbDictionaryWithDefault
  3
ObjectDBX Classes
 90
        0
280
     0
281
     0
  0
CLASS
  1
VISUALSTYLE
  2
AcDbVisualStyle
  3
ObjectDBX Classes
 90
     4095
280
     0
281
     0
  0
CLASS
  1
MATERIAL
  2
AcDbMaterial
  3
ObjectDBX Classes
 90
     1153
280
     0
281
     0
  0
CLASS
  1
SCALE
  2
AcDbScale
  3
ObjectDBX Classes
 90
     1153
280
     0
281
     0
  0
CLASS
  1
TABLESTYLE
  2
AcDbTableStyle
  3
ObjectDBX Classes
 90
     4095
280
     0
281
     0
  0
CLASS
  1
MLEADERSTYLE
  2
AcDbMLeaderStyle
  3
ACDB_MLEADERSTYLE_CLASS
 90
     4095
280
     0
281
     0
  0
CLASS
  1
SUN
  2
AcDbSun
  3
SCENEOE
 90
     1153
280
     0
281
     0
  0
CLASS
  1
ACDBPLACEHOLDER
  2
AcDbPlaceHolder
  3
ObjectDBX Classes
 90
        0
280
     0
281
     0
  0
CLASS
  1
LAYOUT
  2
AcDbLayout
  3
ObjectDBX Classes
 90
        0
280
     0
281
     0
  0
CLASS
  1
RASTERVARIABLES
  2
AcDbRasterVariables
  3
ISM
 90
        0
280
     0
281
     0
  0
ENDSEC
  0
SECTION
  2
TABLES
  0
TABLE
  2
VPORT
  5
8
330
0
100
AcDbSymbolTable
 70
     1
  0
VPORT
  5
29
330
8
100
AcDbSymbolTableRecord
100
AcDbViewportTableRecord
  2
*Active
 70
     0
 10
0.0
 20
0.0
 11
1.0
 21
1.0
 12
25.47205310159866
 22
-10.10383739361505
 13
0.0
 23
0.0
 14
10.0
 24
10.0
 15
10.0
 25
10.0
 16
0.0
 26
0.0
 36
1.0
 17
0.0
 27
0.0
 37
0.0
 40
107.0614675357351
 41
1.739018087855297
 42
50.0
 43
0.0
 44
0.0
 50
0.0
 51
0.0
 71
    16
 72
  2000
 73
     1
 74
     3
 75
     0
 76
     0
 77
     0
 78
     0
281
     0
 65
     1
110
0.0
120
0.0
130
0.0
111
1.0
121
0.0
131
0.0
112
0.0
122
1.0
132
0.0
 79
     0
146
0.0
  0
ENDTAB
  0
TABLE
  2
LTYPE
  5
5
330
0
100
AcDbSymbolTable
 70
     6
  0
LTYPE
  5
14
330
5
100
AcDbSymbolTableRecord
100
AcDbLinetypeTableRecord
  2
ByBlock
 70
     0
  3

 72
    65
 73
     0
 40
0.0
  0
LTYPE
  5
15
330
5
100
AcDbSymbolTableRecord
100
AcDbLinetypeTableRecord
  2
ByLayer
 70
     0
  3

 72
    65
 73
     0
 40
0.0
  0
LTYPE
  5
16
330
5
100
AcDbSymbolTableRecord
100
AcDbLinetypeTableRecord
  2
Continuous
 70
     0
  3
Solid line
 72
    65
 73
     0
 40
0.0
  0
LTYPE
  5
6E
330
5
100
AcDbSymbolTableRecord
100
AcDbLinetypeTableRecord
  2
HIDDEN
 70
     0
  3
Hidden __ __ __ __ __ __ __ __ __ __ __ __ __ __
 72
    65
 73
     2
 40
1.905
 49
1.27
 74
     0
 49
-0.635
 74
     0
  0
LTYPE
  5
6F
330
5
100
AcDbSymbolTableRecord
100
AcDbLinetypeTableRecord
  2
PHANTOM
 70
     0
  3
Phantom ______  __  __  ______  __  __  ______
 72
    65
 73
     6
 40
12.7
 49
6.35
 74
     0
 49
-1.27
 74
     0
 49
1.27
 74
     0
 49
-1.27
 74
     0
 49
1.27
 74
     0
 49
-1.27
 74
     0
  0
LTYPE
  5
70
330
5
100
AcDbSymbolTableRecord
100
AcDbLinetypeTableRecord
  2
CENTER
 70
     0
  3
Center ____ _ ____ _ ____ _ ____ _ ____ _ ____
 72
    65
 73
     4
 40
10.16
 49
6.35
 74
     0
 49
-1.27
 74
     0
 49
1.27
 74
     0
 49
-1.27
 74
     0
  0
LTYPE
  5
71
330
5
100
AcDbSymbolTableRecord
100
AcDbLinetypeTableRecord
  2
CENTERX2
 70
     0
  3
Center (2x) ________  __  ________  __  _____
 72
    65
 73
     4
 40
20.32
 49
12.7
 74
     0
 49
-2.54
 74
     0
 49
2.54
 74
     0
 49
-2.54
 74
     0
  0
LTYPE
  5
72
330
5
100
AcDbSymbolTableRecord
100
AcDbLinetypeTableRecord
  2
DOT2
 70
     0
  3
Dot (.5x) ........................................
 72
    65
 73
     2
 40
0.635
 49
0.0
 74
     0
 49
-0.635
 74
     0
  0
ENDTAB
  0
TABLE
  2
LAYER
  5
2
330
0
100
AcDbSymbolTable
 70
    17
  0
LAYER
  5
10
330
2
100
AcDbSymbolTableRecord
100
AcDbLayerTableRecord
  2
0
 70
     0
 62
     7
  6
Continuous
370
    -3
390
F
  0
LAYER
  5
73
330
2
100
AcDbSymbolTableRecord
100
AcDbLayerTableRecord
  2
FORMAT
 70
     0
 62
     2
  6
Continuous
370
    -3
390
F
  0
LAYER
  5
74
330
2
100
AcDbSymbolTableRecord
100
AcDbLayerTableRecord
  2
외형선
 70
     0
 62
   100
  6
Continuous
370
    35
390
F
  0
LAYER
  5
75
330
2
100
AcDbSymbolTableRecord
100
AcDbLayerTableRecord
  2
숨은선
 70
     0
 62
     2
  6
HIDDEN
370
    25
390
F
  0
LAYER
  5
76
330
2
100
AcDbSymbolTableRecord
100
AcDbLayerTableRecord
  2
중심선
 70
     0
 62
     1
  6
CENTERX2
370
    -3
390
F
  0
LAYER
  5
77
330
2
100
AcDbSymbolTableRecord
100
AcDbLayerTableRecord
  2
파단선
 70
     0
 62
     4
  6
Continuous
370
    -3
390
F
  0
LAYER
  5
78
330
2
100
AcDbSymbolTableRecord
100
AcDbLayerTableRecord
  2
해칭선
 70
     0
 62
   100
  6
Continuous
370
    -3
390
F
  0
LAYER
  5
79
330
2
100
AcDbSymbolTableRecord
100
AcDbLayerTableRecord
  2
가는실선
 70
     0
 62
     4
  6
Continuous
370
    -3
390
F
  0
LAYER
  5
7A
330
2
100
AcDbSymbolTableRecord
100
AcDbLayerTableRecord
  2
치수_보조선
 70
     0
 62
     4
  6
Continuous
370
    -3
390
F
  0
LAYER
  5
7B
330
2
100
AcDbSymbolTableRecord
100
AcDbLayerTableRecord
  2
치수문자_일반주서
 70
     0
 62
     7
  6
Continuous
370
    25
390
F
  0
LAYER
  5
7C
330
2
100
AcDbSymbolTableRecord
100
AcDbLayerTableRecord
  2
개별주서
 70
     0
 62
   100
  6
Continuous
370
    35
390
F
  0
LAYER
  5
7D
330
2
100
AcDbSymbolTableRecord
100
AcDbLayerTableRecord
  2
중간선
 70
     0
 62
     2
  6
Continuous
370
    25
390
F
  0
LAYER
  5
7E
330
2
100
AcDbSymbolTableRecord
100
AcDbLayerTableRecord
  2
윤곽선
 70
     0
 62
     3
  6
Continuous
370
    50
390
F
  0
LAYER
  5
7F
330
2
100
AcDbSymbolTableRecord
100
AcDbLayerTableRecord
  2
중심마크
 70
     0
 62
   100
  6
Continuous
370
    35
390
F
  0
LAYER
  5
80
330
2
100
AcDbSymbolTableRecord
100
AcDbLayerTableRecord
  2
가상선
 70
     0
 62
     4
  6
PHANTOM
370
    -3
390
F
  0
LAYER
  5
81
330
2
100
AcDbSymbolTableRecord
100
AcDbLayerTableRecord
  2
특수지정선
 70
     0
 62
     5
  6
CENTERX2
370
    70
390
F
  0
LAYER
  5
141
330
2
100
AcDbSymbolTableRecord
100
AcDbLayerTableRecord
  2
Defpoints
 70
     0
 62
     7
  6
Continuous
290
     0
370
    -3
390
F
  0
ENDTAB
  0
TABLE
  2
STYLE
  5
3
330
0
100
AcDbSymbolTable
 70
     2
  0
STYLE
  5
11
330
3
100
AcDbSymbolTableRecord
100
AcDbTextStyleTableRecord
  2
Standard
 70
     0
 40
0.0
 41
1.0
 50
0.0
 71
     0
 42
3.5
  3
txt
  4

  0
STYLE
  5
97
330
3
100
AcDbSymbolTableRecord
100
AcDbTextStyleTableRecord
  2
SLDTEXTSTYLE0
 70
     0
 40
0.0
 41
0.75
 50
0.0
 71
     0
 42
3.5
  3
TXT
  4

  0
ENDTAB
  0
TABLE
  2
VIEW
  5
6
330
0
100
AcDbSymbolTable
 70
     0
  0
ENDTAB
  0
TABLE
  2
UCS
  5
7
330
0
100
AcDbSymbolTable
 70
     0
  0
ENDTAB
  0
TABLE
  2
APPID
  5
9
330
0
100
AcDbSymbolTable
 70
     1
  0
APPID
  5
12
330
9
100
AcDbSymbolTableRecord
100
AcDbRegAppTableRecord
  2
ACAD
 70
     0
  0
ENDTAB
  0
TABLE
  2
DIMSTYLE
  5
A
330
0
100
AcDbSymbolTable
 70
     4
100
AcDbDimStyleTable
  0
DIMSTYLE
105
27
330
A
100
AcDbSymbolTableRecord
100
AcDbDimStyleTableRecord
  2
ISO-25
 70
     0
 41
2.5
 42
0.625
 43
3.75
 44
1.25
 73
     0
 74
     0
 77
     1
 78
     8
140
2.5
141
2.5
143
0.03937007874016
147
0.625
171
     3
172
     1
178
     0
271
     2
272
     2
274
     3
278
    44
283
     0
284
     8
340
11
  0
DIMSTYLE
105
E6
102
{ACAD_REACTORS
330
E5
102
}
330
A
100
AcDbSymbolTableRecord
100
AcDbDimStyleTableRecord
  2
SLDDIMSTYLE0
 70
     0
 41
3.302
 44
0.0
 45
0.000000001
 73
     0
 74
     0
 77
     1
 78
    12
 79
     3
140
3.5
147
0.875
172
     1
173
     1
178
     0
271
     1
272
     1
276
     2
284
    12
289
     0
340
97
  0
DIMSTYLE
105
F4
102
{ACAD_REACTORS
330
F3
330
10C
102
}
330
A
100
AcDbSymbolTableRecord
100
AcDbDimStyleTableRecord
  2
SLDDIMSTYLE1
 70
     0
 41
3.302
 44
0.0
 45
0.000000001
 73
     0
 74
     0
 77
     1
 78
    12
 79
     3
140
3.5
147
0.875
173
     1
178
     0
271
     2
272
     2
276
     2
284
    12
340
97
  0
DIMSTYLE
105
FF
102
{ACAD_REACTORS
330
FE
102
}
330
A
100
AcDbSymbolTableRecord
100
AcDbDimStyleTableRecord
  2
SLDDIMSTYLE2
 70
     0
 41
3.302
 44
0.0
 45
0.000000001
 73
     0
 74
     0
 77
     1
 78
    12
 79
     3
140
3.5
147
0.875
172
     1
173
     1
178
     0
271
     2
272
     2
276
     2
284
    12
289
     0
340
97
  0
ENDTAB
  0
TABLE
  2
BLOCK_RECORD
  5
1
330
0
100
AcDbSymbolTable
 70
     7
  0
BLOCK_RECORD
  5
1F
330
1
100
AcDbSymbolTableRecord
100
AcDbBlockTableRecord
  2
*Model_Space
340
22
  0
BLOCK_RECORD
  5
1B
330
1
100
AcDbSymbolTableRecord
100
AcDbBlockTableRecord
  2
*Paper_Space
340
1E
  0
BLOCK_RECORD
  5
23
330
1
100
AcDbSymbolTableRecord
100
AcDbBlockTableRecord
  2
*Paper_Space0
340
26
  0
BLOCK_RECORD
  5
82
330
1
100
AcDbSymbolTableRecord
100
AcDbBlockTableRecord
  2
블럭10
340
0
102
{BLKREFS
331
DE
102
}
  0
BLOCK_RECORD
  5
E7
330
1
100
AcDbSymbolTableRecord
100
AcDbBlockTableRecord
  2
_D
340
0
  0
BLOCK_RECORD
  5
F5
330
1
100
AcDbSymbolTableRecord
100
AcDbBlockTableRecord
  2
_D_1
340
0
  0
BLOCK_RECORD
  5
100
330
1
100
AcDbSymbolTableRecord
100
AcDbBlockTableRecord
  2
_D_2
340
0
  0
BLOCK_RECORD
  5
10D
330
1
100
AcDbSymbolTableRecord
100
AcDbBlockTableRecord
  2
_D_3
340
0
  0
BLOCK_RECORD
  5
116
330
1
100
AcDbSymbolTableRecord
100
AcDbBlockTableRecord
  2
SW_DOWELSYMBOL_0
340
0
102
{BLKREFS
331
11C
102
}
  0
ENDTAB
  0
ENDSEC
  0
SECTION
  2
BLOCKS
  0
BLOCK
  5
20
330
1F
100
AcDbEntity
  8
0
100
AcDbBlockBegin
  2
*Model_Space
 70
     0
 10
0.0
 20
0.0
 30
0.0
  3
*Model_Space
  1

  0
ENDBLK
  5
21
330
1F
100
AcDbEntity
  8
0
100
AcDbBlockEnd
  0
BLOCK
  5
1C
330
1B
100
AcDbEntity
 67
     1
  8
0
100
AcDbBlockBegin
  2
*Paper_Space
 70
     0
 10
0.0
 20
0.0
 30
0.0
  3
*Paper_Space
  1

  0
ENDBLK
  5
1D
330
1B
100
AcDbEntity
 67
     1
  8
0
100
AcDbBlockEnd
  0
BLOCK
  5
24
330
23
100
AcDbEntity
  8
0
100
AcDbBlockBegin
  2
*Paper_Space0
 70
     0
 10
0.0
 20
0.0
 30
0.0
  3
*Paper_Space0
  1

  0
ENDBLK
  5
25
330
23
100
AcDbEntity
  8
0
100
AcDbBlockEnd
  0
BLOCK
  5
83
330
82
100
AcDbEntity
  8
0
100
AcDbBlockBegin
  2
블럭10
 70
     2
 10
0.0
 20
0.0
 30
0.0
  3
블럭10
  1

  0
ELLIPSE
  5
85
330
82
100
AcDbEntity
  8
중심선
100
AcDbEllipse
 10
20.54032771741204
 20
12.0471743016438
 30
0.0
 11
6.600054785286829
 21
-1.261213355974178E-13
 31
0.0
210
0.0
220
0.0
230
1.0
 40
0.636358354079598
 41
0.9219305317359503
 42
6.513795318482858
  0
ELLIPSE
  5
86
330
82
100
AcDbEntity
  8
중심선
100
AcDbEllipse
 10
20.54032771746488
 20
12.04717430159265
 30
0.0
 11
3.960054785062283
 21
1.540847449632565E-10
 31
0.0
210
0.0
220
0.0
230
1.0
 40
0.3939339440162632
 41
1.131841032648279
 42
5.62031148352944
  0
LINE
  5
87
330
82
100
AcDbEntity
  8
중심선
100
AcDbLine
 10
2.268634060543552
 20
16.24717430164393
 30
0.0
 11
5.714909304380834
 21
16.24717430164393
 31
0.0
  0
LINE
  5
88
330
82
100
AcDbEntity
  8
중심선
100
AcDbLine
 10
5.245725140726316
 20
7.84717430164391
 30
0.0
 11
8.692000384563599
 21
7.84717430164391
 31
0.0
  0
LINE
  5
89
330
82
100
AcDbEntity
  8
중심선
100
AcDbLine
 10
15.74043728645272
 20
16.24717430164393
 30
0.0
 11
8.692000384563599
 21
7.84717430164391
 31
0.0
  0
LINE
  5
8A
330
82
100
AcDbEntity
  8
중심선
100
AcDbLine
 10
0.1404042013395286
 20
13.71084872107135
 30
0.0
 11
3.58671253028996
 21
13.71088815037384
 31
0.0
  0
LINE
  5
8B
330
82
100
AcDbEntity
  8
중심선
100
AcDbLine
 10
2.750260043222114
 20
10.84717430164391
 30
0.0
 11
6.196535287059397
 21
10.84717430164391
 31
0.0
  0
LINE
  5
8C
330
82
100
AcDbEntity
  8
중심선
100
AcDbLine
 10
12.29416204261559
 20
16.24717430164393
 30
0.0
 11
5.245725140726316
 21
7.84717430164391
 31
0.0
  0
LINE
  5
8D
330
82
100
AcDbEntity
  8
중심선
100
AcDbLine
 10
10.72767329541681
 20
16.24717430164393
 30
0.0
 11
6.196535287059397
 21
10.84717430164391
 31
0.0
  0
LINE
  5
8E
330
82
100
AcDbEntity
  8
중심선
100
AcDbLine
 10
7.28139805157953
 20
16.24717430164393
 30
0.0
 11
2.750260043222114
 21
10.84717430164391
 31
0.0
  0
LINE
  5
8F
330
82
100
AcDbEntity
  8
중심선
100
AcDbLine
 10
5.714909304380834
 20
16.24717430164393
 30
0.0
 11
3.58671253028996
 21
13.71088815037384
 31
0.0
  0
LINE
  5
90
330
82
100
AcDbEntity
  8
중심선
100
AcDbLine
 10
2.268634060543552
 20
16.24717430164393
 30
0.0
 11
0.1404042013395286
 21
13.71084872107135
 31
0.0
  0
LINE
  5
91
330
82
100
AcDbEntity
  8
중심선
100
AcDbLine
 10
7.28139805157953
 20
16.24717430164393
 30
0.0
 11
10.72767329541681
 21
16.24717430164393
 31
0.0
  0
LINE
  5
92
330
82
100
AcDbEntity
  8
중심선
100
AcDbLine
 10
12.29416204261559
 20
16.24717430164393
 30
0.0
 11
15.74043728645272
 21
16.24717430164393
 31
0.0
  0
LINE
  5
93
330
82
100
AcDbEntity
  8
중심선
100
AcDbLine
 10
19.22036997980202
 20
11.08717430171403
 30
0.0
 11
23.66174974927406
 21
11.08717430171406
 31
0.0
  0
LINE
  5
94
330
82
100
AcDbEntity
  8
중심선
100
AcDbLine
 10
19.22039502424796
 20
13.00717430171391
 30
0.0
 11
19.22036997980202
 21
11.08717430171403
 31
0.0
  0
LINE
  5
95
330
82
100
AcDbEntity
  8
중심선
100
AcDbLine
 10
19.22039502424796
 20
13.00717430171391
 30
0.0
 11
26.96566020931264
 21
13.00717430171391
 31
0.0
  0
LINE
  5
96
330
82
100
AcDbEntity
  8
중심선
100
AcDbLine
 10
22.22332737316547
 20
13.45928029700563
 30
0.0
 11
24.52862924686651
 21
15.39360700705356
 31
0.0
  0
ATTDEF
  5
98
330
82
100
AcDbEntity
  8
FORMAT
 62
     2
100
AcDbText
 10
-16.11926103943555
 20
2.075366912832191
 30
0.0
 40
4.233333333333333
  1
SEME7216090E [ 4 FLUTE ]
 41
0.75
  7
SLDTEXTSTYLE0
 11
-16.11926103943555
 21
-0.0412997538344756
 31
0.0
100
AcDbAttributeDefinition
  3

  2
AUTOATTR0
 70
     0
 74
     1
  0
ENDBLK
  5
84
330
82
100
AcDbEntity
  8
0
100
AcDbBlockEnd
  0
BLOCK
  5
E8
330
E7
100
AcDbEntity
  8
0
100
AcDbBlockBegin
  2
_D
 70
     0
 10
0.0
 20
0.0
 30
0.0
  3
_D
  1

  0
LINE
  5
EA
330
E7
100
AcDbEntity
  8
치수문자_일반주서
 62
     0
370
    -2
100
AcDbLine
 10
102.0625
 20
-8.000000000000016
 30
0.0
 11
116.1873220020771
 21
-7.999999999999961
 31
0.0
  0
LINE
  5
EB
330
E7
100
AcDbEntity
  8
치수문자_일반주서
 62
     0
370
    -2
100
AcDbLine
 10
102.0625
 20
8.000000000000009
 30
0.0
 11
116.187322002077
 21
8.000000000000062
 31
0.0
  0
LINE
  5
EC
330
E7
100
AcDbEntity
  8
치수문자_일반주서
 62
     0
370
    -2
100
AcDbLine
 10
116.1873220020771
 20
-7.999999999999961
 30
0.0
 11
116.187322002077
 21
22.47900000000006
 31
0.0
  0
LINE
  5
ED
330
E7
100
AcDbEntity
  8
치수문자_일반주서
 62
     0
370
    -2
100
AcDbLine
 10
116.1873220020771
 20
-7.999999999999961
 30
0.0
 11
116.187322002077
 21
8.000000000000062
 31
0.0
  0
LINE
  5
EE
330
E7
100
AcDbEntity
  8
치수문자_일반주서
 62
     0
370
    -2
100
AcDbLine
 10
116.1873220020771
 20
-11.30199999999996
 30
0.0
 11
116.1873220020771
 21
-14.60399999999996
 31
0.0
  0
LINE
  5
EF
330
E7
100
AcDbEntity
  8
치수문자_일반주서
 62
     0
370
    -2
100
AcDbLine
 10
116.187322002077
 20
11.30200000000006
 30
0.0
 11
116.187322002077
 21
14.60400000000006
 31
0.0
  0
SOLID
  5
F0
330
E7
100
AcDbEntity
  8
치수문자_일반주서
 62
     0
100
AcDbTrace
 10
116.7376553354104
 20
-11.30199999999996
 30
0.0
 11
115.6369886687438
 21
-11.30199999999996
 31
0.0
 12
116.1873220020771
 22
-7.999999999999961
 32
0.0
 13
116.1873220020771
 23
-7.999999999999961
 33
0.0
  0
SOLID
  5
F1
330
E7
100
AcDbEntity
  8
치수문자_일반주서
 62
     0
100
AcDbTrace
 10
115.6369886687437
 20
11.30200000000006
 30
0.0
 11
116.7376553354103
 21
11.30200000000006
 31
0.0
 12
116.187322002077
 22
8.000000000000062
 32
0.0
 13
116.187322002077
 23
8.000000000000062
 33
0.0
  0
MTEXT
  5
F2
330
E7
100
AcDbEntity
  8
치수문자_일반주서
 62
     0
100
AcDbMText
 10
111.812322002077
 20
18.54150000000005
 30
0.0
 40
3.5
 41
0.0
 71
     2
 72
     1
  1
\A1;%%c16
  7
SLDTEXTSTYLE0
 11
-3.552713678800495E-15
 21
1.0
 31
0.0
 73
     1
 44
1.0
  0
POINT
  5
14B
330
E7
100
AcDbEntity
  8
Defpoints
 62
     0
100
AcDbPoint
 10
102.0
 20
-8.000000000000016
 30
0.0
  0
POINT
  5
14C
330
E7
100
AcDbEntity
  8
Defpoints
 62
     0
100
AcDbPoint
 10
102.0
 20
8.000000000000009
 30
0.0
  0
POINT
  5
14D
330
E7
100
AcDbEntity
  8
Defpoints
 62
     0
100
AcDbPoint
 10
116.187322002077
 20
8.000000000000062
 30
0.0
  0
ENDBLK
  5
E9
330
E7
100
AcDbEntity
  8
0
100
AcDbBlockEnd
  0
BLOCK
  5
F6
330
F5
100
AcDbEntity
  8
0
100
AcDbBlockBegin
  2
_D_1
 70
     0
 10
0.0
 20
0.0
 30
0.0
  3
_D_1
  1

  0
LINE
  5
F8
330
F5
100
AcDbEntity
  8
치수문자_일반주서
 62
     0
370
    -2
100
AcDbLine
 10
-48.0
 20
7.562499999999991
 30
0.0
 11
-48.0
 21
25.38913260158164
 31
0.0
  0
LINE
  5
F9
330
F5
100
AcDbEntity
  8
치수문자_일반주서
 62
     0
370
    -2
100
AcDbLine
 10
102.0
 20
8.062500000000007
 30
0.0
 11
102.0
 21
25.38913260158164
 31
0.0
  0
LINE
  5
FA
330
F5
100
AcDbEntity
  8
치수문자_일반주서
 62
     0
370
    -2
100
AcDbLine
 10
-44.698
 20
25.38913260158164
 30
0.0
 11
98.69800000000001
 21
25.38913260158164
 31
0.0
  0
SOLID
  5
FB
330
F5
100
AcDbEntity
  8
치수문자_일반주서
 62
     0
100
AcDbTrace
 10
-44.698
 20
25.93946593491497
 30
0.0
 11
-44.698
 21
24.83879926824831
 31
0.0
 12
-48.0
 22
25.38913260158164
 32
0.0
 13
-48.0
 23
25.38913260158164
 33
0.0
  0
SOLID
  5
FC
330
F5
100
AcDbEntity
  8
치수문자_일반주서
 62
     0
100
AcDbTrace
 10
98.69800000000001
 20
24.83879926824831
 30
0.0
 11
98.69800000000001
 21
25.93946593491497
 31
0.0
 12
102.0
 22
25.38913260158164
 32
0.0
 13
102.0
 23
25.38913260158164
 33
0.0
  0
MTEXT
  5
FD
330
F5
100
AcDbEntity
  8
치수문자_일반주서
 62
     0
100
AcDbMText
 10
27.0
 20
29.76413260158164
 30
0.0
 40
3.5
 41
0.0
 71
     2
 72
     1
  1
\A1;150
  7
SLDTEXTSTYLE0
 73
     1
 44
1.0
  0
POINT
  5
142
330
F5
100
AcDbEntity
  8
Defpoints
 62
     0
100
AcDbPoint
 10
-48.0
 20
7.499999999999991
 30
0.0
  0
POINT
  5
143
330
F5
100
AcDbEntity
  8
Defpoints
 62
     0
100
AcDbPoint
 10
102.0
 20
8.000000000000007
 30
0.0
  0
POINT
  5
144
330
F5
100
AcDbEntity
  8
Defpoints
 62
     0
100
AcDbPoint
 10
102.0
 20
25.38913260158164
 30
0.0
  0
ENDBLK
  5
F7
330
F5
100
AcDbEntity
  8
0
100
AcDbBlockEnd
  0
BLOCK
  5
101
330
100
100
AcDbEntity
  8
0
100
AcDbBlockBegin
  2
_D_2
 70
     0
 10
0.0
 20
0.0
 30
0.0
  3
_D_2
  1

  0
LINE
  5
103
330
100
100
AcDbEntity
  8
치수문자_일반주서
 62
     0
370
    -2
100
AcDbLine
 10
-47.56249999999999
 20
8.000000000000004
 30
0.0
 11
-61.41854913221305
 21
7.999999999999948
 31
0.0
  0
LINE
  5
104
330
100
100
AcDbEntity
  8
치수문자_일반주서
 62
     0
370
    -2
100
AcDbLine
 10
-47.56249999999999
 20
-8.00000000000001
 30
0.0
 11
-61.41854913221299
 21
-8.000000000000068
 31
0.0
  0
LINE
  5
105
330
100
100
AcDbEntity
  8
치수문자_일반주서
 62
     0
370
    -2
100
AcDbLine
 10
-61.41854913221305
 20
7.999999999999948
 30
0.0
 11
-61.4185491322131
 21
22.47899999999995
 31
0.0
  0
LINE
  5
106
330
100
100
AcDbEntity
  8
치수문자_일반주서
 62
     0
370
    -2
100
AcDbLine
 10
-61.41854913221305
 20
7.999999999999948
 30
0.0
 11
-61.41854913221299
 21
-8.000000000000068
 31
0.0
  0
LINE
  5
107
330
100
100
AcDbEntity
  8
치수문자_일반주서
 62
     0
370
    -2
100
AcDbLine
 10
-61.41854913221307
 20
11.30199999999995
 30
0.0
 11
-61.41854913221308
 21
14.60399999999995
 31
0.0
  0
LINE
  5
108
330
100
100
AcDbEntity
  8
치수문자_일반주서
 62
     0
370
    -2
100
AcDbLine
 10
-61.41854913221298
 20
-11.30200000000007
 30
0.0
 11
-61.41854913221297
 21
-14.60400000000007
 31
0.0
  0
SOLID
  5
109
330
100
100
AcDbEntity
  8
치수문자_일반주서
 62
     0
100
AcDbTrace
 10
-61.9688824655464
 20
11.30199999999995
 30
0.0
 11
-60.86821579887973
 21
11.30199999999995
 31
0.0
 12
-61.41854913221305
 22
7.999999999999948
 32
0.0
 13
-61.41854913221305
 23
7.999999999999948
 33
0.0
  0
SOLID
  5
10A
330
100
100
AcDbEntity
  8
치수문자_일반주서
 62
     0
100
AcDbTrace
 10
-60.86821579887965
 20
-11.30200000000007
 30
0.0
 11
-61.96888246554632
 21
-11.30200000000007
 31
0.0
 12
-61.41854913221299
 22
-8.000000000000068
 32
0.0
 13
-61.41854913221299
 23
-8.000000000000068
 33
0.0
  0
MTEXT
  5
10B
330
100
100
AcDbEntity
  8
치수문자_일반주서
 62
     0
100
AcDbMText
 10
-65.79354913221309
 20
18.54149999999993
 30
0.0
 40
3.5
 41
0.0
 71
     2
 72
     1
  1
\A1;%%c16
  7
SLDTEXTSTYLE0
 11
-3.552713678800499E-15
 21
1.0
 31
0.0
 73
     1
 44
1.0
  0
POINT
  5
148
330
100
100
AcDbEntity
  8
Defpoints
 62
     0
100
AcDbPoint
 10
-47.49999999999999
 20
8.000000000000004
 30
0.0
  0
POINT
  5
149
330
100
100
AcDbEntity
  8
Defpoints
 62
     0
100
AcDbPoint
 10
-47.49999999999999
 20
-8.00000000000001
 30
0.0
  0
POINT
  5
14A
330
100
100
AcDbEntity
  8
Defpoints
 62
     0
100
AcDbPoint
 10
-61.41854913221299
 20
-8.000000000000062
 30
0.0
  0
ENDBLK
  5
102
330
100
100
AcDbEntity
  8
0
100
AcDbBlockEnd
  0
BLOCK
  5
10E
330
10D
100
AcDbEntity
  8
0
100
AcDbBlockBegin
  2
_D_3
 70
     0
 10
0.0
 20
0.0
 30
0.0
  3
_D_3
  1

  0
LINE
  5
110
330
10D
100
AcDbEntity
  8
치수문자_일반주서
 62
     0
370
    -2
100
AcDbLine
 10
12.0
 20
8.052620053153245
 30
0.0
 11
12.0
 21
18.8360383557409
 31
0.0
  0
LINE
  5
111
330
10D
100
AcDbEntity
  8
치수문자_일반주서
 62
     0
370
    -2
100
AcDbLine
 10
102.0
 20
8.062500000000007
 30
0.0
 11
102.0
 21
18.8360383557409
 31
0.0
  0
LINE
  5
112
330
10D
100
AcDbEntity
  8
치수문자_일반주서
 62
     0
370
    -2
100
AcDbLine
 10
15.302
 20
18.8360383557409
 30
0.0
 11
98.69800000000001
 21
18.8360383557409
 31
0.0
  0
SOLID
  5
113
330
10D
100
AcDbEntity
  8
치수문자_일반주서
 62
     0
100
AcDbTrace
 10
15.302
 20
19.38637168907423
 30
0.0
 11
15.302
 21
18.28570502240756
 31
0.0
 12
12.0
 22
18.8360383557409
 32
0.0
 13
12.0
 23
18.8360383557409
 33
0.0
  0
SOLID
  5
114
330
10D
100
AcDbEntity
  8
치수문자_일반주서
 62
     0
100
AcDbTrace
 10
98.69800000000001
 20
18.28570502240756
 30
0.0
 11
98.69800000000001
 21
19.38637168907423
 31
0.0
 12
102.0
 22
18.8360383557409
 32
0.0
 13
102.0
 23
18.8360383557409
 33
0.0
  0
MTEXT
  5
115
330
10D
100
AcDbEntity
  8
치수문자_일반주서
 62
     0
100
AcDbMText
 10
57.0
 20
23.2110383557409
 30
0.0
 40
3.5
 41
0.0
 71
     2
 72
     1
  1
\A1;90
  7
SLDTEXTSTYLE0
 73
     1
 44
1.0
  0
POINT
  5
145
330
10D
100
AcDbEntity
  8
Defpoints
 62
     0
100
AcDbPoint
 10
12.0
 20
7.990120053153245
 30
0.0
  0
POINT
  5
146
330
10D
100
AcDbEntity
  8
Defpoints
 62
     0
100
AcDbPoint
 10
102.0
 20
8.000000000000007
 30
0.0
  0
POINT
  5
147
330
10D
100
AcDbEntity
  8
Defpoints
 62
     0
100
AcDbPoint
 10
102.0
 20
18.8360383557409
 30
0.0
  0
ENDBLK
  5
10F
330
10D
100
AcDbEntity
  8
0
100
AcDbBlockEnd
  0
BLOCK
  5
117
330
116
100
AcDbEntity
  8
0
100
AcDbBlockBegin
  2
SW_DOWELSYMBOL_0
 70
     0
 10
0.0
 20
0.0
 30
0.0
  3
SW_DOWELSYMBOL_0
  1

  0
CIRCLE
  5
119
330
116
100
AcDbEntity
  8
해칭선
 62
     0
100
AcDbCircle
 10
0.0
 20
0.0
 30
0.0
 40
3.000000000000003
  0
HATCH
  5
11A
330
116
100
AcDbEntity
  8
0
  6
Continuous
 62
     0
370
    18
100
AcDbHatch
 10
0.0
 20
0.0
 30
0.0
210
0.0
220
0.0
230
1.0
  2
SOLID
 70
     1
 71
     0
 91
        1
 92
        0
 93
        3
 72
     2
 10
0.0
 20
0.0
 40
3.000000000000003
 50
0.0
 51
90.0
 73
     1
 72
     1
 10
0.0
 20
3.000000000000003
 11
0.0
 21
0.0
 72
     1
 10
0.0
 20
0.0
 11
3.000000000000003
 21
0.0
 97
        0
 75
     0
 76
     1
 98
        1
 10
0.0
 20
0.0
  0
HATCH
  5
11B
330
116
100
AcDbEntity
  8
0
  6
Continuous
 62
     0
370
    18
100
AcDbHatch
 10
0.0
 20
0.0
 30
0.0
210
0.0
220
0.0
230
1.0
  2
SOLID
 70
     1
 71
     0
 91
        1
 92
        0
 93
        3
 72
     2
 10
0.0
 20
0.0
 40
3.000000000000003
 50
180.0
 51
270.0000000000008
 73
     1
 72
     1
 10
0.0
 20
-3.000000000000003
 11
0.0
 21
0.0
 72
     1
 10
0.0
 20
0.0
 11
-3.000000000000003
 21
0.0
 97
        0
 75
     0
 76
     1
 98
        1
 10
0.0
 20
0.0
  0
ENDBLK
  5
118
330
116
100
AcDbEntity
  8
0
100
AcDbBlockEnd
  0
ENDSEC
  0
SECTION
  2
ENTITIES
  0
LINE
  5
99
330
1F
100
AcDbEntity
  8
0
  6
Continuous
 62
     4
370
    25
100
AcDbLine
 10
12.0
 20
7.999999999999996
 30
0.0
 11
-47.5
 21
7.999999999999993
 31
0.0
  0
LINE
  5
9A
330
1F
100
AcDbEntity
  8
0
  6
Continuous
 62
     4
370
    25
100
AcDbLine
 10
-47.5
 20
-8.000000000000007
 30
0.0
 11
12.0
 21
-8.000000000000004
 31
0.0
  0
LINE
  5
9B
330
1F
100
AcDbEntity
  8
0
  6
Continuous
 62
     4
370
    25
100
AcDbLine
 10
-47.5
 20
7.999999999999989
 30
0.0
 11
-48.0
 21
7.499999999999989
 31
0.0
  0
LINE
  5
9C
330
1F
100
AcDbEntity
  8
0
  6
Continuous
 62
     4
370
    25
100
AcDbLine
 10
-48.0
 20
-7.500000000000005
 30
0.0
 11
-47.5
 21
-8.000000000000004
 31
0.0
  0
LINE
  5
9D
330
1F
100
AcDbEntity
  8
0
  6
Continuous
 62
     1
370
    25
100
AcDbLine
 10
77.1392850436102
 20
-8.00000000000001
 30
0.0
 11
83.32942903606697
 21
-8.00000000000001
 31
0.0
  0
LINE
  5
9E
330
1F
100
AcDbEntity
  8
0
  6
Continuous
 62
     1
370
    25
100
AcDbLine
 10
39.79744698264711
 20
8.000000000000007
 30
0.0
 11
33.6088966589009
 21
8.000000000000007
 31
0.0
  0
LINE
  5
9F
330
1F
100
AcDbEntity
  8
0
  6
Continuous
 62
     1
370
    25
100
AcDbLine
 10
98.90648567293248
 20
-8.00000000000001
 30
0.0
 11
102.0
 21
-8.00000000000001
 31
0.0
  0
LINE
  5
A0
330
1F
100
AcDbEntity
  8
0
  6
Continuous
 62
     1
370
    25
100
AcDbLine
 10
12.0
 20
-8.00000000000001
 30
0.0
 11
18.0313420222925
 21
-8.00000000000001
 31
0.0
  0
LINE
  5
A1
330
1F
100
AcDbEntity
  8
0
  6
Continuous
 62
     1
370
    25
100
AcDbLine
 10
61.5634553255766
 20
8.000000000000007
 30
0.0
 11
55.37431961609318
 21
8.000000000000007
 31
0.0
  0
LINE
  5
A2
330
1F
100
AcDbEntity
  8
0
  6
Continuous
 62
     1
370
    25
100
AcDbLine
 10
33.60889665890102
 20
-8.00000000000001
 30
0.0
 11
39.79744698264709
 21
-8.00000000000001
 31
0.0
  0
LINE
  5
A3
330
1F
100
AcDbEntity
  8
0
  6
Continuous
 62
     1
370
    25
100
AcDbLine
 10
83.32942903606697
 20
8.000000000000007
 30
0.0
 11
77.13928504361029
 21
8.000000000000007
 31
0.0
  0
SPLINE
  5
A4
330
1F
100
AcDbEntity
  8
0
  6
Continuous
 62
     1
370
    25
100
AcDbSpline
210
0.0
220
0.0
230
1.0
 70
     8
 71
     3
 72
     9
 73
     5
 74
     0
 42
0.000000001
 43
0.00000001
 40
0.0
 40
0.0
 40
0.0
 40
0.0
 40
0.4413700222289062
 40
1.0
 40
1.0
 40
1.0
 40
1.0
 10
36.83424601592017
 20
1.693542952345548
 30
0.0
 10
36.99375932302169
 20
1.606169106317049
 30
0.0
 10
37.35516426460784
 20
1.408208570648441
 30
0.0
 10
37.64756948276969
 20
1.238021273440857
 30
0.0
 10
37.8109158032916
 20
1.142949547384862
 30
0.0
  0
SPLINE
  5
A5
330
1F
100
AcDbEntity
  8
0
  6
Continuous
 62
     1
370
    25
100
AcDbSpline
210
0.0
220
0.0
230
1.0
 70
     8
 71
     3
 72
    12
 73
     8
 74
     0
 42
0.000000001
 43
0.00000001
 40
0.0
 40
0.0
 40
0.0
 40
0.0
 40
0.0111810703994125
 40
0.1314548557480636
 40
0.2661665596276502
 40
0.5909087158886953
 40
1.0
 40
1.0
 40
1.0
 40
1.0
 10
58.70793185074163
 20
-1.90274091163532
 30
0.0
 10
58.70118805504062
 20
-1.899564328200266
 30
0.0
 10
58.62190184545585
 20
-1.862217517715225
 30
0.0
 10
58.46821363322151
 20
-1.783354869498057
 30
0.0
 10
58.16339462622611
 20
-1.619156252521782
 30
0.0
 10
57.77373417331096
 20
-1.386404450080046
 30
0.0
 10
57.50881002497077
 20
-1.230090263322272
 30
0.0
 10
57.36112234262477
 20
-1.142949547367565
 30
0.0
  0
LINE
  5
A6
330
1F
100
AcDbEntity
  8
0
  6
Continuous
 62
     4
370
    25
100
AcDbLine
 10
13.91036248747726
 20
-1.188163812557856
 30
0.0
 11
13.82993760100364
 21
-1.142949547367577
 31
0.0
  0
SPLINE
  5
A7
330
1F
100
AcDbEntity
  8
0
  6
Continuous
 62
     1
370
    25
100
AcDbSpline
210
0.0
220
0.0
230
1.0
 70
     8
 71
     3
 72
     9
 73
     5
 74
     0
 42
0.000000001
 43
0.00000001
 40
0.0
 40
0.0
 40
0.0
 40
0.0
 40
0.0206305952550304
 40
1.0
 40
1.0
 40
1.0
 40
1.0
 10
14.39478718137841
 20
-1.460328916840285
 30
0.0
 10
14.39144184675873
 20
-1.458507065520083
 30
0.0
 10
14.22928779456923
 20
-1.370198837004113
 30
0.0
 10
14.06816309175861
 20
-1.278232666359119
 30
0.0
 10
13.91036248747726
 20
-1.188163812557856
 30
0.0
  0
LINE
  5
A8
330
1F
100
AcDbEntity
  8
0
  6
Continuous
 62
     1
370
    25
100
AcDbLine
 10
15.07836317321962
 20
-1.850647309853002
 30
0.0
 11
14.93763051675754
 21
-1.781165077917287
 31
0.0
  0
LINE
  5
A9
330
1F
100
AcDbEntity
  8
0
  6
Continuous
 62
     1
370
    25
100
AcDbLine
 10
100.9302875722078
 20
-1.164301891524353
 30
0.0
 11
100.8923070842461
 21
-1.142949547367571
 31
0.0
  0
LINE
  5
AA
330
1F
100
AcDbEntity
  8
0
  6
Continuous
 62
     1
370
    25
100
AcDbLine
 10
81.10760123917856
 20
1.27057055249383
 30
0.0
 11
81.34210054491298
 21
1.142949547384843
 31
0.0
  0
LINE
  5
AB
330
1F
100
AcDbEntity
  8
0
  6
Continuous
 62
     1
370
    25
100
AcDbLine
 10
55.37431961609315
 20
-8.00000000000001
 30
0.0
 11
61.56345532557656
 21
-8.00000000000001
 31
0.0
  0
LINE
  5
AC
330
1F
100
AcDbEntity
  8
0
  6
Continuous
 62
     1
370
    25
100
AcDbLine
 10
18.03134202229242
 20
8.000000000000007
 30
0.0
 11
11.99999999999999
 21
8.000000000000007
 31
0.0
  0
LINE
  5
AD
330
1F
100
AcDbEntity
  8
0
  6
Continuous
 62
     1
370
    25
100
AcDbLine
 10
102.0
 20
8.000000000000007
 30
0.0
 11
98.90648567293248
 21
8.000000000000007
 31
0.0
  0
SPLINE
  5
AE
330
1F
100
AcDbEntity
  8
0
  6
Continuous
 62
     4
370
    25
100
AcDbSpline
210
0.0
220
0.0
230
1.0
 70
     8
 71
     3
 72
    14
 73
    10
 74
     0
 42
0.000000001
 43
0.00000001
 40
0.0
 40
0.0
 40
0.0
 40
0.0
 40
0.2500000000000003
 40
0.2500000000000003
 40
0.5000000000000002
 40
0.5000000000000002
 40
0.7500000000000001
 40
0.7500000000000001
 40
1.0
 40
1.0
 40
1.0
 40
1.0
 10
11.30670204704407
 20
-7.075852960943553
 30
0.0
 10
11.18038133486069
 20
-7.041861792089176
 30
0.0
 10
11.06686974540135
 20
-6.999816820157223
 30
0.0
 10
10.86471338838099
 20
-6.897413633557434
 30
0.0
 10
10.777632235589
 20
-6.83728946784561
 30
0.0
 10
10.63881643573499
 20
-6.702980081343414
 30
0.0
 10
10.58569546838784
 20
-6.627157082675119
 30
0.0
 10
10.51676726066449
 20
-6.466537627703538
 30
0.0
 10
10.49987773461506
 20
-6.380261579275359
 30
0.0
 10
10.49987773461506
 20
-6.290257868909359
 30
0.0
  0
SPLINE
  5
AF
330
1F
100
AcDbEntity
  8
0
  6
Continuous
 62
     4
370
    25
100
AcDbSpline
210
0.0
220
0.0
230
1.0
 70
     8
 71
     3
 72
    18
 73
    14
 74
     0
 42
0.000000001
 43
0.00000001
 40
0.0
 40
0.0
 40
0.0
 40
0.0
 40
0.2499999999999997
 40
0.2499999999999997
 40
0.3749999999999997
 40
0.3749999999999997
 40
0.4999999999999997
 40
0.4999999999999997
 40
0.6249999999999998
 40
0.6249999999999998
 40
0.7499999999999999
 40
0.7499999999999999
 40
1.0
 40
1.0
 40
1.0
 40
1.0
 10
10.49987773461506
 20
-2.029138501956877
 30
0.0
 10
10.49987773461506
 20
-1.828869520567358
 30
0.0
 10
10.53346480427545
 20
-1.63032725006847
 30
0.0
 10
10.63947362319133
 20
-1.344278943562263
 30
0.0
 10
10.6832559748385
 20
-1.253183835805843
 30
0.0
 10
10.78774630399937
 20
-1.079668114522375
 30
0.0
 10
10.84926361734734
 20
-0.9964002852220346
 30
0.0
 10
10.98649716702112
 20
-0.8441532314055005
 30
0.0
 10
11.06170459653329
 20
-0.7753354144596891
 30
0.0
 10
11.22521555881873
 20
-0.652332111137755
 30
0.0
 10
11.31435451499402
 20
-0.5979243278010894
 30
0.0
 10
11.59085194023334
 20
-0.4640669349421835
 30
0.0
 10
11.79307166199728
 20
-0.410477332412918
 30
0.0
 10
12.0
 20
-0.3974689122414125
 30
0.0
  0
SPLINE
  5
B0
330
1F
100
AcDbEntity
  8
0
  6
Continuous
 62
     4
370
    25
100
AcDbSpline
210
0.0
220
0.0
230
1.0
 70
    24
 71
     3
 72
    18
 73
    14
 74
     0
 42
0.000000001
 43
0.00000001
 40
0.0
 40
0.0
 40
0.0
 40
0.0
 40
0.2499999999999999
 40
0.2499999999999999
 40
0.3749999999999998
 40
0.3749999999999998
 40
0.4999999999999998
 40
0.4999999999999998
 40
0.6249999999999998
 40
0.6249999999999998
 40
0.7499999999999997
 40
0.7499999999999997
 40
1.0
 40
1.0
 40
1.0
 40
1.0
 10
12.0
 20
-0.3974689122414092
 30
0.0
 10
12.0
 20
-0.424614611797443
 30
0.0
 10
12.0
 20
-0.501103405860038
 30
0.0
 10
12.0
 20
-0.6916848613316549
 30
0.0
 10
12.0
 20
-0.7686003575133158
 30
0.0
 10
12.0
 20
-0.9450999258152848
 30
0.0
 10
12.0
 20
-1.044863571719521
 30
0.0
 10
12.0
 20
-1.267569027594254
 30
0.0
 10
12.0
 20
-1.390506455273278
 30
0.0
 10
12.0
 20
-1.660823976615456
 30
0.0
 10
12.0
 20
-1.808624979279298
 30
0.0
 10
12.0
 20
-2.275645143445512
 30
0.0
 10
12.0
 20
-2.622240057013177
 30
0.0
 10
12.0
 20
-3.005632125419249
 30
0.0
  0
SPLINE
  5
B1
330
1F
100
AcDbEntity
  8
0
  6
Continuous
 62
     4
370
    25
100
AcDbSpline
210
0.0
220
0.0
230
1.0
 70
     8
 71
     3
 72
    18
 73
    14
 74
     0
 42
0.000000001
 43
0.00000001
 40
0.0
 40
0.0
 40
0.0
 40
0.0
 40
0.25
 40
0.25
 40
0.375
 40
0.375
 40
0.4999999999999999
 40
0.4999999999999999
 40
0.6249999999999999
 40
0.6249999999999999
 40
0.7499999999999999
 40
0.7499999999999999
 40
1.0
 40
1.0
 40
1.0
 40
1.0
 10
10.49987773461506
 20
7.738384646673765
 30
0.0
 10
10.49987773461506
 20
7.790898642738799
 30
0.0
 10
10.53346480427545
 20
7.834514419023781
 30
0.0
 10
10.63947362319133
 20
7.88684410286821
 30
0.0
 10
10.6832559748385
 20
7.901722640499697
 30
0.0
 10
10.78774630399936
 20
7.927295073112537
 30
0.0
 10
10.84926361734734
 20
7.938076528576122
 30
0.0
 10
10.98649716702112
 20
7.955707248499619
 30
0.0
 10
11.06170459653329
 20
7.962579218147775
 30
0.0
 10
11.22521555881873
 20
7.973598662271181
 30
0.0
 10
11.31435451499402
 20
7.977749490566801
 30
0.0
 10
11.59085194023334
 20
7.987029712224331
 30
0.0
 10
11.79307166199728
 20
7.989472948656553
 30
0.0
 10
12.0
 20
7.990120053153245
 30
0.0
  0
LINE
  5
B2
330
1F
100
AcDbEntity
  8
0
  6
Continuous
 62
     4
370
    25
100
AcDbLine
 10
10.49987773461506
 20
7.738384646673767
 30
0.0
 11
10.49987773461506
 21
4.942940010016722
 31
0.0
  0
SPLINE
  5
B3
330
1F
100
AcDbEntity
  8
0
  6
Continuous
 62
     4
370
    25
100
AcDbSpline
210
0.0
220
0.0
230
1.0
 70
     8
 71
     3
 72
    14
 73
    10
 74
     0
 42
0.000000001
 43
0.00000001
 40
0.0
 40
0.0
 40
0.0
 40
0.0
 40
0.2500000000000003
 40
0.2500000000000003
 40
0.5000000000000002
 40
0.5000000000000002
 40
0.7500000000000001
 40
0.7500000000000001
 40
1.0
 40
1.0
 40
1.0
 40
1.0
 10
11.30670204704407
 20
3.732600283324769
 30
0.0
 10
11.18038133486069
 20
3.797037001571473
 30
0.0
 10
11.06686974540135
 20
3.874692231293877
 30
0.0
 10
10.86471338838099
 20
4.054178162170613
 30
0.0
 10
10.777632235589
 20
4.155401487164239
 30
0.0
 10
10.63881643573499
 20
4.368746595506854
 30
0.0
 10
10.58569546838784
 20
4.483337599383697
 30
0.0
 10
10.51676726066449
 20
4.712050311487863
 30
0.0
 10
10.49987773461506
 20
4.828403611392927
 30
0.0
 10
10.49987773461506
 20
4.942940010016722
 30
0.0
  0
SPLINE
  5
B4
330
1F
100
AcDbEntity
  8
0
  6
Continuous
 62
     4
370
    25
100
AcDbSpline
210
0.0
220
0.0
230
1.0
 70
     8
 71
     3
 72
     8
 73
     4
 74
     0
 42
0.000000001
 43
0.00000001
 40
0.0
 40
0.0
 40
0.0
 40
0.0
 40
1.0
 40
1.0
 40
1.0
 40
1.0
 10
12.0
 20
3.373986091304404
 30
0.0
 10
11.76947142452943
 20
3.494882951507249
 30
0.0
 10
11.53822803274461
 20
3.614497919511946
 30
0.0
 10
11.30670204704407
 20
3.732600283324768
 30
0.0
  0
LINE
  5
B5
330
1F
100
AcDbEntity
  8
0
  6
Continuous
 62
     4
370
    25
100
AcDbLine
 10
10.49987773461506
 20
-2.029138501956877
 30
0.0
 11
10.49987773461506
 21
-6.290257868909361
 31
0.0
  0
SPLINE
  5
B6
330
1F
100
AcDbEntity
  8
0
  6
Continuous
 62
     4
370
    25
100
AcDbSpline
210
0.0
220
0.0
230
1.0
 70
     8
 71
     3
 72
     8
 73
     4
 74
     0
 42
0.000000001
 43
0.00000001
 40
0.0
 40
0.0
 40
0.0
 40
0.0
 40
1.0
 40
1.0
 40
1.0
 40
1.0
 10
12.0
 20
-7.253703733655946
 30
0.0
 10
11.76947142452943
 20
-7.197469795824412
 30
0.0
 10
11.53822803274461
 20
-7.138153424090866
 30
0.0
 10
11.30670204704407
 20
-7.075852960943553
 30
0.0
  0
LINE
  5
B7
330
1F
100
AcDbEntity
  8
0
  6
Continuous
 62
     4
370
    25
100
AcDbLine
 10
-47.5
 20
7.999999999999989
 30
0.0
 11
-47.5
 21
-8.000000000000004
 31
0.0
  0
LINE
  5
B8
330
1F
100
AcDbEntity
  8
0
  6
Continuous
 62
     4
370
    25
100
AcDbLine
 10
12.0
 20
-7.253703733655946
 30
0.0
 11
12.0
 21
-8.000000000000004
 31
0.0
  0
LINE
  5
B9
330
1F
100
AcDbEntity
  8
0
  6
Continuous
 62
     4
370
    25
100
AcDbLine
 10
12.0
 20
3.373986091304404
 30
0.0
 11
12.0
 21
-0.3974689122414091
 31
0.0
  0
LINE
  5
BA
330
1F
100
AcDbEntity
  8
0
  6
Continuous
 62
     4
370
    25
100
AcDbLine
 10
12.0
 20
7.999999999999996
 30
0.0
 11
12.0
 21
7.990120053153245
 31
0.0
  0
LINE
  5
BB
330
1F
100
AcDbEntity
  8
0
  6
Continuous
 62
     4
370
    25
100
AcDbLine
 10
-48.0
 20
7.499999999999991
 30
0.0
 11
-48.0
 21
-7.500000000000005
 31
0.0
  0
SPLINE
  5
BC
330
1F
100
AcDbEntity
  8
0
  6
Continuous
 62
     4
370
    25
100
AcDbSpline
210
0.0
220
0.0
230
1.0
 70
    24
 71
     3
 72
     9
 73
     5
 74
     0
 42
0.000000001
 43
0.00000001
 40
0.0
 40
0.0
 40
0.0
 40
0.0
 40
0.1765463028821233
 40
1.0
 40
1.0
 40
1.0
 40
1.0
 10
12.0
 20
3.796031893887342
 30
0.0
 10
12.0
 20
3.76559299116294
 30
0.0
 10
11.99999999999999
 20
3.593179849525397
 30
0.0
 10
11.99999999999999
 20
3.472971829673762
 30
0.0
 10
11.99999999999999
 20
3.373986091303715
 30
0.0
  0
SPLINE
  5
BD
330
1F
100
AcDbEntity
  8
0
  6
Continuous
 62
     4
370
    25
100
AcDbSpline
210
0.0
220
0.0
230
1.0
 70
    24
 71
     3
 72
    18
 73
    14
 74
     0
 42
0.000000001
 43
0.00000001
 40
0.0
 40
0.0
 40
0.0
 40
0.0
 40
0.2499999999999997
 40
0.2499999999999997
 40
0.3749999999999997
 40
0.3749999999999997
 40
0.4999999999999998
 40
0.4999999999999998
 40
0.6249999999999998
 40
0.6249999999999998
 40
0.7499999999999999
 40
0.7499999999999999
 40
1.0
 40
1.0
 40
1.0
 40
1.0
 10
12.0
 20
7.990120053153245
 30
0.0
 10
12.0
 20
7.557088180041198
 30
0.0
 10
12.0
 20
7.134623710088313
 30
0.0
 10
12.0
 20
6.517170801714876
 30
0.0
 10
12.0
 20
6.313044190007531
 30
0.0
 10
12.0
 20
5.920764906821596
 30
0.0
 10
12.0
 20
5.731550517249659
 30
0.0
 10
12.0
 20
5.367062727756661
 30
0.0
 10
12.0
 20
5.191786692015095
 30
0.0
 10
12.0
 20
4.855936171204847
 30
0.0
 10
12.0
 20
4.695352865424063
 30
0.0
 10
12.0
 20
4.251698218247519
 30
0.0
 10
12.0
 20
4.000565645367269
 30
0.0
 10
12.0
 20
3.796031893887347
 30
0.0
  0
SPLINE
  5
BE
330
1F
100
AcDbEntity
  8
0
  6
Continuous
 62
     4
370
    25
100
AcDbSpline
210
0.0
220
0.0
230
1.0
 70
    24
 71
     3
 72
    12
 73
     8
 74
     0
 42
0.000000001
 43
0.00000001
 40
0.0
 40
0.0
 40
0.0
 40
0.0
 40
0.5
 40
0.5
 40
0.75
 40
0.75
 40
1.0
 40
1.0
 40
1.0
 40
1.0
 10
12.0
 20
-3.005632125419267
 30
0.0
 10
12.0
 20
-3.595568951757999
 30
0.0
 10
12.0
 20
-4.285275168035781
 30
0.0
 10
12.0
 20
-5.386414715773419
 30
0.0
 10
12.0
 20
-5.763589843121061
 30
0.0
 10
12.0
 20
-6.51604865041252
 30
0.0
 10
12.0
 20
-6.891177858771814
 30
0.0
 10
12.0
 20
-7.253703733655946
 30
0.0
  0
SPLINE
  5
BF
330
1F
100
AcDbEntity
  8
0
  6
Continuous
 62
     1
370
    25
100
AcDbSpline
210
0.0
220
0.0
230
1.0
 70
     8
 71
     3
 72
    26
 73
    22
 74
     0
 42
0.000000001
 43
0.00000001
 40
0.0
 40
0.0
 40
0.0
 40
0.0
 40
0.0282297585001049
 40
0.0877425097219491
 40
0.1472493285577923
 40
0.2029655854395702
 40
0.2586796653724692
 40
0.314391232768893
 40
0.3700999532502864
 40
0.4258067730833819
 40
0.4815162196190992
 40
0.5372284315289281
 40
0.592943074124332
 40
0.648659811546728
 40
0.7043783069279013
 40
0.7600982225514646
 40
0.8158192200151988
 40
0.8715409603941056
 40
0.927263104404009
 40
0.982985312565527
 40
1.0
 40
1.0
 40
1.0
 40
1.0
 10
25.81931143533805
 20
6.728065288125595
 30
0.0
 10
26.3022741019362
 20
6.885198553596259
 30
0.0
 10
27.8033976935237
 20
7.373593347095827
 30
0.0
 10
30.32256070855957
 20
7.827986171204067
 30
0.0
 10
33.31198752066646
 20
8.06189921715804
 30
0.0
 10
36.23603905502336
 20
7.911932415351961
 30
0.0
 10
39.09523957793284
 20
7.433948511311923
 30
0.0
 10
41.95426053835859
 20
6.6393893989031
 30
0.0
 10
44.81313475051326
 20
5.563461469030599
 30
0.0
 10
47.67193846125628
 20
4.251375996022213
 30
0.0
 10
50.53084446921807
 20
2.758966940089645
 30
0.0
 10
53.38990974668977
 20
1.149461691219424
 30
0.0
 10
56.24912544475466
 20
-0.5088322396098127
 30
0.0
 10
59.10846990753601
 20
-2.145595755867182
 30
0.0
 10
61.96792266043351
 20
-3.691209564011767
 30
0.0
 10
64.82746284991603
 20
-5.080684274624707
 30
0.0
 10
67.68706963211898
 20
-6.252800506546686
 30
0.0
 10
70.54672224089872
 20
-7.166212074976535
 30
0.0
 10
73.40639938940888
 20
-7.750806024510567
 30
0.0
 10
75.60392407513483
 20
-8.018192067696575
 30
0.0
 10
76.84821845630744
 20
-7.97420431879881
 30
0.0
 10
77.13928504361023
 20
-7.963914660540659
 30
0.0
  0
SPLINE
  5
C0
330
1F
100
AcDbEntity
  8
0
  6
Continuous
 62
     1
370
    25
100
AcDbSpline
210
0.0
220
0.0
230
1.0
 70
     8
 71
     3
 72
    26
 73
    22
 74
     0
 42
0.000000001
 43
0.00000001
 40
0.0
 40
0.0
 40
0.0
 40
0.0
 40
0.0108751740445346
 40
0.0665870792639061
 40
0.1223006147509407
 40
0.1780154425445399
 40
0.2337312240593776
 40
0.2894476202491635
 40
0.3451642917703859
 40
0.4008808991463679
 40
0.4565971029314588
 40
0.5123125638751937
 40
0.5680269430862518
 40
0.623739902196037
 40
0.6794511035217176
 40
0.735160210228551
 40
0.7908668864913269
 40
0.8465707976547625
 40
0.9022720823765693
 40
0.9579752675578228
 40
1.0
 40
1.0
 40
1.0
 40
1.0
 10
91.12200641730101
 20
-6.746009791880057
 30
0.0
 10
90.93595306000965
 20
-6.810128947424131
 30
0.0
 10
89.79677592146076
 20
-7.202721036071543
 30
0.0
 10
87.7044267245544
 20
-7.64335698767411
 30
0.0
 10
84.84493998792463
 20
-8.012982005219078
 30
0.0
 10
81.98537177610766
 20
-8.017997333135483
 30
0.0
 10
79.12574534402705
 20
-7.68936395683577
 30
0.0
 10
76.26608092425855
 20
-7.032666942492074
 30
0.0
 10
73.40639958611848
 20
-6.078010630750093
 30
0.0
 10
70.54672218819655
 20
-4.865307520528045
 30
0.0
 10
67.68706964621926
 20
-3.446183848541615
 30
0.0
 10
64.82746284621629
 20
-1.880820859958174
 30
0.0
 10
61.96792266113259
 20
-0.2356663665988072
 30
0.0
 10
59.10846990843928
 20
1.419487236447057
 30
0.0
 10
56.24912544044277
 20
3.014330347643975
 30
0.0
 10
53.38990976303314
 20
4.481463517008233
 30
0.0
 10
50.53084440816051
 20
5.75762428063012
 30
0.0
 10
47.67193868912769
 20
6.79246845331898
 30
0.0
 10
44.81313390011173
 20
7.527982458158396
 30
0.0
 10
42.18831877467266
 20
7.948251078826191
 30
0.0
 10
40.51640112996562
 20
7.962406114688486
 30
0.0
 10
39.7974469826471
 20
7.968493030375306
 30
0.0
  0
SPLINE
  5
C1
330
1F
100
AcDbEntity
  8
0
  6
Continuous
 62
     1
370
    25
100
AcDbSpline
210
0.0
220
0.0
230
1.0
 70
     8
 71
     3
 72
    26
 73
    22
 74
     0
 42
0.000000001
 43
0.00000001
 40
0.0
 40
0.0
 40
0.0
 40
0.0
 40
0.0016890308254815
 40
0.057396608657855
 40
0.113106951771579
 40
0.1688197254893438
 40
0.2245345939638322
 40
0.2802512203381295
 40
0.3359692669071767
 40
0.3916883952801056
 40
0.447408266543287
 40
0.5031285414239258
 40
0.5588488804540274
 40
0.614568944134568
 40
0.6700659825722656
 40
0.7255622411788205
 40
0.7810574581765569
 40
0.8365513722114578
 40
0.8920437224590972
 40
0.9475342487301045
 40
1.0
 40
1.0
 40
1.0
 40
1.0
 10
47.58522074604464
 20
6.765007512960295
 30
0.0
 10
47.61411403532649
 20
6.775243660734921
 30
0.0
 10
48.5959651612681
 20
7.123088211065502
 30
0.0
 10
50.53084567353659
 20
7.549679736328343
 30
0.0
 10
53.38990942392735
 20
7.979969710273991
 30
0.0
 10
56.24912553140872
 20
8.039444131774449
 30
0.0
 10
59.10846988370014
 20
7.766431755677107
 30
0.0
 10
61.96792266911903
 20
7.161552179033931
 30
0.0
 10
64.82746283901048
 20
6.253397333774494
 30
0.0
 10
67.68706966705624
 20
5.079711605126372
 30
0.0
 10
70.5467221120534
 20
3.690508544508259
 30
0.0
 10
73.40639986985614
 20
2.14468230245729
 30
0.0
 10
76.26607986545295
 20
0.5078515106556969
 30
0.0
 10
79.12194443096726
 20
-1.148330708934468
 30
0.0
 10
81.97394555200135
 20
-2.753668724590263
 30
0.0
 10
84.8220987707595
 20
-4.241074710112866
 30
0.0
 10
87.67018605220875
 20
-5.549403580435204
 30
0.0
 10
90.51819370805136
 20
-6.626093407251476
 30
0.0
 10
93.36610447057126
 20
-7.416453214408072
 30
0.0
 10
96.16219602375989
 20
-7.913017865406086
 30
0.0
 10
98.00897041761894
 20
-7.965684887748809
 30
0.0
 10
98.90648567293248
 20
-7.991280572940095
 30
0.0
  0
SPLINE
  5
C2
330
1F
100
AcDbEntity
  8
0
  6
Continuous
 62
     1
370
    25
100
AcDbSpline
210
0.0
220
0.0
230
1.0
 70
     8
 71
     3
 72
    22
 73
    18
 74
     0
 42
0.000000001
 43
0.00000001
 40
0.0
 40
0.0
 40
0.0
 40
0.0
 40
0.0707007235818059
 40
0.1414052202249053
 40
0.2121130661883407
 40
0.2828238361203128
 40
0.3535371032608344
 40
0.4242524396458439
 40
0.4949694163125663
 40
0.565687603505916
 40
0.6364065708857202
 40
0.7071258877345535
 40
0.777845123165968
 40
0.8485638463328963
 40
0.9192816266360142
 40
0.9899980339318465
 40
1.0
 40
1.0
 40
1.0
 40
1.0
 10
102.0
 20
-7.801325586840177
 30
0.0
 10
101.0470740291655
 20
-7.647382621893275
 30
0.0
 10
99.14117123302275
 20
-7.339488476578005
 30
0.0
 10
96.28220691785302
 20
-6.477566324721133
 30
0.0
 10
93.42308256746365
 20
-5.364555697320652
 30
0.0
 10
90.56381572455055
 20
-4.017536407724073
 30
0.0
 10
87.70442791305494
 20
-2.501733732452679
 30
0.0
 10
84.84493966936698
 20
-0.879296783243227
 30
0.0
 10
81.98537186179533
 20
0.780332616375465
 30
0.0
 10
79.12574531984251
 20
2.40693857052648
 30
0.0
 10
76.26608093530754
 20
3.931236694043756
 30
0.0
 10
73.40639956610723
 20
5.28934675295128
 30
0.0
 10
70.54672225719204
 20
6.420656466657226
 30
0.0
 10
67.68706939025188
 20
7.288257699083927
 30
0.0
 10
64.82746380106946
 20
7.813911633492438
 30
0.0
 10
62.78626221708296
 20
8.039476939522467
 30
0.0
 10
61.69827044105466
 20
7.98598946444676
 30
0.0
 10
61.56345532557661
 20
7.979361730407
 30
0.0
  0
SPLINE
  5
C3
330
1F
100
AcDbEntity
  8
0
  6
Continuous
 62
     1
370
    25
100
AcDbSpline
210
0.0
220
0.0
230
1.0
 70
     8
 71
     3
 72
    13
 73
     9
 74
     0
 42
0.000000001
 43
0.00000001
 40
0.0
 40
0.0
 40
0.0
 40
0.0
 40
0.1203340393359113
 40
0.3427179983320789
 40
0.5650635973239222
 40
0.7874051721781202
 40
0.9942888414778107
 40
1.0
 40
1.0
 40
1.0
 40
1.0
 10
25.81931143533815
 20
-6.728065288125601
 30
0.0
 10
25.26495720378494
 20
-6.9052716360912
 30
0.0
 10
23.68612569731081
 20
-7.409965114359434
 30
0.0
 10
21.08307548881297
 20
-7.860835106459744
 30
0.0
 10
18.01002017320532
 20
-8.068685378788834
 30
0.0
 10
15.00922952980318
 20
-7.869089960789756
 30
0.0
 10
13.00460149484942
 20
-7.497837322301582
 30
0.0
 10
12.02628163562895
 20
-7.260090574659291
 30
0.0
 10
12.0
 20
-7.253703733653651
 30
0.0
  0
LINE
  5
C4
330
1F
100
AcDbEntity
  8
0
  6
Continuous
 62
     1
370
    25
100
AcDbLine
 10
102.0
 20
-8.000000000000021
 30
0.0
 11
102.0
 21
-7.801325586842104
 31
0.0
  0
SPLINE
  5
C5
330
1F
100
AcDbEntity
  8
0
  6
Continuous
 62
     1
370
    25
100
AcDbSpline
210
0.0
220
0.0
230
1.0
 70
     8
 71
     3
 72
    15
 73
    11
 74
     0
 42
0.000000001
 43
0.00000001
 40
0.0
 40
0.0
 40
0.0
 40
0.0
 40
0.1412699041532159
 40
0.2825619497826421
 40
0.4238844853734977
 40
0.5652264162156939
 40
0.7065765932849635
 40
0.8479238444333194
 40
0.9892570057196406
 40
1.0
 40
1.0
 40
1.0
 40
1.0
 10
11.99999999999923
 20
-0.0902711428988572
 30
0.0
 10
13.01748156625288
 20
-0.6774359918696657
 30
0.0
 10
15.0526041704044
 20
-1.851857717172757
 30
0.0
 10
18.10569271200628
 20
-3.522554663560652
 30
0.0
 10
21.15945238966066
 20
-5.023960991029032
 30
0.0
 10
24.21370594232749
 20
-6.279545214035119
 30
0.0
 10
27.26818706505366
 20
-7.241811074417635
 30
0.0
 10
30.32254537941674
 20
-7.814797047758164
 30
0.0
 10
32.43619816146918
 20
-8.050193689881691
 30
0.0
 10
33.53152066681204
 20
-7.991477422370505
 30
0.0
 10
33.60889665890102
 20
-7.987329576025456
 30
0.0
  0
SPLINE
  5
C6
330
1F
100
AcDbEntity
  8
0
  6
Continuous
 62
     1
370
    25
100
AcDbSpline
210
0.0
220
0.0
230
1.0
 70
     8
 71
     3
 72
    19
 73
    15
 74
     0
 42
0.000000001
 43
0.00000001
 40
0.0
 40
0.0
 40
0.0
 40
0.0
 40
0.0377999607768203
 40
0.1281613079435133
 40
0.2185227591411335
 40
0.308883763805471
 40
0.3988830893244947
 40
0.4888811501944697
 40
0.5788775218915853
 40
0.6688717805790759
 40
0.7588635032790119
 40
0.8488522680433307
 40
0.9388616331998455
 40
1.0
 40
1.0
 40
1.0
 40
1.0
 10
69.35045520773464
 20
6.734191746814613
 30
0.0
 10
69.74920870320543
 20
6.86522726419142
 30
0.0
 10
71.10118813589101
 20
7.309505061018255
 30
0.0
 10
73.40640009177093
 20
7.755531963634757
 30
0.0
 10
76.26607981102906
 20
8.043845654293609
 30
0.0
 10
79.12194442668228
 20
7.973730844564672
 30
0.0
 10
81.97394562297794
 20
7.571518943801061
 30
0.0
 10
84.82209849104419
 20
6.849885586614199
 30
0.0
 10
87.67018710006327
 20
5.840211753527019
 30
0.0
 10
90.5181897964864
 20
4.584672415155636
 30
0.0
 10
93.36611906836714
 20
3.135947603587221
 30
0.0
 10
96.21410322838966
 20
1.555954630780839
 30
0.0
 10
98.7579950800091
 20
0.0833878760233765
 30
0.0
 10
100.3519700310448
 20
-0.8321657278359648
 30
0.0
 10
100.9967235047829
 20
-1.20250176485968
 30
0.0
  0
LINE
  5
C7
330
1F
100
AcDbEntity
  8
0
  6
Continuous
 62
     4
370
    25
100
AcDbLine
 10
12.0
 20
-0.0902711428976885
 30
0.0
 11
12.0
 21
3.373986091303714
 31
0.0
  0
SPLINE
  5
C8
330
1F
100
AcDbEntity
  8
0
  6
Continuous
 62
     1
370
    25
100
AcDbSpline
210
0.0
220
0.0
230
1.0
 70
     8
 71
     3
 72
    14
 73
    10
 74
     0
 42
0.000000001
 43
0.00000001
 40
0.0
 40
0.0
 40
0.0
 40
0.0
 40
0.1531209014942573
 40
0.3062499745392057
 40
0.4593863014130156
 40
0.6125289609051578
 40
0.7656770287553052
 40
0.918829578095391
 40
0.9999999999999999
 40
0.9999999999999999
 40
0.9999999999999999
 40
0.9999999999999999
 10
102.0
 20
1.77181237383719
 30
0.0
 10
101.0470740285983
 20
2.301089946417415
 30
0.0
 10
99.14117123132091
 20
3.359673337352751
 30
0.0
 10
96.28220692466105
 20
4.785136534960817
 30
0.0
 10
93.42308254193182
 20
6.011796832468868
 30
0.0
 10
90.56381581987507
 20
6.986457304986992
 30
0.0
 10
87.70442755727225
 20
7.64822808670861
 30
0.0
 10
85.29295291143943
 20
7.985559879170795
 30
0.0
 10
83.83460621202241
 20
7.964798129840927
 30
0.0
 10
83.32942903606697
 20
7.957606176172742
 30
0.0
  0
SPLINE
  5
C9
330
1F
100
AcDbEntity
  8
0
  6
Continuous
 62
     1
370
    25
100
AcDbSpline
210
0.0
220
0.0
230
1.0
 70
     8
 71
     3
 72
    20
 73
    16
 74
     0
 42
0.000000001
 43
0.00000001
 40
0.0
 40
0.0
 40
0.0
 40
0.0
 40
0.077904226661494
 40
0.1582471918074705
 40
0.23859426276656
 40
0.31894495729892
 40
0.3992987914210324
 40
0.4856561225431347
 40
0.5720225841738336
 40
0.6583901623523881
 40
0.7447508396153378
 40
0.8310966201385757
 40
0.9174408379265605
 40
0.9977821263720696
 40
1.0
 40
1.0
 40
1.0
 40
1.0
 10
47.58522074604463
 20
-6.765007512960299
 30
0.0
 10
46.66120223775336
 20
-7.024973110197074
 30
0.0
 10
44.78423945432717
 20
-7.553042349726603
 30
0.0
 10
41.95426091491114
 20
-7.955899135926082
 30
0.0
 10
39.09523988079496
 20
-8.047605091416141
 30
0.0
 10
36.23603746689331
 20
-7.791875112277772
 30
0.0
 10
33.30562722624281
 20
-7.192600856675888
 30
0.0
 10
30.30342604699905
 20
-6.245107471751382
 30
0.0
 10
27.2299154216461
 20
-4.969391511440749
 30
0.0
 10
24.15631889723857
 20
-3.450226139768447
 30
0.0
 10
21.08307466376957
 20
-1.762089845250082
 30
0.0
 10
18.01002039577279
 20
0.0122491468786874
 30
0.0
 10
15.00922947117161
 20
1.745512270401821
 30
0.0
 10
13.00460149511654
 20
2.846534701036003
 30
0.0
 10
12.02628163563593
 20
3.360187301114698
 30
0.0
 10
12.0
 20
3.373986091303714
 30
0.0
  0
LINE
  5
CA
330
1F
100
AcDbEntity
  8
0
  6
Continuous
 62
     1
370
    25
100
AcDbLine
 10
102.0
 20
-0.5000000000000254
 30
0.0
 11
102.0
 21
1.771812373837343
 31
0.0
  0
LINE
  5
CB
330
1F
100
AcDbEntity
  8
0
  6
Continuous
 62
     1
370
    25
100
AcDbLine
 10
102.0
 20
-0.500000000000029
 30
0.0
 11
100.9967235047829
 21
-1.202501764859686
 31
0.0
  0
SPLINE
  5
CC
330
1F
100
AcDbEntity
  8
0
  6
Continuous
 62
     1
370
    25
100
AcDbSpline
210
0.0
220
0.0
230
1.0
 70
     8
 71
     3
 72
    25
 73
    21
 74
     0
 42
0.000000001
 43
0.00000001
 40
0.0
 40
0.0
 40
0.0
 40
0.0
 40
0.0324129679836886
 40
0.0881355404224051
 40
0.1438570309903727
 40
0.1995771012758066
 40
0.255295413552773
 40
0.3110116309435362
 40
0.366725417580021
 40
0.4224364387642298
 40
0.4781448331715719
 40
0.5338551282809344
 40
0.5895682703857963
 40
0.6452839250981515
 40
0.7010017568209183
 40
0.7608824494606296
 40
0.8207694732499006
 40
0.8806572712601682
 40
0.9405402841340623
 40
0.9999999999999999
 40
0.9999999999999999
 40
0.9999999999999999
 40
0.9999999999999999
 10
69.35045520773456
 20
-6.734191746814611
 30
0.0
 10
68.79598932945763
 20
-6.909141686084299
 30
0.0
 10
67.28831654082833
 20
-7.38485583395747
 30
0.0
 10
64.82746300840125
 20
-7.826186160146101
 30
0.0
 10
61.96792261797943
 20
-8.055728088234627
 30
0.0
 10
59.10846991887218
 20
-7.930364047488853
 30
0.0
 10
56.24912544186229
 20
-7.472003783674015
 30
0.0
 10
53.38990974692377
 20
-6.695669440871184
 30
0.0
 10
50.5308444711742
 20
-5.635506207502804
 30
0.0
 10
47.67193845319856
 20
-4.336196698759782
 30
0.0
 10
44.81313478078719
 20
-2.852895976184303
 30
0.0
 10
41.95426042531357
 20
-1.248581089276794
 30
0.0
 10
39.09523999986897
 20
0.4087366411523254
 30
0.0
 10
36.23603748023029
 20
2.048708771392243
 30
0.0
 10
33.30562704917936
 20
3.640568730678697
 30
0.0
 10
30.30342680166885
 20
5.104200110027469
 30
0.0
 10
27.22991260179429
 20
6.354484461479183
 30
0.0
 10
24.15632942164199
 20
7.285861076574603
 30
0.0
 10
21.09010033289628
 20
7.887572819106312
 30
0.0
 10
19.0485143571119
 20
7.9617172337282
 30
0.0
 10
18.03134202229242
 20
7.998657949539002
 30
0.0
  0
SPLINE
  5
CD
330
1F
100
AcDbEntity
  8
0
  6
Continuous
 62
     4
370
    25
100
AcDbSpline
210
0.0
220
0.0
230
1.0
 70
    24
 71
     3
 72
     9
 73
     5
 74
     0
 42
0.000000001
 43
0.00000001
 40
0.0
 40
0.0
 40
0.0
 40
0.0
 40
0.291104742782936
 40
1.0
 40
1.0
 40
1.0
 40
1.0
 10
11.99999999999999
 20
3.899656507825059
 30
0.0
 10
11.99999999999999
 20
3.83246103622168
 30
0.0
 10
11.99999999999999
 20
3.601631847521439
 30
0.0
 10
11.99999999999999
 20
3.468419612742086
 30
0.0
 10
11.99999999999999
 20
3.373986091303715
 30
0.0
  0
SPLINE
  5
CE
330
1F
100
AcDbEntity
  8
0
  6
Continuous
 62
     1
370
    25
100
AcDbSpline
210
0.0
220
0.0
230
1.0
 70
     8
 71
     3
 72
    22
 73
    18
 74
     0
 42
0.000000001
 43
0.00000001
 40
0.0
 40
0.0
 40
0.0
 40
0.0
 40
0.0703770883782324
 40
0.140765207079147
 40
0.2111685151066419
 40
0.2815814853571411
 40
0.3519985636691202
 40
0.4224141843614034
 40
0.4928227858412677
 40
0.5587463859174315
 40
0.6246674102228004
 40
0.6905854616893778
 40
0.7565001446797076
 40
0.8224125788187095
 40
0.8883281208781434
 40
0.9542469349344269
 40
1.0
 40
1.0
 40
1.0
 40
1.0
 10
11.99999999999923
 20
7.999490678834455
 30
0.0
 10
13.01748155974997
 20
7.955329179820163
 30
0.0
 10
15.05260415089464
 20
7.866999260283519
 30
0.0
 10
18.10569279006662
 20
7.25031916494015
 30
0.0
 10
21.15945209684845
 20
6.310711728080516
 30
0.0
 10
24.21370703567882
 20
5.058318627798505
 30
0.0
 10
27.26818298430185
 20
3.563173365031127
 30
0.0
 10
30.32256060798905
 20
1.895140303012622
 30
0.0
 10
33.31198754590508
 20
0.1728369896335915
 30
0.0
 10
36.23603904777497
 20
-1.518106642292633
 30
0.0
 10
39.09523958240889
 20
-3.107077965497566
 30
0.0
 10
41.95426052770303
 20
-4.564427786548315
 30
0.0
 10
44.81313478865709
 20
-5.827203884072182
 30
0.0
 10
47.67193831933809
 20
-6.846120214595755
 30
0.0
 10
50.53084499878715
 20
-7.562024115410502
 30
0.0
 10
53.09831939169583
 20
-7.958782276955221
 30
0.0
 10
54.71283622225356
 20
-7.962397561081387
 30
0.0
 10
55.37431961609315
 20
-7.96387877847609
 30
0.0
  0
SPLINE
  5
CF
330
1F
100
AcDbEntity
  8
0
  6
Continuous
 62
     1
370
    25
100
AcDbSpline
210
0.0
220
0.0
230
1.0
 70
     8
 71
     3
 72
    11
 73
     7
 74
     0
 42
0.000000001
 43
0.00000001
 40
0.0
 40
0.0
 40
0.0
 40
0.0
 40
0.2272479837738474
 40
0.515628218018478
 40
0.8040744687924234
 40
0.9999999999999999
 40
0.9999999999999999
 40
0.9999999999999999
 40
0.9999999999999999
 10
91.12200641730101
 20
6.746009791880061
 30
0.0
 10
91.8700525596936
 20
6.968940273118907
 30
0.0
 10
93.56737762719058
 20
7.474772029573927
 30
0.0
 10
96.21410271796977
 20
7.896084272796067
 30
0.0
 10
98.75799516117343
 20
8.05131825832272
 30
0.0
 10
100.3519700544202
 20
7.950064541284659
 30
0.0
 10
100.9967235047829
 20
7.909108009472941
 30
0.0
  0
SPLINE
  5
D0
330
1F
100
AcDbEntity
  8
0
  6
Continuous
 62
     1
370
    25
100
AcDbSpline
210
0.0
220
0.0
230
1.0
 70
     8
 71
     3
 72
    20
 73
    16
 74
     0
 42
0.000000001
 43
0.00000001
 40
0.0
 40
0.0
 40
0.0
 40
0.0
 40
0.2500000000000009
 40
0.2500000000000009
 40
0.3750000000000008
 40
0.3750000000000008
 40
0.5000000000000007
 40
0.5000000000000007
 40
0.6250000000000006
 40
0.6250000000000006
 40
0.7500000000000003
 40
0.7500000000000003
 40
0.8750000000000002
 40
0.8750000000000002
 40
1.0
 40
1.0
 40
1.0
 40
1.0
 10
100.9967235047829
 20
7.909108009472945
 30
0.0
 10
100.9996650519819
 20
7.41310083243116
 30
0.0
 10
100.9523937572901
 20
6.927723577167956
 30
0.0
 10
100.781453429105
 20
6.220834489490263
 30
0.0
 10
100.7064011649774
 20
5.986906706860477
 30
0.0
 10
100.522870889773
 20
5.547875627028896
 30
0.0
 10
100.4142134972576
 20
5.340637516351554
 30
0.0
 10
100.1595837335687
 20
4.953282127139612
 30
0.0
 10
100.0156162591231
 20
4.777003447864928
 30
0.0
 10
99.70285223432518
 20
4.467865028908159
 30
0.0
 10
99.53121629518988
 20
4.332295677425334
 30
0.0
 10
99.16918409057982
 20
4.107026517678914
 30
0.0
 10
98.98095212259639
 20
4.018045592823295
 30
0.0
 10
98.59152745728683
 20
3.882569098898117
 30
0.0
 10
98.38983040537713
 20
3.836445033137183
 30
0.0
 10
98.18880970275947
 20
3.811190297240513
 30
0.0
  0
SPLINE
  5
D1
330
1F
100
AcDbEntity
  8
0
  6
Continuous
 62
     1
370
    25
100
AcDbSpline
210
0.0
220
0.0
230
1.0
 70
     8
 71
     3
 72
     8
 73
     4
 74
     0
 42
0.000000001
 43
0.00000001
 40
0.0
 40
0.0
 40
0.0
 40
0.0
 40
1.0
 40
1.0
 40
1.0
 40
1.0
 10
102.0
 20
1.954277833643308
 30
0.0
 10
100.6637391539341
 20
2.676629013086655
 30
0.0
 10
99.40235313831808
 20
3.281456547503824
 30
0.0
 10
98.18880970275944
 20
3.811190297240504
 30
0.0
  0
LINE
  5
D2
330
1F
100
AcDbEntity
  8
0
  6
Continuous
 62
     1
370
    25
100
AcDbLine
 10
102.0
 20
1.77853947273794
 30
0.0
 11
102.0
 21
1.954277833643307
 31
0.0
  0
SPLINE
  5
D3
330
1F
100
AcDbEntity
  8
0
  6
Continuous
 62
     4
370
    25
100
AcDbSpline
210
0.0
220
0.0
230
1.0
 70
    24
 71
     3
 72
    24
 73
    20
 74
     0
 42
0.000000001
 43
0.00000001
 40
0.0
 40
0.0
 40
0.0
 40
0.0
 40
0.0625
 40
0.0625
 40
0.125
 40
0.125
 40
0.25
 40
0.25
 40
0.375
 40
0.375
 40
0.5
 40
0.5
 40
0.625
 40
0.625
 40
0.75
 40
0.75
 40
0.875
 40
0.875
 40
1.0
 40
1.0
 40
1.0
 40
1.0
 10
12.0
 20
-0.0902711428976828
 30
0.0
 10
12.0
 20
-0.1088015197429591
 30
0.0
 10
12.0
 20
-0.1319317884579542
 30
0.0
 10
12.0
 20
-0.1853361208063447
 30
0.0
 10
12.0
 20
-0.2166536060175382
 30
0.0
 10
12.0
 20
-0.3303626204020382
 30
0.0
 10
12.0
 20
-0.4312029762178005
 30
0.0
 10
12.0
 20
-0.7003493662448647
 30
0.0
 10
12.0
 20
-0.8687971249767871
 30
0.0
 10
12.0
 20
-1.290738873309742
 30
0.0
 10
12.0
 20
-1.544497429649982
 30
0.0
 10
12.0
 20
-2.148703735849489
 30
0.0
 10
12.0
 20
-2.499484290491076
 30
0.0
 10
12.0
 20
-3.294124224061529
 30
0.0
 10
12.0
 20
-3.738169267059485
 30
0.0
 10
12.0
 20
-4.691698023716226
 30
0.0
 10
12.0
 20
-5.200934804928451
 30
0.0
 10
12.0
 20
-6.233091989153991
 30
0.0
 10
12.0
 20
-6.755323332478374
 30
0.0
 10
12.0
 20
-7.253703733653651
 30
0.0
  0
SPLINE
  5
D4
330
1F
100
AcDbEntity
  8
0
  6
Continuous
 62
     1
370
    25
100
AcDbSpline
210
0.0
220
0.0
230
1.0
 70
     8
 71
     3
 72
     8
 73
     4
 74
     0
 42
0.000000001
 43
0.00000001
 40
0.0
 40
0.0
 40
0.0
 40
0.0
 40
1.0
 40
1.0
 40
1.0
 40
1.0
 10
102.0
 20
-5.86933421927575
 30
0.0
 10
100.6637391539341
 20
-5.118291190075192
 30
0.0
 10
99.40235313831813
 20
-4.197643585156669
 30
0.0
 10
98.1888097027595
 20
-3.168624175679537
 30
0.0
  0
LINE
  5
D5
330
1F
100
AcDbEntity
  8
0
  6
Continuous
 62
     1
370
    25
100
AcDbLine
 10
102.0
 20
-7.801325586842104
 30
0.0
 11
102.0
 21
-5.86933421927575
 31
0.0
  0
SPLINE
  5
D6
330
1F
100
AcDbEntity
  8
0
  6
Continuous
 62
     1
370
    25
100
AcDbSpline
210
0.0
220
0.0
230
1.0
 70
    24
 71
     3
 72
    20
 73
    16
 74
     0
 42
0.000000001
 43
0.00000001
 40
0.0
 40
0.0
 40
0.0
 40
0.0
 40
0.2500000000000016
 40
0.2500000000000016
 40
0.3750000000000014
 40
0.3750000000000014
 40
0.5000000000000012
 40
0.5000000000000012
 40
0.625000000000001
 40
0.625000000000001
 40
0.7500000000000007
 40
0.7500000000000007
 40
0.8750000000000004
 40
0.8750000000000004
 40
1.0
 40
1.0
 40
1.0
 40
1.0
 10
100.9967235047829
 20
-1.202501764859681
 30
0.0
 10
100.9996650519819
 20
-1.200442071336916
 30
0.0
 10
100.95239375729
 20
-1.233541788221089
 30
0.0
 10
100.7814534291049
 20
-1.353235494600294
 30
0.0
 10
100.7064011649774
 20
-1.405787655702122
 30
0.0
 10
100.522870889773
 20
-1.534296937889947
 30
0.0
 10
100.4142134972577
 20
-1.610379663211433
 30
0.0
 10
100.1595837335687
 20
-1.788673343198962
 30
0.0
 10
100.0156162591231
 20
-1.889480454062831
 30
0.0
 10
99.70285223432518
 20
-2.108480181907118
 30
0.0
 10
99.5312162951899
 20
-2.228660960317387
 30
0.0
 10
99.16918409057973
 20
-2.482158639060079
 30
0.0
 10
98.98095212259628
 20
-2.613960081974092
 30
0.0
 10
98.59152745728683
 20
-2.886638168188612
 30
0.0
 10
98.38983040537715
 20
-3.027867964370435
 30
0.0
 10
98.18880970275944
 20
-3.168624175679536
 30
0.0
  0
LINE
  5
D7
330
1F
100
AcDbEntity
  8
0
  6
Continuous
 62
     4
370
    25
100
AcDbLine
 10
12.0
 20
7.999490678846609
 30
0.0
 11
12.0
 21
7.999999999999996
 31
0.0
  0
LINE
  5
D8
330
1F
100
AcDbEntity
  8
0
  6
Continuous
 62
     1
370
    25
100
AcDbLine
 10
102.0
 20
7.984359711335671
 30
0.0
 11
102.0
 21
8.000000000000014
 31
0.0
  0
ELLIPSE
  5
D9
330
1F
100
AcDbEntity
  8
0
  6
Continuous
 62
     1
370
    25
100
AcDbEllipse
 10
102.7140740033711
 20
-0.0000000000000031
 30
0.0
 11
11.42518405393689
 21
5.350968460038300E-17
 31
0.0
210
0.0
220
0.0
230
1.0
 40
0.7002075382097124
 41
1.633337088591389
 42
1.721680906384341
  0
LINE
  5
DA
330
1F
100
AcDbEntity
  8
0
  6
Continuous
 62
     1
370
    25
100
AcDbLine
 10
102.0
 20
-0.4999999999999976
 30
0.0
 11
102.0
 21
-5.869334219275753
 31
0.0
  0
LINE
  5
DB
330
1F
100
AcDbEntity
  8
0
  6
Continuous
 62
     1
370
    25
100
AcDbLine
 10
102.0
 20
1.954277833643307
 30
0.0
 11
102.0
 21
7.984359711335671
 31
0.0
  0
LINE
  5
DC
330
1F
100
AcDbEntity
  8
중심선
100
AcDbLine
 10
-51.0
 20
-0.0000000000000083
 30
0.0
 11
109.0
 21
0.0000000000000113
 31
0.0
  0
CIRCLE
  5
DD
330
1F
100
AcDbEntity
  8
해칭선
100
AcDbCircle
 10
0.0000514177984825
 20
-0.0000000000000043
 30
0.0
 40
3.000000000000003
  0
INSERT
  5
DE
330
1F
100
AcDbEntity
  8
0
  6
Continuous
 62
     7
100
AcDbBlockReference
 66
     1
  2
블럭10
 10
12.55990075105822
 20
-52.04717430164393
 30
0.0
  0
ATTRIB
  5
DF
330
DE
100
AcDbEntity
  8
FORMAT
 62
     2
100
AcDbText
 10
-3.55936028837733
 20
-49.97180738881174
 30
0.0
 40
4.233333333333333
  1
SEME7216090E [ 4 FLUTE ]
 41
0.75
  7
SLDTEXTSTYLE0
 11
-3.55936028837733
 21
-52.08847405547841
 31
0.0
100
AcDbAttribute
  2
AUTOATTR0
 70
     0
 74
     1
  0
SEQEND
  5
E0
330
DE
100
AcDbEntity
  8
0
  6
Continuous
 62
     7
  0
HATCH
  5
E1
330
1F
100
AcDbEntity
  8
중심선
100
AcDbHatch
 10
0.0
 20
0.0
 30
0.0
210
0.0
220
0.0
230
1.0
  2
SOLID
 70
     1
 71
     0
 91
        1
 92
        0
 93
        4
 72
     1
 10
18.27481005543907
 20
-35.8
 11
14.82853481160179
 21
-35.8
 72
     1
 10
14.82853481160179
 20
-35.8
 11
12.70030495239777
 21
-38.33632558057259
 72
     1
 10
12.70030495239777
 20
-38.33632558057259
 11
16.14661328134823
 21
-38.3362861512701
 72
     1
 10
16.14661328134823
 20
-38.3362861512701
 11
18.27481005543907
 21
-35.8
 97
        0
 75
     0
 76
     1
 98
        1
 10
0.0
 20
0.0
  0
HATCH
  5
E2
330
1F
100
AcDbEntity
  8
중심선
100
AcDbHatch
 10
0.0
 20
0.0
 30
0.0
210
0.0
220
0.0
230
1.0
  2
SOLID
 70
     1
 71
     0
 91
        1
 92
        0
 93
        4
 72
     1
 10
23.28757404647505
 20
-35.79999999999997
 11
19.84129880263777
 21
-35.8
 72
     1
 10
19.84129880263777
 20
-35.8
 11
15.31016079428035
 21
-41.20000000000002
 72
     1
 10
15.31016079428035
 20
-41.20000000000002
 11
18.75643603811763
 21
-41.20000000000002
 72
     1
 10
18.75643603811763
 20
-41.20000000000002
 11
23.28757404647505
 21
-35.79999999999997
 97
        0
 75
     0
 76
     1
 98
        1
 10
0.0
 20
0.0
  0
HATCH
  5
E3
330
1F
100
AcDbEntity
  8
중심선
100
AcDbHatch
 10
0.0
 20
0.0
 30
0.0
210
0.0
220
0.0
230
1.0
  2
SOLID
 70
     1
 71
     0
 91
        1
 92
        0
 93
        4
 72
     1
 10
28.30033803751095
 20
-35.79999999999997
 11
24.85406279367378
 21
-35.80000000000003
 72
     1
 10
24.85406279367378
 20
-35.80000000000003
 11
17.80562589178455
 21
-44.20000000000002
 72
     1
 10
17.80562589178455
 20
-44.20000000000002
 11
21.25190113562184
 21
-44.20000000000002
 72
     1
 10
21.25190113562184
 20
-44.20000000000002
 11
28.30033803751095
 21
-35.79999999999997
 97
        0
 75
     0
 76
     1
 98
        1
 10
0.0
 20
0.0
  0
HATCH
  5
E4
330
1F
100
AcDbEntity
  8
중심선
100
AcDbHatch
 10
0.0
 20
0.0
 30
0.0
210
0.0
220
0.0
230
1.0
  2
SOLID
 70
     1
 71
     0
 91
        1
 92
        0
 93
        6
 72
     3
 10
33.10022846852309
 20
-40.00000000005127
 11
3.960054785062284
 21
1.540850780301639E-10
 40
0.3939339440162633
 50
17.0953918060842
 51
320.0019657685079
 73
     0
 72
     1
 10
34.78322812422371
 20
-38.58789400463827
 11
37.08852999792475
 21
-36.65356729459035
 72
     3
 10
33.10022846847024
 20
-40.00000000000015
 11
6.600054785286829
 21
-1.249000902703301E-13
 40
0.6363583540795982
 50
39.99873849337411
 51
368.4976242363725
 73
     1
 72
     1
 10
39.52556096037088
 20
-39.03999999993002
 11
31.78029577530619
 21
-39.03999999993002
 72
     1
 10
31.78029577530619
 20
-39.03999999993002
 11
31.78027073086023
 21
-40.95999999992991
 72
     1
 10
31.78027073086023
 20
-40.95999999992991
 11
36.2216505003323
 21
-40.95999999992988
 97
        0
 75
     0
 76
     1
 98
        1
 10
0.0
 20
0.0
  0
DIMENSION
  5
E5
330
1F
100
AcDbEntity
  8
치수문자_일반주서
100
AcDbDimension
  2
_D
 10
116.187322002077
 20
8.000000000000062
 30
0.0
 11
116.187322002077
 21
18.54150000000006
 31
0.0
 70
   160
  1
%%c<>
 71
     2
 42
16.00000000000002
 52
-270.0
  3
SLDDIMSTYLE0
100
AcDbAlignedDimension
 13
102.0
 23
-8.000000000000016
 33
0.0
 14
102.0
 24
8.000000000000009
 34
0.0
 50
90.0000000000002
100
AcDbRotatedDimension
  0
DIMENSION
  5
F3
330
1F
100
AcDbEntity
  8
치수문자_일반주서
100
AcDbDimension
  2
_D_1
 10
102.0
 20
25.38913260158164
 30
0.0
 11
27.0
 21
25.38913260158164
 31
0.0
 70
   160
  1
<>
 71
     2
 42
150.0
  3
SLDDIMSTYLE1
100
AcDbAlignedDimension
 13
-48.0
 23
7.499999999999991
 33
0.0
 14
102.0
 24
8.000000000000007
 34
0.0
 50
-0.0000000000000041
100
AcDbRotatedDimension
  0
DIMENSION
  5
FE
330
1F
100
AcDbEntity
  8
치수문자_일반주서
100
AcDbDimension
  2
_D_2
 10
-61.41854913221299
 20
-8.000000000000068
 30
0.0
 11
-61.41854913221309
 21
18.54149999999995
 31
0.0
 70
   160
  1
%%c<>
 71
     2
 42
16.00000000000001
 52
-270.0
  3
SLDDIMSTYLE2
100
AcDbAlignedDimension
 13
-47.49999999999999
 23
8.000000000000004
 33
0.0
 14
-47.49999999999999
 24
-8.00000000000001
 34
0.0
 50
90.0000000000002
100
AcDbRotatedDimension
  0
DIMENSION
  5
10C
330
1F
100
AcDbEntity
  8
치수문자_일반주서
100
AcDbDimension
  2
_D_3
 10
102.0
 20
18.8360383557409
 30
0.0
 11
57.0
 21
18.8360383557409
 31
0.0
 70
   160
  1
<>
 71
     2
 42
90.0
  3
SLDDIMSTYLE1
100
AcDbAlignedDimension
 13
12.0
 23
7.990120053153245
 33
0.0
 14
102.0
 24
8.000000000000007
 34
0.0
 50
-0.0000000000000045
100
AcDbRotatedDimension
  0
INSERT
  5
11C
330
1F
100
AcDbEntity
  8
해칭선
100
AcDbBlockReference
  2
SW_DOWELSYMBOL_0
 10
0.0000514177984825
 20
-0.0000000000000043
 30
0.0
  0
ENDSEC
  0
SECTION
  2
OBJECTS
  0
DICTIONARY
  5
C
330
0
100
AcDbDictionary
281
     1
  3
ACAD_GROUP
350
D
  3
ACAD_IMAGE_VARS
350
140
  3
ACAD_LAYOUT
350
1A
  3
ACAD_MLINESTYLE
350
17
  3
ACAD_PLOTSETTINGS
350
19
  3
ACAD_PLOTSTYLENAME
350
E
  3
ACAD_SCALELIST
350
47
  3
APPDATA
350
13E
  3
DWGPROPS
350
150
  0
DICTIONARY
  5
D
102
{ACAD_REACTORS
330
C
102
}
330
C
100
AcDbDictionary
281
     1
  0
RASTERVARIABLES
  5
140
102
{ACAD_REACTORS
330
C
102
}
330
C
100
AcDbRasterVariables
 90
        0
 70
     1
 71
     1
 72
     1
  0
DICTIONARY
  5
1A
102
{ACAD_REACTORS
330
C
102
}
330
C
100
AcDbDictionary
281
     1
  3
Layout1
350
1E
  3
Layout2
350
26
  3
Model
350
22
  0
DICTIONARY
  5
17
102
{ACAD_REACTORS
330
C
102
}
330
C
100
AcDbDictionary
281
     1
  3
Standard
350
18
  0
DICTIONARY
  5
19
102
{ACAD_REACTORS
330
C
102
}
330
C
100
AcDbDictionary
281
     1
  0
ACDBDICTIONARYWDFLT
  5
E
102
{ACAD_REACTORS
330
C
102
}
330
C
100
AcDbDictionary
281
     1
  3
Normal
350
F
100
AcDbDictionaryWithDefault
340
F
  0
DICTIONARY
  5
47
102
{ACAD_REACTORS
330
C
102
}
330
C
100
AcDbDictionary
281
     1
  3
A0
350
48
  3
A1
350
49
  3
A2
350
4A
  3
A3
350
4B
  3
A4
350
4C
  3
A5
350
4D
  3
A6
350
4E
  3
A7
350
4F
  3
A8
350
50
  3
A9
350
51
  3
B0
350
52
  3
B1
350
53
  3
B2
350
54
  3
B3
350
55
  3
B4
350
56
  3
B5
350
57
  3
B6
350
58
  3
B7
350
59
  3
B8
350
5A
  3
B9
350
5B
  3
C0
350
5C
  3
C1
350
5D
  3
C2
350
5E
  3
C3
350
5F
  3
C4
350
60
  3
C5
350
61
  3
C6
350
62
  3
C7
350
63
  3
C8
350
64
  3
C9
350
65
  3
D0
350
66
  3
D1
350
67
  3
D2
350
68
  0
DICTIONARY
  5
13E
102
{ACAD_REACTORS
330
C
102
}
330
C
100
AcDbDictionary
281
     1
  0
XRECORD
  5
150
102
{ACAD_REACTORS
330
C
102
}
330
C
100
AcDbXrecord
280
     1
  1
DWGPROPS COOKIE
  2

  3

  4

  6

  7

  8
12014102
  9

300
=
301
=
302
=
303
=
304
=
305
=
306
=
307
=
308
=
309
=
 40
0.0
 41
2458260.209586273
 42
2458268.221930197
  1

 90
        0
  0
LAYOUT
  5
1E
102
{ACAD_REACTORS
330
1A
102
}
330
1A
100
AcDbPlotSettings
  1

  2
none_device
  4

  6

 40
0.0
 41
0.0
 42
0.0
 43
0.0
 44
0.0
 45
0.0
 46
0.0
 47
0.0
 48
0.0
 49
0.0
140
0.0
141
0.0
142
1.0
143
1.0
 70
   688
 72
     1
 73
     0
 74
     5
  7

 75
    16
147
1.0
148
0.0
149
0.0
100
AcDbLayout
  1
Layout1
 70
     1
 71
     1
 10
0.0
 20
0.0
 11
420.0
 21
297.0
 12
0.0
 22
0.0
 32
0.0
 14
1.000000000000000E+20
 24
1.000000000000000E+20
 34
1.000000000000000E+20
 15
-1.000000000000000E+20
 25
-1.000000000000000E+20
 35
-1.000000000000000E+20
146
0.0
 13
0.0
 23
0.0
 33
0.0
 16
1.0
 26
0.0
 36
0.0
 17
0.0
 27
1.0
 37
0.0
 76
     0
330
1B
  0
LAYOUT
  5
26
102
{ACAD_REACTORS
330
1A
102
}
330
1A
100
AcDbPlotSettings
  1

  2
none_device
  4

  6

 40
0.0
 41
0.0
 42
0.0
 43
0.0
 44
0.0
 45
0.0
 46
0.0
 47
0.0
 48
0.0
 49
0.0
140
0.0
141
0.0
142
1.0
143
1.0
 70
   688
 72
     1
 73
     0
 74
     5
  7

 75
    16
147
1.0
148
0.0
149
0.0
100
AcDbLayout
  1
Layout2
 70
     1
 71
     2
 10
0.0
 20
0.0
 11
0.0
 21
0.0
 12
0.0
 22
0.0
 32
0.0
 14
0.0
 24
0.0
 34
0.0
 15
0.0
 25
0.0
 35
0.0
146
0.0
 13
0.0
 23
0.0
 33
0.0
 16
1.0
 26
0.0
 36
0.0
 17
0.0
 27
1.0
 37
0.0
 76
     0
330
23
  0
LAYOUT
  5
22
102
{ACAD_REACTORS
330
1A
102
}
330
1A
100
AcDbPlotSettings
  1

  2
none_device
  4
ANSI_A_(11.00_x_8.50_Inches)
  6

 40
6.35
 41
19.05
 42
6.35000508
 43
19.05000254
 44
279.4
 45
215.9
 46
94.6357803524391
 47
104.4724395649713
 48
0.0
 49
0.0
140
0.0
141
0.0
142
0.0589085814011888
143
1.0
 70
  1696
 72
     0
 73
     0
 74
     0
  7

 75
     0
147
0.0235690232323232
148
0.0
149
0.0
100
AcDbLayout
  1
Model
 70
     1
 71
     0
 10
0.0
 20
0.0
 11
420.0
 21
297.0
 12
0.0
 22
0.0
 32
0.0
 14
-65.7935491322131
 24
-49.97180738881174
 34
0.0
 15
116.7376553354104
 25
29.76413260158164
 35
0.0
146
0.0
 13
0.0
 23
0.0
 33
0.0
 16
1.0
 26
0.0
 36
0.0
 17
0.0
 27
1.0
 37
0.0
 76
     0
330
1F
331
29
  0
MLINESTYLE
  5
18
102
{ACAD_REACTORS
330
17
102
}
330
17
100
AcDbMlineStyle
  2
Standard
 70
     0
  3

 62
   256
 51
90.0
 52
90.0
 71
     2
 49
0.5
 62
   256
  6
BYLAYER
 49
-0.5
 62
   256
  6
BYLAYER
  0
ACDBPLACEHOLDER
  5
F
102
{ACAD_REACTORS
330
E
102
}
330
E
  0
SCALE
  5
48
102
{ACAD_REACTORS
330
47
102
}
330
47
100
AcDbScale
 70
     0
300
1:1
140
1.0
141
1.0
290
     1
  0
SCALE
  5
49
102
{ACAD_REACTORS
330
47
102
}
330
47
100
AcDbScale
 70
     0
300
1:2
140
1.0
141
2.0
290
     0
  0
SCALE
  5
4A
102
{ACAD_REACTORS
330
47
102
}
330
47
100
AcDbScale
 70
     0
300
1:4
140
1.0
141
4.0
290
     0
  0
SCALE
  5
4B
102
{ACAD_REACTORS
330
47
102
}
330
47
100
AcDbScale
 70
     0
300
1:5
140
1.0
141
5.0
290
     0
  0
SCALE
  5
4C
102
{ACAD_REACTORS
330
47
102
}
330
47
100
AcDbScale
 70
     0
300
1:8
140
1.0
141
8.0
290
     0
  0
SCALE
  5
4D
102
{ACAD_REACTORS
330
47
102
}
330
47
100
AcDbScale
 70
     0
300
1:10
140
1.0
141
10.0
290
     0
  0
SCALE
  5
4E
102
{ACAD_REACTORS
330
47
102
}
330
47
100
AcDbScale
 70
     0
300
1:16
140
1.0
141
16.0
290
     0
  0
SCALE
  5
4F
102
{ACAD_REACTORS
330
47
102
}
330
47
100
AcDbScale
 70
     0
300
1:20
140
1.0
141
20.0
290
     0
  0
SCALE
  5
50
102
{ACAD_REACTORS
330
47
102
}
330
47
100
AcDbScale
 70
     0
300
1:30
140
1.0
141
30.0
290
     0
  0
SCALE
  5
51
102
{ACAD_REACTORS
330
47
102
}
330
47
100
AcDbScale
 70
     0
300
1:40
140
1.0
141
40.0
290
     0
  0
SCALE
  5
52
102
{ACAD_REACTORS
330
47
102
}
330
47
100
AcDbScale
 70
     0
300
1:50
140
1.0
141
50.0
290
     0
  0
SCALE
  5
53
102
{ACAD_REACTORS
330
47
102
}
330
47
100
AcDbScale
 70
     0
300
1:100
140
1.0
141
100.0
290
     0
  0
SCALE
  5
54
102
{ACAD_REACTORS
330
47
102
}
330
47
100
AcDbScale
 70
     0
300
2:1
140
2.0
141
1.0
290
     0
  0
SCALE
  5
55
102
{ACAD_REACTORS
330
47
102
}
330
47
100
AcDbScale
 70
     0
300
4:1
140
4.0
141
1.0
290
     0
  0
SCALE
  5
56
102
{ACAD_REACTORS
330
47
102
}
330
47
100
AcDbScale
 70
     0
300
8:1
140
8.0
141
1.0
290
     0
  0
SCALE
  5
57
102
{ACAD_REACTORS
330
47
102
}
330
47
100
AcDbScale
 70
     0
300
10:1
140
10.0
141
1.0
290
     0
  0
SCALE
  5
58
102
{ACAD_REACTORS
330
47
102
}
330
47
100
AcDbScale
 70
     0
300
100:1
140
100.0
141
1.0
290
     0
  0
SCALE
  5
59
102
{ACAD_REACTORS
330
47
102
}
330
47
100
AcDbScale
 70
     0
300
1/128" = 1'-0"
140
0.0078125
141
12.0
290
     0
  0
SCALE
  5
5A
102
{ACAD_REACTORS
330
47
102
}
330
47
100
AcDbScale
 70
     0
300
1/64" = 1'-0"
140
0.015625
141
12.0
290
     0
  0
SCALE
  5
5B
102
{ACAD_REACTORS
330
47
102
}
330
47
100
AcDbScale
 70
     0
300
1/32" = 1'-0"
140
0.03125
141
12.0
290
     0
  0
SCALE
  5
5C
102
{ACAD_REACTORS
330
47
102
}
330
47
100
AcDbScale
 70
     0
300
1/16" = 1'-0"
140
0.0625
141
12.0
290
     0
  0
SCALE
  5
5D
102
{ACAD_REACTORS
330
47
102
}
330
47
100
AcDbScale
 70
     0
300
3/32" = 1'-0"
140
0.09375
141
12.0
290
     0
  0
SCALE
  5
5E
102
{ACAD_REACTORS
330
47
102
}
330
47
100
AcDbScale
 70
     0
300
1/8" = 1'-0"
140
0.125
141
12.0
290
     0
  0
SCALE
  5
5F
102
{ACAD_REACTORS
330
47
102
}
330
47
100
AcDbScale
 70
     0
300
3/16" = 1'-0"
140
0.1875
141
12.0
290
     0
  0
SCALE
  5
60
102
{ACAD_REACTORS
330
47
102
}
330
47
100
AcDbScale
 70
     0
300
1/4" = 1'-0"
140
0.25
141
12.0
290
     0
  0
SCALE
  5
61
102
{ACAD_REACTORS
330
47
102
}
330
47
100
AcDbScale
 70
     0
300
3/8" = 1'-0"
140
0.375
141
12.0
290
     0
  0
SCALE
  5
62
102
{ACAD_REACTORS
330
47
102
}
330
47
100
AcDbScale
 70
     0
300
1/2" = 1'-0"
140
0.5
141
12.0
290
     0
  0
SCALE
  5
63
102
{ACAD_REACTORS
330
47
102
}
330
47
100
AcDbScale
 70
     0
300
3/4" = 1'-0"
140
0.75
141
12.0
290
     0
  0
SCALE
  5
64
102
{ACAD_REACTORS
330
47
102
}
330
47
100
AcDbScale
 70
     0
300
1" = 1'-0"
140
1.0
141
12.0
290
     0
  0
SCALE
  5
65
102
{ACAD_REACTORS
330
47
102
}
330
47
100
AcDbScale
 70
     0
300
1-1/2" = 1'-0"
140
1.5
141
12.0
290
     0
  0
SCALE
  5
66
102
{ACAD_REACTORS
330
47
102
}
330
47
100
AcDbScale
 70
     0
300
3" = 1'-0"
140
3.0
141
12.0
290
     0
  0
SCALE
  5
67
102
{ACAD_REACTORS
330
47
102
}
330
47
100
AcDbScale
 70
     0
300
6" = 1'-0"
140
6.0
141
12.0
290
     0
  0
SCALE
  5
68
102
{ACAD_REACTORS
330
47
102
}
330
47
100
AcDbScale
 70
     0
300
1'-0" = 1'-0"
140
12.0
141
12.0
290
     0
  0
ENDSEC
  0
EOF
