  0
SECTION
  2
HEADER
  9
$ACADVER
  1
AC1015
  9
$ACADMAINTVER
 70
     6
  9
$DWGCODEPAGE
  3
ANSI_949
  9
$INSBASE
 10
0.0
 20
0.0
 30
0.0
  9
$EXTMIN
 10
-83.21528966807873
 20
-49.97180738881174
 30
0.0
  9
$EXTMAX
 10
70.42008500952912
 20
31.76413260158166
 30
0.0
  9
$LIMMIN
 10
0.0
 20
0.0
  9
$LIMMAX
 10
420.0
 20
297.0
  9
$ORTHOMODE
 70
     0
  9
$REGENMODE
 70
     1
  9
$FILLMODE
 70
     1
  9
$QTEXTMODE
 70
     0
  9
$MIRRTEXT
 70
     1
  9
$LTSCALE
 40
1.0
  9
$ATTMODE
 70
     1
  9
$TEXTSIZE
 40
3.5
  9
$TRACEWID
 40
1.0
  9
$TEXTSTYLE
  7
Standard
  9
$CLAYER
  8
0
  9
$CELTYPE
  6
ByLayer
  9
$CECOLOR
 62
   256
  9
$CELTSCALE
 40
1.0
  9
$DISPSILH
 70
     0
  9
$DIMSCALE
 40
1.0
  9
$DIMASZ
 40
3.302
  9
$DIMEXO
 40
1.0
  9
$DIMDLI
 40
3.75
  9
$DIMRND
 40
0.0
  9
$DIMDLE
 40
0.0
  9
$DIMEXE
 40
1.0
  9
$DIMTP
 40
0.0
  9
$DIMTM
 40
0.0
  9
$DIMTXT
 40
3.5
  9
$DIMCEN
 40
2.5
  9
$DIMTSZ
 40
0.0
  9
$DIMTOL
 70
     0
  9
$DIMLIM
 70
     0
  9
$DIMTIH
 70
     1
  9
$DIMTOH
 70
     1
  9
$DIMSE1
 70
     0
  9
$DIMSE2
 70
     0
  9
$DIMTAD
 70
     1
  9
$DIMZIN
 70
     0
  9
$DIMBLK
  1

  9
$DIMASO
 70
     1
  9
$DIMSHO
 70
     1
  9
$DIMPOST
  1

  9
$DIMAPOST
  1

  9
$DIMALT
 70
     0
  9
$DIMALTD
 70
     3
  9
$DIMALTF
 40
0.0393700787401575
  9
$DIMLFAC
 40
1.0
  9
$DIMTOFL
 70
     1
  9
$DIMTVP
 40
0.0
  9
$DIMTIX
 70
     0
  9
$DIMSOXD
 70
     0
  9
$DIMSAH
 70
     0
  9
$DIMBLK1
  1

  9
$DIMBLK2
  1

  9
$DIMSTYLE
  2
ISO-25
  9
$DIMCLRD
 70
     0
  9
$DIMCLRE
 70
     0
  9
$DIMCLRT
 70
     0
  9
$DIMTFAC
 40
1.0
  9
$DIMGAP
 40
1.524
  9
$DIMJUST
 70
     0
  9
$DIMSD1
 70
     0
  9
$DIMSD2
 70
     0
  9
$DIMTOLJ
 70
     0
  9
$DIMTZIN
 70
     0
  9
$DIMALTZ
 70
     0
  9
$DIMALTTZ
 70
     0
  9
$DIMUPT
 70
     0
  9
$DIMDEC
 70
     2
  9
$DIMTDEC
 70
     2
  9
$DIMALTU
 70
     2
  9
$DIMALTTD
 70
     3
  9
$DIMTXSTY
  7
Standard
  9
$DIMAUNIT
 70
     0
  9
$DIMADEC
 70
     2
  9
$DIMALTRND
 40
0.0
  9
$DIMAZIN
 70
     0
  9
$DIMDSEP
 70
    44
  9
$DIMATFIT
 70
     3
  9
$DIMFRAC
 70
     0
  9
$DIMLDRBLK
  1

  9
$DIMLUNIT
 70
     2
  9
$DIMLWD
 70
    -2
  9
$DIMLWE
 70
    -2
  9
$DIMTMOVE
 70
     0
  9
$LUNITS
 70
     2
  9
$LUPREC
 70
     2
  9
$SKETCHINC
 40
1.0
  9
$FILLETRAD
 40
10.0
  9
$AUNITS
 70
     0
  9
$AUPREC
 70
     2
  9
$MENU
  1
.
  9
$ELEVATION
 40
0.0
  9
$PELEVATION
 40
0.0
  9
$THICKNESS
 40
0.0
  9
$LIMCHECK
 70
     0
  9
$CHAMFERA
 40
0.0
  9
$CHAMFERB
 40
0.0
  9
$CHAMFERC
 40
0.0
  9
$CHAMFERD
 40
0.0
  9
$SKPOLY
 70
     0
  9
$TDCREATE
 40
2458260.584964352
  9
$TDUCREATE
 40
2458260.209964352
  9
$TDUPDATE
 40
2459677.589217292
  9
$TDUUPDATE
 40
2459677.214217292
  9
$TDINDWG
 40
0.0013377431
  9
$TDUSRTIMER
 40
0.0003757176
  9
$USRTIMER
 70
     1
  9
$ANGBASE
 50
0.0
  9
$ANGDIR
 70
     0
  9
$PDMODE
 70
     0
  9
$PDSIZE
 40
-1.0
  9
$PLINEWID
 40
0.0
  9
$SPLFRAME
 70
     0
  9
$SPLINETYPE
 70
     6
  9
$SPLINESEGS
 70
     8
  9
$HANDSEED
  5
175
  9
$SURFTAB1
 70
     6
  9
$SURFTAB2
 70
     6
  9
$SURFTYPE
 70
     6
  9
$SURFU
 70
     6
  9
$SURFV
 70
     6
  9
$UCSBASE
  2

  9
$UCSNAME
  2

  9
$UCSORG
 10
0.0
 20
0.0
 30
0.0
  9
$UCSXDIR
 10
1.0
 20
0.0
 30
0.0
  9
$UCSYDIR
 10
0.0
 20
1.0
 30
0.0
  9
$UCSORTHOREF
  2

  9
$UCSORTHOVIEW
 70
     0
  9
$UCSORGTOP
 10
0.0
 20
0.0
 30
0.0
  9
$UCSORGBOTTOM
 10
0.0
 20
0.0
 30
0.0
  9
$UCSORGLEFT
 10
0.0
 20
0.0
 30
0.0
  9
$UCSORGRIGHT
 10
0.0
 20
0.0
 30
0.0
  9
$UCSORGFRONT
 10
0.0
 20
0.0
 30
0.0
  9
$UCSORGBACK
 10
0.0
 20
0.0
 30
0.0
  9
$PUCSBASE
  2

  9
$PUCSNAME
  2

  9
$PUCSORG
 10
0.0
 20
0.0
 30
0.0
  9
$PUCSXDIR
 10
1.0
 20
0.0
 30
0.0
  9
$PUCSYDIR
 10
0.0
 20
1.0
 30
0.0
  9
$PUCSORTHOREF
  2

  9
$PUCSORTHOVIEW
 70
     0
  9
$PUCSORGTOP
 10
0.0
 20
0.0
 30
0.0
  9
$PUCSORGBOTTOM
 10
0.0
 20
0.0
 30
0.0
  9
$PUCSORGLEFT
 10
0.0
 20
0.0
 30
0.0
  9
$PUCSORGRIGHT
 10
0.0
 20
0.0
 30
0.0
  9
$PUCSORGFRONT
 10
0.0
 20
0.0
 30
0.0
  9
$PUCSORGBACK
 10
0.0
 20
0.0
 30
0.0
  9
$USERI1
 70
     0
  9
$USERI2
 70
     0
  9
$USERI3
 70
     0
  9
$USERI4
 70
     0
  9
$USERI5
 70
     0
  9
$USERR1
 40
0.0
  9
$USERR2
 40
0.0
  9
$USERR3
 40
0.0
  9
$USERR4
 40
0.0
  9
$USERR5
 40
0.0
  9
$WORLDVIEW
 70
     1
  9
$SHADEDGE
 70
     3
  9
$SHADEDIF
 70
    70
  9
$TILEMODE
 70
     1
  9
$MAXACTVP
 70
    64
  9
$PINSBASE
 10
0.0
 20
0.0
 30
0.0
  9
$PLIMCHECK
 70
     0
  9
$PEXTMIN
 10
1.000000000000000E+20
 20
1.000000000000000E+20
 30
1.000000000000000E+20
  9
$PEXTMAX
 10
-1.000000000000000E+20
 20
-1.000000000000000E+20
 30
-1.000000000000000E+20
  9
$PLIMMIN
 10
0.0
 20
0.0
  9
$PLIMMAX
 10
0.0
 20
0.0
  9
$UNITMODE
 70
     0
  9
$VISRETAIN
 70
     1
  9
$PLINEGEN
 70
     0
  9
$PSLTSCALE
 70
     1
  9
$TREEDEPTH
 70
  3020
  9
$CMLSTYLE
  2
Standard
  9
$CMLJUST
 70
     0
  9
$CMLSCALE
 40
20.0
  9
$PROXYGRAPHICS
 70
     1
  9
$MEASUREMENT
 70
     1
  9
$CELWEIGHT
370
    -1
  9
$ENDCAPS
280
     0
  9
$JOINSTYLE
280
     0
  9
$LWDISPLAY
290
     1
  9
$INSUNITS
 70
     4
  9
$HYPERLINKBASE
  1

  9
$STYLESHEET
  1

  9
$XEDIT
290
     1
  9
$CEPSNTYPE
380
     0
  9
$PSTYLEMODE
290
     1
  9
$FINGERPRINTGUID
  2
{CD40D18D-1A6E-4D6B-80D2-ECEC5E98BA53}
  9
$VERSIONGUID
  2
{FAEB1C32-E019-11D5-929B-00C0DF256EC4}
  9
$EXTNAMES
290
     1
  9
$PSVPSCALE
 40
0.0
  9
$OLESTARTUP
290
     0
  0
ENDSEC
  0
SECTION
  2
CLASSES
  0
CLASS
  1
ACDBDICTIONARYWDFLT
  2
AcDbDictionaryWithDefault
  3
ObjectDBX Classes
 90
        0
280
     0
281
     0
  0
CLASS
  1
VISUALSTYLE
  2
AcDbVisualStyle
  3
ObjectDBX Classes
 90
     4095
280
     0
281
     0
  0
CLASS
  1
MATERIAL
  2
AcDbMaterial
  3
ObjectDBX Classes
 90
     1153
280
     0
281
     0
  0
CLASS
  1
SCALE
  2
AcDbScale
  3
ObjectDBX Classes
 90
     1153
280
     0
281
     0
  0
CLASS
  1
TABLESTYLE
  2
AcDbTableStyle
  3
ObjectDBX Classes
 90
     4095
280
     0
281
     0
  0
CLASS
  1
MLEADERSTYLE
  2
AcDbMLeaderStyle
  3
ACDB_MLEADERSTYLE_CLASS
 90
     4095
280
     0
281
     0
  0
CLASS
  1
SUN
  2
AcDbSun
  3
SCENEOE
 90
     1153
280
     0
281
     0
  0
CLASS
  1
ACDBPLACEHOLDER
  2
AcDbPlaceHolder
  3
ObjectDBX Classes
 90
        0
280
     0
281
     0
  0
CLASS
  1
LAYOUT
  2
AcDbLayout
  3
ObjectDBX Classes
 90
        0
280
     0
281
     0
  0
CLASS
  1
RASTERVARIABLES
  2
AcDbRasterVariables
  3
ISM
 90
        0
280
     0
281
     0
  0
ENDSEC
  0
SECTION
  2
TABLES
  0
TABLE
  2
VPORT
  5
8
330
0
100
AcDbSymbolTable
 70
     1
  0
VPORT
  5
29
330
8
100
AcDbSymbolTableRecord
100
AcDbViewportTableRecord
  2
*Active
 70
     0
 10
0.0
 20
0.0
 11
1.0
 21
1.0
 12
-8.904611466388587
 22
-7.835597269536253
 13
0.0
 23
0.0
 14
10.0
 24
10.0
 15
10.0
 25
10.0
 16
0.0
 26
0.0
 36
1.0
 17
0.0
 27
0.0
 37
0.0
 40
41.91211662266727
 41
1.531481481481481
 42
50.0
 43
0.0
 44
0.0
 50
0.0
 51
0.0
 71
    16
 72
  2000
 73
     1
 74
     3
 75
     0
 76
     0
 77
     0
 78
     0
281
     0
 65
     1
110
0.0
120
0.0
130
0.0
111
1.0
121
0.0
131
0.0
112
0.0
122
1.0
132
0.0
 79
     0
146
0.0
  0
ENDTAB
  0
TABLE
  2
LTYPE
  5
5
330
0
100
AcDbSymbolTable
 70
     6
  0
LTYPE
  5
14
330
5
100
AcDbSymbolTableRecord
100
AcDbLinetypeTableRecord
  2
ByBlock
 70
     0
  3

 72
    65
 73
     0
 40
0.0
  0
LTYPE
  5
15
330
5
100
AcDbSymbolTableRecord
100
AcDbLinetypeTableRecord
  2
ByLayer
 70
     0
  3

 72
    65
 73
     0
 40
0.0
  0
LTYPE
  5
16
330
5
100
AcDbSymbolTableRecord
100
AcDbLinetypeTableRecord
  2
Continuous
 70
     0
  3
Solid line
 72
    65
 73
     0
 40
0.0
  0
LTYPE
  5
6E
330
5
100
AcDbSymbolTableRecord
100
AcDbLinetypeTableRecord
  2
HIDDEN
 70
     0
  3
Hidden __ __ __ __ __ __ __ __ __ __ __ __ __ __
 72
    65
 73
     2
 40
1.905
 49
1.27
 74
     0
 49
-0.635
 74
     0
  0
LTYPE
  5
6F
330
5
100
AcDbSymbolTableRecord
100
AcDbLinetypeTableRecord
  2
PHANTOM
 70
     0
  3
Phantom ______  __  __  ______  __  __  ______
 72
    65
 73
     6
 40
12.7
 49
6.35
 74
     0
 49
-1.27
 74
     0
 49
1.27
 74
     0
 49
-1.27
 74
     0
 49
1.27
 74
     0
 49
-1.27
 74
     0
  0
LTYPE
  5
70
330
5
100
AcDbSymbolTableRecord
100
AcDbLinetypeTableRecord
  2
CENTER
 70
     0
  3
Center ____ _ ____ _ ____ _ ____ _ ____ _ ____
 72
    65
 73
     4
 40
10.16
 49
6.35
 74
     0
 49
-1.27
 74
     0
 49
1.27
 74
     0
 49
-1.27
 74
     0
  0
LTYPE
  5
71
330
5
100
AcDbSymbolTableRecord
100
AcDbLinetypeTableRecord
  2
CENTERX2
 70
     0
  3
Center (2x) ________  __  ________  __  _____
 72
    65
 73
     4
 40
20.32
 49
12.7
 74
     0
 49
-2.54
 74
     0
 49
2.54
 74
     0
 49
-2.54
 74
     0
  0
LTYPE
  5
72
330
5
100
AcDbSymbolTableRecord
100
AcDbLinetypeTableRecord
  2
DOT2
 70
     0
  3
Dot (.5x) ........................................
 72
    65
 73
     2
 40
0.635
 49
0.0
 74
     0
 49
-0.635
 74
     0
  0
ENDTAB
  0
TABLE
  2
LAYER
  5
2
330
0
100
AcDbSymbolTable
 70
    17
  0
LAYER
  5
10
330
2
100
AcDbSymbolTableRecord
100
AcDbLayerTableRecord
  2
0
 70
     0
 62
     7
  6
Continuous
370
    -3
390
F
  0
LAYER
  5
73
330
2
100
AcDbSymbolTableRecord
100
AcDbLayerTableRecord
  2
FORMAT
 70
     0
 62
     2
  6
Continuous
370
    -3
390
F
  0
LAYER
  5
74
330
2
100
AcDbSymbolTableRecord
100
AcDbLayerTableRecord
  2
외형선
 70
     0
 62
   100
  6
Continuous
370
    35
390
F
  0
LAYER
  5
75
330
2
100
AcDbSymbolTableRecord
100
AcDbLayerTableRecord
  2
숨은선
 70
     0
 62
     2
  6
HIDDEN
370
    25
390
F
  0
LAYER
  5
76
330
2
100
AcDbSymbolTableRecord
100
AcDbLayerTableRecord
  2
중심선
 70
     0
 62
     1
  6
CENTERX2
370
    -3
390
F
  0
LAYER
  5
77
330
2
100
AcDbSymbolTableRecord
100
AcDbLayerTableRecord
  2
파단선
 70
     0
 62
     4
  6
Continuous
370
    -3
390
F
  0
LAYER
  5
78
330
2
100
AcDbSymbolTableRecord
100
AcDbLayerTableRecord
  2
해칭선
 70
     0
 62
   100
  6
Continuous
370
    -3
390
F
  0
LAYER
  5
79
330
2
100
AcDbSymbolTableRecord
100
AcDbLayerTableRecord
  2
가는실선
 70
     0
 62
     4
  6
Continuous
370
    -3
390
F
  0
LAYER
  5
7A
330
2
100
AcDbSymbolTableRecord
100
AcDbLayerTableRecord
  2
치수_보조선
 70
     0
 62
     4
  6
Continuous
370
    -3
390
F
  0
LAYER
  5
7B
330
2
100
AcDbSymbolTableRecord
100
AcDbLayerTableRecord
  2
치수문자_일반주서
 70
     0
 62
     7
  6
Continuous
370
    25
390
F
  0
LAYER
  5
7C
330
2
100
AcDbSymbolTableRecord
100
AcDbLayerTableRecord
  2
개별주서
 70
     0
 62
   100
  6
Continuous
370
    35
390
F
  0
LAYER
  5
7D
330
2
100
AcDbSymbolTableRecord
100
AcDbLayerTableRecord
  2
중간선
 70
     0
 62
     2
  6
Continuous
370
    25
390
F
  0
LAYER
  5
7E
330
2
100
AcDbSymbolTableRecord
100
AcDbLayerTableRecord
  2
윤곽선
 70
     0
 62
     3
  6
Continuous
370
    50
390
F
  0
LAYER
  5
7F
330
2
100
AcDbSymbolTableRecord
100
AcDbLayerTableRecord
  2
중심마크
 70
     0
 62
   100
  6
Continuous
370
    35
390
F
  0
LAYER
  5
80
330
2
100
AcDbSymbolTableRecord
100
AcDbLayerTableRecord
  2
가상선
 70
     0
 62
     4
  6
PHANTOM
370
    -3
390
F
  0
LAYER
  5
81
330
2
100
AcDbSymbolTableRecord
100
AcDbLayerTableRecord
  2
특수지정선
 70
     0
 62
     5
  6
CENTERX2
370
    70
390
F
  0
LAYER
  5
140
330
2
100
AcDbSymbolTableRecord
100
AcDbLayerTableRecord
  2
Defpoints
 70
     0
 62
     7
  6
Continuous
290
     0
370
    -3
390
F
  0
ENDTAB
  0
TABLE
  2
STYLE
  5
3
330
0
100
AcDbSymbolTable
 70
     2
  0
STYLE
  5
11
330
3
100
AcDbSymbolTableRecord
100
AcDbTextStyleTableRecord
  2
Standard
 70
     0
 40
0.0
 41
1.0
 50
0.0
 71
     0
 42
3.5
  3
txt
  4

  0
STYLE
  5
97
330
3
100
AcDbSymbolTableRecord
100
AcDbTextStyleTableRecord
  2
SLDTEXTSTYLE0
 70
     0
 40
0.0
 41
0.75
 50
0.0
 71
     0
 42
3.5
  3
TXT
  4

  0
ENDTAB
  0
TABLE
  2
VIEW
  5
6
330
0
100
AcDbSymbolTable
 70
     0
  0
ENDTAB
  0
TABLE
  2
UCS
  5
7
330
0
100
AcDbSymbolTable
 70
     0
  0
ENDTAB
  0
TABLE
  2
APPID
  5
9
330
0
100
AcDbSymbolTable
 70
     1
  0
APPID
  5
12
330
9
100
AcDbSymbolTableRecord
100
AcDbRegAppTableRecord
  2
ACAD
 70
     0
  0
ENDTAB
  0
TABLE
  2
DIMSTYLE
  5
A
330
0
100
AcDbSymbolTable
 70
     4
100
AcDbDimStyleTable
  0
DIMSTYLE
105
27
330
A
100
AcDbSymbolTableRecord
100
AcDbDimStyleTableRecord
  2
ISO-25
 70
     0
 41
2.5
 42
0.625
 43
3.75
 44
1.25
 73
     0
 74
     0
 77
     1
 78
     8
140
2.5
141
2.5
143
0.03937007874016
147
0.625
171
     3
172
     1
178
     0
271
     2
272
     2
274
     3
278
    44
283
     0
284
     8
340
11
  0
DIMSTYLE
105
E5
102
{ACAD_REACTORS
330
E4
102
}
330
A
100
AcDbSymbolTableRecord
100
AcDbDimStyleTableRecord
  2
SLDDIMSTYLE0
 70
     0
 41
3.302
 44
0.0
 45
0.000000001
 73
     0
 74
     0
 77
     1
 78
    12
 79
     3
140
3.5
147
0.875
172
     1
173
     1
178
     0
271
     1
272
     1
276
     2
284
    12
289
     0
340
97
  0
DIMSTYLE
105
F3
102
{ACAD_REACTORS
330
F2
330
10B
102
}
330
A
100
AcDbSymbolTableRecord
100
AcDbDimStyleTableRecord
  2
SLDDIMSTYLE1
 70
     0
 41
3.302
 44
0.0
 45
0.000000001
 73
     0
 74
     0
 77
     1
 78
    12
 79
     3
140
3.5
147
0.875
173
     1
178
     0
271
     2
272
     2
276
     2
284
    12
340
97
  0
DIMSTYLE
105
FE
102
{ACAD_REACTORS
330
FD
102
}
330
A
100
AcDbSymbolTableRecord
100
AcDbDimStyleTableRecord
  2
SLDDIMSTYLE2
 70
     0
 41
3.302
 44
0.0
 45
0.000000001
 73
     0
 74
     0
 77
     1
 78
    12
 79
     3
140
3.5
147
0.875
172
     1
173
     1
178
     0
271
     2
272
     2
276
     2
284
    12
289
     0
340
97
  0
ENDTAB
  0
TABLE
  2
BLOCK_RECORD
  5
1
330
0
100
AcDbSymbolTable
 70
     7
  0
BLOCK_RECORD
  5
1F
102
{ACAD_XDICTIONARY
360
171
102
}
330
1
100
AcDbSymbolTableRecord
100
AcDbBlockTableRecord
  2
*Model_Space
340
22
  0
BLOCK_RECORD
  5
1B
330
1
100
AcDbSymbolTableRecord
100
AcDbBlockTableRecord
  2
*Paper_Space
340
1E
  0
BLOCK_RECORD
  5
23
330
1
100
AcDbSymbolTableRecord
100
AcDbBlockTableRecord
  2
*Paper_Space0
340
26
  0
BLOCK_RECORD
  5
82
330
1
100
AcDbSymbolTableRecord
100
AcDbBlockTableRecord
  2
블럭10
340
0
102
{BLKREFS
331
DD
102
}
  0
BLOCK_RECORD
  5
E6
330
1
100
AcDbSymbolTableRecord
100
AcDbBlockTableRecord
  2
_D
340
0
  0
BLOCK_RECORD
  5
F4
330
1
100
AcDbSymbolTableRecord
100
AcDbBlockTableRecord
  2
_D_1
340
0
  0
BLOCK_RECORD
  5
FF
330
1
100
AcDbSymbolTableRecord
100
AcDbBlockTableRecord
  2
_D_2
340
0
  0
BLOCK_RECORD
  5
10C
330
1
100
AcDbSymbolTableRecord
100
AcDbBlockTableRecord
  2
_D_3
340
0
  0
BLOCK_RECORD
  5
115
330
1
100
AcDbSymbolTableRecord
100
AcDbBlockTableRecord
  2
SW_DOWELSYMBOL_0
340
0
102
{BLKREFS
331
11B
102
}
  0
ENDTAB
  0
ENDSEC
  0
SECTION
  2
BLOCKS
  0
BLOCK
  5
20
330
1F
100
AcDbEntity
  8
0
100
AcDbBlockBegin
  2
*Model_Space
 70
     0
 10
0.0
 20
0.0
 30
0.0
  3
*Model_Space
  1

  0
ENDBLK
  5
21
330
1F
100
AcDbEntity
  8
0
100
AcDbBlockEnd
  0
BLOCK
  5
1C
330
1B
100
AcDbEntity
 67
     1
  8
0
100
AcDbBlockBegin
  2
*Paper_Space
 70
     0
 10
0.0
 20
0.0
 30
0.0
  3
*Paper_Space
  1

  0
ENDBLK
  5
1D
330
1B
100
AcDbEntity
 67
     1
  8
0
100
AcDbBlockEnd
  0
BLOCK
  5
24
330
23
100
AcDbEntity
  8
0
100
AcDbBlockBegin
  2
*Paper_Space0
 70
     0
 10
0.0
 20
0.0
 30
0.0
  3
*Paper_Space0
  1

  0
ENDBLK
  5
25
330
23
100
AcDbEntity
  8
0
100
AcDbBlockEnd
  0
BLOCK
  5
83
330
82
100
AcDbEntity
  8
0
100
AcDbBlockBegin
  2
블럭10
 70
     2
 10
0.0
 20
0.0
 30
0.0
  3
블럭10
  1

  0
ELLIPSE
  5
85
330
82
100
AcDbEntity
  8
중심선
100
AcDbEllipse
 10
20.54032771741204
 20
12.0471743016438
 30
0.0
 11
6.600054785286829
 21
-1.261213355974178E-13
 31
0.0
210
0.0
220
0.0
230
1.0
 40
0.636358354079598
 41
0.9219305317359503
 42
6.513795318482858
  0
ELLIPSE
  5
86
330
82
100
AcDbEntity
  8
중심선
100
AcDbEllipse
 10
20.54032771746488
 20
12.04717430159265
 30
0.0
 11
3.960054785062283
 21
1.540847449632565E-10
 31
0.0
210
0.0
220
0.0
230
1.0
 40
0.3939339440162632
 41
1.131841032648279
 42
5.62031148352944
  0
LINE
  5
87
330
82
100
AcDbEntity
  8
중심선
100
AcDbLine
 10
2.268634060543552
 20
16.24717430164393
 30
0.0
 11
5.714909304380834
 21
16.24717430164393
 31
0.0
  0
LINE
  5
88
330
82
100
AcDbEntity
  8
중심선
100
AcDbLine
 10
5.245725140726316
 20
7.84717430164391
 30
0.0
 11
8.692000384563599
 21
7.84717430164391
 31
0.0
  0
LINE
  5
89
330
82
100
AcDbEntity
  8
중심선
100
AcDbLine
 10
15.74043728645272
 20
16.24717430164393
 30
0.0
 11
8.692000384563599
 21
7.84717430164391
 31
0.0
  0
LINE
  5
8A
330
82
100
AcDbEntity
  8
중심선
100
AcDbLine
 10
0.1404042013395286
 20
13.71084872107135
 30
0.0
 11
3.58671253028996
 21
13.71088815037384
 31
0.0
  0
LINE
  5
8B
330
82
100
AcDbEntity
  8
중심선
100
AcDbLine
 10
2.750260043222114
 20
10.84717430164391
 30
0.0
 11
6.196535287059397
 21
10.84717430164391
 31
0.0
  0
LINE
  5
8C
330
82
100
AcDbEntity
  8
중심선
100
AcDbLine
 10
12.29416204261559
 20
16.24717430164393
 30
0.0
 11
5.245725140726316
 21
7.84717430164391
 31
0.0
  0
LINE
  5
8D
330
82
100
AcDbEntity
  8
중심선
100
AcDbLine
 10
10.72767329541681
 20
16.24717430164393
 30
0.0
 11
6.196535287059397
 21
10.84717430164391
 31
0.0
  0
LINE
  5
8E
330
82
100
AcDbEntity
  8
중심선
100
AcDbLine
 10
7.28139805157953
 20
16.24717430164393
 30
0.0
 11
2.750260043222114
 21
10.84717430164391
 31
0.0
  0
LINE
  5
8F
330
82
100
AcDbEntity
  8
중심선
100
AcDbLine
 10
5.714909304380834
 20
16.24717430164393
 30
0.0
 11
3.58671253028996
 21
13.71088815037384
 31
0.0
  0
LINE
  5
90
330
82
100
AcDbEntity
  8
중심선
100
AcDbLine
 10
2.268634060543552
 20
16.24717430164393
 30
0.0
 11
0.1404042013395286
 21
13.71084872107135
 31
0.0
  0
LINE
  5
91
330
82
100
AcDbEntity
  8
중심선
100
AcDbLine
 10
7.28139805157953
 20
16.24717430164393
 30
0.0
 11
10.72767329541681
 21
16.24717430164393
 31
0.0
  0
LINE
  5
92
330
82
100
AcDbEntity
  8
중심선
100
AcDbLine
 10
12.29416204261559
 20
16.24717430164393
 30
0.0
 11
15.74043728645272
 21
16.24717430164393
 31
0.0
  0
LINE
  5
93
330
82
100
AcDbEntity
  8
중심선
100
AcDbLine
 10
19.22036997980202
 20
11.08717430171403
 30
0.0
 11
23.66174974927406
 21
11.08717430171406
 31
0.0
  0
LINE
  5
94
330
82
100
AcDbEntity
  8
중심선
100
AcDbLine
 10
19.22039502424796
 20
13.00717430171391
 30
0.0
 11
19.22036997980202
 21
11.08717430171403
 31
0.0
  0
LINE
  5
95
330
82
100
AcDbEntity
  8
중심선
100
AcDbLine
 10
19.22039502424796
 20
13.00717430171391
 30
0.0
 11
26.96566020931264
 21
13.00717430171391
 31
0.0
  0
LINE
  5
96
330
82
100
AcDbEntity
  8
중심선
100
AcDbLine
 10
22.22332737316547
 20
13.45928029700563
 30
0.0
 11
24.52862924686651
 21
15.39360700705356
 31
0.0
  0
ATTDEF
  5
98
330
82
100
AcDbEntity
  8
FORMAT
 62
     2
100
AcDbText
 10
-16.11926103943555
 20
2.075366912832191
 30
0.0
 40
4.233333333333333
  1
SEME7218050E [ 4 FLUTE ]
 41
0.75
  7
SLDTEXTSTYLE0
 11
-16.11926103943555
 21
-0.0412997538344756
 31
0.0
100
AcDbAttributeDefinition
  3

  2
AUTOATTR0
 70
     0
 74
     1
  0
ENDBLK
  5
84
330
82
100
AcDbEntity
  8
0
100
AcDbBlockEnd
  0
BLOCK
  5
E7
330
E6
100
AcDbEntity
  8
0
100
AcDbBlockBegin
  2
_D
 70
     0
 10
0.0
 20
0.0
 30
0.0
  3
_D
  1

  0
LINE
  5
E9
330
E6
100
AcDbEntity
  8
치수문자_일반주서
 62
     0
370
    -2
100
AcDbLine
 10
54.06247940231264
 20
-8.999999999999996
 30
0.0
 11
69.86975167619578
 21
-8.99999999999994
 31
0.0
  0
LINE
  5
EA
330
E6
100
AcDbEntity
  8
치수문자_일반주서
 62
     0
370
    -2
100
AcDbLine
 10
54.06247940231264
 20
9.000000000000021
 30
0.0
 11
69.86975167619572
 21
9.00000000000008
 31
0.0
  0
LINE
  5
EB
330
E6
100
AcDbEntity
  8
치수문자_일반주서
 62
     0
370
    -2
100
AcDbLine
 10
69.86975167619572
 20
9.00000000000008
 30
0.0
 11
69.86975167619568
 21
23.47900000000008
 31
0.0
  0
LINE
  5
EC
330
E6
100
AcDbEntity
  8
치수문자_일반주서
 62
     0
370
    -2
100
AcDbLine
 10
69.86975167619578
 20
-8.99999999999994
 30
0.0
 11
69.86975167619572
 21
9.00000000000008
 31
0.0
  0
LINE
  5
ED
330
E6
100
AcDbEntity
  8
치수문자_일반주서
 62
     0
370
    -2
100
AcDbLine
 10
69.86975167619579
 20
-12.30199999999994
 30
0.0
 11
69.8697516761958
 21
-15.60399999999994
 31
0.0
  0
LINE
  5
EE
330
E6
100
AcDbEntity
  8
치수문자_일반주서
 62
     0
370
    -2
100
AcDbLine
 10
69.8697516761957
 20
12.30200000000008
 30
0.0
 11
69.86975167619569
 21
15.60400000000008
 31
0.0
  0
SOLID
  5
EF
330
E6
100
AcDbEntity
  8
치수문자_일반주서
 62
     0
100
AcDbTrace
 10
70.42008500952912
 20
-12.30199999999994
 30
0.0
 11
69.31941834286246
 21
-12.30199999999994
 31
0.0
 12
69.86975167619578
 22
-8.99999999999994
 32
0.0
 13
69.86975167619578
 23
-8.99999999999994
 33
0.0
  0
SOLID
  5
F0
330
E6
100
AcDbEntity
  8
치수문자_일반주서
 62
     0
100
AcDbTrace
 10
69.31941834286238
 20
12.30200000000008
 30
0.0
 11
70.42008500952903
 21
12.30200000000008
 31
0.0
 12
69.86975167619572
 22
9.00000000000008
 32
0.0
 13
69.86975167619572
 23
9.00000000000008
 33
0.0
  0
MTEXT
  5
F1
330
E6
100
AcDbEntity
  8
치수문자_일반주서
 62
     0
100
AcDbMText
 10
65.49475167619569
 20
19.54150000000007
 30
0.0
 40
3.5
 41
0.0
 71
     2
 72
     1
  1
\A1;%%c18
  7
SLDTEXTSTYLE0
 11
-3.157967714489331E-15
 21
1.0
 31
0.0
 73
     1
 44
1.0
  0
POINT
  5
14A
330
E6
100
AcDbEntity
  8
Defpoints
 62
     0
100
AcDbPoint
 10
53.99997940231264
 20
-8.999999999999996
 30
0.0
  0
POINT
  5
14B
330
E6
100
AcDbEntity
  8
Defpoints
 62
     0
100
AcDbPoint
 10
53.99997940231264
 20
9.000000000000021
 30
0.0
  0
POINT
  5
14C
330
E6
100
AcDbEntity
  8
Defpoints
 62
     0
100
AcDbPoint
 10
69.86975167619572
 20
9.00000000000008
 30
0.0
  0
ENDBLK
  5
E8
330
E6
100
AcDbEntity
  8
0
100
AcDbBlockEnd
  0
BLOCK
  5
F5
330
F4
100
AcDbEntity
  8
0
100
AcDbBlockBegin
  2
_D_1
 70
     0
 10
0.0
 20
0.0
 30
0.0
  3
_D_1
  1

  0
LINE
  5
F7
330
F4
100
AcDbEntity
  8
치수문자_일반주서
 62
     0
370
    -2
100
AcDbLine
 10
-66.00002059768737
 20
9.562500000000004
 30
0.0
 11
-66.00002059768735
 21
27.38913260158166
 31
0.0
  0
LINE
  5
F8
330
F4
100
AcDbEntity
  8
치수문자_일반주서
 62
     0
370
    -2
100
AcDbLine
 10
53.99997940231264
 20
9.06250000000002
 30
0.0
 11
53.99997940231265
 21
27.38913260158166
 31
0.0
  0
LINE
  5
F9
330
F4
100
AcDbEntity
  8
치수문자_일반주서
 62
     0
370
    -2
100
AcDbLine
 10
-62.69802059768735
 20
27.38913260158166
 30
0.0
 11
50.69797940231265
 21
27.38913260158166
 31
0.0
  0
SOLID
  5
FA
330
F4
100
AcDbEntity
  8
치수문자_일반주서
 62
     0
100
AcDbTrace
 10
-62.69802059768735
 20
27.939465934915
 30
0.0
 11
-62.69802059768735
 21
26.83879926824833
 31
0.0
 12
-66.00002059768735
 22
27.38913260158166
 32
0.0
 13
-66.00002059768735
 23
27.38913260158166
 33
0.0
  0
SOLID
  5
FB
330
F4
100
AcDbEntity
  8
치수문자_일반주서
 62
     0
100
AcDbTrace
 10
50.69797940231265
 20
26.83879926824833
 30
0.0
 11
50.69797940231265
 21
27.939465934915
 31
0.0
 12
53.99997940231265
 22
27.38913260158166
 32
0.0
 13
53.99997940231265
 23
27.38913260158166
 33
0.0
  0
MTEXT
  5
FC
330
F4
100
AcDbEntity
  8
치수문자_일반주서
 62
     0
100
AcDbMText
 10
-6.000020597687351
 20
31.76413260158166
 30
0.0
 40
3.5
 41
0.0
 71
     2
 72
     1
  1
\A1;120
  7
SLDTEXTSTYLE0
 73
     1
 44
1.0
  0
POINT
  5
141
330
F4
100
AcDbEntity
  8
Defpoints
 62
     0
100
AcDbPoint
 10
-66.00002059768737
 20
9.500000000000004
 30
0.0
  0
POINT
  5
142
330
F4
100
AcDbEntity
  8
Defpoints
 62
     0
100
AcDbPoint
 10
53.99997940231264
 20
9.00000000000002
 30
0.0
  0
POINT
  5
143
330
F4
100
AcDbEntity
  8
Defpoints
 62
     0
100
AcDbPoint
 10
53.99997940231264
 20
27.38913260158166
 30
0.0
  0
ENDBLK
  5
F6
330
F4
100
AcDbEntity
  8
0
100
AcDbBlockEnd
  0
BLOCK
  5
100
330
FF
100
AcDbEntity
  8
0
100
AcDbBlockBegin
  2
_D_2
 70
     0
 10
0.0
 20
0.0
 30
0.0
  3
_D_2
  1

  0
LINE
  5
102
330
FF
100
AcDbEntity
  8
치수문자_일반주서
 62
     0
370
    -2
100
AcDbLine
 10
-65.56252059768737
 20
9.999999999999993
 30
0.0
 11
-78.84028966807867
 21
9.999999999999943
 31
0.0
  0
LINE
  5
103
330
FF
100
AcDbEntity
  8
치수문자_일반주서
 62
     0
370
    -2
100
AcDbLine
 10
-65.56252059768737
 20
-10.0
 30
0.0
 11
-78.8402896680786
 21
-10.00000000000005
 31
0.0
  0
LINE
  5
104
330
FF
100
AcDbEntity
  8
치수문자_일반주서
 62
     0
370
    -2
100
AcDbLine
 10
-78.84028966807867
 20
9.999999999999943
 30
0.0
 11
-78.84028966807873
 21
24.91649999999994
 31
0.0
  0
LINE
  5
105
330
FF
100
AcDbEntity
  8
치수문자_일반주서
 62
     0
370
    -2
100
AcDbLine
 10
-78.84028966807867
 20
9.999999999999943
 30
0.0
 11
-78.8402896680786
 21
-10.00000000000005
 31
0.0
  0
LINE
  5
106
330
FF
100
AcDbEntity
  8
치수문자_일반주서
 62
     0
370
    -2
100
AcDbLine
 10
-78.84028966807868
 20
13.30199999999994
 30
0.0
 11
-78.8402896680787
 21
16.60399999999994
 31
0.0
  0
LINE
  5
107
330
FF
100
AcDbEntity
  8
치수문자_일반주서
 62
     0
370
    -2
100
AcDbLine
 10
-78.84028966807858
 20
-13.30200000000005
 30
0.0
 11
-78.84028966807857
 21
-16.60400000000005
 31
0.0
  0
SOLID
  5
108
330
FF
100
AcDbEntity
  8
치수문자_일반주서
 62
     0
100
AcDbTrace
 10
-79.39062300141201
 20
13.30199999999994
 30
0.0
 11
-78.28995633474536
 21
13.30199999999994
 31
0.0
 12
-78.84028966807867
 22
9.999999999999943
 32
0.0
 13
-78.84028966807867
 23
9.999999999999943
 33
0.0
  0
SOLID
  5
109
330
FF
100
AcDbEntity
  8
치수문자_일반주서
 62
     0
100
AcDbTrace
 10
-78.28995633474526
 20
-13.30200000000005
 30
0.0
 11
-79.39062300141191
 21
-13.30200000000005
 31
0.0
 12
-78.8402896680786
 22
-10.00000000000005
 32
0.0
 13
-78.8402896680786
 23
-10.00000000000005
 33
0.0
  0
MTEXT
  5
10A
330
FF
100
AcDbEntity
  8
치수문자_일반주서
 62
     0
100
AcDbMText
 10
-83.21528966807871
 20
20.76024999999992
 30
0.0
 40
3.5
 41
0.0
 71
     2
 72
     1
  1
\A1;%%c20
  7
SLDTEXTSTYLE0
 11
-3.552713678800503E-15
 21
1.0
 31
0.0
 73
     1
 44
1.0
  0
POINT
  5
147
330
FF
100
AcDbEntity
  8
Defpoints
 62
     0
100
AcDbPoint
 10
-65.50002059768737
 20
9.999999999999993
 30
0.0
  0
POINT
  5
148
330
FF
100
AcDbEntity
  8
Defpoints
 62
     0
100
AcDbPoint
 10
-65.50002059768737
 20
-10.0
 30
0.0
  0
POINT
  5
149
330
FF
100
AcDbEntity
  8
Defpoints
 62
     0
100
AcDbPoint
 10
-78.8402896680786
 20
-10.00000000000005
 30
0.0
  0
ENDBLK
  5
101
330
FF
100
AcDbEntity
  8
0
100
AcDbBlockEnd
  0
BLOCK
  5
10D
330
10C
100
AcDbEntity
  8
0
100
AcDbBlockBegin
  2
_D_3
 70
     0
 10
0.0
 20
0.0
 30
0.0
  3
_D_3
  1

  0
LINE
  5
10F
330
10C
100
AcDbEntity
  8
치수문자_일반주서
 62
     0
370
    -2
100
AcDbLine
 10
3.999979402312642
 20
9.062500000000014
 30
0.0
 11
3.99997940231264
 21
19.73468312897862
 31
0.0
  0
LINE
  5
110
330
10C
100
AcDbEntity
  8
치수문자_일반주서
 62
     0
370
    -2
100
AcDbLine
 10
53.99997940231264
 20
9.06250000000002
 30
0.0
 11
53.99997940231264
 21
19.73468312897862
 31
0.0
  0
LINE
  5
111
330
10C
100
AcDbEntity
  8
치수문자_일반주서
 62
     0
370
    -2
100
AcDbLine
 10
7.301979402312639
 20
19.73468312897862
 30
0.0
 11
50.69797940231264
 21
19.73468312897862
 31
0.0
  0
SOLID
  5
112
330
10C
100
AcDbEntity
  8
치수문자_일반주서
 62
     0
100
AcDbTrace
 10
7.301979402312639
 20
20.28501646231195
 30
0.0
 11
7.301979402312639
 21
19.18434979564529
 31
0.0
 12
3.99997940231264
 22
19.73468312897862
 32
0.0
 13
3.99997940231264
 23
19.73468312897862
 33
0.0
  0
SOLID
  5
113
330
10C
100
AcDbEntity
  8
치수문자_일반주서
 62
     0
100
AcDbTrace
 10
50.69797940231264
 20
19.18434979564529
 30
0.0
 11
50.69797940231264
 21
20.28501646231195
 31
0.0
 12
53.99997940231264
 22
19.73468312897862
 32
0.0
 13
53.99997940231264
 23
19.73468312897862
 33
0.0
  0
MTEXT
  5
114
330
10C
100
AcDbEntity
  8
치수문자_일반주서
 62
     0
100
AcDbMText
 10
28.99997940231263
 20
24.10968312897862
 30
0.0
 40
3.5
 41
0.0
 71
     2
 72
     1
  1
\A1;50
  7
SLDTEXTSTYLE0
 73
     1
 44
1.0
  0
POINT
  5
144
330
10C
100
AcDbEntity
  8
Defpoints
 62
     0
100
AcDbPoint
 10
3.999979402312642
 20
9.000000000000014
 30
0.0
  0
POINT
  5
145
330
10C
100
AcDbEntity
  8
Defpoints
 62
     0
100
AcDbPoint
 10
53.99997940231264
 20
9.00000000000002
 30
0.0
  0
POINT
  5
146
330
10C
100
AcDbEntity
  8
Defpoints
 62
     0
100
AcDbPoint
 10
53.99997940231264
 20
19.73468312897862
 30
0.0
  0
ENDBLK
  5
10E
330
10C
100
AcDbEntity
  8
0
100
AcDbBlockEnd
  0
BLOCK
  5
116
330
115
100
AcDbEntity
  8
0
100
AcDbBlockBegin
  2
SW_DOWELSYMBOL_0
 70
     0
 10
0.0
 20
0.0
 30
0.0
  3
SW_DOWELSYMBOL_0
  1

  0
CIRCLE
  5
118
330
115
100
AcDbEntity
  8
해칭선
 62
     0
100
AcDbCircle
 10
0.0
 20
0.0
 30
0.0
 40
3.0
  0
HATCH
  5
119
330
115
100
AcDbEntity
  8
0
  6
Continuous
 62
     0
370
    18
100
AcDbHatch
 10
0.0
 20
0.0
 30
0.0
210
0.0
220
0.0
230
1.0
  2
SOLID
 70
     1
 71
     0
 91
        1
 92
        0
 93
        3
 72
     2
 10
0.0
 20
0.0
 40
3.0
 50
0.0
 51
90.0
 73
     1
 72
     1
 10
0.0
 20
3.0
 11
0.0
 21
0.0
 72
     1
 10
0.0
 20
0.0
 11
3.0
 21
0.0
 97
        0
 75
     0
 76
     1
 98
        1
 10
0.0
 20
0.0
  0
HATCH
  5
11A
330
115
100
AcDbEntity
  8
0
  6
Continuous
 62
     0
370
    18
100
AcDbHatch
 10
0.0
 20
0.0
 30
0.0
210
0.0
220
0.0
230
1.0
  2
SOLID
 70
     1
 71
     0
 91
        1
 92
        0
 93
        3
 72
     2
 10
0.0
 20
0.0
 40
3.0
 50
180.0
 51
270.0000000000007
 73
     1
 72
     1
 10
0.0
 20
-3.0
 11
0.0
 21
0.0
 72
     1
 10
0.0
 20
0.0
 11
-3.0
 21
0.0
 97
        0
 75
     0
 76
     1
 98
        1
 10
0.0
 20
0.0
  0
ENDBLK
  5
117
330
115
100
AcDbEntity
  8
0
100
AcDbBlockEnd
  0
ENDSEC
  0
SECTION
  2
ENTITIES
  0
LINE
  5
99
330
1F
100
AcDbEntity
  8
0
  6
Continuous
 62
     4
370
    25
100
AcDbLine
 10
1.999979402312647
 20
10.00000000000001
 30
0.0
 11
-65.50002059768737
 21
10.00000000000001
 31
0.0
  0
LINE
  5
9A
330
1F
100
AcDbEntity
  8
0
  6
Continuous
 62
     4
370
    25
100
AcDbLine
 10
-65.50002059768737
 20
-9.999999999999991
 30
0.0
 11
1.999979402312638
 21
-9.999999999999991
 31
0.0
  0
LINE
  5
9B
330
1F
100
AcDbEntity
  8
0
  6
Continuous
 62
     4
370
    25
100
AcDbLine
 10
1.99997940231264
 20
-9.999999999999991
 30
0.0
 11
2.999979402312642
 21
-8.999999999999986
 31
0.0
  0
LINE
  5
9C
330
1F
100
AcDbEntity
  8
0
  6
Continuous
 62
     4
370
    25
100
AcDbLine
 10
2.999979402312642
 20
9.000000000000014
 30
0.0
 11
1.999979402312646
 21
10.00000000000001
 31
0.0
  0
LINE
  5
9D
330
1F
100
AcDbEntity
  8
0
  6
Continuous
 62
     4
370
    25
100
AcDbLine
 10
-65.50002059768737
 20
10.00000000000001
 30
0.0
 11
-66.00002059768737
 21
9.500000000000004
 31
0.0
  0
LINE
  5
9E
330
1F
100
AcDbEntity
  8
0
  6
Continuous
 62
     4
370
    25
100
AcDbLine
 10
-66.00002059768737
 20
-9.499999999999986
 30
0.0
 11
-65.50002059768737
 21
-9.999999999999991
 31
0.0
  0
LINE
  5
9F
330
1F
100
AcDbEntity
  8
0
  6
Continuous
 62
     4
370
    25
100
AcDbLine
 10
2.999979402312642
 20
-8.999999999999986
 30
0.0
 11
3.999979402312642
 21
-8.999999999999986
 31
0.0
  0
LINE
  5
A0
330
1F
100
AcDbEntity
  8
0
  6
Continuous
 62
     4
370
    25
100
AcDbLine
 10
3.99997940231264
 20
9.000000000000014
 30
0.0
 11
2.999979402312642
 21
9.000000000000014
 31
0.0
  0
LINE
  5
A1
330
1F
100
AcDbEntity
  8
0
  6
Continuous
 62
     1
370
    25
100
AcDbLine
 10
50.51860878620367
 20
-8.999999999999993
 30
0.0
 11
53.99997940231264
 21
-8.999999999999993
 31
0.0
  0
LINE
  5
A2
330
1F
100
AcDbEntity
  8
0
  6
Continuous
 62
     1
370
    25
100
AcDbLine
 10
8.50947593623012
 20
9.000000000000018
 30
0.0
 11
3.999979402312636
 21
9.000000000000018
 31
0.0
  0
LINE
  5
A3
330
1F
100
AcDbEntity
  8
0
  6
Continuous
 62
     1
370
    25
100
AcDbLine
 10
52.77959928308096
 20
-1.300403002176799
 30
0.0
 11
52.7535855292145
 21
-1.285778491937086
 31
0.0
  0
LINE
  5
A4
330
1F
100
AcDbEntity
  8
0
  6
Continuous
 62
     1
370
    25
100
AcDbLine
 10
30.62749523717743
 20
1.359346545908736
 30
0.0
 11
30.76086432386908
 21
1.2857405960848
 31
0.0
  0
LINE
  5
A5
330
1F
100
AcDbEntity
  8
0
  6
Continuous
 62
     1
370
    25
100
AcDbLine
 10
32.99613502976461
 20
9.000000000000018
 30
0.0
 11
26.03278554065848
 21
9.000000000000018
 31
0.0
  0
LINE
  5
A6
330
1F
100
AcDbEntity
  8
0
  6
Continuous
 62
     1
370
    25
100
AcDbLine
 10
26.03278554065834
 20
-8.999999999999993
 30
0.0
 11
32.99613502976461
 21
-8.999999999999993
 31
0.0
  0
LINE
  5
A7
330
1F
100
AcDbEntity
  8
0
  6
Continuous
 62
     1
370
    25
100
AcDbLine
 10
3.999979402312636
 20
-8.999999999999993
 30
0.0
 11
8.50947593623
 21
-8.999999999999993
 31
0.0
  0
LINE
  5
A8
330
1F
100
AcDbEntity
  8
0
  6
Continuous
 62
     1
370
    25
100
AcDbLine
 10
53.99997940231264
 20
9.000000000000018
 30
0.0
 11
50.51860878620367
 21
9.000000000000018
 31
0.0
  0
LINE
  5
A9
330
1F
100
AcDbEntity
  8
0
  6
Continuous
 62
     4
370
    25
100
AcDbLine
 10
1.999979402312635
 20
9.999999999999998
 30
0.0
 11
1.999979402312638
 21
-9.999999999999991
 31
0.0
  0
LINE
  5
AA
330
1F
100
AcDbEntity
  8
0
  6
Continuous
 62
     4
370
    25
100
AcDbLine
 10
-65.50002059768737
 20
10.00000000000001
 30
0.0
 11
-65.50002059768737
 21
-9.999999999999975
 31
0.0
  0
LINE
  5
AB
330
1F
100
AcDbEntity
  8
0
  6
Continuous
 62
     4
370
    25
100
AcDbLine
 10
2.999979402312642
 20
9.000000000000014
 30
0.0
 11
2.999979402312642
 21
8.674515306078456
 31
0.0
  0
SPLINE
  5
AC
330
1F
100
AcDbEntity
  8
0
  6
Continuous
 62
     4
370
    25
100
AcDbSpline
210
0.0
220
0.0
230
1.0
 70
     8
 71
     3
 72
    12
 73
     8
 74
     0
 42
0.000000001
 43
0.00000001
 40
0.0
 40
0.0
 40
0.0
 40
0.0
 40
0.25
 40
0.25
 40
0.5
 40
0.5
 40
1.0
 40
1.0
 40
1.0
 40
1.0
 10
2.499826316816577
 20
8.38258367626643
 30
0.0
 10
2.499826316816577
 20
8.429297014680158
 30
0.0
 10
2.509790551644842
 20
8.470759576956143
 30
0.0
 10
2.551060875166461
 20
8.54311618558028
 30
0.0
 10
2.58297393736024
 20
8.574267217899989
 30
0.0
 10
2.709794605937091
 20
8.648138908389939
 30
0.0
 10
2.837295254889158
 20
8.672668754428647
 30
0.0
 10
2.999979402313988
 20
8.674515306077804
 30
0.0
  0
LINE
  5
AD
330
1F
100
AcDbEntity
  8
0
  6
Continuous
 62
     4
370
    25
100
AcDbLine
 10
2.499826316816577
 20
8.382583676266426
 30
0.0
 11
2.499826316816574
 21
4.393300472135804
 31
0.0
  0
SPLINE
  5
AE
330
1F
100
AcDbEntity
  8
0
  6
Continuous
 62
     4
370
    25
100
AcDbSpline
210
0.0
220
0.0
230
1.0
 70
     8
 71
     3
 72
    12
 73
     8
 74
     0
 42
0.000000001
 43
0.00000001
 40
0.0
 40
0.0
 40
0.0
 40
0.0
 40
0.2499999999999998
 40
0.2499999999999998
 40
0.4999999999999996
 40
0.4999999999999996
 40
1.0
 40
1.0
 40
1.0
 40
1.0
 10
2.999979402312642
 20
3.196280901644269
 30
0.0
 10
2.918679193184319
 20
3.280903657716397
 30
0.0
 10
2.846893568419206
 20
3.371111453822826
 30
0.0
 10
2.721657199499427
 20
3.562022815545172
 30
0.0
 10
2.667853211367903
 20
3.663977022638043
 30
0.0
 10
2.540955733871694
 20
3.972506263323388
 30
0.0
 10
2.499826316816542
 20
4.187043973915403
 30
0.0
 10
2.499826316816542
 20
4.393300472135802
 30
0.0
  0
LINE
  5
AF
330
1F
100
AcDbEntity
  8
0
  6
Continuous
 62
     4
370
    25
100
AcDbLine
 10
2.999979402312642
 20
3.196280901644269
 30
0.0
 11
2.999979402312642
 21
-2.398496238189922
 31
0.0
  0
SPLINE
  5
B0
330
1F
100
AcDbEntity
  8
0
  6
Continuous
 62
     4
370
    25
100
AcDbSpline
210
0.0
220
0.0
230
1.0
 70
     8
 71
     3
 72
    12
 73
     8
 74
     0
 42
0.000000001
 43
0.00000001
 40
0.0
 40
0.0
 40
0.0
 40
0.0
 40
0.2500000000000002
 40
0.2500000000000002
 40
0.5000000000000004
 40
0.5000000000000004
 40
1.0
 40
1.0
 40
1.0
 40
1.0
 10
2.499826316816577
 20
-3.62802042054081
 30
0.0
 10
2.499826316816577
 20
-3.520088704987657
 30
0.0
 10
2.509790551644846
 20
-3.411853501623237
 30
0.0
 10
2.551060875166461
 20
-3.194971834444737
 30
0.0
 10
2.582973937360247
 20
-3.085015932134417
 30
0.0
 10
2.709794605937097
 20
-2.768013698341101
 30
0.0
 10
2.837295254889158
 20
-2.568743623763852
 30
0.0
 10
2.999979402313988
 20
-2.398496238190925
 30
0.0
  0
LINE
  5
B1
330
1F
100
AcDbEntity
  8
0
  6
Continuous
 62
     4
370
    25
100
AcDbLine
 10
2.499826316816577
 20
-3.62802042054081
 30
0.0
 11
2.499826316816577
 21
-8.008067945703303
 31
0.0
  0
SPLINE
  5
B2
330
1F
100
AcDbEntity
  8
0
  6
Continuous
 62
     4
370
    25
100
AcDbSpline
210
0.0
220
0.0
230
1.0
 70
     8
 71
     3
 72
    12
 73
     8
 74
     0
 42
0.000000001
 43
0.00000001
 40
0.0
 40
0.0
 40
0.0
 40
0.0
 40
0.2500000000000003
 40
0.2500000000000003
 40
0.5000000000000006
 40
0.5000000000000006
 40
1.0
 40
1.0
 40
1.0
 40
1.0
 10
2.999979402312642
 20
-8.41331019265215
 30
0.0
 10
2.918679193184319
 20
-8.404464783538497
 30
0.0
 10
2.846893568419206
 20
-8.389572316595295
 30
0.0
 10
2.721657199499427
 20
-8.346808629388766
 30
0.0
 10
2.667853211367903
 20
-8.318454826402983
 30
0.0
 10
2.540955733871694
 20
-8.215517904531907
 30
0.0
 10
2.499826316816542
 20
-8.121222176805823
 30
0.0
 10
2.499826316816542
 20
-8.00806794570331
 30
0.0
  0
LINE
  5
B3
330
1F
100
AcDbEntity
  8
0
  6
Continuous
 62
     4
370
    25
100
AcDbLine
 10
2.999979402312642
 20
-8.41331019265215
 30
0.0
 11
2.999979402312642
 21
-8.999999999999986
 31
0.0
  0
LINE
  5
B4
330
1F
100
AcDbEntity
  8
0
  6
Continuous
 62
     4
370
    25
100
AcDbLine
 10
-66.00002059768737
 20
9.500000000000004
 30
0.0
 11
-66.00002059768737
 21
-9.499999999999986
 31
0.0
  0
SPLINE
  5
B5
330
1F
100
AcDbEntity
  8
0
  6
Continuous
 62
     4
370
    25
100
AcDbSpline
210
0.0
220
0.0
230
1.0
 70
     8
 71
     3
 72
     8
 73
     4
 74
     0
 42
0.000000001
 43
0.00000001
 40
0.0
 40
0.0
 40
0.0
 40
0.0
 40
1.0
 40
1.0
 40
1.0
 40
1.0
 10
3.407689874517155
 20
2.8926760604059
 30
0.0
 10
3.255919000817242
 20
2.975539140736843
 30
0.0
 10
3.12003813852653
 20
3.077010724540615
 30
0.0
 10
2.999979402312642
 20
3.196280901644271
 30
0.0
  0
SPLINE
  5
B6
330
1F
100
AcDbEntity
  8
0
  6
Continuous
 62
     4
370
    25
100
AcDbSpline
210
0.0
220
0.0
230
1.0
 70
     8
 71
     3
 72
     8
 73
     4
 74
     0
 42
0.000000001
 43
0.00000001
 40
0.0
 40
0.0
 40
0.0
 40
0.0
 40
1.0
 40
1.0
 40
1.0
 40
1.0
 10
3.99997940231264
 20
2.567289165685938
 30
0.0
 10
3.802627134718586
 20
2.676379342478775
 30
0.0
 10
3.605126234390278
 20
2.784880773012589
 30
0.0
 10
3.407689874517155
 20
2.8926760604059
 30
0.0
  0
SPLINE
  5
B7
330
1F
100
AcDbEntity
  8
0
  6
Continuous
 62
     4
370
    25
100
AcDbSpline
210
0.0
220
0.0
230
1.0
 70
     8
 71
     3
 72
    10
 73
     6
 74
     0
 42
0.000000001
 43
0.00000001
 40
0.0
 40
0.0
 40
0.0
 40
0.0
 40
0.5
 40
0.5
 40
1.0
 40
1.0
 40
1.0
 40
1.0
 10
2.999979402312642
 20
-2.398496238190095
 30
0.0
 10
3.133033430103485
 20
-2.262217161664259
 30
0.0
 10
3.28494756392814
 20
-2.149193335966844
 30
0.0
 10
3.62639954806555
 20
-1.970966972223246
 30
0.0
 10
3.808586200656356
 20
-1.90985627788322
 30
0.0
 10
3.999979402312663
 20
-1.878023408208629
 30
0.0
  0
LINE
  5
B8
330
1F
100
AcDbEntity
  8
0
  6
Continuous
 62
     4
370
    25
100
AcDbLine
 10
3.99997940231264
 20
2.567289165685938
 30
0.0
 11
3.99997940231264
 21
-1.878023408208592
 31
0.0
  0
SPLINE
  5
B9
330
1F
100
AcDbEntity
  8
0
  6
Continuous
 62
     4
370
    25
100
AcDbSpline
210
0.0
220
0.0
230
1.0
 70
     8
 71
     3
 72
     8
 73
     4
 74
     0
 42
0.000000001
 43
0.00000001
 40
0.0
 40
0.0
 40
0.0
 40
0.0
 40
1.0
 40
1.0
 40
1.0
 40
1.0
 10
3.407689874517155
 20
-8.522465911316697
 30
0.0
 10
3.255919000817242
 20
-8.49434071242954
 30
0.0
 10
3.12003813852653
 20
-8.458621845317118
 30
0.0
 10
2.999979402312645
 20
-8.413310192652146
 30
0.0
  0
SPLINE
  5
BA
330
1F
100
AcDbEntity
  8
0
  6
Continuous
 62
     4
370
    25
100
AcDbSpline
210
0.0
220
0.0
230
1.0
 70
    24
 71
     3
 72
    14
 73
    10
 74
     0
 42
0.000000001
 43
0.00000001
 40
0.0
 40
0.0
 40
0.0
 40
0.0
 40
0.0528857134156678
 40
0.2044516528356047
 40
0.3748355572464585
 40
0.545149506827345
 40
0.703770422557956
 40
0.8623756945472065
 40
1.0
 40
1.0
 40
1.0
 40
1.0
 10
3.999979402312642
 20
-1.865498648372468
 30
0.0
 10
3.999979402312642
 20
-1.861488967999958
 30
0.0
 10
3.999979402312642
 20
-1.845987886014757
 30
0.0
 10
3.999979402312642
 20
-1.963310621595311
 30
0.0
 10
3.999979402312642
 20
-2.243917503367069
 30
0.0
 10
3.999979402312642
 20
-2.704644060268949
 30
0.0
 10
3.99997940231264
 20
-3.307419726540876
 30
0.0
 10
3.999979402312642
 20
-3.98305541106099
 30
0.0
 10
3.99997940231264
 20
-4.495104169228521
 30
0.0
 10
3.99997940231264
 20
-4.732995183722369
 30
0.0
  0
SPLINE
  5
BB
330
1F
100
AcDbEntity
  8
0
  6
Continuous
 62
     4
370
    25
100
AcDbSpline
210
0.0
220
0.0
230
1.0
 70
    24
 71
     3
 72
     9
 73
     5
 74
     0
 42
0.000000001
 43
0.00000001
 40
0.0
 40
0.0
 40
0.0
 40
0.0
 40
0.5916531916112963
 40
1.0
 40
1.0
 40
1.0
 40
1.0
 10
3.99997940231264
 20
3.248087519013256
 30
0.0
 10
3.99997940231264
 20
3.057582865102504
 30
0.0
 10
3.99997940231264
 20
2.735595835180572
 30
0.0
 10
3.99997940231264
 20
2.61608928431389
 30
0.0
 10
3.99997940231264
 20
2.567289165685938
 30
0.0
  0
SPLINE
  5
BC
330
1F
100
AcDbEntity
  8
0
  6
Continuous
 62
     4
370
    25
100
AcDbSpline
210
0.0
220
0.0
230
1.0
 70
     8
 71
     3
 72
    10
 73
     6
 74
     0
 42
0.000000001
 43
0.00000001
 40
0.0
 40
0.0
 40
0.0
 40
0.0
 40
0.5
 40
0.5
 40
1.0
 40
1.0
 40
1.0
 40
1.0
 10
2.999979402312642
 20
8.674515306079082
 30
0.0
 10
3.133033430103485
 20
8.712196356934129
 30
0.0
 10
3.28494756392814
 20
8.74010001313067
 30
0.0
 10
3.62639954806555
 20
8.782008279960579
 30
0.0
 10
3.808586200656356
 20
8.795084335099014
 30
0.0
 10
3.999979402312663
 20
8.801876395304639
 30
0.0
  0
SPLINE
  5
BD
330
1F
100
AcDbEntity
  8
0
  6
Continuous
 62
     4
370
    25
100
AcDbSpline
210
0.0
220
0.0
230
1.0
 70
    24
 71
     3
 72
    18
 73
    14
 74
     0
 42
0.000000001
 43
0.00000001
 40
0.0
 40
0.0
 40
0.0
 40
0.0
 40
0.2499999999999999
 40
0.2499999999999999
 40
0.3749999999999999
 40
0.3749999999999999
 40
0.4999999999999999
 40
0.4999999999999999
 40
0.6249999999999999
 40
0.6249999999999999
 40
0.7499999999999998
 40
0.7499999999999998
 40
1.0
 40
1.0
 40
1.0
 40
1.0
 10
3.99997940231264
 20
8.801876395304854
 30
0.0
 10
3.99997940231264
 20
8.248076375275518
 30
0.0
 10
3.99997940231264
 20
7.698230350472383
 30
0.0
 10
3.99997940231264
 20
6.879655306147368
 30
0.0
 10
3.99997940231264
 20
6.609845102592128
 30
0.0
 10
3.99997940231264
 20
6.088694134848132
 30
0.0
 10
3.99997940231264
 20
5.835497864899336
 30
0.0
 10
3.99997940231264
 20
5.344369764932835
 30
0.0
 10
3.99997940231264
 20
5.104367400865018
 30
0.0
 10
3.99997940231264
 20
4.653027609390087
 30
0.0
 10
3.99997940231264
 20
4.441774773402459
 30
0.0
 10
3.99997940231264
 20
3.850782805308171
 30
0.0
 10
3.99997940231264
 20
3.511359436776575
 30
0.0
 10
3.999979402312642
 20
3.248087519013171
 30
0.0
  0
SPLINE
  5
BE
330
1F
100
AcDbEntity
  8
0
  6
Continuous
 62
     4
370
    25
100
AcDbSpline
210
0.0
220
0.0
230
1.0
 70
     8
 71
     3
 72
     8
 73
     4
 74
     0
 42
0.000000001
 43
0.00000001
 40
0.0
 40
0.0
 40
0.0
 40
0.0
 40
1.0
 40
1.0
 40
1.0
 40
1.0
 10
3.999979402312642
 20
-8.626066678373874
 30
0.0
 10
3.802627134718589
 20
-8.593599270063068
 30
0.0
 10
3.605126234390283
 20
-8.55905354340721
 30
0.0
 10
3.407689874517155
 20
-8.522465911316697
 30
0.0
  0
SPLINE
  5
BF
330
1F
100
AcDbEntity
  8
0
  6
Continuous
 62
     4
370
    25
100
AcDbSpline
210
0.0
220
0.0
230
1.0
 70
    24
 71
     3
 72
    10
 73
     6
 74
     0
 42
0.000000001
 43
0.00000001
 40
0.0
 40
0.0
 40
0.0
 40
0.0
 40
0.5
 40
0.5
 40
1.0
 40
1.0
 40
1.0
 40
1.0
 10
3.99997940231264
 20
-4.732995183725395
 30
0.0
 10
3.99997940231264
 20
-5.291495663296208
 30
0.0
 10
3.99997940231264
 20
-5.921546675708336
 30
0.0
 10
3.99997940231264
 20
-7.25084634591868
 30
0.0
 10
3.99997940231264
 20
-7.948692704589922
 30
0.0
 10
3.99997940231264
 20
-8.626066678373874
 30
0.0
  0
LINE
  5
C0
330
1F
100
AcDbEntity
  8
0
  6
Continuous
 62
     4
370
    25
100
AcDbLine
 10
3.999979402312642
 20
-8.626066678373874
 30
0.0
 11
3.999979402312642
 21
-8.999999999999986
 31
0.0
  0
LINE
  5
C1
330
1F
100
AcDbEntity
  8
0
  6
Continuous
 62
     4
370
    25
100
AcDbLine
 10
3.99997940231264
 20
9.000000000000014
 30
0.0
 11
3.99997940231264
 21
8.801876395304646
 31
0.0
  0
SPLINE
  5
C2
330
1F
100
AcDbEntity
  8
0
  6
Continuous
 62
     1
370
    25
100
AcDbSpline
210
0.0
220
0.0
230
1.0
 70
     8
 71
     3
 72
    26
 73
    22
 74
     0
 42
0.000000001
 43
0.00000001
 40
0.0
 40
0.0
 40
0.0
 40
0.0
 40
0.0548439231762718
 40
0.1096868476472707
 40
0.1645327224350997
 40
0.2193854903264872
 40
0.2742490795541638
 40
0.3291250615258106
 40
0.3808603885087973
 40
0.4325746516445164
 40
0.4842796780319093
 40
0.5359873351322532
 40
0.587709478906146
 40
0.6454386182885213
 40
0.7031730290436797
 40
0.7609071303851338
 40
0.818636000994234
 40
0.876360459550657
 40
0.9340813280341421
 40
0.9917994311133681
 40
0.9999999999999999
 40
0.9999999999999999
 40
0.9999999999999999
 40
0.9999999999999999
 10
3.999979402312626
 20
8.888764826390927
 30
0.0
 10
4.850363143646883
 20
8.78883373299459
 30
0.0
 10
6.551115140867287
 20
8.588973365942449
 30
0.0
 10
9.102259825521891
 20
7.995889369782949
 30
0.0
 10
11.6535711334675
 20
7.206088465915351
 30
0.0
 10
14.20527103006471
 20
6.219011209286031
 30
0.0
 10
16.75752046549585
 20
5.06679106039402
 30
0.0
 10
19.26163026018709
 20
3.803371833969956
 30
0.0
 10
21.71670376659987
 20
2.470255198054848
 30
0.0
 10
24.12237957736888
 20
1.104643971296446
 30
0.0
 10
26.52754831646317
 20
-0.2870838622813547
 30
0.0
 10
28.93286283260945
 20
-1.672060345793072
 30
0.0
 10
31.43171497598943
 20
-3.069148439390109
 30
0.0
 10
34.02431431315944
 20
-4.436828063403301
 30
0.0
 10
36.71013066123719
 20
-5.722060053836998
 30
0.0
 10
39.39595858289934
 20
-6.838422733212451
 30
0.0
 10
42.08156421309061
 20
-7.750516807123732
 30
0.0
 10
44.76692917801235
 20
-8.440031006210289
 30
0.0
 10
47.45209092637959
 20
-8.854053416906257
 30
0.0
 10
49.36929544118335
 20
-9.03091413012704
 30
0.0
 10
50.39144850838969
 20
-8.988968610629108
 30
0.0
 10
50.51860878620366
 20
-8.98375040595553
 30
0.0
  0
LINE
  5
C3
330
1F
100
AcDbEntity
  8
0
  6
Continuous
 62
     4
370
    25
100
AcDbLine
 10
3.999979402312634
 20
8.888764826390954
 30
0.0
 11
3.999979402312642
 21
9.000000000000014
 31
0.0
  0
SPLINE
  5
C4
330
1F
100
AcDbEntity
  8
0
  6
Continuous
 62
     1
370
    25
100
AcDbSpline
210
0.0
220
0.0
230
1.0
 70
     8
 71
     3
 72
    22
 73
    18
 74
     0
 42
0.000000001
 43
0.00000001
 40
0.0
 40
0.0
 40
0.0
 40
0.0
 40
0.0574643668575019
 40
0.1149192622741348
 40
0.1723668318170108
 40
0.2298092312802008
 40
0.2872486236861865
 40
0.3446871762658536
 40
0.3988423556551763
 40
0.4530089579561069
 40
0.5071951408464437
 40
0.5613842766080043
 40
0.6155529138392354
 40
0.6760015632660644
 40
0.736449239077863
 40
0.7968961941190168
 40
0.8068042082764465
 40
0.8068042082764465
 40
0.8068042082764465
 40
0.8068042082764465
 10
53.99997940231268
 20
-8.776491285197332
 30
0.0
 10
53.12856679336505
 20
-8.64129789633775
 30
0.0
 10
51.38588520418178
 20
-8.370933401578592
 30
0.0
 10
48.7721597211129
 20
-7.664665936169247
 30
0.0
 10
46.15882766611418
 20
-6.761177214223464
 30
0.0
 10
43.54577507051
 20
-5.663413343179003
 30
0.0
 10
40.93290355065116
 20
-4.408148599879411
 30
0.0
 10
38.36981924101204
 20
-3.055266162334346
 30
0.0
 10
35.85657759651554
 20
-1.64926989972168
 30
0.0
 10
33.39249248869004
 20
-0.229891594543145
 30
0.0
 10
30.92768482869923
 20
1.195120470397912
 30
0.0
 10
28.46276470226602
 20
2.590257124654149
 30
0.0
 10
25.90326410035688
 20
3.972572011186148
 30
0.0
 10
23.24853513069403
 20
5.294644141540672
 30
0.0
 10
20.49870988403008
 20
6.500126217759972
 30
0.0
 10
18.51525015023878
 20
7.223153494459598
 30
0.0
 10
17.44840699139835
 20
7.560593309429042
 30
0.0
 10
8.50947593623012
 20
9.000000000000018
 30
0.0
  0
LINE
  5
C5
330
1F
100
AcDbEntity
  8
0
  6
Continuous
 62
     1
370
    25
100
AcDbLine
 10
53.99997940231264
 20
-8.999999999999995
 30
0.0
 11
53.99997940231264
 21
-8.77649128519734
 31
0.0
  0
SPLINE
  5
C6
330
1F
100
AcDbEntity
  8
0
  6
Continuous
 62
     1
370
    25
100
AcDbSpline
210
0.0
220
0.0
230
1.0
 70
     8
 71
     3
 72
    21
 73
    17
 74
     0
 42
0.000000001
 43
0.00000001
 40
0.0
 40
0.0
 40
0.0
 40
0.0
 40
0.0574132748521011
 40
0.1251057695941673
 40
0.1927707035870594
 40
0.2604235518626292
 40
0.3280798422643627
 40
0.3957550875878149
 40
0.4712901173633209
 40
0.5468320444060372
 40
0.6223735665999437
 40
0.6979082447021431
 40
0.7734371499046613
 40
0.8489613577174527
 40
0.9244819471687845
 40
1.0
 40
1.0
 40
1.0
 40
1.0
 10
17.26895264598951
 20
7.598321207337923
 30
0.0
 10
17.94940777771587
 20
7.801862195993183
 30
0.0
 10
19.43214610170491
 20
8.24538596458626
 30
0.0
 10
21.71670524201969
 20
8.688041891799907
 30
0.0
 10
24.12237918218191
 20
8.968972474301966
 30
0.0
 10
26.52754842233899
 20
9.030984209601272
 30
0.0
 10
28.93286280427253
 20
8.87980997191786
 30
0.0
 10
31.43171498481192
 20
8.50316742557092
 30
0.0
 10
34.02431430965774
 20
7.881634565721041
 30
0.0
 10
36.71013066597826
 20
7.004447558968026
 30
0.0
 10
39.39595856743775
 20
5.919909929906509
 30
0.0
 10
42.08156427018857
 20
4.660165612827002
 30
0.0
 10
44.76692896510308
 20
3.262317537049471
 30
0.0
 10
47.45209172085588
 20
1.768694587102614
 30
0.0
 10
50.13710124497592
 20
0.2199365326796057
 30
0.0
 10
51.92705505059205
 20
-0.8099057263074277
 30
0.0
 10
52.82201692270078
 20
-1.32481820795245
 30
0.0
  0
SPLINE
  5
C7
330
1F
100
AcDbEntity
  8
0
  6
Continuous
 62
     1
370
    25
100
AcDbSpline
210
0.0
220
0.0
230
1.0
 70
     8
 71
     3
 72
     8
 73
     4
 74
     0
 42
0.000000001
 43
0.00000001
 40
0.0
 40
0.0
 40
0.0
 40
0.0
 40
1.0
 40
1.0
 40
1.0
 40
1.0
 10
53.99997940231264
 20
-6.567570641756557
 30
0.0
 10
52.48986969774354
 20
-5.718922115361478
 30
0.0
 10
51.064001339456
 20
-4.678996385370514
 30
0.0
 10
49.69217913903763
 20
-3.516354217446946
 30
0.0
  0
LINE
  5
C8
330
1F
100
AcDbEntity
  8
0
  6
Continuous
 62
     1
370
    25
100
AcDbLine
 10
53.99997940231264
 20
-8.77649128519734
 30
0.0
 11
53.99997940231264
 21
-6.567570641756562
 31
0.0
  0
SPLINE
  5
C9
330
1F
100
AcDbEntity
  8
0
  6
Continuous
 62
     1
370
    25
100
AcDbSpline
210
0.0
220
0.0
230
1.0
 70
    24
 71
     3
 72
    20
 73
    16
 74
     0
 42
0.000000001
 43
0.00000001
 40
0.0
 40
0.0
 40
0.0
 40
0.0
 40
0.2499999999999994
 40
0.2499999999999994
 40
0.3749999999999994
 40
0.3749999999999994
 40
0.4999999999999996
 40
0.4999999999999996
 40
0.6249999999999996
 40
0.6249999999999996
 40
0.7499999999999997
 40
0.7499999999999997
 40
0.8749999999999999
 40
0.8749999999999999
 40
1.0
 40
1.0
 40
1.0
 40
1.0
 10
52.82201692270077
 20
-1.32481820795245
 30
0.0
 10
52.82393044178097
 20
-1.323478347467991
 30
0.0
 10
52.7700611441557
 20
-1.361198035743283
 30
0.0
 10
52.57867541901762
 20
-1.495207763190679
 30
0.0
 10
52.49487256849098
 20
-1.553887150852889
 30
0.0
 10
52.29025386062061
 20
-1.69716271256244
 30
0.0
 10
52.16930159495283
 20
-1.781854400746578
 30
0.0
 10
51.88637264478806
 20
-1.97996338442972
 30
0.0
 10
51.72599860577082
 20
-2.092258495482707
 30
0.0
 10
51.37823906557874
 20
-2.335762347009553
 30
0.0
 10
51.18788501210945
 20
-2.469049690177529
 30
0.0
 10
50.7845682467442
 20
-2.751455129572637
 30
0.0
 10
50.57495254181844
 20
-2.898229626288812
 30
0.0
 10
50.14148739636829
 20
-3.20174518868416
 30
0.0
 10
49.91652186975114
 20
-3.359267746258833
 30
0.0
 10
49.69217913903764
 20
-3.516354217446974
 30
0.0
  0
SPLINE
  5
CA
330
1F
100
AcDbEntity
  8
0
  6
Continuous
 62
     1
370
    25
100
AcDbSpline
210
0.0
220
0.0
230
1.0
 70
     8
 71
     3
 72
    22
 73
    18
 74
     0
 42
0.000000001
 43
0.00000001
 40
0.0
 40
0.0
 40
0.0
 40
0.0
 40
0.0213922672375538
 40
0.090626371179093
 40
0.1559028301151478
 40
0.2211930577660128
 40
0.2865068870659671
 40
0.351824275637248
 40
0.4171169561106445
 40
0.4899793088264099
 40
0.5628404879860675
 40
0.6357007983579943
 40
0.7085605450027048
 40
0.7814200331703285
 40
0.854279568197951
 40
0.9271394554068932
 40
1.0
 40
1.0
 40
1.0
 40
1.0
 10
41.74020139505828
 20
-7.59788380569832
 30
0.0
 10
41.47109505470278
 20
-7.686941059541997
 30
0.0
 10
40.33105081269308
 20
-8.064223918502334
 30
0.0
 10
38.36981861184567
 20
-8.4989283335062
 30
0.0
 10
35.85657776092361
 20
-8.888143197349692
 30
0.0
 10
33.39249244461995
 20
-9.034006938105806
 30
0.0
 10
30.92768484049346
 20
-8.958357887077087
 30
0.0
 10
28.46276469917046
 20
-8.658361980670573
 30
0.0
 10
25.90326410109204
 20
-8.122719251850747
 30
0.0
 10
23.24853513134921
 20
-7.335579571949676
 30
0.0
 10
20.49870988067141
 20
-6.292531744147079
 30
0.0
 10
17.74889695516676
 20
-5.054132904551089
 30
0.0
 10
14.9991167890582
 20
-3.658969617323191
 30
0.0
 10
12.24934642605208
 20
-2.149823400890585
 30
0.0
 10
9.49957432076995
 20
-0.575480059726869
 30
0.0
 10
6.74978664937637
 20
1.022451378512668
 30
0.0
 10
4.916584574690527
 20
2.052341687923689
 30
0.0
 10
3.999979402313139
 20
2.56728916568566
 30
0.0
  0
SPLINE
  5
CB
330
1F
100
AcDbEntity
  8
0
  6
Continuous
 62
     4
370
    25
100
AcDbSpline
210
0.0
220
0.0
230
1.0
 70
    24
 71
     3
 72
    17
 73
    13
 74
     0
 42
0.000000001
 43
0.00000001
 40
0.0
 40
0.0
 40
0.0
 40
0.0
 40
0.0756918712654389
 40
0.1709929708456965
 40
0.2784551102122611
 40
0.3890336589004588
 40
0.4964957982670232
 40
0.6070743469552207
 40
0.7145364863217853
 40
0.8251150350099825
 40
0.9325771743765465
 40
1.0
 40
1.0
 40
1.0
 40
1.0
 10
3.999979402312634
 20
8.717732110949282
 30
0.0
 10
3.999979402312634
 20
8.471819920449189
 30
0.0
 10
3.999979402312629
 20
7.916287928469187
 30
0.0
 10
3.999979402312634
 20
7.028443663018761
 30
0.0
 10
3.999979402312634
 20
6.072433189334784
 30
0.0
 10
3.999979402312636
 20
5.156272811138446
 30
0.0
 10
3.999979402312636
 20
4.335455376919227
 30
0.0
 10
3.999979402312636
 20
3.648794675994143
 30
0.0
 10
3.999979402312636
 20
3.100693208683096
 30
0.0
 10
3.999979402312636
 20
2.72640087511251
 30
0.0
 10
3.99997940231264
 20
2.523550806146306
 30
0.0
 10
3.99997940231264
 20
2.522864105288845
 30
0.0
 10
3.99997940231264
 20
2.522599363764777
 30
0.0
  0
SPLINE
  5
CC
330
1F
100
AcDbEntity
  8
0
  6
Continuous
 62
     1
370
    25
100
AcDbSpline
210
0.0
220
0.0
230
1.0
 70
     8
 71
     3
 72
    16
 73
    12
 74
     0
 42
0.000000001
 43
0.00000001
 40
0.0
 40
0.0
 40
0.0
 40
0.0
 40
0.1244551789648677
 40
0.2488898448721163
 40
0.3733086445481792
 40
0.4977162469688338
 40
0.6221173367650049
 40
0.7465166076820952
 40
0.8638048144674587
 40
0.9811177607668237
 40
1.0
 40
1.0
 40
1.0
 40
1.0
 10
53.99997940231268
 20
1.993288920567028
 30
0.0
 10
53.12856679219565
 20
2.478377463882171
 30
0.0
 10
51.38588520067381
 20
3.448474596834974
 30
0.0
 10
48.77215973514143
 20
4.792052705983359
 30
0.0
 10
46.15882761351637
 20
6.005069776741937
 30
0.0
 10
43.54577526685208
 20
7.049034464213728
 30
0.0
 10
40.93290281791931
 20
7.893990974675496
 30
0.0
 10
38.36982190950337
 20
8.511645584516064
 30
0.0
 10
35.85656826831264
 20
8.87275166968059
 30
0.0
 10
34.08193580548144
 20
9.024484462424228
 30
0.0
 10
33.12834221619183
 20
8.989662586814092
 30
0.0
 10
32.99613502976461
 20
8.984834846514406
 30
0.0
  0
LINE
  5
CD
330
1F
100
AcDbEntity
  8
0
  6
Continuous
 62
     1
370
    25
100
AcDbLine
 10
53.99997940231264
 20
-0.5000000000000142
 30
0.0
 11
53.99997940231264
 21
1.993288920567028
 31
0.0
  0
LINE
  5
CE
330
1F
100
AcDbEntity
  8
0
  6
Continuous
 62
     1
370
    25
100
AcDbLine
 10
53.99997940231265
 20
-0.5000000000000169
 30
0.0
 11
52.82201692270078
 21
-1.324818207952452
 31
0.0
  0
SPLINE
  5
CF
330
1F
100
AcDbEntity
  8
0
  6
Continuous
 62
     1
370
    25
100
AcDbSpline
210
0.0
220
0.0
230
1.0
 70
     8
 71
     3
 72
    16
 73
    12
 74
     0
 42
0.000000001
 43
0.00000001
 40
0.0
 40
0.0
 40
0.0
 40
0.0
 40
0.1157915459608111
 40
0.2315809833629926
 40
0.3473766497460172
 40
0.4631868694846606
 40
0.5790199362259562
 40
0.6948791676706484
 40
0.8041075588069685
 40
0.9132914780073336
 40
1.0
 40
1.0
 40
1.0
 40
1.0
 10
3.999979402312626
 20
-1.410623926181418
 30
0.0
 10
4.850363143632562
 20
-1.891955286754582
 30
0.0
 10
6.551115140824317
 20
-2.854609242879373
 30
0.0
 10
9.10225982569376
 20
-4.212239836731055
 30
0.0
 10
11.65357113282291
 20
-5.45995402861461
 30
0.0
 10
14.20527103247172
 20
-6.561162099092693
 30
0.0
 10
16.75752045650977
 20
-7.486684352325161
 30
0.0
 10
19.26163029292042
 20
-8.199947599193251
 30
0.0
 10
21.71670365221442
 20
-8.687522131015484
 30
0.0
 10
23.95746713800899
 20
-8.962931391661792
 30
0.0
 10
25.39602977971049
 20
-8.976500882030594
 30
0.0
 10
26.03278554065834
 20
-8.982507190629878
 30
0.0
  0
LINE
  5
D0
330
1F
100
AcDbEntity
  8
0
  6
Continuous
 62
     4
370
    25
100
AcDbLine
 10
3.999979402312634
 20
-1.410623926181425
 30
0.0
 11
3.99997940231264
 21
2.567289165687114
 31
0.0
  0
SPLINE
  5
D1
330
1F
100
AcDbEntity
  8
0
  6
Continuous
 62
     1
370
    25
100
AcDbSpline
210
0.0
220
0.0
230
1.0
 70
     8
 71
     3
 72
    12
 73
     8
 74
     0
 42
0.000000001
 43
0.00000001
 40
0.0
 40
0.0
 40
0.0
 40
0.0
 40
0.1710637035481904
 40
0.3782967094004863
 40
0.585529848535882
 40
0.7927639893746288
 40
1.0
 40
1.0
 40
1.0
 40
1.0
 10
17.2689526459894
 20
-7.598321207337891
 30
0.0
 10
16.51233948193102
 20
-7.82251684115913
 30
0.0
 10
14.8391366673331
 20
-8.318311499975445
 30
0.0
 10
12.24934657784882
 20
-8.784200313772761
 30
0.0
 10
9.4995742802906
 20
-9.02645489834248
 30
0.0
 10
6.749786659496333
 20
-9.000980507741223
 30
0.0
 10
4.916584578063855
 20
-8.751038330681896
 30
0.0
 10
3.999979402313143
 20
-8.62606667837395
 30
0.0
  0
SPLINE
  5
D2
330
1F
100
AcDbEntity
  8
0
  6
Continuous
 62
     4
370
    25
100
AcDbSpline
210
0.0
220
0.0
230
1.0
 70
    24
 71
     3
 72
    16
 73
    12
 74
     0
 42
0.000000001
 43
0.00000001
 40
0.0
 40
0.0
 40
0.0
 40
0.0
 40
0.0226256368782104
 40
0.1523977204921968
 40
0.2821698041061828
 40
0.4119418877201688
 40
0.5417139713341549
 40
0.6714860549481408
 40
0.8012581385621268
 40
0.9310302221761125
 40
1.0
 40
1.0
 40
1.0
 40
1.0
 10
3.999979402312634
 20
-1.962177692563955
 30
0.0
 10
3.999979402312634
 20
-1.983434478931139
 30
0.0
 10
3.999979402312636
 20
-2.126612140836789
 30
0.0
 10
3.999979402312636
 20
-2.548934223817648
 30
0.0
 10
3.999979402312636
 20
-3.224953321032944
 30
0.0
 10
3.999979402312636
 20
-4.04073513219567
 30
0.0
 10
3.999979402312636
 20
-4.958754352991347
 30
0.0
 10
3.99997940231264
 20
-5.954469329627095
 30
0.0
 10
3.99997940231264
 20
-7.000294283827248
 30
0.0
 10
3.99997940231264
 20
-7.900953150267197
 30
0.0
 10
3.99997940231264
 20
-8.439257770599328
 30
0.0
 10
3.99997940231264
 20
-8.626066678381871
 30
0.0
  0
SPLINE
  5
D3
330
1F
100
AcDbEntity
  8
0
  6
Continuous
 62
     1
370
    25
100
AcDbSpline
210
0.0
220
0.0
230
1.0
 70
     8
 71
     3
 72
    12
 73
     8
 74
     0
 42
0.000000001
 43
0.00000001
 40
0.0
 40
0.0
 40
0.0
 40
0.0
 40
0.0308085839988662
 40
0.2731255797409989
 40
0.5154275049963636
 40
0.7577178215771943
 40
1.0
 40
1.0
 40
1.0
 40
1.0
 10
41.74020139505828
 20
7.597883805698354
 30
0.0
 10
41.85400992751111
 20
7.636882612562189
 30
0.0
 10
42.86295020879102
 20
7.982616507189871
 30
0.0
 10
44.76692603537067
 20
8.423080658119082
 30
0.0
 10
47.45209250205646
 20
8.870521474051376
 30
0.0
 10
50.13710104968731
 20
9.052823872976493
 30
0.0
 10
51.92705498549655
 20
8.952246079326592
 30
0.0
 10
52.82201692270077
 20
8.901958027079068
 30
0.0
  0
SPLINE
  5
D4
330
1F
100
AcDbEntity
  8
0
  6
Continuous
 62
     1
370
    25
100
AcDbSpline
210
0.0
220
0.0
230
1.0
 70
     8
 71
     3
 72
    20
 73
    16
 74
     0
 42
0.000000001
 43
0.00000001
 40
0.0
 40
0.0
 40
0.0
 40
0.0
 40
0.2500000000000008
 40
0.2500000000000008
 40
0.3750000000000007
 40
0.3750000000000007
 40
0.5000000000000006
 40
0.5000000000000006
 40
0.6250000000000004
 40
0.6250000000000004
 40
0.7500000000000002
 40
0.7500000000000002
 40
0.8750000000000001
 40
0.8750000000000001
 40
1.0
 40
1.0
 40
1.0
 40
1.0
 10
52.82201692270077
 20
8.901958027079086
 30
0.0
 10
52.82393044178097
 20
8.348161358984118
 30
0.0
 10
52.77006114415567
 20
7.806412835584646
 30
0.0
 10
52.57867541901762
 20
7.01767384390342
 30
0.0
 10
52.49487256849098
 20
6.756545815091532
 30
0.0
 10
52.29025386062063
 20
6.266013134418257
 30
0.0
 10
52.16930159495285
 20
6.03441473126009
 30
0.0
 10
51.88637264478806
 20
5.601294727719621
 30
0.0
 10
51.72599860577084
 20
5.403248424429203
 30
0.0
 10
51.37823906557871
 20
5.05595599742086
 30
0.0
 10
51.18788501210945
 20
4.903553740793244
 30
0.0
 10
50.7845682467442
 20
4.648474346462768
 30
0.0
 10
50.57495254181844
 20
4.547289387139284
 30
0.0
 10
50.14148739636832
 20
4.392061755652004
 30
0.0
 10
49.91652186975116
 20
4.338272105579497
 30
0.0
 10
49.69217913903766
 20
4.307800263275026
 30
0.0
  0
SPLINE
  5
D5
330
1F
100
AcDbEntity
  8
0
  6
Continuous
 62
     1
370
    25
100
AcDbSpline
210
0.0
220
0.0
230
1.0
 70
     8
 71
     3
 72
     8
 73
     4
 74
     0
 42
0.000000001
 43
0.00000001
 40
0.0
 40
0.0
 40
0.0
 40
0.0
 40
1.0
 40
1.0
 40
1.0
 40
1.0
 10
53.99997940231264
 20
2.208415107906861
 30
0.0
 10
52.48986969774354
 20
3.024783451196154
 30
0.0
 10
51.064001339456
 20
3.708760542780151
 30
0.0
 10
49.69217913903763
 20
4.307800263275033
 30
0.0
  0
LINE
  5
D6
330
1F
100
AcDbEntity
  8
0
  6
Continuous
 62
     1
370
    25
100
AcDbLine
 10
53.99997940231264
 20
2.00038537876197
 30
0.0
 11
53.99997940231264
 21
2.208415107906863
 31
0.0
  0
LINE
  5
D7
330
1F
100
AcDbEntity
  8
0
  6
Continuous
 62
     1
370
    25
100
AcDbLine
 10
53.99997940231264
 20
-0.4999999999999828
 30
0.0
 11
53.99997940231264
 21
-6.567570641756557
 31
0.0
  0
ELLIPSE
  5
D8
330
1F
100
AcDbEntity
  8
0
  6
Continuous
 62
     1
370
    25
100
AcDbEllipse
 10
54.7140534056837
 20
0.0000000000000141
 30
0.0
 11
12.853332060679
 21
-5.350968460038310E-17
 31
0.0
210
0.0
220
0.0
230
1.0
 40
0.7002075382097119
 41
1.626380500075814
 42
1.718535207603882
  0
LINE
  5
D9
330
1F
100
AcDbEntity
  8
0
  6
Continuous
 62
     1
370
    25
100
AcDbLine
 10
53.99997940231264
 20
2.208415107906863
 30
0.0
 11
53.99997940231264
 21
8.986100377805734
 31
0.0
  0
LINE
  5
DA
330
1F
100
AcDbEntity
  8
0
  6
Continuous
 62
     1
370
    25
100
AcDbLine
 10
53.99997940231264
 20
8.986100377805734
 30
0.0
 11
53.99997940231264
 21
9.00000000000002
 31
0.0
  0
LINE
  5
DB
330
1F
100
AcDbEntity
  8
중심선
100
AcDbLine
 10
-69.00002059768735
 20
0.0000000000000097
 30
0.0
 11
60.99997940231265
 21
0.0000000000000256
 31
0.0
  0
CIRCLE
  5
DC
330
1F
100
AcDbEntity
  8
해칭선
100
AcDbCircle
 10
0.0
 20
0.0
 30
0.0
 40
3.0
  0
INSERT
  5
DD
330
1F
100
AcDbEntity
  8
0
  6
Continuous
 62
     7
100
AcDbBlockReference
 66
     1
  2
블럭10
 10
-12.44009924894177
 20
-52.04717430164393
 30
0.0
  0
ATTRIB
  5
DE
330
DD
100
AcDbEntity
  8
FORMAT
 62
     2
100
AcDbText
 10
-28.55936028837732
 20
-49.97180738881174
 30
0.0
 40
4.233333333333333
  1
SEME7218050E [ 4 FLUTE ]
 41
0.75
  7
SLDTEXTSTYLE0
 11
-28.55936028837732
 21
-52.08847405547841
 31
0.0
100
AcDbAttribute
  2
AUTOATTR0
 70
     0
 74
     1
  0
SEQEND
  5
DF
330
DD
100
AcDbEntity
  8
0
  6
Continuous
 62
     7
  0
HATCH
  5
E0
330
1F
100
AcDbEntity
  8
중심선
100
AcDbHatch
 10
0.0
 20
0.0
 30
0.0
210
0.0
220
0.0
230
1.0
  2
SOLID
 70
     1
 71
     0
 91
        1
 92
        0
 93
        4
 72
     1
 10
-6.725189944560922
 20
-35.8
 11
-10.17146518839821
 21
-35.8
 72
     1
 10
-10.17146518839821
 20
-35.8
 11
-12.29969504760223
 21
-38.33632558057262
 72
     1
 10
-12.29969504760223
 20
-38.33632558057262
 11
-8.853386718651796
 21
-38.33628615127013
 72
     1
 10
-8.853386718651796
 20
-38.33628615127013
 11
-6.725189944560922
 21
-35.8
 97
        0
 75
     0
 76
     1
 98
        1
 10
0.0
 20
0.0
  0
HATCH
  5
E1
330
1F
100
AcDbEntity
  8
중심선
100
AcDbHatch
 10
0.0
 20
0.0
 30
0.0
210
0.0
220
0.0
230
1.0
  2
SOLID
 70
     1
 71
     0
 91
        1
 92
        0
 93
        4
 72
     1
 10
-1.712425953524915
 20
-35.79999999999997
 11
-5.158701197362225
 21
-35.8
 72
     1
 10
-5.158701197362225
 20
-35.8
 11
-9.689839205719641
 21
-41.20000000000002
 72
     1
 10
-9.689839205719641
 20
-41.20000000000002
 11
-6.243563961882359
 21
-41.20000000000002
 72
     1
 10
-6.243563961882359
 20
-41.20000000000002
 11
-1.712425953524916
 21
-35.79999999999997
 97
        0
 75
     0
 76
     1
 98
        1
 10
0.0
 20
0.0
  0
HATCH
  5
E2
330
1F
100
AcDbEntity
  8
중심선
100
AcDbHatch
 10
0.0
 20
0.0
 30
0.0
210
0.0
220
0.0
230
1.0
  2
SOLID
 70
     1
 71
     0
 91
        1
 92
        0
 93
        4
 72
     1
 10
3.300338037510953
 20
-35.79999999999997
 11
-0.1459372063261632
 21
-35.8
 72
     1
 10
-0.1459372063261632
 20
-35.8
 11
-7.19437410821544
 21
-44.20000000000002
 72
     1
 10
-7.19437410821544
 20
-44.20000000000002
 11
-3.748098864378158
 21
-44.20000000000002
 72
     1
 10
-3.748098864378158
 20
-44.20000000000002
 11
3.300338037510952
 21
-35.79999999999997
 97
        0
 75
     0
 76
     1
 98
        1
 10
0.0
 20
0.0
  0
HATCH
  5
E3
330
1F
100
AcDbEntity
  8
중심선
100
AcDbHatch
 10
0.0
 20
0.0
 30
0.0
210
0.0
220
0.0
230
1.0
  2
SOLID
 70
     1
 71
     0
 91
        1
 92
        0
 93
        6
 72
     3
 10
8.100228468523124
 20
-40.00000000005127
 11
3.960054785062284
 21
1.540850780301639E-10
 40
0.3939339440162633
 50
17.09539180608434
 51
320.0019657685079
 73
     0
 72
     1
 10
9.783228124223719
 20
-38.5878940046383
 11
12.08852999792476
 21
-36.65356729459038
 72
     3
 10
8.100228468470277
 20
-40.00000000000015
 11
6.600054785286829
 21
-1.249000902703301E-13
 40
0.6363583540795982
 50
39.99873849337408
 51
368.4976242363724
 73
     1
 72
     1
 10
14.52556096037089
 20
-39.03999999993002
 11
6.7802957753062
 21
-39.03999999993002
 72
     1
 10
6.7802957753062
 20
-39.03999999993002
 11
6.780270730860266
 21
-40.95999999992991
 72
     1
 10
6.780270730860266
 20
-40.95999999992991
 11
11.2216505003323
 21
-40.95999999992988
 97
        0
 75
     0
 76
     1
 98
        1
 10
0.0
 20
0.0
  0
DIMENSION
  5
E4
330
1F
100
AcDbEntity
  8
치수문자_일반주서
100
AcDbDimension
  2
_D
 10
69.86975167619572
 20
9.00000000000008
 30
0.0
 11
69.86975167619569
 21
19.54150000000008
 31
0.0
 70
   160
  1
%%c<>
 71
     2
 42
18.00000000000002
 52
-270.0
  3
SLDDIMSTYLE0
100
AcDbAlignedDimension
 13
53.99997940231264
 23
-8.999999999999996
 33
0.0
 14
53.99997940231264
 24
9.000000000000021
 34
0.0
 50
90.0000000000002
100
AcDbRotatedDimension
  0
DIMENSION
  5
F2
330
1F
100
AcDbEntity
  8
치수문자_일반주서
100
AcDbDimension
  2
_D_1
 10
53.99997940231265
 20
27.38913260158166
 30
0.0
 11
-6.000020597687351
 21
27.38913260158166
 31
0.0
 70
   160
  1
<>
 71
     2
 42
120.0
  3
SLDDIMSTYLE1
100
AcDbAlignedDimension
 13
-66.00002059768737
 23
9.500000000000004
 33
0.0
 14
53.99997940231264
 24
9.00000000000002
 34
0.0
 50
-0.0000000000000017
100
AcDbRotatedDimension
  0
DIMENSION
  5
FD
330
1F
100
AcDbEntity
  8
치수문자_일반주서
100
AcDbDimension
  2
_D_2
 10
-78.8402896680786
 20
-10.00000000000005
 30
0.0
 11
-78.84028966807871
 21
20.76024999999994
 31
0.0
 70
   160
  1
%%c<>
 71
     2
 42
19.99999999999999
 52
-270.0
  3
SLDDIMSTYLE2
100
AcDbAlignedDimension
 13
-65.50002059768737
 23
9.999999999999993
 33
0.0
 14
-65.50002059768737
 24
-10.0
 34
0.0
 50
90.0000000000002
100
AcDbRotatedDimension
  0
DIMENSION
  5
10B
330
1F
100
AcDbEntity
  8
치수문자_일반주서
100
AcDbDimension
  2
_D_3
 10
53.99997940231264
 20
19.73468312897862
 30
0.0
 11
28.99997940231263
 21
19.73468312897862
 31
0.0
 70
   160
  1
<>
 71
     2
 42
50.0
  3
SLDDIMSTYLE1
100
AcDbAlignedDimension
 13
3.999979402312642
 23
9.000000000000014
 33
0.0
 14
53.99997940231264
 24
9.00000000000002
 34
0.0
 50
0.0000000000000326
100
AcDbRotatedDimension
  0
INSERT
  5
11B
330
1F
100
AcDbEntity
  8
해칭선
100
AcDbBlockReference
  2
SW_DOWELSYMBOL_0
 10
0.0
 20
0.0
 30
0.0
  0
ENDSEC
  0
SECTION
  2
OBJECTS
  0
DICTIONARY
  5
C
330
0
100
AcDbDictionary
281
     1
  3
ACAD_GROUP
350
D
  3
ACAD_IMAGE_VARS
350
13F
  3
ACAD_LAYOUT
350
1A
  3
ACAD_MLINESTYLE
350
17
  3
ACAD_PLOTSETTINGS
350
19
  3
ACAD_PLOTSTYLENAME
350
E
  3
ACAD_SCALELIST
350
47
  3
APPDATA
350
13D
  3
DWGPROPS
350
174
  0
DICTIONARY
  5
171
330
1F
100
AcDbDictionary
280
     1
281
     1
  3
DIM_BOUNDING_BOXES_V1
360
172
  0
DICTIONARY
  5
D
102
{ACAD_REACTORS
330
C
102
}
330
C
100
AcDbDictionary
281
     1
  0
RASTERVARIABLES
  5
13F
102
{ACAD_REACTORS
330
C
102
}
330
C
100
AcDbRasterVariables
 90
        0
 70
     1
 71
     1
 72
     1
  0
DICTIONARY
  5
1A
102
{ACAD_REACTORS
330
C
102
}
330
C
100
AcDbDictionary
281
     1
  3
Layout1
350
1E
  3
Layout2
350
26
  3
Model
350
22
  0
DICTIONARY
  5
17
102
{ACAD_REACTORS
330
C
102
}
330
C
100
AcDbDictionary
281
     1
  3
Standard
350
18
  0
DICTIONARY
  5
19
102
{ACAD_REACTORS
330
C
102
}
330
C
100
AcDbDictionary
281
     1
  0
ACDBDICTIONARYWDFLT
  5
E
102
{ACAD_REACTORS
330
C
102
}
330
C
100
AcDbDictionary
281
     1
  3
Normal
350
F
100
AcDbDictionaryWithDefault
340
F
  0
DICTIONARY
  5
47
102
{ACAD_REACTORS
330
C
102
}
330
C
100
AcDbDictionary
281
     1
  3
A0
350
48
  3
A1
350
49
  3
A2
350
4A
  3
A3
350
4B
  3
A4
350
4C
  3
A5
350
4D
  3
A6
350
4E
  3
A7
350
4F
  3
A8
350
50
  3
A9
350
51
  3
B0
350
52
  3
B1
350
53
  3
B2
350
54
  3
B3
350
55
  3
B4
350
56
  3
B5
350
57
  3
B6
350
58
  3
B7
350
59
  3
B8
350
5A
  3
B9
350
5B
  3
C0
350
5C
  3
C1
350
5D
  3
C2
350
5E
  3
C3
350
5F
  3
C4
350
60
  3
C5
350
61
  3
C6
350
62
  3
C7
350
63
  3
C8
350
64
  3
C9
350
65
  3
D0
350
66
  3
D1
350
67
  3
D2
350
68
  0
DICTIONARY
  5
13D
102
{ACAD_REACTORS
330
C
102
}
330
C
100
AcDbDictionary
281
     1
  0
XRECORD
  5
174
102
{ACAD_REACTORS
330
C
102
}
330
C
100
AcDbXrecord
280
     1
  1
DWGPROPS COOKIE
  2

  3

  4

  6

  7

  8
12016016
  9

300
=
301
=
302
=
303
=
304
=
305
=
306
=
307
=
308
=
309
=
 40
0.0
 41
2458260.209964352
 42
2459677.214217292
  1

 90
        0
  0
DICTIONARY
  5
172
102
{ACAD_REACTORS
330
171
102
}
330
171
100
AcDbDictionary
281
     1
  0
LAYOUT
  5
1E
102
{ACAD_REACTORS
330
1A
102
}
330
1A
100
AcDbPlotSettings
  1

  2
none_device
  4

  6

 40
0.0
 41
0.0
 42
0.0
 43
0.0
 44
0.0
 45
0.0
 46
0.0
 47
0.0
 48
0.0
 49
0.0
140
0.0
141
0.0
142
1.0
143
1.0
 70
   688
 72
     1
 73
     0
 74
     5
  7

 75
    16
147
1.0
148
0.0
149
0.0
100
AcDbLayout
  1
Layout1
 70
     1
 71
     1
 10
0.0
 20
0.0
 11
420.0
 21
297.0
 12
0.0
 22
0.0
 32
0.0
 14
1.000000000000000E+20
 24
1.000000000000000E+20
 34
1.000000000000000E+20
 15
-1.000000000000000E+20
 25
-1.000000000000000E+20
 35
-1.000000000000000E+20
146
0.0
 13
0.0
 23
0.0
 33
0.0
 16
1.0
 26
0.0
 36
0.0
 17
0.0
 27
1.0
 37
0.0
 76
     0
330
1B
  0
LAYOUT
  5
26
102
{ACAD_REACTORS
330
1A
102
}
330
1A
100
AcDbPlotSettings
  1

  2
none_device
  4

  6

 40
0.0
 41
0.0
 42
0.0
 43
0.0
 44
0.0
 45
0.0
 46
0.0
 47
0.0
 48
0.0
 49
0.0
140
0.0
141
0.0
142
1.0
143
1.0
 70
   688
 72
     1
 73
     0
 74
     5
  7

 75
    16
147
1.0
148
0.0
149
0.0
100
AcDbLayout
  1
Layout2
 70
     1
 71
     2
 10
0.0
 20
0.0
 11
0.0
 21
0.0
 12
0.0
 22
0.0
 32
0.0
 14
0.0
 24
0.0
 34
0.0
 15
0.0
 25
0.0
 35
0.0
146
0.0
 13
0.0
 23
0.0
 33
0.0
 16
1.0
 26
0.0
 36
0.0
 17
0.0
 27
1.0
 37
0.0
 76
     0
330
23
  0
LAYOUT
  5
22
102
{ACAD_REACTORS
330
1A
102
}
330
1A
100
AcDbPlotSettings
  1

  2
none_device
  4
ANSI_A_(11.00_x_8.50_Inches)
  6

 40
6.35
 41
19.05
 42
6.35000508
 43
19.05000254
 44
279.4
 45
215.9
 46
131.7894856364499
 47
105.702995488026
 48
0.0
 49
0.0
140
0.0
141
0.0
142
0.0703203501998302
143
1.0
 70
  1696
 72
     0
 73
     0
 74
     0
  7

 75
     0
147
0.0235690232323232
148
0.0
149
0.0
100
AcDbLayout
  1
Model
 70
     1
 71
     0
 10
0.0
 20
0.0
 11
420.0
 21
297.0
 12
0.0
 22
0.0
 32
0.0
 14
-83.21528966807873
 24
-49.97180738881174
 34
0.0
 15
70.42008500952912
 25
31.76413260158166
 35
0.0
146
0.0
 13
0.0
 23
0.0
 33
0.0
 16
1.0
 26
0.0
 36
0.0
 17
0.0
 27
1.0
 37
0.0
 76
     0
330
1F
331
29
  0
MLINESTYLE
  5
18
102
{ACAD_REACTORS
330
17
102
}
330
17
100
AcDbMlineStyle
  2
Standard
 70
     0
  3

 62
   256
 51
90.0
 52
90.0
 71
     2
 49
0.5
 62
   256
  6
BYLAYER
 49
-0.5
 62
   256
  6
BYLAYER
  0
ACDBPLACEHOLDER
  5
F
102
{ACAD_REACTORS
330
E
102
}
330
E
  0
SCALE
  5
48
102
{ACAD_REACTORS
330
47
102
}
330
47
100
AcDbScale
 70
     0
300
1:1
140
1.0
141
1.0
290
     1
  0
SCALE
  5
49
102
{ACAD_REACTORS
330
47
102
}
330
47
100
AcDbScale
 70
     0
300
1:2
140
1.0
141
2.0
290
     0
  0
SCALE
  5
4A
102
{ACAD_REACTORS
330
47
102
}
330
47
100
AcDbScale
 70
     0
300
1:4
140
1.0
141
4.0
290
     0
  0
SCALE
  5
4B
102
{ACAD_REACTORS
330
47
102
}
330
47
100
AcDbScale
 70
     0
300
1:5
140
1.0
141
5.0
290
     0
  0
SCALE
  5
4C
102
{ACAD_REACTORS
330
47
102
}
330
47
100
AcDbScale
 70
     0
300
1:8
140
1.0
141
8.0
290
     0
  0
SCALE
  5
4D
102
{ACAD_REACTORS
330
47
102
}
330
47
100
AcDbScale
 70
     0
300
1:10
140
1.0
141
10.0
290
     0
  0
SCALE
  5
4E
102
{ACAD_REACTORS
330
47
102
}
330
47
100
AcDbScale
 70
     0
300
1:16
140
1.0
141
16.0
290
     0
  0
SCALE
  5
4F
102
{ACAD_REACTORS
330
47
102
}
330
47
100
AcDbScale
 70
     0
300
1:20
140
1.0
141
20.0
290
     0
  0
SCALE
  5
50
102
{ACAD_REACTORS
330
47
102
}
330
47
100
AcDbScale
 70
     0
300
1:30
140
1.0
141
30.0
290
     0
  0
SCALE
  5
51
102
{ACAD_REACTORS
330
47
102
}
330
47
100
AcDbScale
 70
     0
300
1:40
140
1.0
141
40.0
290
     0
  0
SCALE
  5
52
102
{ACAD_REACTORS
330
47
102
}
330
47
100
AcDbScale
 70
     0
300
1:50
140
1.0
141
50.0
290
     0
  0
SCALE
  5
53
102
{ACAD_REACTORS
330
47
102
}
330
47
100
AcDbScale
 70
     0
300
1:100
140
1.0
141
100.0
290
     0
  0
SCALE
  5
54
102
{ACAD_REACTORS
330
47
102
}
330
47
100
AcDbScale
 70
     0
300
2:1
140
2.0
141
1.0
290
     0
  0
SCALE
  5
55
102
{ACAD_REACTORS
330
47
102
}
330
47
100
AcDbScale
 70
     0
300
4:1
140
4.0
141
1.0
290
     0
  0
SCALE
  5
56
102
{ACAD_REACTORS
330
47
102
}
330
47
100
AcDbScale
 70
     0
300
8:1
140
8.0
141
1.0
290
     0
  0
SCALE
  5
57
102
{ACAD_REACTORS
330
47
102
}
330
47
100
AcDbScale
 70
     0
300
10:1
140
10.0
141
1.0
290
     0
  0
SCALE
  5
58
102
{ACAD_REACTORS
330
47
102
}
330
47
100
AcDbScale
 70
     0
300
100:1
140
100.0
141
1.0
290
     0
  0
SCALE
  5
59
102
{ACAD_REACTORS
330
47
102
}
330
47
100
AcDbScale
 70
     0
300
1/128" = 1'-0"
140
0.0078125
141
12.0
290
     0
  0
SCALE
  5
5A
102
{ACAD_REACTORS
330
47
102
}
330
47
100
AcDbScale
 70
     0
300
1/64" = 1'-0"
140
0.015625
141
12.0
290
     0
  0
SCALE
  5
5B
102
{ACAD_REACTORS
330
47
102
}
330
47
100
AcDbScale
 70
     0
300
1/32" = 1'-0"
140
0.03125
141
12.0
290
     0
  0
SCALE
  5
5C
102
{ACAD_REACTORS
330
47
102
}
330
47
100
AcDbScale
 70
     0
300
1/16" = 1'-0"
140
0.0625
141
12.0
290
     0
  0
SCALE
  5
5D
102
{ACAD_REACTORS
330
47
102
}
330
47
100
AcDbScale
 70
     0
300
3/32" = 1'-0"
140
0.09375
141
12.0
290
     0
  0
SCALE
  5
5E
102
{ACAD_REACTORS
330
47
102
}
330
47
100
AcDbScale
 70
     0
300
1/8" = 1'-0"
140
0.125
141
12.0
290
     0
  0
SCALE
  5
5F
102
{ACAD_REACTORS
330
47
102
}
330
47
100
AcDbScale
 70
     0
300
3/16" = 1'-0"
140
0.1875
141
12.0
290
     0
  0
SCALE
  5
60
102
{ACAD_REACTORS
330
47
102
}
330
47
100
AcDbScale
 70
     0
300
1/4" = 1'-0"
140
0.25
141
12.0
290
     0
  0
SCALE
  5
61
102
{ACAD_REACTORS
330
47
102
}
330
47
100
AcDbScale
 70
     0
300
3/8" = 1'-0"
140
0.375
141
12.0
290
     0
  0
SCALE
  5
62
102
{ACAD_REACTORS
330
47
102
}
330
47
100
AcDbScale
 70
     0
300
1/2" = 1'-0"
140
0.5
141
12.0
290
     0
  0
SCALE
  5
63
102
{ACAD_REACTORS
330
47
102
}
330
47
100
AcDbScale
 70
     0
300
3/4" = 1'-0"
140
0.75
141
12.0
290
     0
  0
SCALE
  5
64
102
{ACAD_REACTORS
330
47
102
}
330
47
100
AcDbScale
 70
     0
300
1" = 1'-0"
140
1.0
141
12.0
290
     0
  0
SCALE
  5
65
102
{ACAD_REACTORS
330
47
102
}
330
47
100
AcDbScale
 70
     0
300
1-1/2" = 1'-0"
140
1.5
141
12.0
290
     0
  0
SCALE
  5
66
102
{ACAD_REACTORS
330
47
102
}
330
47
100
AcDbScale
 70
     0
300
3" = 1'-0"
140
3.0
141
12.0
290
     0
  0
SCALE
  5
67
102
{ACAD_REACTORS
330
47
102
}
330
47
100
AcDbScale
 70
     0
300
6" = 1'-0"
140
6.0
141
12.0
290
     0
  0
SCALE
  5
68
102
{ACAD_REACTORS
330
47
102
}
330
47
100
AcDbScale
 70
     0
300
1'-0" = 1'-0"
140
12.0
141
12.0
290
     0
  0
ENDSEC
  0
EOF
