  0
SECTION
  2
HEADER
  9
$ACADVER
  1
AC1015
  9
$ACADMAINTVER
 70
     6
  9
$DWGCODEPAGE
  3
ANSI_949
  9
$INSBASE
 10
0.0
 20
0.0
 30
0.0
  9
$EXTMIN
 10
-96.7873025604206
 20
-49.97180738881174
 30
0.0
  9
$EXTMAX
 10
138.6757822815589
 20
31.76413260158164
 30
0.0
  9
$LIMMIN
 10
0.0
 20
0.0
  9
$LIMMAX
 10
420.0
 20
297.0
  9
$ORTHOMODE
 70
     0
  9
$REGENMODE
 70
     1
  9
$FILLMODE
 70
     1
  9
$QTEXTMODE
 70
     0
  9
$MIRRTEXT
 70
     1
  9
$LTSCALE
 40
1.0
  9
$ATTMODE
 70
     1
  9
$TEXTSIZE
 40
3.5
  9
$TRACEWID
 40
1.0
  9
$TEXTSTYLE
  7
Standard
  9
$CLAYER
  8
0
  9
$CELTYPE
  6
ByLayer
  9
$CECOLOR
 62
   256
  9
$CELTSCALE
 40
1.0
  9
$DISPSILH
 70
     0
  9
$DIMSCALE
 40
1.0
  9
$DIMASZ
 40
3.302
  9
$DIMEXO
 40
1.0
  9
$DIMDLI
 40
3.75
  9
$DIMRND
 40
0.0
  9
$DIMDLE
 40
0.0
  9
$DIMEXE
 40
1.0
  9
$DIMTP
 40
0.0
  9
$DIMTM
 40
0.0
  9
$DIMTXT
 40
3.5
  9
$DIMCEN
 40
2.5
  9
$DIMTSZ
 40
0.0
  9
$DIMTOL
 70
     0
  9
$DIMLIM
 70
     0
  9
$DIMTIH
 70
     1
  9
$DIMTOH
 70
     1
  9
$DIMSE1
 70
     0
  9
$DIMSE2
 70
     0
  9
$DIMTAD
 70
     1
  9
$DIMZIN
 70
     0
  9
$DIMBLK
  1

  9
$DIMASO
 70
     1
  9
$DIMSHO
 70
     1
  9
$DIMPOST
  1

  9
$DIMAPOST
  1

  9
$DIMALT
 70
     0
  9
$DIMALTD
 70
     3
  9
$DIMALTF
 40
0.0393700787401575
  9
$DIMLFAC
 40
1.0
  9
$DIMTOFL
 70
     1
  9
$DIMTVP
 40
0.0
  9
$DIMTIX
 70
     0
  9
$DIMSOXD
 70
     0
  9
$DIMSAH
 70
     0
  9
$DIMBLK1
  1

  9
$DIMBLK2
  1

  9
$DIMSTYLE
  2
ISO-25
  9
$DIMCLRD
 70
     0
  9
$DIMCLRE
 70
     0
  9
$DIMCLRT
 70
     0
  9
$DIMTFAC
 40
1.0
  9
$DIMGAP
 40
1.524
  9
$DIMJUST
 70
     0
  9
$DIMSD1
 70
     0
  9
$DIMSD2
 70
     0
  9
$DIMTOLJ
 70
     0
  9
$DIMTZIN
 70
     0
  9
$DIMALTZ
 70
     0
  9
$DIMALTTZ
 70
     0
  9
$DIMUPT
 70
     0
  9
$DIMDEC
 70
     2
  9
$DIMTDEC
 70
     2
  9
$DIMALTU
 70
     2
  9
$DIMALTTD
 70
     3
  9
$DIMTXSTY
  7
Standard
  9
$DIMAUNIT
 70
     0
  9
$DIMADEC
 70
     2
  9
$DIMALTRND
 40
0.0
  9
$DIMAZIN
 70
     0
  9
$DIMDSEP
 70
    44
  9
$DIMATFIT
 70
     3
  9
$DIMFRAC
 70
     0
  9
$DIMLDRBLK
  1

  9
$DIMLUNIT
 70
     2
  9
$DIMLWD
 70
    -2
  9
$DIMLWE
 70
    -2
  9
$DIMTMOVE
 70
     0
  9
$LUNITS
 70
     2
  9
$LUPREC
 70
     2
  9
$SKETCHINC
 40
1.0
  9
$FILLETRAD
 40
10.0
  9
$AUNITS
 70
     0
  9
$AUPREC
 70
     2
  9
$MENU
  1
.
  9
$ELEVATION
 40
0.0
  9
$PELEVATION
 40
0.0
  9
$THICKNESS
 40
0.0
  9
$LIMCHECK
 70
     0
  9
$CHAMFERA
 40
0.0
  9
$CHAMFERB
 40
0.0
  9
$CHAMFERC
 40
0.0
  9
$CHAMFERD
 40
0.0
  9
$SKPOLY
 70
     0
  9
$TDCREATE
 40
2458260.585342257
  9
$TDUCREATE
 40
2458260.210342257
  9
$TDUPDATE
 40
2458268.612988125
  9
$TDUUPDATE
 40
2458268.237988125
  9
$TDINDWG
 40
0.0008262384
  9
$TDUSRTIMER
 40
2458268.237161945
  9
$USRTIMER
 70
     1
  9
$ANGBASE
 50
0.0
  9
$ANGDIR
 70
     0
  9
$PDMODE
 70
     0
  9
$PDSIZE
 40
-1.0
  9
$PLINEWID
 40
0.0
  9
$SPLFRAME
 70
     0
  9
$SPLINETYPE
 70
     6
  9
$SPLINESEGS
 70
     8
  9
$HANDSEED
  5
148
  9
$SURFTAB1
 70
     6
  9
$SURFTAB2
 70
     6
  9
$SURFTYPE
 70
     6
  9
$SURFU
 70
     6
  9
$SURFV
 70
     6
  9
$UCSBASE
  2

  9
$UCSNAME
  2

  9
$UCSORG
 10
0.0
 20
0.0
 30
0.0
  9
$UCSXDIR
 10
1.0
 20
0.0
 30
0.0
  9
$UCSYDIR
 10
0.0
 20
1.0
 30
0.0
  9
$UCSORTHOREF
  2

  9
$UCSORTHOVIEW
 70
     0
  9
$UCSORGTOP
 10
0.0
 20
0.0
 30
0.0
  9
$UCSORGBOTTOM
 10
0.0
 20
0.0
 30
0.0
  9
$UCSORGLEFT
 10
0.0
 20
0.0
 30
0.0
  9
$UCSORGRIGHT
 10
0.0
 20
0.0
 30
0.0
  9
$UCSORGFRONT
 10
0.0
 20
0.0
 30
0.0
  9
$UCSORGBACK
 10
0.0
 20
0.0
 30
0.0
  9
$PUCSBASE
  2

  9
$PUCSNAME
  2

  9
$PUCSORG
 10
0.0
 20
0.0
 30
0.0
  9
$PUCSXDIR
 10
1.0
 20
0.0
 30
0.0
  9
$PUCSYDIR
 10
0.0
 20
1.0
 30
0.0
  9
$PUCSORTHOREF
  2

  9
$PUCSORTHOVIEW
 70
     0
  9
$PUCSORGTOP
 10
0.0
 20
0.0
 30
0.0
  9
$PUCSORGBOTTOM
 10
0.0
 20
0.0
 30
0.0
  9
$PUCSORGLEFT
 10
0.0
 20
0.0
 30
0.0
  9
$PUCSORGRIGHT
 10
0.0
 20
0.0
 30
0.0
  9
$PUCSORGFRONT
 10
0.0
 20
0.0
 30
0.0
  9
$PUCSORGBACK
 10
0.0
 20
0.0
 30
0.0
  9
$USERI1
 70
     0
  9
$USERI2
 70
     0
  9
$USERI3
 70
     0
  9
$USERI4
 70
     0
  9
$USERI5
 70
     0
  9
$USERR1
 40
0.0
  9
$USERR2
 40
0.0
  9
$USERR3
 40
0.0
  9
$USERR4
 40
0.0
  9
$USERR5
 40
0.0
  9
$WORLDVIEW
 70
     1
  9
$SHADEDGE
 70
     3
  9
$SHADEDIF
 70
    70
  9
$TILEMODE
 70
     1
  9
$MAXACTVP
 70
    64
  9
$PINSBASE
 10
0.0
 20
0.0
 30
0.0
  9
$PLIMCHECK
 70
     0
  9
$PEXTMIN
 10
1.000000000000000E+20
 20
1.000000000000000E+20
 30
1.000000000000000E+20
  9
$PEXTMAX
 10
-1.000000000000000E+20
 20
-1.000000000000000E+20
 30
-1.000000000000000E+20
  9
$PLIMMIN
 10
0.0
 20
0.0
  9
$PLIMMAX
 10
0.0
 20
0.0
  9
$UNITMODE
 70
     0
  9
$VISRETAIN
 70
     1
  9
$PLINEGEN
 70
     0
  9
$PSLTSCALE
 70
     1
  9
$TREEDEPTH
 70
  3020
  9
$CMLSTYLE
  2
Standard
  9
$CMLJUST
 70
     0
  9
$CMLSCALE
 40
20.0
  9
$PROXYGRAPHICS
 70
     1
  9
$MEASUREMENT
 70
     1
  9
$CELWEIGHT
370
    -1
  9
$ENDCAPS
280
     0
  9
$JOINSTYLE
280
     0
  9
$LWDISPLAY
290
     1
  9
$INSUNITS
 70
     4
  9
$HYPERLINKBASE
  1

  9
$STYLESHEET
  1

  9
$XEDIT
290
     1
  9
$CEPSNTYPE
380
     0
  9
$PSTYLEMODE
290
     1
  9
$FINGERPRINTGUID
  2
{563C18CA-2DA7-4B6C-AC7D-7535036CC879}
  9
$VERSIONGUID
  2
{FAEB1C32-E019-11D5-929B-00C0DF256EC4}
  9
$EXTNAMES
290
     1
  9
$PSVPSCALE
 40
0.0
  9
$OLESTARTUP
290
     0
  0
ENDSEC
  0
SECTION
  2
CLASSES
  0
CLASS
  1
ACDBDICTIONARYWDFLT
  2
AcDbDictionaryWithDefault
  3
ObjectDBX Classes
 90
        0
280
     0
281
     0
  0
CLASS
  1
VISUALSTYLE
  2
AcDbVisualStyle
  3
ObjectDBX Classes
 90
     4095
280
     0
281
     0
  0
CLASS
  1
MATERIAL
  2
AcDbMaterial
  3
ObjectDBX Classes
 90
     1153
280
     0
281
     0
  0
CLASS
  1
SCALE
  2
AcDbScale
  3
ObjectDBX Classes
 90
     1153
280
     0
281
     0
  0
CLASS
  1
TABLESTYLE
  2
AcDbTableStyle
  3
ObjectDBX Classes
 90
     4095
280
     0
281
     0
  0
CLASS
  1
MLEADERSTYLE
  2
AcDbMLeaderStyle
  3
ACDB_MLEADERSTYLE_CLASS
 90
     4095
280
     0
281
     0
  0
CLASS
  1
SUN
  2
AcDbSun
  3
SCENEOE
 90
     1153
280
     0
281
     0
  0
CLASS
  1
ACDBPLACEHOLDER
  2
AcDbPlaceHolder
  3
ObjectDBX Classes
 90
        0
280
     0
281
     0
  0
CLASS
  1
LAYOUT
  2
AcDbLayout
  3
ObjectDBX Classes
 90
        0
280
     0
281
     0
  0
CLASS
  1
RASTERVARIABLES
  2
AcDbRasterVariables
  3
ISM
 90
        0
280
     0
281
     0
  0
ENDSEC
  0
SECTION
  2
TABLES
  0
TABLE
  2
VPORT
  5
8
330
0
100
AcDbSymbolTable
 70
     1
  0
VPORT
  5
29
330
8
100
AcDbSymbolTableRecord
100
AcDbViewportTableRecord
  2
*Active
 70
     0
 10
0.0
 20
0.0
 11
1.0
 21
1.0
 12
20.94423986056916
 22
-9.103837393615052
 13
0.0
 23
0.0
 14
10.0
 24
10.0
 15
10.0
 25
10.0
 16
0.0
 26
0.0
 36
1.0
 17
0.0
 27
0.0
 37
0.0
 40
138.1080209666018
 41
1.739018087855297
 42
50.0
 43
0.0
 44
0.0
 50
0.0
 51
0.0
 71
    16
 72
  2000
 73
     1
 74
     3
 75
     0
 76
     0
 77
     0
 78
     0
281
     0
 65
     1
110
0.0
120
0.0
130
0.0
111
1.0
121
0.0
131
0.0
112
0.0
122
1.0
132
0.0
 79
     0
146
0.0
  0
ENDTAB
  0
TABLE
  2
LTYPE
  5
5
330
0
100
AcDbSymbolTable
 70
     6
  0
LTYPE
  5
14
330
5
100
AcDbSymbolTableRecord
100
AcDbLinetypeTableRecord
  2
ByBlock
 70
     0
  3

 72
    65
 73
     0
 40
0.0
  0
LTYPE
  5
15
330
5
100
AcDbSymbolTableRecord
100
AcDbLinetypeTableRecord
  2
ByLayer
 70
     0
  3

 72
    65
 73
     0
 40
0.0
  0
LTYPE
  5
16
330
5
100
AcDbSymbolTableRecord
100
AcDbLinetypeTableRecord
  2
Continuous
 70
     0
  3
Solid line
 72
    65
 73
     0
 40
0.0
  0
LTYPE
  5
6E
330
5
100
AcDbSymbolTableRecord
100
AcDbLinetypeTableRecord
  2
HIDDEN
 70
     0
  3
Hidden __ __ __ __ __ __ __ __ __ __ __ __ __ __
 72
    65
 73
     2
 40
1.905
 49
1.27
 74
     0
 49
-0.635
 74
     0
  0
LTYPE
  5
6F
330
5
100
AcDbSymbolTableRecord
100
AcDbLinetypeTableRecord
  2
PHANTOM
 70
     0
  3
Phantom ______  __  __  ______  __  __  ______
 72
    65
 73
     6
 40
12.7
 49
6.35
 74
     0
 49
-1.27
 74
     0
 49
1.27
 74
     0
 49
-1.27
 74
     0
 49
1.27
 74
     0
 49
-1.27
 74
     0
  0
LTYPE
  5
70
330
5
100
AcDbSymbolTableRecord
100
AcDbLinetypeTableRecord
  2
CENTER
 70
     0
  3
Center ____ _ ____ _ ____ _ ____ _ ____ _ ____
 72
    65
 73
     4
 40
10.16
 49
6.35
 74
     0
 49
-1.27
 74
     0
 49
1.27
 74
     0
 49
-1.27
 74
     0
  0
LTYPE
  5
71
330
5
100
AcDbSymbolTableRecord
100
AcDbLinetypeTableRecord
  2
CENTERX2
 70
     0
  3
Center (2x) ________  __  ________  __  _____
 72
    65
 73
     4
 40
20.32
 49
12.7
 74
     0
 49
-2.54
 74
     0
 49
2.54
 74
     0
 49
-2.54
 74
     0
  0
LTYPE
  5
72
330
5
100
AcDbSymbolTableRecord
100
AcDbLinetypeTableRecord
  2
DOT2
 70
     0
  3
Dot (.5x) ........................................
 72
    65
 73
     2
 40
0.635
 49
0.0
 74
     0
 49
-0.635
 74
     0
  0
ENDTAB
  0
TABLE
  2
LAYER
  5
2
330
0
100
AcDbSymbolTable
 70
    17
  0
LAYER
  5
10
330
2
100
AcDbSymbolTableRecord
100
AcDbLayerTableRecord
  2
0
 70
     0
 62
     7
  6
Continuous
370
    -3
390
F
  0
LAYER
  5
73
330
2
100
AcDbSymbolTableRecord
100
AcDbLayerTableRecord
  2
FORMAT
 70
     0
 62
     2
  6
Continuous
370
    -3
390
F
  0
LAYER
  5
74
330
2
100
AcDbSymbolTableRecord
100
AcDbLayerTableRecord
  2
외형선
 70
     0
 62
   100
  6
Continuous
370
    35
390
F
  0
LAYER
  5
75
330
2
100
AcDbSymbolTableRecord
100
AcDbLayerTableRecord
  2
숨은선
 70
     0
 62
     2
  6
HIDDEN
370
    25
390
F
  0
LAYER
  5
76
330
2
100
AcDbSymbolTableRecord
100
AcDbLayerTableRecord
  2
중심선
 70
     0
 62
     1
  6
CENTERX2
370
    -3
390
F
  0
LAYER
  5
77
330
2
100
AcDbSymbolTableRecord
100
AcDbLayerTableRecord
  2
파단선
 70
     0
 62
     4
  6
Continuous
370
    -3
390
F
  0
LAYER
  5
78
330
2
100
AcDbSymbolTableRecord
100
AcDbLayerTableRecord
  2
해칭선
 70
     0
 62
   100
  6
Continuous
370
    -3
390
F
  0
LAYER
  5
79
330
2
100
AcDbSymbolTableRecord
100
AcDbLayerTableRecord
  2
가는실선
 70
     0
 62
     4
  6
Continuous
370
    -3
390
F
  0
LAYER
  5
7A
330
2
100
AcDbSymbolTableRecord
100
AcDbLayerTableRecord
  2
치수_보조선
 70
     0
 62
     4
  6
Continuous
370
    -3
390
F
  0
LAYER
  5
7B
330
2
100
AcDbSymbolTableRecord
100
AcDbLayerTableRecord
  2
치수문자_일반주서
 70
     0
 62
     7
  6
Continuous
370
    25
390
F
  0
LAYER
  5
7C
330
2
100
AcDbSymbolTableRecord
100
AcDbLayerTableRecord
  2
개별주서
 70
     0
 62
   100
  6
Continuous
370
    35
390
F
  0
LAYER
  5
7D
330
2
100
AcDbSymbolTableRecord
100
AcDbLayerTableRecord
  2
중간선
 70
     0
 62
     2
  6
Continuous
370
    25
390
F
  0
LAYER
  5
7E
330
2
100
AcDbSymbolTableRecord
100
AcDbLayerTableRecord
  2
윤곽선
 70
     0
 62
     3
  6
Continuous
370
    50
390
F
  0
LAYER
  5
7F
330
2
100
AcDbSymbolTableRecord
100
AcDbLayerTableRecord
  2
중심마크
 70
     0
 62
   100
  6
Continuous
370
    35
390
F
  0
LAYER
  5
80
330
2
100
AcDbSymbolTableRecord
100
AcDbLayerTableRecord
  2
가상선
 70
     0
 62
     4
  6
PHANTOM
370
    -3
390
F
  0
LAYER
  5
81
330
2
100
AcDbSymbolTableRecord
100
AcDbLayerTableRecord
  2
특수지정선
 70
     0
 62
     5
  6
CENTERX2
370
    70
390
F
  0
LAYER
  5
139
330
2
100
AcDbSymbolTableRecord
100
AcDbLayerTableRecord
  2
Defpoints
 70
     0
 62
     7
  6
Continuous
290
     0
370
    -3
390
F
  0
ENDTAB
  0
TABLE
  2
STYLE
  5
3
330
0
100
AcDbSymbolTable
 70
     2
  0
STYLE
  5
11
330
3
100
AcDbSymbolTableRecord
100
AcDbTextStyleTableRecord
  2
Standard
 70
     0
 40
0.0
 41
1.0
 50
0.0
 71
     0
 42
3.5
  3
txt
  4

  0
STYLE
  5
97
330
3
100
AcDbSymbolTableRecord
100
AcDbTextStyleTableRecord
  2
SLDTEXTSTYLE0
 70
     0
 40
0.0
 41
0.75
 50
0.0
 71
     0
 42
3.5
  3
TXT
  4

  0
ENDTAB
  0
TABLE
  2
VIEW
  5
6
330
0
100
AcDbSymbolTable
 70
     0
  0
ENDTAB
  0
TABLE
  2
UCS
  5
7
330
0
100
AcDbSymbolTable
 70
     0
  0
ENDTAB
  0
TABLE
  2
APPID
  5
9
330
0
100
AcDbSymbolTable
 70
     1
  0
APPID
  5
12
330
9
100
AcDbSymbolTableRecord
100
AcDbRegAppTableRecord
  2
ACAD
 70
     0
  0
ENDTAB
  0
TABLE
  2
DIMSTYLE
  5
A
330
0
100
AcDbSymbolTable
 70
     4
100
AcDbDimStyleTable
  0
DIMSTYLE
105
27
330
A
100
AcDbSymbolTableRecord
100
AcDbDimStyleTableRecord
  2
ISO-25
 70
     0
 41
2.5
 42
0.625
 43
3.75
 44
1.25
 73
     0
 74
     0
 77
     1
 78
     8
140
2.5
141
2.5
143
0.03937007874016
147
0.625
171
     3
172
     1
178
     0
271
     2
272
     2
274
     3
278
    44
283
     0
284
     8
340
11
  0
DIMSTYLE
105
DE
102
{ACAD_REACTORS
330
DD
102
}
330
A
100
AcDbSymbolTableRecord
100
AcDbDimStyleTableRecord
  2
SLDDIMSTYLE0
 70
     0
 41
3.302
 44
0.0
 45
0.000000001
 73
     0
 74
     0
 77
     1
 78
    12
 79
     3
140
3.5
147
0.875
172
     1
173
     1
178
     0
271
     1
272
     1
276
     2
284
    12
289
     0
340
97
  0
DIMSTYLE
105
EC
102
{ACAD_REACTORS
330
EB
330
104
102
}
330
A
100
AcDbSymbolTableRecord
100
AcDbDimStyleTableRecord
  2
SLDDIMSTYLE1
 70
     0
 41
3.302
 44
0.0
 45
0.000000001
 73
     0
 74
     0
 77
     1
 78
    12
 79
     3
140
3.5
147
0.875
173
     1
178
     0
271
     2
272
     2
276
     2
284
    12
340
97
  0
DIMSTYLE
105
F7
102
{ACAD_REACTORS
330
F6
102
}
330
A
100
AcDbSymbolTableRecord
100
AcDbDimStyleTableRecord
  2
SLDDIMSTYLE2
 70
     0
 41
3.302
 44
0.0
 45
0.000000001
 73
     0
 74
     0
 77
     1
 78
    12
 79
     3
140
3.5
147
0.875
172
     1
173
     1
178
     0
271
     2
272
     2
276
     2
284
    12
289
     0
340
97
  0
ENDTAB
  0
TABLE
  2
BLOCK_RECORD
  5
1
330
0
100
AcDbSymbolTable
 70
     7
  0
BLOCK_RECORD
  5
1F
330
1
100
AcDbSymbolTableRecord
100
AcDbBlockTableRecord
  2
*Model_Space
340
22
  0
BLOCK_RECORD
  5
1B
330
1
100
AcDbSymbolTableRecord
100
AcDbBlockTableRecord
  2
*Paper_Space
340
1E
  0
BLOCK_RECORD
  5
23
330
1
100
AcDbSymbolTableRecord
100
AcDbBlockTableRecord
  2
*Paper_Space0
340
26
  0
BLOCK_RECORD
  5
82
330
1
100
AcDbSymbolTableRecord
100
AcDbBlockTableRecord
  2
블럭10
340
0
102
{BLKREFS
331
D6
102
}
  0
BLOCK_RECORD
  5
DF
330
1
100
AcDbSymbolTableRecord
100
AcDbBlockTableRecord
  2
_D
340
0
  0
BLOCK_RECORD
  5
ED
330
1
100
AcDbSymbolTableRecord
100
AcDbBlockTableRecord
  2
_D_1
340
0
  0
BLOCK_RECORD
  5
F8
330
1
100
AcDbSymbolTableRecord
100
AcDbBlockTableRecord
  2
_D_2
340
0
  0
BLOCK_RECORD
  5
105
330
1
100
AcDbSymbolTableRecord
100
AcDbBlockTableRecord
  2
_D_3
340
0
  0
BLOCK_RECORD
  5
10E
330
1
100
AcDbSymbolTableRecord
100
AcDbBlockTableRecord
  2
SW_DOWELSYMBOL_0
340
0
102
{BLKREFS
331
114
102
}
  0
ENDTAB
  0
ENDSEC
  0
SECTION
  2
BLOCKS
  0
BLOCK
  5
20
330
1F
100
AcDbEntity
  8
0
100
AcDbBlockBegin
  2
*Model_Space
 70
     0
 10
0.0
 20
0.0
 30
0.0
  3
*Model_Space
  1

  0
ENDBLK
  5
21
330
1F
100
AcDbEntity
  8
0
100
AcDbBlockEnd
  0
BLOCK
  5
1C
330
1B
100
AcDbEntity
 67
     1
  8
0
100
AcDbBlockBegin
  2
*Paper_Space
 70
     0
 10
0.0
 20
0.0
 30
0.0
  3
*Paper_Space
  1

  0
ENDBLK
  5
1D
330
1B
100
AcDbEntity
 67
     1
  8
0
100
AcDbBlockEnd
  0
BLOCK
  5
24
330
23
100
AcDbEntity
  8
0
100
AcDbBlockBegin
  2
*Paper_Space0
 70
     0
 10
0.0
 20
0.0
 30
0.0
  3
*Paper_Space0
  1

  0
ENDBLK
  5
25
330
23
100
AcDbEntity
  8
0
100
AcDbBlockEnd
  0
BLOCK
  5
83
330
82
100
AcDbEntity
  8
0
100
AcDbBlockBegin
  2
블럭10
 70
     2
 10
0.0
 20
0.0
 30
0.0
  3
블럭10
  1

  0
ELLIPSE
  5
85
330
82
100
AcDbEntity
  8
중심선
100
AcDbEllipse
 10
20.54032771741204
 20
12.0471743016438
 30
0.0
 11
6.600054785286829
 21
-1.261213355974178E-13
 31
0.0
210
0.0
220
0.0
230
1.0
 40
0.636358354079598
 41
0.9219305317359503
 42
6.513795318482858
  0
ELLIPSE
  5
86
330
82
100
AcDbEntity
  8
중심선
100
AcDbEllipse
 10
20.54032771746488
 20
12.04717430159265
 30
0.0
 11
3.960054785062283
 21
1.540847449632565E-10
 31
0.0
210
0.0
220
0.0
230
1.0
 40
0.3939339440162632
 41
1.131841032648279
 42
5.62031148352944
  0
LINE
  5
87
330
82
100
AcDbEntity
  8
중심선
100
AcDbLine
 10
2.268634060543552
 20
16.24717430164393
 30
0.0
 11
5.714909304380834
 21
16.24717430164393
 31
0.0
  0
LINE
  5
88
330
82
100
AcDbEntity
  8
중심선
100
AcDbLine
 10
5.245725140726316
 20
7.84717430164391
 30
0.0
 11
8.692000384563599
 21
7.84717430164391
 31
0.0
  0
LINE
  5
89
330
82
100
AcDbEntity
  8
중심선
100
AcDbLine
 10
15.74043728645272
 20
16.24717430164393
 30
0.0
 11
8.692000384563599
 21
7.84717430164391
 31
0.0
  0
LINE
  5
8A
330
82
100
AcDbEntity
  8
중심선
100
AcDbLine
 10
0.1404042013395286
 20
13.71084872107135
 30
0.0
 11
3.58671253028996
 21
13.71088815037384
 31
0.0
  0
LINE
  5
8B
330
82
100
AcDbEntity
  8
중심선
100
AcDbLine
 10
2.750260043222114
 20
10.84717430164391
 30
0.0
 11
6.196535287059397
 21
10.84717430164391
 31
0.0
  0
LINE
  5
8C
330
82
100
AcDbEntity
  8
중심선
100
AcDbLine
 10
12.29416204261559
 20
16.24717430164393
 30
0.0
 11
5.245725140726316
 21
7.84717430164391
 31
0.0
  0
LINE
  5
8D
330
82
100
AcDbEntity
  8
중심선
100
AcDbLine
 10
10.72767329541681
 20
16.24717430164393
 30
0.0
 11
6.196535287059397
 21
10.84717430164391
 31
0.0
  0
LINE
  5
8E
330
82
100
AcDbEntity
  8
중심선
100
AcDbLine
 10
7.28139805157953
 20
16.24717430164393
 30
0.0
 11
2.750260043222114
 21
10.84717430164391
 31
0.0
  0
LINE
  5
8F
330
82
100
AcDbEntity
  8
중심선
100
AcDbLine
 10
5.714909304380834
 20
16.24717430164393
 30
0.0
 11
3.58671253028996
 21
13.71088815037384
 31
0.0
  0
LINE
  5
90
330
82
100
AcDbEntity
  8
중심선
100
AcDbLine
 10
2.268634060543552
 20
16.24717430164393
 30
0.0
 11
0.1404042013395286
 21
13.71084872107135
 31
0.0
  0
LINE
  5
91
330
82
100
AcDbEntity
  8
중심선
100
AcDbLine
 10
7.28139805157953
 20
16.24717430164393
 30
0.0
 11
10.72767329541681
 21
16.24717430164393
 31
0.0
  0
LINE
  5
92
330
82
100
AcDbEntity
  8
중심선
100
AcDbLine
 10
12.29416204261559
 20
16.24717430164393
 30
0.0
 11
15.74043728645272
 21
16.24717430164393
 31
0.0
  0
LINE
  5
93
330
82
100
AcDbEntity
  8
중심선
100
AcDbLine
 10
19.22036997980202
 20
11.08717430171403
 30
0.0
 11
23.66174974927406
 21
11.08717430171406
 31
0.0
  0
LINE
  5
94
330
82
100
AcDbEntity
  8
중심선
100
AcDbLine
 10
19.22039502424796
 20
13.00717430171391
 30
0.0
 11
19.22036997980202
 21
11.08717430171403
 31
0.0
  0
LINE
  5
95
330
82
100
AcDbEntity
  8
중심선
100
AcDbLine
 10
19.22039502424796
 20
13.00717430171391
 30
0.0
 11
26.96566020931264
 21
13.00717430171391
 31
0.0
  0
LINE
  5
96
330
82
100
AcDbEntity
  8
중심선
100
AcDbLine
 10
22.22332737316547
 20
13.45928029700563
 30
0.0
 11
24.52862924686651
 21
15.39360700705356
 31
0.0
  0
ATTDEF
  5
98
330
82
100
AcDbEntity
  8
FORMAT
 62
     2
100
AcDbText
 10
-17.69892196172445
 20
2.075366912832191
 30
0.0
 40
4.233333333333333
  1
SEME72200110E [ 4 FLUTE ]
 41
0.75
  7
SLDTEXTSTYLE0
 11
-17.69892196172445
 21
-0.0412997538344756
 31
0.0
100
AcDbAttributeDefinition
  3

  2
AUTOATTR0
 70
     0
 74
     1
  0
ENDBLK
  5
84
330
82
100
AcDbEntity
  8
0
100
AcDbBlockEnd
  0
BLOCK
  5
E0
330
DF
100
AcDbEntity
  8
0
100
AcDbBlockBegin
  2
_D
 70
     0
 10
0.0
 20
0.0
 30
0.0
  3
_D
  1

  0
LINE
  5
E2
330
DF
100
AcDbEntity
  8
치수문자_일반주서
 62
     0
370
    -2
100
AcDbLine
 10
122.0625
 20
-10.00000000000002
 30
0.0
 11
138.1254489482256
 21
-9.999999999999957
 31
0.0
  0
LINE
  5
E3
330
DF
100
AcDbEntity
  8
치수문자_일반주서
 62
     0
370
    -2
100
AcDbLine
 10
122.0625
 20
10.0
 30
0.0
 11
138.1254489482255
 21
10.00000000000006
 31
0.0
  0
LINE
  5
E4
330
DF
100
AcDbEntity
  8
치수문자_일반주서
 62
     0
370
    -2
100
AcDbLine
 10
138.1254489482256
 20
-9.999999999999957
 30
0.0
 11
138.1254489482255
 21
24.91650000000006
 31
0.0
  0
LINE
  5
E5
330
DF
100
AcDbEntity
  8
치수문자_일반주서
 62
     0
370
    -2
100
AcDbLine
 10
138.1254489482256
 20
-9.999999999999957
 30
0.0
 11
138.1254489482255
 21
10.00000000000006
 31
0.0
  0
LINE
  5
E6
330
DF
100
AcDbEntity
  8
치수문자_일반주서
 62
     0
370
    -2
100
AcDbLine
 10
138.1254489482256
 20
-13.30199999999996
 30
0.0
 11
138.1254489482256
 21
-16.60399999999996
 31
0.0
  0
LINE
  5
E7
330
DF
100
AcDbEntity
  8
치수문자_일반주서
 62
     0
370
    -2
100
AcDbLine
 10
138.1254489482255
 20
13.30200000000006
 30
0.0
 11
138.1254489482255
 21
16.60400000000006
 31
0.0
  0
SOLID
  5
E8
330
DF
100
AcDbEntity
  8
치수문자_일반주서
 62
     0
100
AcDbTrace
 10
138.6757822815589
 20
-13.30199999999996
 30
0.0
 11
137.5751156148922
 21
-13.30199999999996
 31
0.0
 12
138.1254489482256
 22
-9.999999999999957
 32
0.0
 13
138.1254489482256
 23
-9.999999999999957
 33
0.0
  0
SOLID
  5
E9
330
DF
100
AcDbEntity
  8
치수문자_일반주서
 62
     0
100
AcDbTrace
 10
137.5751156148922
 20
13.30200000000006
 30
0.0
 11
138.6757822815588
 21
13.30200000000006
 31
0.0
 12
138.1254489482255
 22
10.00000000000006
 32
0.0
 13
138.1254489482255
 23
10.00000000000006
 33
0.0
  0
MTEXT
  5
EA
330
DF
100
AcDbEntity
  8
치수문자_일반주서
 62
     0
100
AcDbMText
 10
133.7504489482255
 20
20.76025000000005
 30
0.0
 40
3.5
 41
0.0
 71
     2
 72
     1
  1
\A1;%%c20
  7
SLDTEXTSTYLE0
 11
-2.842170943040398E-15
 21
1.0
 31
0.0
 73
     1
 44
1.0
  0
POINT
  5
143
330
DF
100
AcDbEntity
  8
Defpoints
 62
     0
100
AcDbPoint
 10
122.0
 20
-10.00000000000002
 30
0.0
  0
POINT
  5
144
330
DF
100
AcDbEntity
  8
Defpoints
 62
     0
100
AcDbPoint
 10
122.0
 20
10.0
 30
0.0
  0
POINT
  5
145
330
DF
100
AcDbEntity
  8
Defpoints
 62
     0
100
AcDbPoint
 10
138.1254489482255
 20
10.00000000000006
 30
0.0
  0
ENDBLK
  5
E1
330
DF
100
AcDbEntity
  8
0
100
AcDbBlockEnd
  0
BLOCK
  5
EE
330
ED
100
AcDbEntity
  8
0
100
AcDbBlockBegin
  2
_D_1
 70
     0
 10
0.0
 20
0.0
 30
0.0
  3
_D_1
  1

  0
LINE
  5
F0
330
ED
100
AcDbEntity
  8
치수문자_일반주서
 62
     0
370
    -2
100
AcDbLine
 10
-78.00000000000001
 20
9.562499999999982
 30
0.0
 11
-78.0
 21
27.38913260158164
 31
0.0
  0
LINE
  5
F1
330
ED
100
AcDbEntity
  8
치수문자_일반주서
 62
     0
370
    -2
100
AcDbLine
 10
122.0
 20
10.0625
 30
0.0
 11
122.0
 21
27.38913260158164
 31
0.0
  0
LINE
  5
F2
330
ED
100
AcDbEntity
  8
치수문자_일반주서
 62
     0
370
    -2
100
AcDbLine
 10
-74.69800000000001
 20
27.38913260158164
 30
0.0
 11
118.698
 21
27.38913260158164
 31
0.0
  0
SOLID
  5
F3
330
ED
100
AcDbEntity
  8
치수문자_일반주서
 62
     0
100
AcDbTrace
 10
-74.69800000000001
 20
27.93946593491497
 30
0.0
 11
-74.69800000000001
 21
26.8387992682483
 31
0.0
 12
-78.0
 22
27.38913260158164
 32
0.0
 13
-78.0
 23
27.38913260158164
 33
0.0
  0
SOLID
  5
F4
330
ED
100
AcDbEntity
  8
치수문자_일반주서
 62
     0
100
AcDbTrace
 10
118.698
 20
26.8387992682483
 30
0.0
 11
118.698
 21
27.93946593491497
 31
0.0
 12
122.0
 22
27.38913260158164
 32
0.0
 13
122.0
 23
27.38913260158164
 33
0.0
  0
MTEXT
  5
F5
330
ED
100
AcDbEntity
  8
치수문자_일반주서
 62
     0
100
AcDbMText
 10
21.99999999999999
 20
31.76413260158164
 30
0.0
 40
3.5
 41
0.0
 71
     2
 72
     1
  1
\A1;200
  7
SLDTEXTSTYLE0
 73
     1
 44
1.0
  0
POINT
  5
13A
330
ED
100
AcDbEntity
  8
Defpoints
 62
     0
100
AcDbPoint
 10
-78.00000000000001
 20
9.499999999999982
 30
0.0
  0
POINT
  5
13B
330
ED
100
AcDbEntity
  8
Defpoints
 62
     0
100
AcDbPoint
 10
122.0
 20
10.0
 30
0.0
  0
POINT
  5
13C
330
ED
100
AcDbEntity
  8
Defpoints
 62
     0
100
AcDbPoint
 10
122.0
 20
27.38913260158164
 30
0.0
  0
ENDBLK
  5
EF
330
ED
100
AcDbEntity
  8
0
100
AcDbBlockEnd
  0
BLOCK
  5
F9
330
F8
100
AcDbEntity
  8
0
100
AcDbBlockBegin
  2
_D_2
 70
     0
 10
0.0
 20
0.0
 30
0.0
  3
_D_2
  1

  0
LINE
  5
FB
330
F8
100
AcDbEntity
  8
치수문자_일반주서
 62
     0
370
    -2
100
AcDbLine
 10
-77.56250000000001
 20
9.999999999999972
 30
0.0
 11
-92.41230256042054
 21
9.999999999999913
 31
0.0
  0
LINE
  5
FC
330
F8
100
AcDbEntity
  8
치수문자_일반주서
 62
     0
370
    -2
100
AcDbLine
 10
-77.56250000000001
 20
-10.00000000000002
 30
0.0
 11
-92.41230256042047
 21
-10.00000000000008
 31
0.0
  0
LINE
  5
FD
330
F8
100
AcDbEntity
  8
치수문자_일반주서
 62
     0
370
    -2
100
AcDbLine
 10
-92.41230256042054
 20
9.999999999999913
 30
0.0
 11
-92.4123025604206
 21
24.91649999999991
 31
0.0
  0
LINE
  5
FE
330
F8
100
AcDbEntity
  8
치수문자_일반주서
 62
     0
370
    -2
100
AcDbLine
 10
-92.41230256042054
 20
9.999999999999913
 30
0.0
 11
-92.41230256042047
 21
-10.00000000000008
 31
0.0
  0
LINE
  5
FF
330
F8
100
AcDbEntity
  8
치수문자_일반주서
 62
     0
370
    -2
100
AcDbLine
 10
-92.41230256042056
 20
13.30199999999991
 30
0.0
 11
-92.41230256042057
 21
16.60399999999991
 31
0.0
  0
LINE
  5
100
330
F8
100
AcDbEntity
  8
치수문자_일반주서
 62
     0
370
    -2
100
AcDbLine
 10
-92.41230256042046
 20
-13.30200000000008
 30
0.0
 11
-92.41230256042044
 21
-16.60400000000008
 31
0.0
  0
SOLID
  5
101
330
F8
100
AcDbEntity
  8
치수문자_일반주서
 62
     0
100
AcDbTrace
 10
-92.96263589375388
 20
13.30199999999991
 30
0.0
 11
-91.86196922708723
 21
13.30199999999991
 31
0.0
 12
-92.41230256042054
 22
9.999999999999913
 32
0.0
 13
-92.41230256042054
 23
9.999999999999913
 33
0.0
  0
SOLID
  5
102
330
F8
100
AcDbEntity
  8
치수문자_일반주서
 62
     0
100
AcDbTrace
 10
-91.86196922708713
 20
-13.30200000000008
 30
0.0
 11
-92.96263589375378
 21
-13.30200000000008
 31
0.0
 12
-92.41230256042047
 22
-10.00000000000008
 32
0.0
 13
-92.41230256042047
 23
-10.00000000000008
 33
0.0
  0
MTEXT
  5
103
330
F8
100
AcDbEntity
  8
치수문자_일반주서
 62
     0
100
AcDbMText
 10
-96.78730256042058
 20
20.7602499999999
 30
0.0
 40
3.5
 41
0.0
 71
     2
 72
     1
  1
\A1;%%c20
  7
SLDTEXTSTYLE0
 11
-3.552713678800503E-15
 21
1.0
 31
0.0
 73
     1
 44
1.0
  0
POINT
  5
140
330
F8
100
AcDbEntity
  8
Defpoints
 62
     0
100
AcDbPoint
 10
-77.50000000000001
 20
9.999999999999972
 30
0.0
  0
POINT
  5
141
330
F8
100
AcDbEntity
  8
Defpoints
 62
     0
100
AcDbPoint
 10
-77.50000000000001
 20
-10.00000000000002
 30
0.0
  0
POINT
  5
142
330
F8
100
AcDbEntity
  8
Defpoints
 62
     0
100
AcDbPoint
 10
-92.41230256042046
 20
-10.00000000000007
 30
0.0
  0
ENDBLK
  5
FA
330
F8
100
AcDbEntity
  8
0
100
AcDbBlockEnd
  0
BLOCK
  5
106
330
105
100
AcDbEntity
  8
0
100
AcDbBlockBegin
  2
_D_3
 70
     0
 10
0.0
 20
0.0
 30
0.0
  3
_D_3
  1

  0
LINE
  5
108
330
105
100
AcDbEntity
  8
치수문자_일반주서
 62
     0
370
    -2
100
AcDbLine
 10
12.0
 20
10.06249999999999
 30
0.0
 11
12.0
 21
20.72506209288032
 31
0.0
  0
LINE
  5
109
330
105
100
AcDbEntity
  8
치수문자_일반주서
 62
     0
370
    -2
100
AcDbLine
 10
122.0
 20
10.0625
 30
0.0
 11
122.0
 21
20.72506209288032
 31
0.0
  0
LINE
  5
10A
330
105
100
AcDbEntity
  8
치수문자_일반주서
 62
     0
370
    -2
100
AcDbLine
 10
15.302
 20
20.72506209288032
 30
0.0
 11
118.698
 21
20.72506209288032
 31
0.0
  0
SOLID
  5
10B
330
105
100
AcDbEntity
  8
치수문자_일반주서
 62
     0
100
AcDbTrace
 10
15.302
 20
21.27539542621365
 30
0.0
 11
15.302
 21
20.17472875954698
 31
0.0
 12
12.0
 22
20.72506209288032
 32
0.0
 13
12.0
 23
20.72506209288032
 33
0.0
  0
SOLID
  5
10C
330
105
100
AcDbEntity
  8
치수문자_일반주서
 62
     0
100
AcDbTrace
 10
118.698
 20
20.17472875954698
 30
0.0
 11
118.698
 21
21.27539542621365
 31
0.0
 12
122.0
 22
20.72506209288032
 32
0.0
 13
122.0
 23
20.72506209288032
 33
0.0
  0
MTEXT
  5
10D
330
105
100
AcDbEntity
  8
치수문자_일반주서
 62
     0
100
AcDbMText
 10
66.99999999999997
 20
25.10006209288032
 30
0.0
 40
3.5
 41
0.0
 71
     2
 72
     1
  1
\A1;110
  7
SLDTEXTSTYLE0
 73
     1
 44
1.0
  0
POINT
  5
13D
330
105
100
AcDbEntity
  8
Defpoints
 62
     0
100
AcDbPoint
 10
12.0
 20
9.999999999999993
 30
0.0
  0
POINT
  5
13E
330
105
100
AcDbEntity
  8
Defpoints
 62
     0
100
AcDbPoint
 10
122.0
 20
10.0
 30
0.0
  0
POINT
  5
13F
330
105
100
AcDbEntity
  8
Defpoints
 62
     0
100
AcDbPoint
 10
122.0
 20
20.72506209288032
 30
0.0
  0
ENDBLK
  5
107
330
105
100
AcDbEntity
  8
0
100
AcDbBlockEnd
  0
BLOCK
  5
10F
330
10E
100
AcDbEntity
  8
0
100
AcDbBlockBegin
  2
SW_DOWELSYMBOL_0
 70
     0
 10
0.0
 20
0.0
 30
0.0
  3
SW_DOWELSYMBOL_0
  1

  0
CIRCLE
  5
111
330
10E
100
AcDbEntity
  8
해칭선
 62
     0
100
AcDbCircle
 10
0.0
 20
0.0
 30
0.0
 40
3.0
  0
HATCH
  5
112
330
10E
100
AcDbEntity
  8
0
  6
Continuous
 62
     0
370
    18
100
AcDbHatch
 10
0.0
 20
0.0
 30
0.0
210
0.0
220
0.0
230
1.0
  2
SOLID
 70
     1
 71
     0
 91
        1
 92
        0
 93
        3
 72
     2
 10
0.0
 20
0.0
 40
3.0
 50
0.0
 51
90.0
 73
     1
 72
     1
 10
0.0
 20
3.0
 11
0.0
 21
0.0
 72
     1
 10
0.0
 20
0.0
 11
3.0
 21
0.0
 97
        0
 75
     0
 76
     1
 98
        1
 10
0.0
 20
0.0
  0
HATCH
  5
113
330
10E
100
AcDbEntity
  8
0
  6
Continuous
 62
     0
370
    18
100
AcDbHatch
 10
0.0
 20
0.0
 30
0.0
210
0.0
220
0.0
230
1.0
  2
SOLID
 70
     1
 71
     0
 91
        1
 92
        0
 93
        3
 72
     2
 10
0.0
 20
0.0
 40
3.0
 50
180.0
 51
270.0000000000008
 73
     1
 72
     1
 10
0.0
 20
-3.0
 11
0.0
 21
0.0
 72
     1
 10
0.0
 20
0.0
 11
-3.0
 21
0.0
 97
        0
 75
     0
 76
     1
 98
        1
 10
0.0
 20
0.0
  0
ENDBLK
  5
110
330
10E
100
AcDbEntity
  8
0
100
AcDbBlockEnd
  0
ENDSEC
  0
SECTION
  2
ENTITIES
  0
LINE
  5
99
330
1F
100
AcDbEntity
  8
0
  6
Continuous
 62
     4
370
    25
100
AcDbLine
 10
12.0
 20
9.999999999999993
 30
0.0
 11
-77.50000000000001
 21
9.999999999999986
 31
0.0
  0
LINE
  5
9A
330
1F
100
AcDbEntity
  8
0
  6
Continuous
 62
     4
370
    25
100
AcDbLine
 10
-77.50000000000001
 20
-10.00000000000001
 30
0.0
 11
11.99999999999999
 21
-10.00000000000001
 31
0.0
  0
LINE
  5
9B
330
1F
100
AcDbEntity
  8
0
  6
Continuous
 62
     4
370
    25
100
AcDbLine
 10
-77.50000000000001
 20
9.999999999999982
 30
0.0
 11
-78.00000000000001
 21
9.499999999999982
 31
0.0
  0
LINE
  5
9C
330
1F
100
AcDbEntity
  8
0
  6
Continuous
 62
     4
370
    25
100
AcDbLine
 10
-78.00000000000001
 20
-9.50000000000001
 30
0.0
 11
-77.50000000000001
 21
-10.00000000000001
 31
0.0
  0
LINE
  5
9D
330
1F
100
AcDbEntity
  8
0
  6
Continuous
 62
     1
370
    25
100
AcDbLine
 10
118.1305407734133
 20
-10.00000000000002
 30
0.0
 11
122.0
 21
-10.00000000000002
 31
0.0
  0
LINE
  5
9E
330
1F
100
AcDbEntity
  8
0
  6
Continuous
 62
     1
370
    25
100
AcDbLine
 10
11.99999999999999
 20
-10.00000000000002
 30
0.0
 11
17.03868423893361
 21
-10.00000000000002
 31
0.0
  0
LINE
  5
9F
330
1F
100
AcDbEntity
  8
0
  6
Continuous
 62
     1
370
    25
100
AcDbLine
 10
71.45491658578707
 20
10.0
 30
0.0
 11
63.71687946478538
 21
10.0
 31
0.0
  0
LINE
  5
A0
330
1F
100
AcDbEntity
  8
0
  6
Continuous
 62
     1
370
    25
100
AcDbLine
 10
90.92324254170941
 20
-10.00000000000002
 30
0.0
 11
98.6597841084422
 21
-10.00000000000002
 31
0.0
  0
LINE
  5
A1
330
1F
100
AcDbEntity
  8
0
  6
Continuous
 62
     1
370
    25
100
AcDbLine
 10
44.24795104561693
 20
10.0
 30
0.0
 11
36.51165932587516
 21
10.0
 31
0.0
  0
LINE
  5
A2
330
1F
100
AcDbEntity
  8
0
  6
Continuous
 62
     1
370
    25
100
AcDbLine
 10
36.5116593258752
 20
-10.00000000000002
 30
0.0
 11
44.24795104561696
 21
-10.00000000000002
 31
0.0
  0
LINE
  5
A3
330
1F
100
AcDbEntity
  8
0
  6
Continuous
 62
     1
370
    25
100
AcDbLine
 10
98.65978410844217
 20
10.0
 30
0.0
 11
90.92324254170961
 21
10.0
 31
0.0
  0
LINE
  5
A4
330
1F
100
AcDbEntity
  8
0
  6
Continuous
 62
     1
370
    25
100
AcDbLine
 10
63.71687946478541
 20
-10.00000000000002
 30
0.0
 11
71.45491658578693
 21
-10.00000000000002
 31
0.0
  0
LINE
  5
A5
330
1F
100
AcDbEntity
  8
0
  6
Continuous
 62
     1
370
    25
100
AcDbLine
 10
17.03868423893343
 20
10.0
 30
0.0
 11
11.99999999999999
 21
10.0
 31
0.0
  0
LINE
  5
A6
330
1F
100
AcDbEntity
  8
0
  6
Continuous
 62
     1
370
    25
100
AcDbLine
 10
122.0
 20
10.0
 30
0.0
 11
118.1305407734133
 21
10.0
 31
0.0
  0
SPLINE
  5
A7
330
1F
100
AcDbEntity
  8
0
  6
Continuous
 62
     4
370
    25
100
AcDbSpline
210
0.0
220
0.0
230
1.0
 70
     8
 71
     3
 72
    16
 73
    12
 74
     0
 42
0.000000001
 43
0.00000001
 40
0.0
 40
0.0
 40
0.0
 40
0.0
 40
0.2499999999999999
 40
0.2499999999999999
 40
0.4999999999999998
 40
0.4999999999999998
 40
0.6249999999999998
 40
0.6249999999999998
 40
0.7499999999999997
 40
0.7499999999999997
 40
1.0
 40
1.0
 40
1.0
 40
1.0
 10
10.49980673022676
 20
9.121065366477438
 30
0.0
 10
10.49980673022676
 20
9.214099360181056
 30
0.0
 10
10.53171959010652
 20
9.297885584943858
 30
0.0
 10
10.66727301740509
 20
9.448486920418956
 30
0.0
 10
10.76830243036373
 20
9.51194157699845
 30
0.0
 10
10.96902896893564
 20
9.591496731426437
 30
0.0
 10
11.04415893590116
 20
9.615287541964694
 30
0.0
 10
11.20569536528356
 20
9.65682790532449
 30
0.0
 10
11.29271655876573
 20
9.674837755171772
 30
0.0
 10
11.57299905303517
 20
9.721768791018903
 30
0.0
 10
11.78004170731814
 20
9.74275754831627
 30
0.0
 10
11.99999999999999
 20
9.755327792878917
 30
0.0
  0
LINE
  5
A8
330
1F
100
AcDbEntity
  8
0
  6
Continuous
 62
     4
370
    25
100
AcDbLine
 10
10.49980673022676
 20
9.121065366477438
 30
0.0
 11
10.49980673022676
 21
4.79418014352148
 31
0.0
  0
SPLINE
  5
A9
330
1F
100
AcDbEntity
  8
0
  6
Continuous
 62
     4
370
    25
100
AcDbSpline
210
0.0
220
0.0
230
1.0
 70
     8
 71
     3
 72
    14
 73
    10
 74
     0
 42
0.000000001
 43
0.00000001
 40
0.0
 40
0.0
 40
0.0
 40
0.0
 40
0.2500000000000002
 40
0.2500000000000002
 40
0.5000000000000004
 40
0.5000000000000004
 40
0.7500000000000002
 40
0.7500000000000002
 40
1.0
 40
1.0
 40
1.0
 40
1.0
 10
11.50858842417783
 20
3.13961365029853
 30
0.0
 10
11.35065245862012
 20
3.22606478717788
 30
0.0
 10
11.20872942793708
 20
3.330483114292692
 30
0.0
 10
10.95597036254254
 20
3.572921491180778
 30
0.0
 10
10.84709190343184
 20
3.710141674033534
 30
0.0
 10
10.67352608509828
 20
4.000934716581119
 30
0.0
 10
10.60710742572748
 20
4.157887648834922
 30
0.0
 10
10.52092447723737
 20
4.473071204322157
 30
0.0
 10
10.49980673022677
 20
4.634362310798975
 30
0.0
 10
10.49980673022677
 20
4.79418014352148
 30
0.0
  0
SPLINE
  5
AA
330
1F
100
AcDbEntity
  8
0
  6
Continuous
 62
     4
370
    25
100
AcDbSpline
210
0.0
220
0.0
230
1.0
 70
     8
 71
     3
 72
     8
 73
     4
 74
     0
 42
0.000000001
 43
0.00000001
 40
0.0
 40
0.0
 40
0.0
 40
0.0
 40
1.0
 40
1.0
 40
1.0
 40
1.0
 10
12.0
 20
2.869378005668498
 30
0.0
 10
11.83624923852611
 20
2.959842782692336
 30
0.0
 10
11.67241250936101
 20
3.049939468978961
 30
0.0
 10
11.50858842417832
 20
3.139613650298267
 30
0.0
  0
SPLINE
  5
AB
330
1F
100
AcDbEntity
  8
0
  6
Continuous
 62
     4
370
    25
100
AcDbSpline
210
0.0
220
0.0
230
1.0
 70
     8
 71
     3
 72
    16
 73
    12
 74
     0
 42
0.000000001
 43
0.00000001
 40
0.0
 40
0.0
 40
0.0
 40
0.0
 40
0.2500000000000001
 40
0.2500000000000001
 40
0.5000000000000001
 40
0.5000000000000001
 40
0.6250000000000001
 40
0.6250000000000001
 40
0.7500000000000002
 40
0.7500000000000002
 40
1.0
 40
1.0
 40
1.0
 40
1.0
 10
10.49980673022676
 20
-4.099532483155365
 30
0.0
 10
10.49980673022676
 20
-3.892540797795659
 30
0.0
 10
10.53171959010652
 20
-3.6872777665543
 30
0.0
 10
10.66727301740509
 20
-3.28219265021178
 30
0.0
 10
10.76830243036373
 20
-3.091280779673868
 30
0.0
 10
10.96902896893564
 20
-2.830450989999596
 30
0.0
 10
11.04415893590116
 20
-2.74814157287756
 30
0.0
 10
11.20569536528356
 20
-2.598405554601821
 30
0.0
 10
11.29271655876573
 20
-2.530124476345526
 30
0.0
 10
11.57299905303517
 20
-2.345905665786113
 30
0.0
 10
11.78004170731814
 20
-2.254316832708243
 30
0.0
 10
12.0
 20
-2.198540346112432
 30
0.0
  0
LINE
  5
AC
330
1F
100
AcDbEntity
  8
0
  6
Continuous
 62
     4
370
    25
100
AcDbLine
 10
10.49980673022676
 20
-4.099532483155365
 30
0.0
 11
10.49980673022676
 21
-8.775866723661244
 31
0.0
  0
SPLINE
  5
AD
330
1F
100
AcDbEntity
  8
0
  6
Continuous
 62
     4
370
    25
100
AcDbSpline
210
0.0
220
0.0
230
1.0
 70
     8
 71
     3
 72
    14
 73
    10
 74
     0
 42
0.000000001
 43
0.00000001
 40
0.0
 40
0.0
 40
0.0
 40
0.0
 40
0.2499999999999998
 40
0.2499999999999998
 40
0.4999999999999996
 40
0.4999999999999996
 40
0.7499999999999998
 40
0.7499999999999998
 40
1.0
 40
1.0
 40
1.0
 40
1.0
 10
11.50858842417783
 20
-9.494357594214144
 30
0.0
 10
11.35065245862012
 20
-9.46576975488569
 30
0.0
 10
11.2087294279371
 20
-9.429982173978088
 30
0.0
 10
10.95597036254256
 20
-9.34081974957187
 30
0.0
 10
10.84709190343185
 20
-9.28760895679896
 30
0.0
 10
10.67352608509828
 20
-9.16609801221155
 30
0.0
 10
10.60710742572748
 20
-9.096289853220123
 30
0.0
 10
10.52092447723738
 20
-8.945510203179767
 30
0.0
 10
10.49980673022677
 20
-8.863173824412108
 30
0.0
 10
10.49980673022677
 20
-8.775866723661244
 30
0.0
  0
SPLINE
  5
AE
330
1F
100
AcDbEntity
  8
0
  6
Continuous
 62
     4
370
    25
100
AcDbSpline
210
0.0
220
0.0
230
1.0
 70
     8
 71
     3
 72
     8
 73
     4
 74
     0
 42
0.000000001
 43
0.00000001
 40
0.0
 40
0.0
 40
0.0
 40
0.0
 40
1.0
 40
1.0
 40
1.0
 40
1.0
 10
12.0
 20
-9.579492150450285
 30
0.0
 10
11.8362492385261
 20
-9.552394926776719
 30
0.0
 10
11.67241250936099
 20
-9.524011236491306
 30
0.0
 10
11.5085884241783
 20
-9.494357594214234
 30
0.0
  0
LINE
  5
AF
330
1F
100
AcDbEntity
  8
0
  6
Continuous
 62
     4
370
    25
100
AcDbLine
 10
-77.50000000000001
 20
9.999999999999982
 30
0.0
 11
-77.50000000000001
 21
-10.00000000000001
 31
0.0
  0
LINE
  5
B0
330
1F
100
AcDbEntity
  8
0
  6
Continuous
 62
     4
370
    25
100
AcDbLine
 10
12.0
 20
-9.579492150450285
 30
0.0
 11
12.0
 21
-10.00000000000001
 31
0.0
  0
LINE
  5
B1
330
1F
100
AcDbEntity
  8
0
  6
Continuous
 62
     4
370
    25
100
AcDbLine
 10
12.0
 20
2.869378005668498
 30
0.0
 11
12.0
 21
-2.198540346112447
 31
0.0
  0
LINE
  5
B2
330
1F
100
AcDbEntity
  8
0
  6
Continuous
 62
     4
370
    25
100
AcDbLine
 10
12.0
 20
9.999999999999993
 30
0.0
 11
12.0
 21
9.755327792878914
 31
0.0
  0
LINE
  5
B3
330
1F
100
AcDbEntity
  8
0
  6
Continuous
 62
     4
370
    25
100
AcDbLine
 10
-78.00000000000001
 20
9.499999999999982
 30
0.0
 11
-78.00000000000001
 21
-9.500000000000014
 31
0.0
  0
SPLINE
  5
B4
330
1F
100
AcDbEntity
  8
0
  6
Continuous
 62
     4
370
    25
100
AcDbSpline
210
0.0
220
0.0
230
1.0
 70
    24
 71
     3
 72
    14
 73
    10
 74
     0
 42
0.000000001
 43
0.00000001
 40
0.0
 40
0.0
 40
0.0
 40
0.0
 40
0.0416317605863081
 40
0.1785328877739481
 40
0.3315693029095978
 40
0.4845418243990387
 40
0.626917345292198
 40
0.7692792303549707
 40
0.9999999999999999
 40
0.9999999999999999
 40
0.9999999999999999
 40
0.9999999999999999
 10
12.0
 20
-2.178849910421631
 30
0.0
 10
12.0
 20
-2.174420076638602
 30
0.0
 10
12.00000000000001
 20
-2.155423257707462
 30
0.0
 10
12.0
 20
-2.280251775914182
 30
0.0
 10
12.00000000000001
 20
-2.584324258273414
 30
0.0
 10
12.00000000000001
 20
-3.088159631180653
 30
0.0
 10
12.0
 20
-3.749519599641667
 30
0.0
 10
12.00000000000001
 20
-4.68653997226969
 30
0.0
 10
12.0
 20
-5.524452782306557
 30
0.0
 10
11.99999999999999
 20
-6.042632563616806
 30
0.0
  0
SPLINE
  5
B5
330
1F
100
AcDbEntity
  8
0
  6
Continuous
 62
     4
370
    25
100
AcDbSpline
210
0.0
220
0.0
230
1.0
 70
    24
 71
     3
 72
    18
 73
    14
 74
     0
 42
0.000000001
 43
0.00000001
 40
0.0
 40
0.0
 40
0.0
 40
0.0
 40
0.2500000000000003
 40
0.2500000000000003
 40
0.5000000000000002
 40
0.5000000000000002
 40
0.6250000000000002
 40
0.6250000000000002
 40
0.7500000000000001
 40
0.7500000000000001
 40
0.8750000000000001
 40
0.8750000000000001
 40
1.0
 40
1.0
 40
1.0
 40
1.0
 10
12.0
 20
9.755327792878914
 30
0.0
 10
12.00000000000001
 20
9.076030751321488
 30
0.0
 10
12.0
 20
8.401352488367735
 30
0.0
 10
12.0
 20
7.062485186865729
 30
0.0
 10
12.0
 20
6.43260532774773
 30
0.0
 10
12.0
 20
5.550301378034819
 30
0.0
 10
12.0
 20
5.269140128594577
 30
0.0
 10
12.0
 20
4.751084354634646
 30
0.0
 10
12.00000000000001
 20
4.511344112355177
 30
0.0
 10
12.0
 20
4.071394038250194
 30
0.0
 10
12.0
 20
3.871922338335367
 30
0.0
 10
12.00000000000001
 20
3.527267518378766
 30
0.0
 10
12.0
 20
3.379884389819288
 30
0.0
 10
12.0
 20
3.257455752083082
 30
0.0
  0
SPLINE
  5
B6
330
1F
100
AcDbEntity
  8
0
  6
Continuous
 62
     4
370
    25
100
AcDbSpline
210
0.0
220
0.0
230
1.0
 70
    24
 71
     3
 72
     9
 73
     5
 74
     0
 42
0.000000001
 43
0.00000001
 40
0.0
 40
0.0
 40
0.0
 40
0.0
 40
0.3797886487091278
 40
0.9999999999999999
 40
0.9999999999999999
 40
0.9999999999999999
 40
0.9999999999999999
 10
11.99999999999999
 20
3.257455752083086
 30
0.0
 10
11.99999999999999
 20
3.188095362834898
 30
0.0
 10
11.99999999999999
 20
3.005466446768191
 30
0.0
 10
11.99999999999999
 20
2.92147219441879
 30
0.0
 10
11.99999999999999
 20
2.869378005668502
 30
0.0
  0
SPLINE
  5
B7
330
1F
100
AcDbEntity
  8
0
  6
Continuous
 62
     4
370
    25
100
AcDbSpline
210
0.0
220
0.0
230
1.0
 70
    24
 71
     3
 72
    10
 73
     6
 74
     0
 42
0.000000001
 43
0.00000001
 40
0.0
 40
0.0
 40
0.0
 40
0.0
 40
0.5
 40
0.5
 40
1.0
 40
1.0
 40
1.0
 40
1.0
 10
12.0
 20
-6.042632563617371
 30
0.0
 10
12.0
 20
-6.583765699454272
 30
0.0
 10
12.0
 20
-7.166348676317506
 30
0.0
 10
12.0
 20
-8.364425491193822
 30
0.0
 10
12.0
 20
-8.979329429973092
 30
0.0
 10
12.0
 20
-9.579492150450285
 30
0.0
  0
SPLINE
  5
B8
330
1F
100
AcDbEntity
  8
0
  6
Continuous
 62
     1
370
    25
100
AcDbSpline
210
0.0
220
0.0
230
1.0
 70
     8
 71
     3
 72
    26
 73
    22
 74
     0
 42
0.000000001
 43
0.00000001
 40
0.0
 40
0.0
 40
0.0
 40
0.0
 40
0.0282858408124488
 40
0.0826102633480744
 40
0.1369362684377165
 40
0.1912623709424012
 40
0.2455870855967363
 40
0.2999089289359971
 40
0.3542264212181694
 40
0.4085380883355713
 40
0.4628431623107583
 40
0.5171519395137341
 40
0.5714671599969537
 40
0.6257873525912685
 40
0.6848607479996967
 40
0.7439359400523695
 40
0.802999691481828
 40
0.8620395564875266
 40
0.9210870442453354
 40
0.9801554024148222
 40
1.0
 40
1.0
 40
1.0
 40
1.0
 10
53.98196692888452
 20
8.418842753969301
 30
0.0
 10
54.58678563906142
 20
8.612514802233429
 30
0.0
 10
56.35319001278491
 20
9.178144051734805
 30
0.0
 10
59.2812611191101
 20
9.728471891104572
 30
0.0
 10
62.76615509468444
 20
10.05538278355177
 30
0.0
 10
66.25105909860454
 20
9.959455080585068
 30
0.0
 10
69.73585546760766
 20
9.46642753023546
 30
0.0
 10
73.22043174790223
 20
8.590353708002795
 30
0.0
 10
76.70467071182999
 20
7.368171286081868
 30
0.0
 10
80.18848572779794
 20
5.848815573572535
 30
0.0
 10
83.67198629759933
 20
4.093509457596532
 30
0.0
 10
87.1556336928565
 20
2.173188634212044
 30
0.0
 10
90.6397337955755
 20
0.1652073427035076
 30
0.0
 10
94.22561588233555
 20
-1.908283332677563
 30
0.0
 10
97.91396490063084
 20
-3.95795285185842
 30
0.0
 10
101.7036233125704
 20
-5.875887172973721
 30
0.0
 10
105.4925008701349
 20
-7.511278393560595
 30
0.0
 10
109.2802960856949
 20
-8.797811924196123
 30
0.0
 10
113.0683762599441
 20
-9.631927099180691
 30
0.0
 10
116.0186102195707
 20
-10.01965588301447
 30
0.0
 10
117.7061639986604
 20
-9.961350070636254
 30
0.0
 10
118.1305407734133
 20
-9.946687644518038
 30
0.0
  0
SPLINE
  5
B9
330
1F
100
AcDbEntity
  8
0
  6
Continuous
 62
     1
370
    25
100
AcDbSpline
210
0.0
220
0.0
230
1.0
 70
     8
 71
     3
 72
    22
 73
    18
 74
     0
 42
0.000000001
 43
0.00000001
 40
0.0
 40
0.0
 40
0.0
 40
0.0
 40
0.0689200900372848
 40
0.1378488960463611
 40
0.2067845537924922
 40
0.2757251901787926
 40
0.3446689256587502
 40
0.4136138766667781
 40
0.4825581580600207
 40
0.551499885564577
 40
0.6204371782192925
 40
0.6893681608102661
 40
0.7582909662892927
 40
0.8272090720335503
 40
0.8961355450783025
 40
0.9650694107899311
 40
1.0
 40
1.0
 40
1.0
 40
1.0
 10
122.0
 20
-9.751656983550227
 30
0.0
 10
120.8388618435634
 20
-9.565056033845545
 30
0.0
 10
118.5164386874779
 20
-9.191830535967107
 30
0.0
 10
115.0324984539565
 20
-8.155945811216798
 30
0.0
 10
111.5481504922478
 20
-6.819319773710083
 30
0.0
 10
108.0634986276095
 20
-5.200038263609789
 30
0.0
 10
104.5786594155372
 20
-3.37301030991984
 30
0.0
 10
101.093746349723
 20
-1.409369572929983
 30
0.0
 10
97.60887394907905
 20
0.6109585986782858
 30
0.0
 10
94.12415628621201
 20
2.606681068432105
 30
0.0
 10
90.63970786723121
 20
4.497098481972232
 30
0.0
 10
87.15564066636966
 20
6.206476810528873
 30
0.0
 10
83.67198432777464
 20
7.664035000617552
 30
0.0
 10
80.18848663453603
 20
8.818146910979921
 30
0.0
 10
76.70466905458939
 20
9.59572691091825
 30
0.0
 10
73.79342918394946
 20
9.987118563245726
 30
0.0
 10
72.04345073295326
 20
9.958939915386514
 30
0.0
 10
71.45491658578707
 20
9.94946317212909
 30
0.0
  0
SPLINE
  5
BA
330
1F
100
AcDbEntity
  8
0
  6
Continuous
 62
     1
370
    25
100
AcDbSpline
210
0.0
220
0.0
230
1.0
 70
     8
 71
     3
 72
    12
 73
     8
 74
     0
 42
0.000000001
 43
0.00000001
 40
0.0
 40
0.0
 40
0.0
 40
0.0
 40
0.1879895750850046
 40
0.4321671979477784
 40
0.6763086720911935
 40
0.9204792959826703
 40
1.0
 40
1.0
 40
1.0
 40
1.0
 10
26.74584131214808
 20
-8.437487522242641
 30
0.0
 10
25.82174601518717
 20
-8.713313965085945
 30
0.0
 10
23.69735334637172
 20
-9.347408386915413
 30
0.0
 10
20.37282480386338
 20
-9.879583635943554
 30
0.0
 10
16.77251781146784
 20
-10.07063636340295
 30
0.0
 10
13.98082630659824
 20
-9.884656269643582
 30
0.0
 10
12.39065476713153
 20
-9.639676033075995
 30
0.0
 10
11.99999999999999
 20
-9.579492150461522
 30
0.0
  0
LINE
  5
BB
330
1F
100
AcDbEntity
  8
0
  6
Continuous
 62
     1
370
    25
100
AcDbLine
 10
122.0
 20
-10.00000000000003
 30
0.0
 11
122.0
 21
-9.751656983552632
 31
0.0
  0
SPLINE
  5
BC
330
1F
100
AcDbEntity
  8
0
  6
Continuous
 62
     1
370
    25
100
AcDbSpline
210
0.0
220
0.0
230
1.0
 70
     8
 71
     3
 72
    26
 73
    22
 74
     0
 42
0.000000001
 43
0.00000001
 40
0.0
 40
0.0
 40
0.0
 40
0.0
 40
0.0156390213468036
 40
0.0699458574442406
 40
0.1242585181882994
 40
0.1785755296024209
 40
0.2328954120762129
 40
0.2872166822769056
 40
0.3415378550712209
 40
0.3958574454522877
 40
0.4501739704662043
 40
0.504485951132847
 40
0.5587919143555625
 40
0.6130918692501967
 40
0.6673967442025334
 40
0.7235152299967319
 40
0.7796420038037177
 40
0.8357729216541522
 40
0.8919038288783925
 40
0.9480305708342479
 40
1.0
 40
1.0
 40
1.0
 40
1.0
 10
81.19183501765501
 20
-8.426481727228165
 30
0.0
 10
80.85742594056605
 20
-8.539369208110907
 30
0.0
 10
79.36177419130205
 20
-9.044260880675676
 30
0.0
 10
76.70466855513985
 20
-9.59300114340716
 30
0.0
 10
73.22043231839838
 20
-10.01965811840821
 30
0.0
 10
69.73585534258822
 20
-10.01700236750009
 30
0.0
 10
66.2510590281285
 20
-9.61706468624767
 30
0.0
 10
62.76615550162454
 20
-8.827398890046243
 30
0.0
 10
59.28125956185204
 20
-7.682155126554486
 30
0.0
 10
55.79648545204218
 20
-6.226931275000974
 30
0.0
 10
52.31194690505514
 20
-4.520620504869708
 30
0.0
 10
48.82775927180505
 20
-2.632030414452419
 30
0.0
 10
45.34399851916532
 20
-0.637382707938686
 30
0.0
 10
41.86050280594908
 20
1.383114360404686
 30
0.0
 10
38.33818660425251
 20
3.36943917828187
 30
0.0
 10
34.77655787309691
 20
5.237621403126436
 30
0.0
 10
31.17579961119316
 20
6.899844089162272
 30
0.0
 10
27.57471466002396
 20
8.267696970972077
 30
0.0
 10
23.97363590026366
 20
9.269681290501852
 30
0.0
 10
20.4615916292062
 20
9.893626495123696
 30
0.0
 10
18.1500194842351
 20
9.955502626738049
 30
0.0
 10
17.03868423893344
 20
9.9852508334101
 30
0.0
  0
SPLINE
  5
BD
330
1F
100
AcDbEntity
  8
0
  6
Continuous
 62
     1
370
    25
100
AcDbSpline
210
0.0
220
0.0
230
1.0
 70
     8
 71
     3
 72
    27
 73
    23
 74
     0
 42
0.000000001
 43
0.00000001
 40
0.0
 40
0.0
 40
0.0
 40
0.0
 40
0.0050592291432555
 40
0.0637838103538736
 40
0.1225070700487085
 40
0.1812171333601054
 40
0.235501414959659
 40
0.2897807783672816
 40
0.3440661478245229
 40
0.3983575324437723
 40
0.4526534596869997
 40
0.5069524511349369
 40
0.5612530243960439
 40
0.6155536950265903
 40
0.6698529784564863
 40
0.7241493919154673
 40
0.7784414563542358
 40
0.8327276983551891
 40
0.8870073503003992
 40
0.9412907037397925
 40
0.9955804974431138
 40
1.0
 40
1.0
 40
1.0
 40
1.0
 10
26.74584131214795
 20
8.437487522242623
 30
0.0
 10
26.85407833086676
 20
8.475819874791046
 30
0.0
 10
28.2186675360093
 20
8.959091819218793
 30
0.0
 10
30.83974139616181
 20
9.518217679049844
 30
0.0
 10
34.60857828934839
 20
10.02526852357827
 30
0.0
 10
38.28233898140186
 20
10.01904072000909
 30
0.0
 10
41.86049117079256
 20
9.5917639966004
 30
0.0
 10
45.3440016370357
 20
8.786345460611079
 30
0.0
 10
48.82775843628271
 20
7.627320920119647
 30
0.0
 10
52.31194712878381
 20
6.160461309454561
 30
0.0
 10
55.79648539275939
 20
4.445132846421359
 30
0.0
 10
59.28125957523349
 20
2.550459611497912
 30
0.0
 10
62.76615550738514
 20
0.5528881526263999
 30
0.0
 10
66.25105899170488
 20
-1.466971140862559
 30
0.0
 10
69.73585548251495
 20
-3.427697781497903
 30
0.0
 10
73.22043179516145
 20
-5.249906825654284
 30
0.0
 10
76.70467050791466
 20
-6.861149250894597
 30
0.0
 10
80.18848649607735
 20
-8.192528351501865
 30
0.0
 10
83.67198342865717
 20
-9.20511757284895
 30
0.0
 10
87.15564440182055
 20
-9.803338121639737
 30
0.0
 10
89.57276864797458
 20
-10.05565771088945
 30
0.0
 10
90.82869895877732
 20
-9.989862241712654
 30
0.0
 10
90.92324254170944
 20
-9.98490930814368
 30
0.0
  0
SPLINE
  5
BE
330
1F
100
AcDbEntity
  8
0
  6
Continuous
 62
     4
370
    25
100
AcDbSpline
210
0.0
220
0.0
230
1.0
 70
    24
 71
     3
 72
    15
 73
    11
 74
     0
 42
0.000000001
 43
0.00000001
 40
0.0
 40
0.0
 40
0.0
 40
0.0
 40
0.114431932763966
 40
0.2481271780945746
 40
0.3856995945969305
 40
0.5193948399275385
 40
0.6569672564298945
 40
0.7906625017605038
 40
0.9282349182628598
 40
1.0
 40
1.0
 40
1.0
 40
1.0
 10
11.99999999999999
 20
-2.336506749727821
 30
0.0
 10
11.99999999999999
 20
-2.49544429448673
 30
0.0
 10
11.99999999999999
 20
-2.840074709457112
 30
0.0
 10
11.99999999999999
 20
-3.577641488610864
 30
0.0
 10
11.99999999999999
 20
-4.474523830239916
 30
0.0
 10
11.99999999999999
 20
-5.500766066022244
 30
0.0
 10
11.99999999999999
 20
-6.602726446764814
 30
0.0
 10
11.99999999999999
 20
-7.770052594501768
 30
0.0
 10
11.99999999999999
 20
-8.770234098924993
 30
0.0
 10
11.99999999999999
 20
-9.372889741405782
 30
0.0
 10
11.99999999999999
 20
-9.579492150461522
 30
0.0
  0
SPLINE
  5
BF
330
1F
100
AcDbEntity
  8
0
  6
Continuous
 62
     1
370
    25
100
AcDbSpline
210
0.0
220
0.0
230
1.0
 70
     8
 71
     3
 72
    14
 73
    10
 74
     0
 42
0.000000001
 43
0.00000001
 40
0.0
 40
0.0
 40
0.0
 40
0.0
 40
0.1537423318609369
 40
0.3074302180419599
 40
0.4611087774000177
 40
0.6148455559258107
 40
0.7686099854189415
 40
0.9223709546554598
 40
1.0
 40
1.0
 40
1.0
 40
1.0
 10
12.0
 20
-1.550005796996489
 30
0.0
 10
13.25620385481553
 20
-2.259286291280422
 30
0.0
 10
15.76816669755694
 20
-3.677596098158161
 30
0.0
 10
19.53543239073531
 20
-5.613028836112187
 30
0.0
 10
23.30257265123014
 20
-7.28739860283361
 30
0.0
 10
27.0707644277184
 20
-8.623116736114358
 30
0.0
 10
30.83971595362193
 20
-9.52842023887084
 30
0.0
 10
33.9868287693066
 20
-9.98528504694657
 30
0.0
 10
35.8773936407413
 20
-9.952052869332768
 30
0.0
 10
36.51165932587521
 20
-9.940903804721875
 30
0.0
  0
SPLINE
  5
C0
330
1F
100
AcDbEntity
  8
0
  6
Continuous
 62
     1
370
    25
100
AcDbSpline
210
0.0
220
0.0
230
1.0
 70
     8
 71
     3
 72
    18
 73
    14
 74
     0
 42
0.000000001
 43
0.00000001
 40
0.0
 40
0.0
 40
0.0
 40
0.0
 40
0.0628639576442836
 40
0.1511633127893031
 40
0.2394731439111328
 40
0.327791059070682
 40
0.4238370941580851
 40
0.5198860503668317
 40
0.6159164055371403
 40
0.7119079243365464
 40
0.807911836788146
 40
0.9039496819480067
 40
1.0
 40
1.0
 40
1.0
 40
1.0
 10
81.19183501765512
 20
8.426481727228154
 30
0.0
 10
82.01852843750932
 20
8.678301794920689
 30
0.0
 10
84.00640385434829
 20
9.283830894355171
 30
0.0
 10
87.15563245796312
 20
9.82262367290544
 30
0.0
 10
90.63973412512257
 20
10.06837023623959
 30
0.0
 10
94.22561578718889
 20
9.890794131800726
 30
0.0
 10
97.91396491958179
 20
9.270659832196241
 30
0.0
 10
101.7036233350619
 20
8.19056068365861
 30
0.0
 10
105.4925007612643
 20
6.720649929127163
 30
0.0
 10
109.2802964985327
 20
4.929646011879338
 30
0.0
 10
113.0683747169471
 20
2.905220675136658
 30
0.0
 10
116.8575659021659
 20
0.7375263327390067
 30
0.0
 10
119.3840872920944
 20
-0.7188461666310052
 30
0.0
 10
120.647430014572
 20
-1.447079699752913
 30
0.0
  0
SPLINE
  5
C1
330
1F
100
AcDbEntity
  8
0
  6
Continuous
 62
     1
370
    25
100
AcDbSpline
210
0.0
220
0.0
230
1.0
 70
     8
 71
     3
 72
     8
 73
     4
 74
     0
 42
0.000000001
 43
0.00000001
 40
0.0
 40
0.0
 40
0.0
 40
0.0
 40
1.0
 40
1.0
 40
1.0
 40
1.0
 10
122.0
 20
-7.266081778456261
 30
0.0
 10
120.3158715379629
 20
-6.320024379565041
 30
0.0
 10
118.7255316270374
 20
-5.160603083795175
 30
0.0
 10
117.1953962218575
 20
-3.864219783566239
 30
0.0
  0
LINE
  5
C2
330
1F
100
AcDbEntity
  8
0
  6
Continuous
 62
     1
370
    25
100
AcDbLine
 10
122.0
 20
-9.751656983552632
 30
0.0
 11
122.0
 21
-7.266081778456259
 31
0.0
  0
SPLINE
  5
C3
330
1F
100
AcDbEntity
  8
0
  6
Continuous
 62
     1
370
    25
100
AcDbSpline
210
0.0
220
0.0
230
1.0
 70
    24
 71
     3
 72
    22
 73
    18
 74
     0
 42
0.000000001
 43
0.00000001
 40
0.0
 40
0.0
 40
0.0
 40
0.0
 40
0.2499999999999969
 40
0.2499999999999969
 40
0.3749999999999953
 40
0.3749999999999953
 40
0.4999999999999938
 40
0.4999999999999938
 40
0.5624999999999946
 40
0.5624999999999946
 40
0.6249999999999953
 40
0.6249999999999953
 40
0.7499999999999969
 40
0.7499999999999969
 40
0.8749999999999984
 40
0.8749999999999984
 40
1.0
 40
1.0
 40
1.0
 40
1.0
 10
120.647430014572
 20
-1.447079699752907
 30
0.0
 10
120.6483300744113
 20
-1.446449471068624
 30
0.0
 10
120.5878719214381
 20
-1.488782725526664
 30
0.0
 10
120.3760174207948
 20
-1.63712484388075
 30
0.0
 10
120.2834555142059
 20
-1.701937388625345
 30
0.0
 10
120.0577113305652
 20
-1.86000516771758
 30
0.0
 10
119.9244379079399
 20
-1.953324222882918
 30
0.0
 10
119.6909589373948
 20
-2.116807958072038
 30
0.0
 10
119.6072257826093
 20
-2.175438544250965
 30
0.0
 10
119.4322858014328
 20
-2.297932837805004
 30
0.0
 10
119.3406527916887
 20
-2.362094961976613
 30
0.0
 10
119.0535335365732
 20
-2.563138028773616
 30
0.0
 10
118.844480729654
 20
-2.709518380062347
 30
0.0
 10
118.3998444931174
 20
-3.020856024646466
 30
0.0
 10
118.1688206389673
 20
-3.18262066882864
 30
0.0
 10
117.6912435646454
 20
-3.51702373634496
 30
0.0
 10
117.4430893656618
 20
-3.69078317711166
 30
0.0
 10
117.1953962218575
 20
-3.864219783566273
 30
0.0
  0
SPLINE
  5
C4
330
1F
100
AcDbEntity
  8
0
  6
Continuous
 62
     1
370
    25
100
AcDbSpline
210
0.0
220
0.0
230
1.0
 70
     8
 71
     3
 72
    27
 73
    23
 74
     0
 42
0.000000001
 43
0.00000001
 40
0.0
 40
0.0
 40
0.0
 40
0.0
 40
0.0056729593329038
 40
0.0599703749254638
 40
0.1142687478208495
 40
0.1685665933535674
 40
0.2228624275424784
 40
0.2771547690154345
 40
0.3314421409266021
 40
0.3857230728611329
 40
0.4400003034665996
 40
0.4942841238338362
 40
0.5485737663791566
 40
0.6028677577506862
 40
0.657164618965105
 40
0.7114628673182934
 40
0.7657610183063861
 40
0.8200575875518715
 40
0.8743510927293369
 40
0.9286400554854641
 40
0.9829230033479115
 40
1.0
 40
1.0
 40
1.0
 40
1.0
 10
108.4276392177654
 20
-8.43671128617263
 30
0.0
 10
108.3062747693058
 20
-8.479172743088371
 30
0.0
 10
107.0232986276426
 20
-8.928044194774799
 30
0.0
 10
104.5786569427882
 20
-9.464659346697326
 30
0.0
 10
101.0937470121523
 20
-9.974224535873772
 30
0.0
 10
97.60887377211367
 20
-10.04760293662608
 30
0.0
 10
94.12415633166907
 20
-9.724782860866302
 30
0.0
 10
90.63970786235426
 20
-9.007307737728826
 30
0.0
 10
87.15564064043005
 20
-7.927242365325366
 30
0.0
 10
83.67198443639192
 20
-6.527332287973493
 30
0.0
 10
80.18848622601091
 20
-4.864146648746281
 30
0.0
 10
76.70467058035443
 20
-3.004881933941897
 30
0.0
 10
73.22043177551137
 20
-1.024345053199482
 30
0.0
 10
69.73585548866643
 20
0.9975579318255582
 30
0.0
 10
66.2510589867505
 20
2.979308237099783
 30
0.0
 10
62.76615552105126
 20
4.840756245347656
 30
0.0
 10
59.28125952552421
 20
6.507501935297052
 30
0.0
 10
55.79648557792021
 20
7.909667637907196
 30
0.0
 10
52.3119464379142
 20
9.000525550285591
 30
0.0
 10
48.82776101426241
 20
9.699416557657186
 30
0.0
 10
46.13979754156369
 20
10.02011187740562
 30
0.0
 10
44.61326282428507
 20
9.968725054569234
 30
0.0
 10
44.24795104561694
 20
9.956427783214718
 30
0.0
  0
SPLINE
  5
C5
330
1F
100
AcDbEntity
  8
0
  6
Continuous
 62
     1
370
    25
100
AcDbSpline
210
0.0
220
0.0
230
1.0
 70
     8
 71
     3
 72
    14
 73
    10
 74
     0
 42
0.000000001
 43
0.00000001
 40
0.0
 40
0.0
 40
0.0
 40
0.0
 40
0.1492531226315877
 40
0.298525120543314
 40
0.4478119565545022
 40
0.5971095742926342
 40
0.7464139034179019
 40
0.8957208648868016
 40
1.0
 40
1.0
 40
1.0
 40
1.0
 10
122.0
 20
2.214765467296483
 30
0.0
 10
120.838861844242
 20
2.859954568994382
 30
0.0
 10
118.5164386895137
 20
4.150414366160696
 30
0.0
 10
115.0324984458116
 20
5.894966703119513
 30
0.0
 10
111.5481505227956
 20
7.40721114053707
 30
0.0
 10
108.0634985135534
 20
8.622971634943669
 30
0.0
 10
104.5786598412343
 20
9.476639573174715
 30
0.0
 10
101.4440622683479
 20
9.950130230847888
 30
0.0
 10
99.4711010308884
 20
9.955302393887784
 30
0.0
 10
98.65978410844217
 20
9.95742927976889
 30
0.0
  0
SPLINE
  5
C6
330
1F
100
AcDbEntity
  8
0
  6
Continuous
 62
     1
370
    25
100
AcDbSpline
210
0.0
220
0.0
230
1.0
 70
     8
 71
     3
 72
    20
 73
    16
 74
     0
 42
0.000000001
 43
0.00000001
 40
0.0
 40
0.0
 40
0.0
 40
0.0
 40
0.0397810545160096
 40
0.1227746106310499
 40
0.2057589715544565
 40
0.2887341512160557
 40
0.371716849165149
 40
0.4574709064225828
 40
0.5432376285036135
 40
0.6290106830530658
 40
0.714783721364745
 40
0.8005503947744043
 40
0.8863043710524794
 40
0.9720685860940115
 40
1.0
 40
1.0
 40
1.0
 40
1.0
 10
53.9819669288845
 20
-8.418842753969312
 30
0.0
 10
53.42526326286243
 20
-8.598908969896078
 30
0.0
 10
51.70713193969118
 20
-9.154639827641905
 30
0.0
 10
48.82776094629359
 20
-9.70596505809307
 30
0.0
 10
45.343998074045
 20
-10.05057154932995
 30
0.0
 10
41.86050291223921
 20
-9.971377342559567
 30
0.0
 10
38.33818662328039
 20
-9.489735100460097
 30
0.0
 10
34.77655767923929
 20
-8.603388386602443
 30
0.0
 10
31.17580036542718
 20
-7.337378562093319
 30
0.0
 10
27.57471183676592
 20
-5.755281526974413
 30
0.0
 10
23.97364643864108
 20
-3.925498274366706
 30
0.0
 10
20.37282464411729
 20
-1.926398609416415
 30
0.0
 10
16.77251785556505
 20
0.1544431520065054
 30
0.0
 10
13.98082630361648
 20
1.766375038574584
 30
0.0
 10
12.39065476654347
 20
2.651845874851436
 30
0.0
 10
11.99999999999999
 20
2.869378005670171
 30
0.0
  0
SPLINE
  5
C7
330
1F
100
AcDbEntity
  8
0
  6
Continuous
 62
     4
370
    25
100
AcDbSpline
210
0.0
220
0.0
230
1.0
 70
    24
 71
     3
 72
    17
 73
    13
 74
     0
 42
0.000000001
 43
0.00000001
 40
0.0
 40
0.0
 40
0.0
 40
0.0
 40
0.0724349462422319
 40
0.1723720026357767
 40
0.2849069187834449
 40
0.4007053551230522
 40
0.5132402712707204
 40
0.6290387076103283
 40
0.7415736237579962
 40
0.857372060097604
 40
0.9699069762452721
 40
1.0
 40
1.0
 40
1.0
 40
1.0
 10
11.99999999999999
 20
9.617371389263543
 30
0.0
 10
11.99999999999999
 20
9.36772607524564
 30
0.0
 10
11.99999999999999
 20
8.773650080738804
 30
0.0
 10
11.99999999999999
 20
7.81041089476801
 30
0.0
 10
11.99999999999999
 20
6.748521083077062
 30
0.0
 10
11.99999999999999
 20
5.731897822683347
 30
0.0
 10
11.99999999999999
 20
4.821411661801521
 30
0.0
 10
11.99999999999999
 20
4.060804791155352
 30
0.0
 10
11.99999999999999
 20
3.452484057084927
 30
0.0
 10
11.99999999999999
 20
3.044721430054509
 30
0.0
 10
11.99999999999999
 20
2.835840976847095
 30
0.0
 10
11.99999999999999
 20
2.830275932543174
 30
0.0
 10
11.99999999999999
 20
2.829101765612426
 30
0.0
  0
SPLINE
  5
C8
330
1F
100
AcDbEntity
  8
0
  6
Continuous
 62
     1
370
    25
100
AcDbSpline
210
0.0
220
0.0
230
1.0
 70
     8
 71
     3
 72
    22
 73
    18
 74
     0
 42
0.000000001
 43
0.00000001
 40
0.0
 40
0.0
 40
0.0
 40
0.0
 40
0.0728646423481627
 40
0.1457034807102253
 40
0.2185378987177156
 40
0.2913999091181629
 40
0.3642750244183555
 40
0.4371484997644934
 40
0.5100055988684383
 40
0.5773704603796228
 40
0.6447292185896571
 40
0.7120954300935158
 40
0.7794691061993494
 40
0.8468484195398698
 40
0.9142315354493813
 40
0.9816166143327404
 40
1.0
 40
1.0
 40
1.0
 40
1.0
 10
12.0
 20
9.87914379029259
 30
0.0
 10
13.25620387249355
 20
9.721583741992989
 30
0.0
 10
15.76816675058472
 20
9.40651944306417
 30
0.0
 10
19.53543217871716
 20
8.365617153605493
 30
0.0
 10
23.30257344638086
 20
6.963635551028796
 30
0.0
 10
27.0707614576692
 20
5.224691418425737
 30
0.0
 10
30.83972704024626
 20
3.241671755801512
 30
0.0
 10
34.60858214507655
 20
1.105253687231034
 30
0.0
 10
38.28233803456467
 20
-1.028374245670064
 30
0.0
 10
41.86049141642181
 20
-3.060125975123013
 30
0.0
 10
45.3440015697041
 20
-4.914784950862352
 30
0.0
 10
48.82775845996399
 20
-6.571705297058937
 30
0.0
 10
52.31194710139744
 20
-7.96143825098849
 30
0.0
 10
55.79648547862998
 20
-9.038423739164003
 30
0.0
 10
59.28125925911779
 20
-9.719830001921435
 30
0.0
 10
61.92142045931909
 20
-10.02681867331737
 30
0.0
 10
63.39997088103779
 20
-9.971718251509774
 30
0.0
 10
63.71687946478538
 20
-9.95990817294739
 30
0.0
  0
SPLINE
  5
C9
330
1F
100
AcDbEntity
  8
0
  6
Continuous
 62
     1
370
    25
100
AcDbSpline
210
0.0
220
0.0
230
1.0
 70
     8
 71
     3
 72
    11
 73
     7
 74
     0
 42
0.000000001
 43
0.00000001
 40
0.0
 40
0.0
 40
0.0
 40
0.0
 40
0.0697712113648451
 40
0.3797610053514508
 40
0.6898603656356628
 40
0.9999999999999999
 40
0.9999999999999999
 40
0.9999999999999999
 40
0.9999999999999999
 10
108.4276392177654
 20
8.436711286172624
 30
0.0
 10
108.7118139457841
 20
8.534449082446558
 30
0.0
 10
110.2585619281791
 20
9.066430727135717
 30
0.0
 10
113.0683705623837
 20
9.626141686204644
 30
0.0
 10
116.8575669411171
 20
10.07924579017424
 30
0.0
 10
119.3840876384264
 20
9.956247310057018
 30
0.0
 10
120.647430014572
 20
9.894744076658188
 30
0.0
  0
SPLINE
  5
CA
330
1F
100
AcDbEntity
  8
0
  6
Continuous
 62
     1
370
    25
100
AcDbSpline
210
0.0
220
0.0
230
1.0
 70
     8
 71
     3
 72
    22
 73
    18
 74
     0
 42
0.000000001
 43
0.00000001
 40
0.0
 40
0.0
 40
0.0
 40
0.0
 40
0.250000000000003
 40
0.250000000000003
 40
0.3750000000000045
 40
0.3750000000000045
 40
0.500000000000006
 40
0.500000000000006
 40
0.5625000000000053
 40
0.5625000000000053
 40
0.6250000000000046
 40
0.6250000000000046
 40
0.7500000000000031
 40
0.7500000000000031
 40
0.8750000000000016
 40
0.8750000000000016
 40
1.0
 40
1.0
 40
1.0
 40
1.0
 10
120.647430014572
 20
9.894744076658213
 30
0.0
 10
120.6483300744113
 20
9.283134665630072
 30
0.0
 10
120.5878719214381
 20
8.684986715119669
 30
0.0
 10
120.3760174207948
 20
7.814347839321165
 30
0.0
 10
120.283455514206
 20
7.526023105511511
 30
0.0
 10
120.0577113305652
 20
6.983978845190968
 30
0.0
 10
119.9244379079399
 20
6.728016184879497
 30
0.0
 10
119.6909589373948
 20
6.368851405513226
 30
0.0
 10
119.6072257826092
 20
6.253066494950605
 30
0.0
 10
119.4322858014328
 20
6.035520208430526
 30
0.0
 10
119.3406527916886
 20
5.933023839203754
 30
0.0
 10
119.0535335365732
 20
5.643959723970063
 30
0.0
 10
118.8444807296539
 20
5.474803869360828
 30
0.0
 10
118.3998444931172
 20
5.189912301147316
 30
0.0
 10
118.1688206389672
 20
5.076535487151673
 30
0.0
 10
117.6912435646453
 20
4.901635336322643
 30
0.0
 10
117.4430893656617
 20
4.840255663647824
 30
0.0
 10
117.1953962218575
 20
4.804603778142472
 30
0.0
  0
SPLINE
  5
CB
330
1F
100
AcDbEntity
  8
0
  6
Continuous
 62
     1
370
    25
100
AcDbSpline
210
0.0
220
0.0
230
1.0
 70
     8
 71
     3
 72
     8
 73
     4
 74
     0
 42
0.000000001
 43
0.00000001
 40
0.0
 40
0.0
 40
0.0
 40
0.0
 40
1.0
 40
1.0
 40
1.0
 40
1.0
 10
122.0
 20
2.46265236996897
 30
0.0
 10
120.3158715379629
 20
3.373236042056512
 30
0.0
 10
118.7255316270374
 20
4.136275508719674
 30
0.0
 10
117.1953962218575
 20
4.804603778142482
 30
0.0
  0
LINE
  5
CC
330
1F
100
AcDbEntity
  8
0
  6
Continuous
 62
     1
370
    25
100
AcDbLine
 10
122.0
 20
2.223159547564557
 30
0.0
 11
122.0
 21
2.462652369968974
 31
0.0
  0
LINE
  5
CD
330
1F
100
AcDbEntity
  8
0
  6
Continuous
 62
     4
370
    25
100
AcDbLine
 10
11.99999999999999
 20
-1.55000579699649
 30
0.0
 11
11.99999999999999
 21
2.869378005670171
 31
0.0
  0
LINE
  5
CE
330
1F
100
AcDbEntity
  8
0
  6
Continuous
 62
     1
370
    25
100
AcDbLine
 10
122.0
 20
-0.5000000000000356
 30
0.0
 11
122.0
 21
2.214765467296673
 31
0.0
  0
LINE
  5
CF
330
1F
100
AcDbEntity
  8
0
  6
Continuous
 62
     1
370
    25
100
AcDbLine
 10
122.0
 20
-0.5000000000000328
 30
0.0
 11
120.647430014572
 21
-1.447079699752916
 31
0.0
  0
LINE
  5
D0
330
1F
100
AcDbEntity
  8
0
  6
Continuous
 62
     1
370
    25
100
AcDbLine
 10
122.0
 20
9.987492177719101
 30
0.0
 11
122.0
 21
10.00000000000001
 31
0.0
  0
ELLIPSE
  5
D1
330
1F
100
AcDbEntity
  8
0
  6
Continuous
 62
     1
370
    25
100
AcDbEllipse
 10
122.7140740033711
 20
-0.0000000000000076
 30
0.0
 11
14.28148006742111
 21
-5.350968460038310E-17
 31
0.0
210
0.0
220
0.0
230
1.0
 40
0.7002075382097119
 41
1.620817183600666
 42
1.716014156413953
  0
LINE
  5
D2
330
1F
100
AcDbEntity
  8
0
  6
Continuous
 62
     1
370
    25
100
AcDbLine
 10
122.0
 20
-0.5000000000000008
 30
0.0
 11
122.0
 21
-7.266081778456256
 31
0.0
  0
LINE
  5
D3
330
1F
100
AcDbEntity
  8
0
  6
Continuous
 62
     1
370
    25
100
AcDbLine
 10
122.0
 20
2.462652369968974
 30
0.0
 11
122.0
 21
9.987492177719101
 31
0.0
  0
LINE
  5
D4
330
1F
100
AcDbEntity
  8
중심선
100
AcDbLine
 10
-81.00000000000001
 20
-0.0000000000000119
 30
0.0
 11
129.0000000000001
 21
0.0000000000000138
 31
0.0
  0
CIRCLE
  5
D5
330
1F
100
AcDbEntity
  8
해칭선
100
AcDbCircle
 10
-0.0000195865898205
 20
-0.0000000000000043
 30
0.0
 40
3.0
  0
INSERT
  5
D6
330
1F
100
AcDbEntity
  8
0
  6
Continuous
 62
     7
100
AcDbBlockReference
 66
     1
  2
블럭10
 10
7.559900751058207
 20
-52.04717430164393
 30
0.0
  0
ATTRIB
  5
D7
330
D6
100
AcDbEntity
  8
FORMAT
 62
     2
100
AcDbText
 10
-10.13902121066624
 20
-49.97180738881174
 30
0.0
 40
4.233333333333333
  1
SEME72200110E [ 4 FLUTE ]
 41
0.75
  7
SLDTEXTSTYLE0
 11
-10.13902121066624
 21
-52.08847405547841
 31
0.0
100
AcDbAttribute
  2
AUTOATTR0
 70
     0
 74
     1
  0
SEQEND
  5
D8
330
D6
100
AcDbEntity
  8
0
  6
Continuous
 62
     7
  0
HATCH
  5
D9
330
1F
100
AcDbEntity
  8
중심선
100
AcDbHatch
 10
0.0
 20
0.0
 30
0.0
210
0.0
220
0.0
230
1.0
  2
SOLID
 70
     1
 71
     0
 91
        1
 92
        0
 93
        4
 72
     1
 10
13.27481005543904
 20
-35.8
 11
9.828534811601758
 21
-35.8
 72
     1
 10
9.828534811601758
 20
-35.8
 11
7.700304952397735
 21
-38.33632558057257
 72
     1
 10
7.700304952397735
 20
-38.33632558057257
 11
11.14661328134817
 21
-38.33628615127008
 72
     1
 10
11.14661328134817
 20
-38.33628615127008
 11
13.27481005543904
 21
-35.8
 97
        0
 75
     0
 76
     1
 98
        1
 10
0.0
 20
0.0
  0
HATCH
  5
DA
330
1F
100
AcDbEntity
  8
중심선
100
AcDbHatch
 10
0.0
 20
0.0
 30
0.0
210
0.0
220
0.0
230
1.0
  2
SOLID
 70
     1
 71
     0
 91
        1
 92
        0
 93
        4
 72
     1
 10
18.28757404647505
 20
-35.79999999999997
 11
14.84129880263774
 21
-35.79999999999997
 72
     1
 10
14.84129880263774
 20
-35.79999999999997
 11
10.31016079428032
 21
-41.20000000000002
 72
     1
 10
10.31016079428032
 20
-41.20000000000002
 11
13.7564360381176
 21
-41.20000000000002
 72
     1
 10
13.7564360381176
 20
-41.20000000000002
 11
18.28757404647505
 21
-35.79999999999997
 97
        0
 75
     0
 76
     1
 98
        1
 10
0.0
 20
0.0
  0
HATCH
  5
DB
330
1F
100
AcDbEntity
  8
중심선
100
AcDbHatch
 10
0.0
 20
0.0
 30
0.0
210
0.0
220
0.0
230
1.0
  2
SOLID
 70
     1
 71
     0
 91
        1
 92
        0
 93
        4
 72
     1
 10
23.30033803751089
 20
-35.8
 11
19.85406279367377
 21
-35.79999999999997
 72
     1
 10
19.85406279367377
 20
-35.79999999999997
 11
12.80562589178452
 21
-44.20000000000002
 72
     1
 10
12.80562589178452
 20
-44.20000000000002
 11
16.2519011356218
 21
-44.20000000000002
 72
     1
 10
16.2519011356218
 20
-44.20000000000002
 11
23.30033803751089
 21
-35.8
 97
        0
 75
     0
 76
     1
 98
        1
 10
0.0
 20
0.0
  0
HATCH
  5
DC
330
1F
100
AcDbEntity
  8
중심선
100
AcDbHatch
 10
0.0
 20
0.0
 30
0.0
210
0.0
220
0.0
230
1.0
  2
SOLID
 70
     1
 71
     0
 91
        1
 92
        0
 93
        6
 72
     3
 10
28.10022846852308
 20
-40.00000000005127
 11
3.960054785062284
 21
1.540850780301639E-10
 40
0.3939339440162633
 50
17.09539180608447
 51
320.001965768507
 73
     0
 72
     1
 10
29.78322812422365
 20
-38.58789400463827
 11
32.0885299979247
 21
-36.65356729459038
 72
     3
 10
28.10022846847024
 20
-40.00000000000015
 11
6.600054785286829
 21
-1.249000902703301E-13
 40
0.6363583540795982
 50
39.99873849337424
 51
368.4976242363726
 73
     1
 72
     1
 10
34.52556096037082
 20
-39.03999999993002
 11
26.78029577530613
 21
-39.03999999993002
 72
     1
 10
26.78029577530613
 20
-39.03999999993002
 11
26.78027073086023
 21
-40.95999999992991
 72
     1
 10
26.78027073086023
 20
-40.95999999992991
 11
31.22165050033224
 21
-40.95999999992988
 97
        0
 75
     0
 76
     1
 98
        1
 10
0.0
 20
0.0
  0
DIMENSION
  5
DD
330
1F
100
AcDbEntity
  8
치수문자_일반주서
100
AcDbDimension
  2
_D
 10
138.1254489482255
 20
10.00000000000006
 30
0.0
 11
138.1254489482255
 21
20.76025000000006
 31
0.0
 70
   160
  1
%%c<>
 71
     2
 42
20.00000000000002
 52
-270.0
  3
SLDDIMSTYLE0
100
AcDbAlignedDimension
 13
122.0
 23
-10.00000000000002
 33
0.0
 14
122.0
 24
10.0
 34
0.0
 50
90.0000000000002
100
AcDbRotatedDimension
  0
DIMENSION
  5
EB
330
1F
100
AcDbEntity
  8
치수문자_일반주서
100
AcDbDimension
  2
_D_1
 10
122.0
 20
27.38913260158164
 30
0.0
 11
21.99999999999999
 21
27.38913260158164
 31
0.0
 70
   160
  1
<>
 71
     2
 42
200.0
  3
SLDDIMSTYLE1
100
AcDbAlignedDimension
 13
-78.00000000000001
 23
9.499999999999982
 33
0.0
 14
122.0
 24
10.0
 34
0.0
 50
-0.0000000000000041
100
AcDbRotatedDimension
  0
DIMENSION
  5
F6
330
1F
100
AcDbEntity
  8
치수문자_일반주서
100
AcDbDimension
  2
_D_2
 10
-92.41230256042047
 20
-10.00000000000008
 30
0.0
 11
-92.41230256042058
 21
20.76024999999991
 31
0.0
 70
   160
  1
%%c<>
 71
     2
 42
19.99999999999999
 52
-270.0
  3
SLDDIMSTYLE2
100
AcDbAlignedDimension
 13
-77.50000000000001
 23
9.999999999999972
 33
0.0
 14
-77.50000000000001
 24
-10.00000000000002
 34
0.0
 50
90.0000000000002
100
AcDbRotatedDimension
  0
DIMENSION
  5
104
330
1F
100
AcDbEntity
  8
치수문자_일반주서
100
AcDbDimension
  2
_D_3
 10
122.0
 20
20.72506209288032
 30
0.0
 11
66.99999999999997
 21
20.72506209288032
 31
0.0
 70
   160
  1
<>
 71
     2
 42
110.0
  3
SLDDIMSTYLE1
100
AcDbAlignedDimension
 13
12.0
 23
9.999999999999993
 33
0.0
 14
122.0
 24
10.0
 34
0.0
 50
0.000000000000037
100
AcDbRotatedDimension
  0
INSERT
  5
114
330
1F
100
AcDbEntity
  8
해칭선
100
AcDbBlockReference
  2
SW_DOWELSYMBOL_0
 10
-0.0000195865898205
 20
-0.0000000000000043
 30
0.0
  0
ENDSEC
  0
SECTION
  2
OBJECTS
  0
DICTIONARY
  5
C
330
0
100
AcDbDictionary
281
     1
  3
ACAD_GROUP
350
D
  3
ACAD_IMAGE_VARS
350
138
  3
ACAD_LAYOUT
350
1A
  3
ACAD_MLINESTYLE
350
17
  3
ACAD_PLOTSETTINGS
350
19
  3
ACAD_PLOTSTYLENAME
350
E
  3
ACAD_SCALELIST
350
47
  3
APPDATA
350
136
  3
DWGPROPS
350
147
  0
DICTIONARY
  5
D
102
{ACAD_REACTORS
330
C
102
}
330
C
100
AcDbDictionary
281
     1
  0
RASTERVARIABLES
  5
138
102
{ACAD_REACTORS
330
C
102
}
330
C
100
AcDbRasterVariables
 90
        0
 70
     1
 71
     1
 72
     1
  0
DICTIONARY
  5
1A
102
{ACAD_REACTORS
330
C
102
}
330
C
100
AcDbDictionary
281
     1
  3
Layout1
350
1E
  3
Layout2
350
26
  3
Model
350
22
  0
DICTIONARY
  5
17
102
{ACAD_REACTORS
330
C
102
}
330
C
100
AcDbDictionary
281
     1
  3
Standard
350
18
  0
DICTIONARY
  5
19
102
{ACAD_REACTORS
330
C
102
}
330
C
100
AcDbDictionary
281
     1
  0
ACDBDICTIONARYWDFLT
  5
E
102
{ACAD_REACTORS
330
C
102
}
330
C
100
AcDbDictionary
281
     1
  3
Normal
350
F
100
AcDbDictionaryWithDefault
340
F
  0
DICTIONARY
  5
47
102
{ACAD_REACTORS
330
C
102
}
330
C
100
AcDbDictionary
281
     1
  3
A0
350
48
  3
A1
350
49
  3
A2
350
4A
  3
A3
350
4B
  3
A4
350
4C
  3
A5
350
4D
  3
A6
350
4E
  3
A7
350
4F
  3
A8
350
50
  3
A9
350
51
  3
B0
350
52
  3
B1
350
53
  3
B2
350
54
  3
B3
350
55
  3
B4
350
56
  3
B5
350
57
  3
B6
350
58
  3
B7
350
59
  3
B8
350
5A
  3
B9
350
5B
  3
C0
350
5C
  3
C1
350
5D
  3
C2
350
5E
  3
C3
350
5F
  3
C4
350
60
  3
C5
350
61
  3
C6
350
62
  3
C7
350
63
  3
C8
350
64
  3
C9
350
65
  3
D0
350
66
  3
D1
350
67
  3
D2
350
68
  0
DICTIONARY
  5
136
102
{ACAD_REACTORS
330
C
102
}
330
C
100
AcDbDictionary
281
     1
  0
XRECORD
  5
147
102
{ACAD_REACTORS
330
C
102
}
330
C
100
AcDbXrecord
280
     1
  1
DWGPROPS COOKIE
  2

  3

  4

  6

  7

  8
12014102
  9

300
=
301
=
302
=
303
=
304
=
305
=
306
=
307
=
308
=
309
=
 40
0.0
 41
2458260.210342257
 42
2458268.237988125
  1

 90
        0
  0
LAYOUT
  5
1E
102
{ACAD_REACTORS
330
1A
102
}
330
1A
100
AcDbPlotSettings
  1

  2
none_device
  4

  6

 40
0.0
 41
0.0
 42
0.0
 43
0.0
 44
0.0
 45
0.0
 46
0.0
 47
0.0
 48
0.0
 49
0.0
140
0.0
141
0.0
142
1.0
143
1.0
 70
   688
 72
     1
 73
     0
 74
     5
  7

 75
    16
147
1.0
148
0.0
149
0.0
100
AcDbLayout
  1
Layout1
 70
     1
 71
     1
 10
0.0
 20
0.0
 11
420.0
 21
297.0
 12
0.0
 22
0.0
 32
0.0
 14
1.000000000000000E+20
 24
1.000000000000000E+20
 34
1.000000000000000E+20
 15
-1.000000000000000E+20
 25
-1.000000000000000E+20
 35
-1.000000000000000E+20
146
0.0
 13
0.0
 23
0.0
 33
0.0
 16
1.0
 26
0.0
 36
0.0
 17
0.0
 27
1.0
 37
0.0
 76
     0
330
1B
  0
LAYOUT
  5
26
102
{ACAD_REACTORS
330
1A
102
}
330
1A
100
AcDbPlotSettings
  1

  2
none_device
  4

  6

 40
0.0
 41
0.0
 42
0.0
 43
0.0
 44
0.0
 45
0.0
 46
0.0
 47
0.0
 48
0.0
 49
0.0
140
0.0
141
0.0
142
1.0
143
1.0
 70
   688
 72
     1
 73
     0
 74
     5
  7

 75
    16
147
1.0
148
0.0
149
0.0
100
AcDbLayout
  1
Layout2
 70
     1
 71
     2
 10
0.0
 20
0.0
 11
0.0
 21
0.0
 12
0.0
 22
0.0
 32
0.0
 14
0.0
 24
0.0
 34
0.0
 15
0.0
 25
0.0
 35
0.0
146
0.0
 13
0.0
 23
0.0
 33
0.0
 16
1.0
 26
0.0
 36
0.0
 17
0.0
 27
1.0
 37
0.0
 76
     0
330
23
  0
LAYOUT
  5
22
102
{ACAD_REACTORS
330
1A
102
}
330
1A
100
AcDbPlotSettings
  1

  2
none_device
  4
ANSI_A_(11.00_x_8.50_Inches)
  6

 40
6.35
 41
19.05
 42
6.35000508
 43
19.05000254
 44
279.4
 45
215.9
 46
108.7663371164187
 47
99.97948262959993
 48
0.0
 49
0.0
140
0.0
141
0.0
142
0.0463675140258003
143
1.0
 70
  1696
 72
     0
 73
     0
 74
     0
  7

 75
     0
147
0.0235690232323232
148
0.0
149
0.0
100
AcDbLayout
  1
Model
 70
     1
 71
     0
 10
0.0
 20
0.0
 11
420.0
 21
297.0
 12
0.0
 22
0.0
 32
0.0
 14
-96.7873025604206
 24
-49.97180738881174
 34
0.0
 15
138.6757822815589
 25
31.76413260158164
 35
0.0
146
0.0
 13
0.0
 23
0.0
 33
0.0
 16
1.0
 26
0.0
 36
0.0
 17
0.0
 27
1.0
 37
0.0
 76
     0
330
1F
331
29
  0
MLINESTYLE
  5
18
102
{ACAD_REACTORS
330
17
102
}
330
17
100
AcDbMlineStyle
  2
Standard
 70
     0
  3

 62
   256
 51
90.0
 52
90.0
 71
     2
 49
0.5
 62
   256
  6
BYLAYER
 49
-0.5
 62
   256
  6
BYLAYER
  0
ACDBPLACEHOLDER
  5
F
102
{ACAD_REACTORS
330
E
102
}
330
E
  0
SCALE
  5
48
102
{ACAD_REACTORS
330
47
102
}
330
47
100
AcDbScale
 70
     0
300
1:1
140
1.0
141
1.0
290
     1
  0
SCALE
  5
49
102
{ACAD_REACTORS
330
47
102
}
330
47
100
AcDbScale
 70
     0
300
1:2
140
1.0
141
2.0
290
     0
  0
SCALE
  5
4A
102
{ACAD_REACTORS
330
47
102
}
330
47
100
AcDbScale
 70
     0
300
1:4
140
1.0
141
4.0
290
     0
  0
SCALE
  5
4B
102
{ACAD_REACTORS
330
47
102
}
330
47
100
AcDbScale
 70
     0
300
1:5
140
1.0
141
5.0
290
     0
  0
SCALE
  5
4C
102
{ACAD_REACTORS
330
47
102
}
330
47
100
AcDbScale
 70
     0
300
1:8
140
1.0
141
8.0
290
     0
  0
SCALE
  5
4D
102
{ACAD_REACTORS
330
47
102
}
330
47
100
AcDbScale
 70
     0
300
1:10
140
1.0
141
10.0
290
     0
  0
SCALE
  5
4E
102
{ACAD_REACTORS
330
47
102
}
330
47
100
AcDbScale
 70
     0
300
1:16
140
1.0
141
16.0
290
     0
  0
SCALE
  5
4F
102
{ACAD_REACTORS
330
47
102
}
330
47
100
AcDbScale
 70
     0
300
1:20
140
1.0
141
20.0
290
     0
  0
SCALE
  5
50
102
{ACAD_REACTORS
330
47
102
}
330
47
100
AcDbScale
 70
     0
300
1:30
140
1.0
141
30.0
290
     0
  0
SCALE
  5
51
102
{ACAD_REACTORS
330
47
102
}
330
47
100
AcDbScale
 70
     0
300
1:40
140
1.0
141
40.0
290
     0
  0
SCALE
  5
52
102
{ACAD_REACTORS
330
47
102
}
330
47
100
AcDbScale
 70
     0
300
1:50
140
1.0
141
50.0
290
     0
  0
SCALE
  5
53
102
{ACAD_REACTORS
330
47
102
}
330
47
100
AcDbScale
 70
     0
300
1:100
140
1.0
141
100.0
290
     0
  0
SCALE
  5
54
102
{ACAD_REACTORS
330
47
102
}
330
47
100
AcDbScale
 70
     0
300
2:1
140
2.0
141
1.0
290
     0
  0
SCALE
  5
55
102
{ACAD_REACTORS
330
47
102
}
330
47
100
AcDbScale
 70
     0
300
4:1
140
4.0
141
1.0
290
     0
  0
SCALE
  5
56
102
{ACAD_REACTORS
330
47
102
}
330
47
100
AcDbScale
 70
     0
300
8:1
140
8.0
141
1.0
290
     0
  0
SCALE
  5
57
102
{ACAD_REACTORS
330
47
102
}
330
47
100
AcDbScale
 70
     0
300
10:1
140
10.0
141
1.0
290
     0
  0
SCALE
  5
58
102
{ACAD_REACTORS
330
47
102
}
330
47
100
AcDbScale
 70
     0
300
100:1
140
100.0
141
1.0
290
     0
  0
SCALE
  5
59
102
{ACAD_REACTORS
330
47
102
}
330
47
100
AcDbScale
 70
     0
300
1/128" = 1'-0"
140
0.0078125
141
12.0
290
     0
  0
SCALE
  5
5A
102
{ACAD_REACTORS
330
47
102
}
330
47
100
AcDbScale
 70
     0
300
1/64" = 1'-0"
140
0.015625
141
12.0
290
     0
  0
SCALE
  5
5B
102
{ACAD_REACTORS
330
47
102
}
330
47
100
AcDbScale
 70
     0
300
1/32" = 1'-0"
140
0.03125
141
12.0
290
     0
  0
SCALE
  5
5C
102
{ACAD_REACTORS
330
47
102
}
330
47
100
AcDbScale
 70
     0
300
1/16" = 1'-0"
140
0.0625
141
12.0
290
     0
  0
SCALE
  5
5D
102
{ACAD_REACTORS
330
47
102
}
330
47
100
AcDbScale
 70
     0
300
3/32" = 1'-0"
140
0.09375
141
12.0
290
     0
  0
SCALE
  5
5E
102
{ACAD_REACTORS
330
47
102
}
330
47
100
AcDbScale
 70
     0
300
1/8" = 1'-0"
140
0.125
141
12.0
290
     0
  0
SCALE
  5
5F
102
{ACAD_REACTORS
330
47
102
}
330
47
100
AcDbScale
 70
     0
300
3/16" = 1'-0"
140
0.1875
141
12.0
290
     0
  0
SCALE
  5
60
102
{ACAD_REACTORS
330
47
102
}
330
47
100
AcDbScale
 70
     0
300
1/4" = 1'-0"
140
0.25
141
12.0
290
     0
  0
SCALE
  5
61
102
{ACAD_REACTORS
330
47
102
}
330
47
100
AcDbScale
 70
     0
300
3/8" = 1'-0"
140
0.375
141
12.0
290
     0
  0
SCALE
  5
62
102
{ACAD_REACTORS
330
47
102
}
330
47
100
AcDbScale
 70
     0
300
1/2" = 1'-0"
140
0.5
141
12.0
290
     0
  0
SCALE
  5
63
102
{ACAD_REACTORS
330
47
102
}
330
47
100
AcDbScale
 70
     0
300
3/4" = 1'-0"
140
0.75
141
12.0
290
     0
  0
SCALE
  5
64
102
{ACAD_REACTORS
330
47
102
}
330
47
100
AcDbScale
 70
     0
300
1" = 1'-0"
140
1.0
141
12.0
290
     0
  0
SCALE
  5
65
102
{ACAD_REACTORS
330
47
102
}
330
47
100
AcDbScale
 70
     0
300
1-1/2" = 1'-0"
140
1.5
141
12.0
290
     0
  0
SCALE
  5
66
102
{ACAD_REACTORS
330
47
102
}
330
47
100
AcDbScale
 70
     0
300
3" = 1'-0"
140
3.0
141
12.0
290
     0
  0
SCALE
  5
67
102
{ACAD_REACTORS
330
47
102
}
330
47
100
AcDbScale
 70
     0
300
6" = 1'-0"
140
6.0
141
12.0
290
     0
  0
SCALE
  5
68
102
{ACAD_REACTORS
330
47
102
}
330
47
100
AcDbScale
 70
     0
300
1'-0" = 1'-0"
140
12.0
141
12.0
290
     0
  0
ENDSEC
  0
EOF
