  0
SECTION
  2
HEADER
  9
$ACADVER
  1
AC1015
  9
$ACADMAINTVER
 70
     6
  9
$DWGCODEPAGE
  3
ANSI_949
  9
$INSBASE
 10
0.0
 20
0.0
 30
0.0
  9
$EXTMIN
 10
-135.5033479119724
 20
-49.97180738881174
 30
0.0
  9
$EXTMAX
 10
147.0828767801301
 20
31.76413260158162
 30
0.0
  9
$LIMMIN
 10
0.0
 20
0.0
  9
$LIMMAX
 10
420.0
 20
297.0
  9
$ORTHOMODE
 70
     0
  9
$REGENMODE
 70
     1
  9
$FILLMODE
 70
     1
  9
$QTEXTMODE
 70
     0
  9
$MIRRTEXT
 70
     1
  9
$LTSCALE
 40
1.0
  9
$ATTMODE
 70
     1
  9
$TEXTSIZE
 40
3.5
  9
$TRACEWID
 40
1.0
  9
$TEXTSTYLE
  7
Standard
  9
$CLAYER
  8
0
  9
$CELTYPE
  6
ByLayer
  9
$CECOLOR
 62
   256
  9
$CELTSCALE
 40
1.0
  9
$DISPSILH
 70
     0
  9
$DIMSCALE
 40
1.0
  9
$DIMASZ
 40
3.302
  9
$DIMEXO
 40
1.0
  9
$DIMDLI
 40
3.75
  9
$DIMRND
 40
0.0
  9
$DIMDLE
 40
0.0
  9
$DIMEXE
 40
1.0
  9
$DIMTP
 40
0.0
  9
$DIMTM
 40
0.0
  9
$DIMTXT
 40
3.5
  9
$DIMCEN
 40
2.5
  9
$DIMTSZ
 40
0.0
  9
$DIMTOL
 70
     0
  9
$DIMLIM
 70
     0
  9
$DIMTIH
 70
     1
  9
$DIMTOH
 70
     1
  9
$DIMSE1
 70
     0
  9
$DIMSE2
 70
     0
  9
$DIMTAD
 70
     1
  9
$DIMZIN
 70
     0
  9
$DIMBLK
  1

  9
$DIMASO
 70
     1
  9
$DIMSHO
 70
     1
  9
$DIMPOST
  1

  9
$DIMAPOST
  1

  9
$DIMALT
 70
     0
  9
$DIMALTD
 70
     3
  9
$DIMALTF
 40
0.0393700787401575
  9
$DIMLFAC
 40
1.0
  9
$DIMTOFL
 70
     1
  9
$DIMTVP
 40
0.0
  9
$DIMTIX
 70
     0
  9
$DIMSOXD
 70
     0
  9
$DIMSAH
 70
     0
  9
$DIMBLK1
  1

  9
$DIMBLK2
  1

  9
$DIMSTYLE
  2
ISO-25
  9
$DIMCLRD
 70
     0
  9
$DIMCLRE
 70
     0
  9
$DIMCLRT
 70
     0
  9
$DIMTFAC
 40
1.0
  9
$DIMGAP
 40
1.524
  9
$DIMJUST
 70
     0
  9
$DIMSD1
 70
     0
  9
$DIMSD2
 70
     0
  9
$DIMTOLJ
 70
     0
  9
$DIMTZIN
 70
     0
  9
$DIMALTZ
 70
     0
  9
$DIMALTTZ
 70
     0
  9
$DIMUPT
 70
     0
  9
$DIMDEC
 70
     2
  9
$DIMTDEC
 70
     2
  9
$DIMALTU
 70
     2
  9
$DIMALTTD
 70
     3
  9
$DIMTXSTY
  7
Standard
  9
$DIMAUNIT
 70
     0
  9
$DIMADEC
 70
     2
  9
$DIMALTRND
 40
0.0
  9
$DIMAZIN
 70
     0
  9
$DIMDSEP
 70
    44
  9
$DIMATFIT
 70
     3
  9
$DIMFRAC
 70
     0
  9
$DIMLDRBLK
  1

  9
$DIMLUNIT
 70
     2
  9
$DIMLWD
 70
    -2
  9
$DIMLWE
 70
    -2
  9
$DIMTMOVE
 70
     0
  9
$LUNITS
 70
     2
  9
$LUPREC
 70
     2
  9
$SKETCHINC
 40
1.0
  9
$FILLETRAD
 40
10.0
  9
$AUNITS
 70
     0
  9
$AUPREC
 70
     2
  9
$MENU
  1
.
  9
$ELEVATION
 40
0.0
  9
$PELEVATION
 40
0.0
  9
$THICKNESS
 40
0.0
  9
$LIMCHECK
 70
     0
  9
$CHAMFERA
 40
0.0
  9
$CHAMFERB
 40
0.0
  9
$CHAMFERC
 40
0.0
  9
$CHAMFERD
 40
0.0
  9
$SKPOLY
 70
     0
  9
$TDCREATE
 40
2458260.585531482
  9
$TDUCREATE
 40
2458260.210531482
  9
$TDUPDATE
 40
2458268.614129433
  9
$TDUUPDATE
 40
2458268.239129433
  9
$TDINDWG
 40
0.0010334606
  9
$TDUSRTIMER
 40
2458268.238096007
  9
$USRTIMER
 70
     1
  9
$ANGBASE
 50
0.0
  9
$ANGDIR
 70
     0
  9
$PDMODE
 70
     0
  9
$PDSIZE
 40
-1.0
  9
$PLINEWID
 40
0.0
  9
$SPLFRAME
 70
     0
  9
$SPLINETYPE
 70
     6
  9
$SPLINESEGS
 70
     8
  9
$HANDSEED
  5
14A
  9
$SURFTAB1
 70
     6
  9
$SURFTAB2
 70
     6
  9
$SURFTYPE
 70
     6
  9
$SURFU
 70
     6
  9
$SURFV
 70
     6
  9
$UCSBASE
  2

  9
$UCSNAME
  2

  9
$UCSORG
 10
0.0
 20
0.0
 30
0.0
  9
$UCSXDIR
 10
1.0
 20
0.0
 30
0.0
  9
$UCSYDIR
 10
0.0
 20
1.0
 30
0.0
  9
$UCSORTHOREF
  2

  9
$UCSORTHOVIEW
 70
     0
  9
$UCSORGTOP
 10
0.0
 20
0.0
 30
0.0
  9
$UCSORGBOTTOM
 10
0.0
 20
0.0
 30
0.0
  9
$UCSORGLEFT
 10
0.0
 20
0.0
 30
0.0
  9
$UCSORGRIGHT
 10
0.0
 20
0.0
 30
0.0
  9
$UCSORGFRONT
 10
0.0
 20
0.0
 30
0.0
  9
$UCSORGBACK
 10
0.0
 20
0.0
 30
0.0
  9
$PUCSBASE
  2

  9
$PUCSNAME
  2

  9
$PUCSORG
 10
0.0
 20
0.0
 30
0.0
  9
$PUCSXDIR
 10
1.0
 20
0.0
 30
0.0
  9
$PUCSYDIR
 10
0.0
 20
1.0
 30
0.0
  9
$PUCSORTHOREF
  2

  9
$PUCSORTHOVIEW
 70
     0
  9
$PUCSORGTOP
 10
0.0
 20
0.0
 30
0.0
  9
$PUCSORGBOTTOM
 10
0.0
 20
0.0
 30
0.0
  9
$PUCSORGLEFT
 10
0.0
 20
0.0
 30
0.0
  9
$PUCSORGRIGHT
 10
0.0
 20
0.0
 30
0.0
  9
$PUCSORGFRONT
 10
0.0
 20
0.0
 30
0.0
  9
$PUCSORGBACK
 10
0.0
 20
0.0
 30
0.0
  9
$USERI1
 70
     0
  9
$USERI2
 70
     0
  9
$USERI3
 70
     0
  9
$USERI4
 70
     0
  9
$USERI5
 70
     0
  9
$USERR1
 40
0.0
  9
$USERR2
 40
0.0
  9
$USERR3
 40
0.0
  9
$USERR4
 40
0.0
  9
$USERR5
 40
0.0
  9
$WORLDVIEW
 70
     1
  9
$SHADEDGE
 70
     3
  9
$SHADEDIF
 70
    70
  9
$TILEMODE
 70
     1
  9
$MAXACTVP
 70
    64
  9
$PINSBASE
 10
0.0
 20
0.0
 30
0.0
  9
$PLIMCHECK
 70
     0
  9
$PEXTMIN
 10
1.000000000000000E+20
 20
1.000000000000000E+20
 30
1.000000000000000E+20
  9
$PEXTMAX
 10
-1.000000000000000E+20
 20
-1.000000000000000E+20
 30
-1.000000000000000E+20
  9
$PLIMMIN
 10
0.0
 20
0.0
  9
$PLIMMAX
 10
0.0
 20
0.0
  9
$UNITMODE
 70
     0
  9
$VISRETAIN
 70
     1
  9
$PLINEGEN
 70
     0
  9
$PSLTSCALE
 70
     1
  9
$TREEDEPTH
 70
  3020
  9
$CMLSTYLE
  2
Standard
  9
$CMLJUST
 70
     0
  9
$CMLSCALE
 40
20.0
  9
$PROXYGRAPHICS
 70
     1
  9
$MEASUREMENT
 70
     1
  9
$CELWEIGHT
370
    -1
  9
$ENDCAPS
280
     0
  9
$JOINSTYLE
280
     0
  9
$LWDISPLAY
290
     1
  9
$INSUNITS
 70
     4
  9
$HYPERLINKBASE
  1

  9
$STYLESHEET
  1

  9
$XEDIT
290
     1
  9
$CEPSNTYPE
380
     0
  9
$PSTYLEMODE
290
     1
  9
$FINGERPRINTGUID
  2
{560A63C0-8EB2-440A-A7C9-DE2E083933BE}
  9
$VERSIONGUID
  2
{FAEB1C32-E019-11D5-929B-00C0DF256EC4}
  9
$EXTNAMES
290
     1
  9
$PSVPSCALE
 40
0.0
  9
$OLESTARTUP
290
     0
  0
ENDSEC
  0
SECTION
  2
CLASSES
  0
CLASS
  1
ACDBDICTIONARYWDFLT
  2
AcDbDictionaryWithDefault
  3
ObjectDBX Classes
 90
        0
280
     0
281
     0
  0
CLASS
  1
VISUALSTYLE
  2
AcDbVisualStyle
  3
ObjectDBX Classes
 90
     4095
280
     0
281
     0
  0
CLASS
  1
MATERIAL
  2
AcDbMaterial
  3
ObjectDBX Classes
 90
     1153
280
     0
281
     0
  0
CLASS
  1
SCALE
  2
AcDbScale
  3
ObjectDBX Classes
 90
     1153
280
     0
281
     0
  0
CLASS
  1
TABLESTYLE
  2
AcDbTableStyle
  3
ObjectDBX Classes
 90
     4095
280
     0
281
     0
  0
CLASS
  1
MLEADERSTYLE
  2
AcDbMLeaderStyle
  3
ACDB_MLEADERSTYLE_CLASS
 90
     4095
280
     0
281
     0
  0
CLASS
  1
SUN
  2
AcDbSun
  3
SCENEOE
 90
     1153
280
     0
281
     0
  0
CLASS
  1
ACDBPLACEHOLDER
  2
AcDbPlaceHolder
  3
ObjectDBX Classes
 90
        0
280
     0
281
     0
  0
CLASS
  1
LAYOUT
  2
AcDbLayout
  3
ObjectDBX Classes
 90
        0
280
     0
281
     0
  0
CLASS
  1
RASTERVARIABLES
  2
AcDbRasterVariables
  3
ISM
 90
        0
280
     0
281
     0
  0
ENDSEC
  0
SECTION
  2
TABLES
  0
TABLE
  2
VPORT
  5
8
330
0
100
AcDbSymbolTable
 70
     1
  0
VPORT
  5
29
330
8
100
AcDbSymbolTableRecord
100
AcDbViewportTableRecord
  2
*Active
 70
     0
 10
0.0
 20
0.0
 11
1.0
 21
1.0
 12
5.789764434078847
 22
-9.10383739361506
 13
0.0
 23
0.0
 14
10.0
 24
10.0
 15
10.0
 25
10.0
 16
0.0
 26
0.0
 36
1.0
 17
0.0
 27
0.0
 37
0.0
 40
165.9941760936913
 41
1.736434108527132
 42
50.0
 43
0.0
 44
0.0
 50
0.0
 51
0.0
 71
    16
 72
  2000
 73
     1
 74
     3
 75
     0
 76
     0
 77
     0
 78
     0
281
     0
 65
     1
110
0.0
120
0.0
130
0.0
111
1.0
121
0.0
131
0.0
112
0.0
122
1.0
132
0.0
 79
     0
146
0.0
  0
ENDTAB
  0
TABLE
  2
LTYPE
  5
5
330
0
100
AcDbSymbolTable
 70
     6
  0
LTYPE
  5
14
330
5
100
AcDbSymbolTableRecord
100
AcDbLinetypeTableRecord
  2
ByBlock
 70
     0
  3

 72
    65
 73
     0
 40
0.0
  0
LTYPE
  5
15
330
5
100
AcDbSymbolTableRecord
100
AcDbLinetypeTableRecord
  2
ByLayer
 70
     0
  3

 72
    65
 73
     0
 40
0.0
  0
LTYPE
  5
16
330
5
100
AcDbSymbolTableRecord
100
AcDbLinetypeTableRecord
  2
Continuous
 70
     0
  3
Solid line
 72
    65
 73
     0
 40
0.0
  0
LTYPE
  5
6E
330
5
100
AcDbSymbolTableRecord
100
AcDbLinetypeTableRecord
  2
HIDDEN
 70
     0
  3
Hidden __ __ __ __ __ __ __ __ __ __ __ __ __ __
 72
    65
 73
     2
 40
1.905
 49
1.27
 74
     0
 49
-0.635
 74
     0
  0
LTYPE
  5
6F
330
5
100
AcDbSymbolTableRecord
100
AcDbLinetypeTableRecord
  2
PHANTOM
 70
     0
  3
Phantom ______  __  __  ______  __  __  ______
 72
    65
 73
     6
 40
12.7
 49
6.35
 74
     0
 49
-1.27
 74
     0
 49
1.27
 74
     0
 49
-1.27
 74
     0
 49
1.27
 74
     0
 49
-1.27
 74
     0
  0
LTYPE
  5
70
330
5
100
AcDbSymbolTableRecord
100
AcDbLinetypeTableRecord
  2
CENTER
 70
     0
  3
Center ____ _ ____ _ ____ _ ____ _ ____ _ ____
 72
    65
 73
     4
 40
10.16
 49
6.35
 74
     0
 49
-1.27
 74
     0
 49
1.27
 74
     0
 49
-1.27
 74
     0
  0
LTYPE
  5
71
330
5
100
AcDbSymbolTableRecord
100
AcDbLinetypeTableRecord
  2
CENTERX2
 70
     0
  3
Center (2x) ________  __  ________  __  _____
 72
    65
 73
     4
 40
20.32
 49
12.7
 74
     0
 49
-2.54
 74
     0
 49
2.54
 74
     0
 49
-2.54
 74
     0
  0
LTYPE
  5
72
330
5
100
AcDbSymbolTableRecord
100
AcDbLinetypeTableRecord
  2
DOT2
 70
     0
  3
Dot (.5x) ........................................
 72
    65
 73
     2
 40
0.635
 49
0.0
 74
     0
 49
-0.635
 74
     0
  0
ENDTAB
  0
TABLE
  2
LAYER
  5
2
330
0
100
AcDbSymbolTable
 70
    17
  0
LAYER
  5
10
330
2
100
AcDbSymbolTableRecord
100
AcDbLayerTableRecord
  2
0
 70
     0
 62
     7
  6
Continuous
370
    -3
390
F
  0
LAYER
  5
73
330
2
100
AcDbSymbolTableRecord
100
AcDbLayerTableRecord
  2
FORMAT
 70
     0
 62
     2
  6
Continuous
370
    -3
390
F
  0
LAYER
  5
74
330
2
100
AcDbSymbolTableRecord
100
AcDbLayerTableRecord
  2
외형선
 70
     0
 62
   100
  6
Continuous
370
    35
390
F
  0
LAYER
  5
75
330
2
100
AcDbSymbolTableRecord
100
AcDbLayerTableRecord
  2
숨은선
 70
     0
 62
     2
  6
HIDDEN
370
    25
390
F
  0
LAYER
  5
76
330
2
100
AcDbSymbolTableRecord
100
AcDbLayerTableRecord
  2
중심선
 70
     0
 62
     1
  6
CENTERX2
370
    -3
390
F
  0
LAYER
  5
77
330
2
100
AcDbSymbolTableRecord
100
AcDbLayerTableRecord
  2
파단선
 70
     0
 62
     4
  6
Continuous
370
    -3
390
F
  0
LAYER
  5
78
330
2
100
AcDbSymbolTableRecord
100
AcDbLayerTableRecord
  2
해칭선
 70
     0
 62
   100
  6
Continuous
370
    -3
390
F
  0
LAYER
  5
79
330
2
100
AcDbSymbolTableRecord
100
AcDbLayerTableRecord
  2
가는실선
 70
     0
 62
     4
  6
Continuous
370
    -3
390
F
  0
LAYER
  5
7A
330
2
100
AcDbSymbolTableRecord
100
AcDbLayerTableRecord
  2
치수_보조선
 70
     0
 62
     4
  6
Continuous
370
    -3
390
F
  0
LAYER
  5
7B
330
2
100
AcDbSymbolTableRecord
100
AcDbLayerTableRecord
  2
치수문자_일반주서
 70
     0
 62
     7
  6
Continuous
370
    25
390
F
  0
LAYER
  5
7C
330
2
100
AcDbSymbolTableRecord
100
AcDbLayerTableRecord
  2
개별주서
 70
     0
 62
   100
  6
Continuous
370
    35
390
F
  0
LAYER
  5
7D
330
2
100
AcDbSymbolTableRecord
100
AcDbLayerTableRecord
  2
중간선
 70
     0
 62
     2
  6
Continuous
370
    25
390
F
  0
LAYER
  5
7E
330
2
100
AcDbSymbolTableRecord
100
AcDbLayerTableRecord
  2
윤곽선
 70
     0
 62
     3
  6
Continuous
370
    50
390
F
  0
LAYER
  5
7F
330
2
100
AcDbSymbolTableRecord
100
AcDbLayerTableRecord
  2
중심마크
 70
     0
 62
   100
  6
Continuous
370
    35
390
F
  0
LAYER
  5
80
330
2
100
AcDbSymbolTableRecord
100
AcDbLayerTableRecord
  2
가상선
 70
     0
 62
     4
  6
PHANTOM
370
    -3
390
F
  0
LAYER
  5
81
330
2
100
AcDbSymbolTableRecord
100
AcDbLayerTableRecord
  2
특수지정선
 70
     0
 62
     5
  6
CENTERX2
370
    70
390
F
  0
LAYER
  5
13B
330
2
100
AcDbSymbolTableRecord
100
AcDbLayerTableRecord
  2
Defpoints
 70
     0
 62
     7
  6
Continuous
290
     0
370
    -3
390
F
  0
ENDTAB
  0
TABLE
  2
STYLE
  5
3
330
0
100
AcDbSymbolTable
 70
     2
  0
STYLE
  5
11
330
3
100
AcDbSymbolTableRecord
100
AcDbTextStyleTableRecord
  2
Standard
 70
     0
 40
0.0
 41
1.0
 50
0.0
 71
     0
 42
3.5
  3
txt
  4

  0
STYLE
  5
97
330
3
100
AcDbSymbolTableRecord
100
AcDbTextStyleTableRecord
  2
SLDTEXTSTYLE0
 70
     0
 40
0.0
 41
0.75
 50
0.0
 71
     0
 42
3.5
  3
TXT
  4

  0
ENDTAB
  0
TABLE
  2
VIEW
  5
6
330
0
100
AcDbSymbolTable
 70
     0
  0
ENDTAB
  0
TABLE
  2
UCS
  5
7
330
0
100
AcDbSymbolTable
 70
     0
  0
ENDTAB
  0
TABLE
  2
APPID
  5
9
330
0
100
AcDbSymbolTable
 70
     1
  0
APPID
  5
12
330
9
100
AcDbSymbolTableRecord
100
AcDbRegAppTableRecord
  2
ACAD
 70
     0
  0
ENDTAB
  0
TABLE
  2
DIMSTYLE
  5
A
330
0
100
AcDbSymbolTable
 70
     4
100
AcDbDimStyleTable
  0
DIMSTYLE
105
27
330
A
100
AcDbSymbolTableRecord
100
AcDbDimStyleTableRecord
  2
ISO-25
 70
     0
 41
2.5
 42
0.625
 43
3.75
 44
1.25
 73
     0
 74
     0
 77
     1
 78
     8
140
2.5
141
2.5
143
0.03937007874016
147
0.625
171
     3
172
     1
178
     0
271
     2
272
     2
274
     3
278
    44
283
     0
284
     8
340
11
  0
DIMSTYLE
105
E0
102
{ACAD_REACTORS
330
DF
102
}
330
A
100
AcDbSymbolTableRecord
100
AcDbDimStyleTableRecord
  2
SLDDIMSTYLE0
 70
     0
 41
3.302
 44
0.0
 45
0.000000001
 73
     0
 74
     0
 77
     1
 78
    12
 79
     3
140
3.5
147
0.875
172
     1
173
     1
178
     0
271
     1
272
     1
276
     2
284
    12
289
     0
340
97
  0
DIMSTYLE
105
EE
102
{ACAD_REACTORS
330
ED
330
106
102
}
330
A
100
AcDbSymbolTableRecord
100
AcDbDimStyleTableRecord
  2
SLDDIMSTYLE1
 70
     0
 41
3.302
 44
0.0
 45
0.000000001
 73
     0
 74
     0
 77
     1
 78
    12
 79
     3
140
3.5
147
0.875
173
     1
178
     0
271
     2
272
     2
276
     2
284
    12
340
97
  0
DIMSTYLE
105
F9
102
{ACAD_REACTORS
330
F8
102
}
330
A
100
AcDbSymbolTableRecord
100
AcDbDimStyleTableRecord
  2
SLDDIMSTYLE2
 70
     0
 41
3.302
 44
0.0
 45
0.000000001
 73
     0
 74
     0
 77
     1
 78
    12
 79
     3
140
3.5
147
0.875
172
     1
173
     1
178
     0
271
     2
272
     2
276
     2
284
    12
289
     0
340
97
  0
ENDTAB
  0
TABLE
  2
BLOCK_RECORD
  5
1
330
0
100
AcDbSymbolTable
 70
     7
  0
BLOCK_RECORD
  5
1F
330
1
100
AcDbSymbolTableRecord
100
AcDbBlockTableRecord
  2
*Model_Space
340
22
  0
BLOCK_RECORD
  5
1B
330
1
100
AcDbSymbolTableRecord
100
AcDbBlockTableRecord
  2
*Paper_Space
340
1E
  0
BLOCK_RECORD
  5
23
330
1
100
AcDbSymbolTableRecord
100
AcDbBlockTableRecord
  2
*Paper_Space0
340
26
  0
BLOCK_RECORD
  5
82
330
1
100
AcDbSymbolTableRecord
100
AcDbBlockTableRecord
  2
블럭10
340
0
102
{BLKREFS
331
D8
102
}
  0
BLOCK_RECORD
  5
E1
330
1
100
AcDbSymbolTableRecord
100
AcDbBlockTableRecord
  2
_D
340
0
  0
BLOCK_RECORD
  5
EF
330
1
100
AcDbSymbolTableRecord
100
AcDbBlockTableRecord
  2
_D_1
340
0
  0
BLOCK_RECORD
  5
FA
330
1
100
AcDbSymbolTableRecord
100
AcDbBlockTableRecord
  2
_D_2
340
0
  0
BLOCK_RECORD
  5
107
330
1
100
AcDbSymbolTableRecord
100
AcDbBlockTableRecord
  2
_D_3
340
0
  0
BLOCK_RECORD
  5
110
330
1
100
AcDbSymbolTableRecord
100
AcDbBlockTableRecord
  2
SW_DOWELSYMBOL_0
340
0
102
{BLKREFS
331
116
102
}
  0
ENDTAB
  0
ENDSEC
  0
SECTION
  2
BLOCKS
  0
BLOCK
  5
20
330
1F
100
AcDbEntity
  8
0
100
AcDbBlockBegin
  2
*Model_Space
 70
     0
 10
0.0
 20
0.0
 30
0.0
  3
*Model_Space
  1

  0
ENDBLK
  5
21
330
1F
100
AcDbEntity
  8
0
100
AcDbBlockEnd
  0
BLOCK
  5
1C
330
1B
100
AcDbEntity
 67
     1
  8
0
100
AcDbBlockBegin
  2
*Paper_Space
 70
     0
 10
0.0
 20
0.0
 30
0.0
  3
*Paper_Space
  1

  0
ENDBLK
  5
1D
330
1B
100
AcDbEntity
 67
     1
  8
0
100
AcDbBlockEnd
  0
BLOCK
  5
24
330
23
100
AcDbEntity
  8
0
100
AcDbBlockBegin
  2
*Paper_Space0
 70
     0
 10
0.0
 20
0.0
 30
0.0
  3
*Paper_Space0
  1

  0
ENDBLK
  5
25
330
23
100
AcDbEntity
  8
0
100
AcDbBlockEnd
  0
BLOCK
  5
83
330
82
100
AcDbEntity
  8
0
100
AcDbBlockBegin
  2
블럭10
 70
     2
 10
0.0
 20
0.0
 30
0.0
  3
블럭10
  1

  0
ELLIPSE
  5
85
330
82
100
AcDbEntity
  8
중심선
100
AcDbEllipse
 10
20.54032771741204
 20
12.0471743016438
 30
0.0
 11
6.600054785286829
 21
-1.261213355974178E-13
 31
0.0
210
0.0
220
0.0
230
1.0
 40
0.636358354079598
 41
0.9219305317359503
 42
6.513795318482858
  0
ELLIPSE
  5
86
330
82
100
AcDbEntity
  8
중심선
100
AcDbEllipse
 10
20.54032771746488
 20
12.04717430159265
 30
0.0
 11
3.960054785062283
 21
1.540847449632565E-10
 31
0.0
210
0.0
220
0.0
230
1.0
 40
0.3939339440162632
 41
1.131841032648279
 42
5.62031148352944
  0
LINE
  5
87
330
82
100
AcDbEntity
  8
중심선
100
AcDbLine
 10
2.268634060543552
 20
16.24717430164393
 30
0.0
 11
5.714909304380834
 21
16.24717430164393
 31
0.0
  0
LINE
  5
88
330
82
100
AcDbEntity
  8
중심선
100
AcDbLine
 10
5.245725140726316
 20
7.84717430164391
 30
0.0
 11
8.692000384563599
 21
7.84717430164391
 31
0.0
  0
LINE
  5
89
330
82
100
AcDbEntity
  8
중심선
100
AcDbLine
 10
15.74043728645272
 20
16.24717430164393
 30
0.0
 11
8.692000384563599
 21
7.84717430164391
 31
0.0
  0
LINE
  5
8A
330
82
100
AcDbEntity
  8
중심선
100
AcDbLine
 10
0.1404042013395286
 20
13.71084872107135
 30
0.0
 11
3.58671253028996
 21
13.71088815037384
 31
0.0
  0
LINE
  5
8B
330
82
100
AcDbEntity
  8
중심선
100
AcDbLine
 10
2.750260043222114
 20
10.84717430164391
 30
0.0
 11
6.196535287059397
 21
10.84717430164391
 31
0.0
  0
LINE
  5
8C
330
82
100
AcDbEntity
  8
중심선
100
AcDbLine
 10
12.29416204261559
 20
16.24717430164393
 30
0.0
 11
5.245725140726316
 21
7.84717430164391
 31
0.0
  0
LINE
  5
8D
330
82
100
AcDbEntity
  8
중심선
100
AcDbLine
 10
10.72767329541681
 20
16.24717430164393
 30
0.0
 11
6.196535287059397
 21
10.84717430164391
 31
0.0
  0
LINE
  5
8E
330
82
100
AcDbEntity
  8
중심선
100
AcDbLine
 10
7.28139805157953
 20
16.24717430164393
 30
0.0
 11
2.750260043222114
 21
10.84717430164391
 31
0.0
  0
LINE
  5
8F
330
82
100
AcDbEntity
  8
중심선
100
AcDbLine
 10
5.714909304380834
 20
16.24717430164393
 30
0.0
 11
3.58671253028996
 21
13.71088815037384
 31
0.0
  0
LINE
  5
90
330
82
100
AcDbEntity
  8
중심선
100
AcDbLine
 10
2.268634060543552
 20
16.24717430164393
 30
0.0
 11
0.1404042013395286
 21
13.71084872107135
 31
0.0
  0
LINE
  5
91
330
82
100
AcDbEntity
  8
중심선
100
AcDbLine
 10
7.28139805157953
 20
16.24717430164393
 30
0.0
 11
10.72767329541681
 21
16.24717430164393
 31
0.0
  0
LINE
  5
92
330
82
100
AcDbEntity
  8
중심선
100
AcDbLine
 10
12.29416204261559
 20
16.24717430164393
 30
0.0
 11
15.74043728645272
 21
16.24717430164393
 31
0.0
  0
LINE
  5
93
330
82
100
AcDbEntity
  8
중심선
100
AcDbLine
 10
19.22036997980202
 20
11.08717430171403
 30
0.0
 11
23.66174974927406
 21
11.08717430171406
 31
0.0
  0
LINE
  5
94
330
82
100
AcDbEntity
  8
중심선
100
AcDbLine
 10
19.22039502424796
 20
13.00717430171391
 30
0.0
 11
19.22036997980202
 21
11.08717430171403
 31
0.0
  0
LINE
  5
95
330
82
100
AcDbEntity
  8
중심선
100
AcDbLine
 10
19.22039502424796
 20
13.00717430171391
 30
0.0
 11
26.96566020931264
 21
13.00717430171391
 31
0.0
  0
LINE
  5
96
330
82
100
AcDbEntity
  8
중심선
100
AcDbLine
 10
22.22332737316547
 20
13.45928029700563
 30
0.0
 11
24.52862924686651
 21
15.39360700705356
 31
0.0
  0
ATTDEF
  5
98
330
82
100
AcDbEntity
  8
FORMAT
 62
     2
100
AcDbText
 10
-17.69892196172445
 20
2.075366912832191
 30
0.0
 40
4.233333333333333
  1
SEME72200120E [ 4 FLUTE ]
 41
0.75
  7
SLDTEXTSTYLE0
 11
-17.69892196172445
 21
-0.0412997538344756
 31
0.0
100
AcDbAttributeDefinition
  3

  2
AUTOATTR0
 70
     0
 74
     1
  0
ENDBLK
  5
84
330
82
100
AcDbEntity
  8
0
100
AcDbBlockEnd
  0
BLOCK
  5
E2
330
E1
100
AcDbEntity
  8
0
100
AcDbBlockBegin
  2
_D
 70
     0
 10
0.0
 20
0.0
 30
0.0
  3
_D
  1

  0
LINE
  5
E4
330
E1
100
AcDbEntity
  8
치수문자_일반주서
 62
     0
370
    -2
100
AcDbLine
 10
132.0625
 20
-10.00000000000002
 30
0.0
 11
146.5325434467968
 21
-9.999999999999968
 31
0.0
  0
LINE
  5
E5
330
E1
100
AcDbEntity
  8
치수문자_일반주서
 62
     0
370
    -2
100
AcDbLine
 10
132.0625
 20
9.999999999999996
 30
0.0
 11
146.5325434467968
 21
10.00000000000005
 31
0.0
  0
LINE
  5
E6
330
E1
100
AcDbEntity
  8
치수문자_일반주서
 62
     0
370
    -2
100
AcDbLine
 10
146.5325434467968
 20
-9.999999999999968
 30
0.0
 11
146.5325434467967
 21
24.91650000000005
 31
0.0
  0
LINE
  5
E7
330
E1
100
AcDbEntity
  8
치수문자_일반주서
 62
     0
370
    -2
100
AcDbLine
 10
146.5325434467968
 20
-9.999999999999968
 30
0.0
 11
146.5325434467968
 21
10.00000000000005
 31
0.0
  0
LINE
  5
E8
330
E1
100
AcDbEntity
  8
치수문자_일반주서
 62
     0
370
    -2
100
AcDbLine
 10
146.5325434467968
 20
-13.30199999999997
 30
0.0
 11
146.5325434467968
 21
-16.60399999999997
 31
0.0
  0
LINE
  5
E9
330
E1
100
AcDbEntity
  8
치수문자_일반주서
 62
     0
370
    -2
100
AcDbLine
 10
146.5325434467968
 20
13.30200000000005
 30
0.0
 11
146.5325434467968
 21
16.60400000000005
 31
0.0
  0
SOLID
  5
EA
330
E1
100
AcDbEntity
  8
치수문자_일반주서
 62
     0
100
AcDbTrace
 10
147.0828767801301
 20
-13.30199999999997
 30
0.0
 11
145.9822101134635
 21
-13.30199999999997
 31
0.0
 12
146.5325434467968
 22
-9.999999999999968
 32
0.0
 13
146.5325434467968
 23
-9.999999999999968
 33
0.0
  0
SOLID
  5
EB
330
E1
100
AcDbEntity
  8
치수문자_일반주서
 62
     0
100
AcDbTrace
 10
145.9822101134634
 20
13.30200000000005
 30
0.0
 11
147.0828767801301
 21
13.30200000000005
 31
0.0
 12
146.5325434467968
 22
10.00000000000005
 32
0.0
 13
146.5325434467968
 23
10.00000000000005
 33
0.0
  0
MTEXT
  5
EC
330
E1
100
AcDbEntity
  8
치수문자_일반주서
 62
     0
100
AcDbMText
 10
142.1575434467967
 20
20.76025000000004
 30
0.0
 40
3.5
 41
0.0
 71
     2
 72
     1
  1
\A1;%%c20
  7
SLDTEXTSTYLE0
 11
-2.842170943040398E-15
 21
1.0
 31
0.0
 73
     1
 44
1.0
  0
POINT
  5
145
330
E1
100
AcDbEntity
  8
Defpoints
 62
     0
100
AcDbPoint
 10
132.0
 20
-10.00000000000002
 30
0.0
  0
POINT
  5
146
330
E1
100
AcDbEntity
  8
Defpoints
 62
     0
100
AcDbPoint
 10
132.0
 20
9.999999999999996
 30
0.0
  0
POINT
  5
147
330
E1
100
AcDbEntity
  8
Defpoints
 62
     0
100
AcDbPoint
 10
146.5325434467968
 20
10.00000000000005
 30
0.0
  0
ENDBLK
  5
E3
330
E1
100
AcDbEntity
  8
0
100
AcDbBlockEnd
  0
BLOCK
  5
F0
330
EF
100
AcDbEntity
  8
0
100
AcDbBlockBegin
  2
_D_1
 70
     0
 10
0.0
 20
0.0
 30
0.0
  3
_D_1
  1

  0
LINE
  5
F2
330
EF
100
AcDbEntity
  8
치수문자_일반주서
 62
     0
370
    -2
100
AcDbLine
 10
-118.0
 20
9.562499999999972
 30
0.0
 11
-118.0
 21
27.38913260158162
 31
0.0
  0
LINE
  5
F3
330
EF
100
AcDbEntity
  8
치수문자_일반주서
 62
     0
370
    -2
100
AcDbLine
 10
132.0
 20
10.0625
 30
0.0
 11
132.0
 21
27.38913260158162
 31
0.0
  0
LINE
  5
F4
330
EF
100
AcDbEntity
  8
치수문자_일반주서
 62
     0
370
    -2
100
AcDbLine
 10
-114.698
 20
27.38913260158162
 30
0.0
 11
128.698
 21
27.38913260158162
 31
0.0
  0
SOLID
  5
F5
330
EF
100
AcDbEntity
  8
치수문자_일반주서
 62
     0
100
AcDbTrace
 10
-114.698
 20
27.93946593491496
 30
0.0
 11
-114.698
 21
26.83879926824829
 31
0.0
 12
-118.0
 22
27.38913260158162
 32
0.0
 13
-118.0
 23
27.38913260158162
 33
0.0
  0
SOLID
  5
F6
330
EF
100
AcDbEntity
  8
치수문자_일반주서
 62
     0
100
AcDbTrace
 10
128.698
 20
26.83879926824829
 30
0.0
 11
128.698
 21
27.93946593491496
 31
0.0
 12
132.0
 22
27.38913260158162
 32
0.0
 13
132.0
 23
27.38913260158162
 33
0.0
  0
MTEXT
  5
F7
330
EF
100
AcDbEntity
  8
치수문자_일반주서
 62
     0
100
AcDbMText
 10
6.999999999999992
 20
31.76413260158162
 30
0.0
 40
3.5
 41
0.0
 71
     2
 72
     1
  1
\A1;250
  7
SLDTEXTSTYLE0
 73
     1
 44
1.0
  0
POINT
  5
13C
330
EF
100
AcDbEntity
  8
Defpoints
 62
     0
100
AcDbPoint
 10
-118.0
 20
9.499999999999972
 30
0.0
  0
POINT
  5
13D
330
EF
100
AcDbEntity
  8
Defpoints
 62
     0
100
AcDbPoint
 10
132.0
 20
10.0
 30
0.0
  0
POINT
  5
13E
330
EF
100
AcDbEntity
  8
Defpoints
 62
     0
100
AcDbPoint
 10
132.0
 20
27.38913260158162
 30
0.0
  0
ENDBLK
  5
F1
330
EF
100
AcDbEntity
  8
0
100
AcDbBlockEnd
  0
BLOCK
  5
FB
330
FA
100
AcDbEntity
  8
0
100
AcDbBlockBegin
  2
_D_2
 70
     0
 10
0.0
 20
0.0
 30
0.0
  3
_D_2
  1

  0
LINE
  5
FD
330
FA
100
AcDbEntity
  8
치수문자_일반주서
 62
     0
370
    -2
100
AcDbLine
 10
-117.5625
 20
9.999999999999968
 30
0.0
 11
-131.1283479119724
 21
9.99999999999992
 31
0.0
  0
LINE
  5
FE
330
FA
100
AcDbEntity
  8
치수문자_일반주서
 62
     0
370
    -2
100
AcDbLine
 10
-117.5625
 20
-10.00000000000002
 30
0.0
 11
-131.1283479119724
 21
-10.00000000000007
 31
0.0
  0
LINE
  5
FF
330
FA
100
AcDbEntity
  8
치수문자_일반주서
 62
     0
370
    -2
100
AcDbLine
 10
-131.1283479119724
 20
9.99999999999992
 30
0.0
 11
-131.1283479119724
 21
24.91649999999992
 31
0.0
  0
LINE
  5
100
330
FA
100
AcDbEntity
  8
치수문자_일반주서
 62
     0
370
    -2
100
AcDbLine
 10
-131.1283479119724
 20
9.99999999999992
 30
0.0
 11
-131.1283479119724
 21
-10.00000000000007
 31
0.0
  0
LINE
  5
101
330
FA
100
AcDbEntity
  8
치수문자_일반주서
 62
     0
370
    -2
100
AcDbLine
 10
-131.1283479119724
 20
13.30199999999992
 30
0.0
 11
-131.1283479119724
 21
16.60399999999992
 31
0.0
  0
LINE
  5
102
330
FA
100
AcDbEntity
  8
치수문자_일반주서
 62
     0
370
    -2
100
AcDbLine
 10
-131.1283479119724
 20
-13.30200000000007
 30
0.0
 11
-131.1283479119724
 21
-16.60400000000007
 31
0.0
  0
SOLID
  5
103
330
FA
100
AcDbEntity
  8
치수문자_일반주서
 62
     0
100
AcDbTrace
 10
-131.6786812453057
 20
13.30199999999992
 30
0.0
 11
-130.5780145786391
 21
13.30199999999992
 31
0.0
 12
-131.1283479119724
 22
9.99999999999992
 32
0.0
 13
-131.1283479119724
 23
9.99999999999992
 33
0.0
  0
SOLID
  5
104
330
FA
100
AcDbEntity
  8
치수문자_일반주서
 62
     0
100
AcDbTrace
 10
-130.578014578639
 20
-13.30200000000007
 30
0.0
 11
-131.6786812453057
 21
-13.30200000000007
 31
0.0
 12
-131.1283479119724
 22
-10.00000000000007
 32
0.0
 13
-131.1283479119724
 23
-10.00000000000007
 33
0.0
  0
MTEXT
  5
105
330
FA
100
AcDbEntity
  8
치수문자_일반주서
 62
     0
100
AcDbMText
 10
-135.5033479119724
 20
20.76024999999991
 30
0.0
 40
3.5
 41
0.0
 71
     2
 72
     1
  1
\A1;%%c20
  7
SLDTEXTSTYLE0
 11
-2.842170943040402E-15
 21
1.0
 31
0.0
 73
     1
 44
1.0
  0
POINT
  5
142
330
FA
100
AcDbEntity
  8
Defpoints
 62
     0
100
AcDbPoint
 10
-117.5
 20
9.999999999999968
 30
0.0
  0
POINT
  5
143
330
FA
100
AcDbEntity
  8
Defpoints
 62
     0
100
AcDbPoint
 10
-117.5
 20
-10.00000000000002
 30
0.0
  0
POINT
  5
144
330
FA
100
AcDbEntity
  8
Defpoints
 62
     0
100
AcDbPoint
 10
-131.1283479119723
 20
-10.00000000000007
 30
0.0
  0
ENDBLK
  5
FC
330
FA
100
AcDbEntity
  8
0
100
AcDbBlockEnd
  0
BLOCK
  5
108
330
107
100
AcDbEntity
  8
0
100
AcDbBlockBegin
  2
_D_3
 70
     0
 10
0.0
 20
0.0
 30
0.0
  3
_D_3
  1

  0
LINE
  5
10A
330
107
100
AcDbEntity
  8
치수문자_일반주서
 62
     0
370
    -2
100
AcDbLine
 10
11.99999999999999
 20
9.436441994340157
 30
0.0
 11
12.0
 21
19.96989494573014
 31
0.0
  0
LINE
  5
10B
330
107
100
AcDbEntity
  8
치수문자_일반주서
 62
     0
370
    -2
100
AcDbLine
 10
132.0
 20
10.0625
 30
0.0
 11
132.0
 21
19.96989494573014
 31
0.0
  0
LINE
  5
10C
330
107
100
AcDbEntity
  8
치수문자_일반주서
 62
     0
370
    -2
100
AcDbLine
 10
15.302
 20
19.96989494573014
 30
0.0
 11
128.698
 21
19.96989494573014
 31
0.0
  0
SOLID
  5
10D
330
107
100
AcDbEntity
  8
치수문자_일반주서
 62
     0
100
AcDbTrace
 10
15.302
 20
20.52022827906347
 30
0.0
 11
15.302
 21
19.4195616123968
 31
0.0
 12
12.0
 22
19.96989494573014
 32
0.0
 13
12.0
 23
19.96989494573014
 33
0.0
  0
SOLID
  5
10E
330
107
100
AcDbEntity
  8
치수문자_일반주서
 62
     0
100
AcDbTrace
 10
128.698
 20
19.4195616123968
 30
0.0
 11
128.698
 21
20.52022827906347
 31
0.0
 12
132.0
 22
19.96989494573014
 32
0.0
 13
132.0
 23
19.96989494573014
 33
0.0
  0
MTEXT
  5
10F
330
107
100
AcDbEntity
  8
치수문자_일반주서
 62
     0
100
AcDbMText
 10
71.99999999999997
 20
24.34489494573014
 30
0.0
 40
3.5
 41
0.0
 71
     2
 72
     1
  1
\A1;120
  7
SLDTEXTSTYLE0
 73
     1
 44
1.0
  0
POINT
  5
13F
330
107
100
AcDbEntity
  8
Defpoints
 62
     0
100
AcDbPoint
 10
11.99999999999999
 20
9.373941994340157
 30
0.0
  0
POINT
  5
140
330
107
100
AcDbEntity
  8
Defpoints
 62
     0
100
AcDbPoint
 10
132.0
 20
10.0
 30
0.0
  0
POINT
  5
141
330
107
100
AcDbEntity
  8
Defpoints
 62
     0
100
AcDbPoint
 10
132.0
 20
19.96989494573014
 30
0.0
  0
ENDBLK
  5
109
330
107
100
AcDbEntity
  8
0
100
AcDbBlockEnd
  0
BLOCK
  5
111
330
110
100
AcDbEntity
  8
0
100
AcDbBlockBegin
  2
SW_DOWELSYMBOL_0
 70
     0
 10
0.0
 20
0.0
 30
0.0
  3
SW_DOWELSYMBOL_0
  1

  0
CIRCLE
  5
113
330
110
100
AcDbEntity
  8
해칭선
 62
     0
100
AcDbCircle
 10
0.0
 20
0.0
 30
0.0
 40
3.0
  0
HATCH
  5
114
330
110
100
AcDbEntity
  8
0
  6
Continuous
 62
     0
370
    18
100
AcDbHatch
 10
0.0
 20
0.0
 30
0.0
210
0.0
220
0.0
230
1.0
  2
SOLID
 70
     1
 71
     0
 91
        1
 92
        0
 93
        3
 72
     2
 10
0.0
 20
0.0
 40
3.0
 50
0.0
 51
90.0
 73
     1
 72
     1
 10
0.0
 20
3.0
 11
0.0
 21
0.0
 72
     1
 10
0.0
 20
0.0
 11
3.0
 21
0.0
 97
        0
 75
     0
 76
     1
 98
        1
 10
0.0
 20
0.0
  0
HATCH
  5
115
330
110
100
AcDbEntity
  8
0
  6
Continuous
 62
     0
370
    18
100
AcDbHatch
 10
0.0
 20
0.0
 30
0.0
210
0.0
220
0.0
230
1.0
  2
SOLID
 70
     1
 71
     0
 91
        1
 92
        0
 93
        3
 72
     2
 10
0.0
 20
0.0
 40
3.0
 50
180.0
 51
270.0000000000008
 73
     1
 72
     1
 10
0.0
 20
-3.0
 11
0.0
 21
0.0
 72
     1
 10
0.0
 20
0.0
 11
-3.0
 21
0.0
 97
        0
 75
     0
 76
     1
 98
        1
 10
0.0
 20
0.0
  0
ENDBLK
  5
112
330
110
100
AcDbEntity
  8
0
100
AcDbBlockEnd
  0
ENDSEC
  0
SECTION
  2
ENTITIES
  0
LINE
  5
99
330
1F
100
AcDbEntity
  8
0
  6
Continuous
 62
     4
370
    25
100
AcDbLine
 10
10.49992426388877
 20
9.99999999999999
 30
0.0
 11
-117.5
 21
9.999999999999979
 31
0.0
  0
LINE
  5
9A
330
1F
100
AcDbEntity
  8
0
  6
Continuous
 62
     4
370
    25
100
AcDbLine
 10
-117.5
 20
-10.00000000000002
 30
0.0
 11
10.49992426388875
 21
-10.00000000000001
 31
0.0
  0
LINE
  5
9B
330
1F
100
AcDbEntity
  8
0
  6
Continuous
 62
     4
370
    25
100
AcDbLine
 10
-117.5
 20
9.999999999999972
 30
0.0
 11
-118.0
 21
9.499999999999972
 31
0.0
  0
LINE
  5
9C
330
1F
100
AcDbEntity
  8
0
  6
Continuous
 62
     4
370
    25
100
AcDbLine
 10
-118.0
 20
-9.500000000000014
 30
0.0
 11
-117.5
 21
-10.00000000000001
 31
0.0
  0
LINE
  5
9D
330
1F
100
AcDbEntity
  8
0
  6
Continuous
 62
     1
370
    25
100
AcDbLine
 10
128.1334456724841
 20
-10.00000000000002
 30
0.0
 11
132.0
 21
-10.00000000000002
 31
0.0
  0
LINE
  5
9E
330
1F
100
AcDbEntity
  8
0
  6
Continuous
 62
     1
370
    25
100
AcDbLine
 10
19.30548381843102
 20
-10.00000000000002
 30
0.0
 11
27.04174381102516
 21
-10.00000000000002
 31
0.0
  0
LINE
  5
9F
330
1F
100
AcDbEntity
  8
0
  6
Continuous
 62
     1
370
    25
100
AcDbLine
 10
81.4529689945953
 20
10.0
 30
0.0
 11
73.71824752050324
 21
10.0
 31
0.0
  0
LINE
  5
A0
330
1F
100
AcDbEntity
  8
0
  6
Continuous
 62
     1
370
    25
100
AcDbLine
 10
100.9268396652615
 20
-10.00000000000002
 30
0.0
 11
108.6622175448677
 21
-10.00000000000002
 31
0.0
  0
LINE
  5
A1
330
1F
100
AcDbEntity
  8
0
  6
Continuous
 62
     1
370
    25
100
AcDbLine
 10
54.24618910032774
 20
10.0
 30
0.0
 11
46.50919148611762
 21
10.0
 31
0.0
  0
LINE
  5
A2
330
1F
100
AcDbEntity
  8
0
  6
Continuous
 62
     1
370
    25
100
AcDbLine
 10
46.50919148611785
 20
-10.00000000000002
 30
0.0
 11
54.24618910032785
 21
-10.00000000000002
 31
0.0
  0
LINE
  5
A3
330
1F
100
AcDbEntity
  8
0
  6
Continuous
 62
     1
370
    25
100
AcDbLine
 10
108.6622175448676
 20
10.0
 30
0.0
 11
100.9268396652616
 21
10.0
 31
0.0
  0
LINE
  5
A4
330
1F
100
AcDbEntity
  8
0
  6
Continuous
 62
     1
370
    25
100
AcDbLine
 10
73.71824752050321
 20
-10.00000000000002
 30
0.0
 11
81.45296899459507
 21
-10.00000000000002
 31
0.0
  0
LINE
  5
A5
330
1F
100
AcDbEntity
  8
0
  6
Continuous
 62
     1
370
    25
100
AcDbLine
 10
27.04174381102498
 20
10.0
 30
0.0
 11
19.30548381843088
 21
10.0
 31
0.0
  0
LINE
  5
A6
330
1F
100
AcDbEntity
  8
0
  6
Continuous
 62
     1
370
    25
100
AcDbLine
 10
132.0
 20
10.0
 30
0.0
 11
128.1334456724841
 21
10.0
 31
0.0
  0
SPLINE
  5
A7
330
1F
100
AcDbEntity
  8
0
  6
Continuous
 62
     4
370
    25
100
AcDbSpline
210
0.0
220
0.0
230
1.0
 70
    24
 71
     3
 72
    18
 73
    14
 74
     0
 42
0.000000001
 43
0.00000001
 40
0.0
 40
0.0
 40
0.0
 40
0.0
 40
0.2500000000000003
 40
0.2500000000000003
 40
0.5000000000000002
 40
0.5000000000000002
 40
0.6250000000000002
 40
0.6250000000000002
 40
0.7500000000000001
 40
0.7500000000000001
 40
0.8750000000000001
 40
0.8750000000000001
 40
1.0
 40
1.0
 40
1.0
 40
1.0
 10
11.99999999999999
 20
3.482701751046957
 30
0.0
 10
11.99999999999999
 20
3.170393877910414
 30
0.0
 10
11.99999999999999
 20
2.776910965569197
 30
0.0
 10
11.99999999999999
 20
1.817590603301436
 30
0.0
 10
11.99999999999999
 20
1.276401399632565
 30
0.0
 10
11.99999999999999
 20
0.3674520740996161
 30
0.0
 10
11.99999999999999
 20
0.0497866197489178
 30
0.0
 10
11.99999999999999
 20
-0.594146926255348
 30
0.0
 10
11.99999999999999
 20
-0.9232494535388897
 30
0.0
 10
11.99999999999999
 20
-1.596083461633773
 30
0.0
 10
11.99999999999999
 20
-1.939548598674596
 30
0.0
 10
11.99999999999999
 20
-2.616169676132217
 30
0.0
 10
11.99999999999999
 20
-2.952493288594004
 30
0.0
 10
11.99999999999999
 20
-3.286828773487716
 30
0.0
  0
SPLINE
  5
A8
330
1F
100
AcDbEntity
  8
0
  6
Continuous
 62
     4
370
    25
100
AcDbSpline
210
0.0
220
0.0
230
1.0
 70
     8
 71
     3
 72
    14
 73
    10
 74
     0
 42
0.000000001
 43
0.00000001
 40
0.0
 40
0.0
 40
0.0
 40
0.0
 40
0.25
 40
0.25
 40
0.5
 40
0.5
 40
0.75
 40
0.75
 40
1.0
 40
1.0
 40
1.0
 40
1.0
 10
11.50844702007723
 20
-6.241982775040626
 30
0.0
 10
11.35054697698113
 20
-6.170835933679809
 30
0.0
 10
11.20865833576623
 20
-6.083855842978513
 30
0.0
 10
10.95596457782734
 20
-5.8768321855237
 30
0.0
 10
10.84711392505883
 20
-5.757360265696908
 30
0.0
 10
10.67359563432584
 20
-5.496859821316908
 30
0.0
 10
10.60719508027796
 20
-5.352720824024982
 30
0.0
 10
10.52103580803675
 20
-5.054396036134989
 30
0.0
 10
10.49992426388875
 20
-4.897399881421133
 30
0.0
 10
10.49992426388875
 20
-4.737040648042053
 30
0.0
  0
SPLINE
  5
A9
330
1F
100
AcDbEntity
  8
0
  6
Continuous
 62
     4
370
    25
100
AcDbSpline
210
0.0
220
0.0
230
1.0
 70
     8
 71
     3
 72
    16
 73
    12
 74
     0
 42
0.000000001
 43
0.00000001
 40
0.0
 40
0.0
 40
0.0
 40
0.0
 40
0.2499999999999998
 40
0.2499999999999998
 40
0.4999999999999996
 40
0.4999999999999996
 40
0.6249999999999997
 40
0.6249999999999997
 40
0.7499999999999998
 40
0.7499999999999998
 40
1.0
 40
1.0
 40
1.0
 40
1.0
 10
10.49992426388877
 20
1.543734288671211
 30
0.0
 10
10.49992426388877
 20
1.767939594023497
 30
0.0
 10
10.5318350642432
 20
1.985649099661689
 30
0.0
 10
10.66737813786896
 20
2.407246814172023
 30
0.0
 10
10.76840003730942
 20
2.601836911932902
 30
0.0
 10
10.96910959535407
 20
2.863796791393499
 30
0.0
 10
11.04423354643762
 20
2.94574653186004
 30
0.0
 10
11.20575670468309
 20
3.093879744882724
 30
0.0
 10
11.29277063729398
 20
3.160921316102087
 30
0.0
 10
11.57302908603085
 20
3.340893108662096
 30
0.0
 10
11.78005732233408
 20
3.42909657558782
 30
0.0
 10
11.99999999999999
 20
3.482701751046958
 30
0.0
  0
SPLINE
  5
AA
330
1F
100
AcDbEntity
  8
0
  6
Continuous
 62
     4
370
    25
100
AcDbSpline
210
0.0
220
0.0
230
1.0
 70
     8
 71
     3
 72
    16
 73
    12
 74
     0
 42
0.000000001
 43
0.00000001
 40
0.0
 40
0.0
 40
0.0
 40
0.0
 40
0.2499999999999999
 40
0.2499999999999999
 40
0.4999999999999998
 40
0.4999999999999998
 40
0.6249999999999998
 40
0.6249999999999998
 40
0.7499999999999997
 40
0.7499999999999997
 40
1.0
 40
1.0
 40
1.0
 40
1.0
 10
10.49992426388877
 20
9.880125730271876
 30
0.0
 10
10.49992426388877
 20
9.845094453644105
 30
0.0
 10
10.5318350642432
 20
9.80325896057904
 30
0.0
 10
10.66737813786896
 20
9.708339269453814
 30
0.0
 10
10.76840003730942
 20
9.657302485156212
 30
0.0
 10
10.96910959535407
 20
9.581593269865378
 30
0.0
 10
11.04423354643762
 20
9.556600530612384
 30
0.0
 10
11.20575670468309
 20
9.509676359154966
 30
0.0
 10
11.29277063729398
 20
9.487496607559661
 30
0.0
 10
11.57302908603085
 20
9.426266228824183
 30
0.0
 10
11.78005732233408
 20
9.393857931365307
 30
0.0
 10
11.99999999999999
 20
9.373941994340157
 30
0.0
  0
LINE
  5
AB
330
1F
100
AcDbEntity
  8
0
  6
Continuous
 62
     4
370
    25
100
AcDbLine
 10
10.49992426388876
 20
9.99999999999999
 30
0.0
 11
10.49992426388876
 21
8.806840858037434
 31
0.0
  0
SPLINE
  5
AC
330
1F
100
AcDbEntity
  8
0
  6
Continuous
 62
     4
370
    25
100
AcDbSpline
210
0.0
220
0.0
230
1.0
 70
     8
 71
     3
 72
    14
 73
    10
 74
     0
 42
0.000000001
 43
0.00000001
 40
0.0
 40
0.0
 40
0.0
 40
0.0
 40
0.25
 40
0.25
 40
0.5
 40
0.5
 40
0.75
 40
0.75
 40
1.0
 40
1.0
 40
1.0
 40
1.0
 10
11.50844702007723
 20
7.812659664675594
 30
0.0
 10
11.35054697698113
 20
7.869502964823521
 30
0.0
 10
11.20865833576623
 20
7.937466751042113
 30
0.0
 10
10.95596457782734
 20
8.091941905700725
 30
0.0
 10
10.84711392505883
 20
8.177874353466107
 30
0.0
 10
10.67359563432584
 20
8.355199475470114
 30
0.0
 10
10.60719508027796
 20
8.448602880266069
 30
0.0
 10
10.52103580803675
 20
8.630387682966147
 30
0.0
 10
10.49992426388875
 20
8.720586522453258
 30
0.0
 10
10.49992426388875
 20
8.806840858037434
 30
0.0
  0
SPLINE
  5
AD
330
1F
100
AcDbEntity
  8
0
  6
Continuous
 62
     4
370
    25
100
AcDbSpline
210
0.0
220
0.0
230
1.0
 70
     8
 71
     3
 72
     8
 73
     4
 74
     0
 42
0.000000001
 43
0.00000001
 40
0.0
 40
0.0
 40
0.0
 40
0.0
 40
1.0
 40
1.0
 40
1.0
 40
1.0
 10
11.99999999999999
 20
7.632631677329792
 30
0.0
 10
11.83612229114331
 20
7.69367431197775
 30
0.0
 10
11.6722383992443
 20
7.753695510232829
 30
0.0
 10
11.50844702007722
 20
7.812659664675594
 30
0.0
  0
LINE
  5
AE
330
1F
100
AcDbEntity
  8
0
  6
Continuous
 62
     4
370
    25
100
AcDbLine
 10
11.99999999999999
 20
7.632631677329792
 30
0.0
 11
11.99999999999999
 21
3.482701751046957
 31
0.0
  0
SPLINE
  5
AF
330
1F
100
AcDbEntity
  8
0
  6
Continuous
 62
     4
370
    25
100
AcDbSpline
210
0.0
220
0.0
230
1.0
 70
     8
 71
     3
 72
     8
 73
     4
 74
     0
 42
0.000000001
 43
0.00000001
 40
0.0
 40
0.0
 40
0.0
 40
0.0
 40
1.0
 40
1.0
 40
1.0
 40
1.0
 10
11.99999999999999
 20
-6.460877160121112
 30
0.0
 10
11.83612229114331
 20
-6.388763740327671
 30
0.0
 10
11.6722383992443
 20
-6.315784143560694
 30
0.0
 10
11.50844702007723
 20
-6.241982775040626
 30
0.0
  0
LINE
  5
B0
330
1F
100
AcDbEntity
  8
0
  6
Continuous
 62
     4
370
    25
100
AcDbLine
 10
11.99999999999999
 20
-6.460877160121112
 30
0.0
 11
11.99999999999999
 21
-9.373941994340182
 31
0.0
  0
SPLINE
  5
B1
330
1F
100
AcDbEntity
  8
0
  6
Continuous
 62
     4
370
    25
100
AcDbSpline
210
0.0
220
0.0
230
1.0
 70
     8
 71
     3
 72
    16
 73
    12
 74
     0
 42
0.000000001
 43
0.00000001
 40
0.0
 40
0.0
 40
0.0
 40
0.0
 40
0.2499999999999995
 40
0.2499999999999995
 40
0.499999999999999
 40
0.499999999999999
 40
0.6249999999999992
 40
0.6249999999999992
 40
0.7499999999999993
 40
0.7499999999999993
 40
1.0
 40
1.0
 40
1.0
 40
1.0
 10
10.49992426388877
 20
-9.880125730271901
 30
0.0
 10
10.49992426388877
 20
-9.845094453644126
 30
0.0
 10
10.5318350642432
 20
-9.803258960579061
 30
0.0
 10
10.66737813786896
 20
-9.70833926945384
 30
0.0
 10
10.76840003730942
 20
-9.657302485156237
 30
0.0
 10
10.96910959535407
 20
-9.581593269865406
 30
0.0
 10
11.04423354643763
 20
-9.556600530612409
 30
0.0
 10
11.20575670468309
 20
-9.509676359154984
 30
0.0
 10
11.29277063729398
 20
-9.487496607559683
 30
0.0
 10
11.57302908603086
 20
-9.426266228824204
 30
0.0
 10
11.78005732233408
 20
-9.393857931365332
 30
0.0
 10
11.99999999999999
 20
-9.373941994340182
 30
0.0
  0
LINE
  5
B2
330
1F
100
AcDbEntity
  8
0
  6
Continuous
 62
     4
370
    25
100
AcDbLine
 10
10.49992426388877
 20
-9.880125730271901
 30
0.0
 11
10.49992426388877
 21
-10.00000000000001
 31
0.0
  0
LINE
  5
B3
330
1F
100
AcDbEntity
  8
0
  6
Continuous
 62
     4
370
    25
100
AcDbLine
 10
-117.5
 20
9.999999999999972
 30
0.0
 11
-117.5
 21
-10.00000000000001
 31
0.0
  0
LINE
  5
B4
330
1F
100
AcDbEntity
  8
0
  6
Continuous
 62
     4
370
    25
100
AcDbLine
 10
10.49992426388877
 20
1.543734288671211
 30
0.0
 11
10.49992426388876
 21
-4.737040648042052
 31
0.0
  0
LINE
  5
B5
330
1F
100
AcDbEntity
  8
0
  6
Continuous
 62
     4
370
    25
100
AcDbLine
 10
-118.0
 20
9.499999999999972
 30
0.0
 11
-118.0
 21
-9.500000000000025
 31
0.0
  0
SPLINE
  5
B6
330
1F
100
AcDbEntity
  8
0
  6
Continuous
 62
     4
370
    25
100
AcDbSpline
210
0.0
220
0.0
230
1.0
 70
    24
 71
     3
 72
    10
 73
     6
 74
     0
 42
0.000000001
 43
0.00000001
 40
0.0
 40
0.0
 40
0.0
 40
0.0
 40
0.5
 40
0.5
 40
1.0
 40
1.0
 40
1.0
 40
1.0
 10
11.99999999999999
 20
-3.286828773487881
 30
0.0
 10
11.99999999999999
 20
-3.853308949179764
 30
0.0
 10
11.99999999999999
 20
-4.420430349438236
 30
0.0
 10
11.99999999999999
 20
-5.49755259402667
 30
0.0
 10
11.99999999999999
 20
-6.00689845863534
 30
0.0
 10
11.99999999999999
 20
-6.460877160121104
 30
0.0
  0
SPLINE
  5
B7
330
1F
100
AcDbEntity
  8
0
  6
Continuous
 62
     4
370
    25
100
AcDbSpline
210
0.0
220
0.0
230
1.0
 70
    24
 71
     3
 72
     9
 73
     5
 74
     0
 42
0.000000001
 43
0.00000001
 40
0.0
 40
0.0
 40
0.0
 40
0.0
 40
0.5180520108798301
 40
1.0
 40
1.0
 40
1.0
 40
1.0
 10
11.99999999999999
 20
9.373941994340157
 30
0.0
 10
11.99999999999999
 20
9.081045106695463
 30
0.0
 10
11.99999999999999
 20
8.515663867952167
 30
0.0
 10
11.99999999999999
 20
8.035728105222221
 30
0.0
 10
11.99999999999999
 20
7.80442402946767
 30
0.0
  0
SPLINE
  5
B8
330
1F
100
AcDbEntity
  8
0
  6
Continuous
 62
     1
370
    25
100
AcDbSpline
210
0.0
220
0.0
230
1.0
 70
     8
 71
     3
 72
     9
 73
     5
 74
     0
 42
0.000000001
 43
0.00000001
 40
0.0
 40
0.0
 40
0.0
 40
0.0
 40
0.5647882229244772
 40
1.0
 40
1.0
 40
1.0
 40
1.0
 10
11.99999999999999
 20
-9.12397664314245
 30
0.0
 10
13.37548820100125
 20
-9.412260873612267
 30
0.0
 10
15.81089344702245
 20
-9.922689772035602
 30
0.0
 10
18.24578871978099
 20
-9.94176995062089
 30
0.0
 10
19.30548381843102
 20
-9.950073869049914
 30
0.0
  0
SPLINE
  5
B9
330
1F
100
AcDbEntity
  8
0
  6
Continuous
 62
     1
370
    25
100
AcDbSpline
210
0.0
220
0.0
230
1.0
 70
     8
 71
     3
 72
    23
 73
    19
 74
     0
 42
0.000000001
 43
0.00000001
 40
0.0
 40
0.0
 40
0.0
 40
0.0
 40
0.0456108132089371
 40
0.1132359649397165
 40
0.1808707068003003
 40
0.2485388466885178
 40
0.3161526112635885
 40
0.3838009757739447
 40
0.4514646568227854
 40
0.5190731993004429
 40
0.5867317897978924
 40
0.6466209158682105
 40
0.7064921326066892
 40
0.7663413241851147
 40
0.8262150681337257
 40
0.8861119504430564
 40
0.9504345795646573
 40
0.9999999999999999
 40
0.9999999999999999
 40
0.9999999999999999
 40
0.9999999999999999
 10
63.98573210497246
 20
8.403280328594596
 30
0.0
 10
64.96116312967274
 20
8.703385618383871
 30
0.0
 10
67.38282294108848
 20
9.448443855278947
 30
0.0
 10
71.2501155293389
 20
9.990026146006878
 30
0.0
 10
75.58923805172077
 20
10.04954622389619
 30
0.0
 10
79.92908613764729
 20
9.461787863559568
 30
0.0
 10
84.26770601689088
 20
8.28779281540261
 30
0.0
 10
88.6071593499993
 20
6.595429072507775
 30
0.0
 10
92.94696546953011
 20
4.492635987385218
 30
0.0
 10
97.28538102377277
 20
2.10675673380532
 30
0.0
 10
101.4592530772368
 20
-0.3121691371342115
 30
0.0
 10
105.4663586868888
 20
-2.612873535670881
 30
0.0
 10
109.3065918647999
 20
-4.690508613821476
 30
0.0
 10
113.1458916004697
 20
-6.537877989004234
 30
0.0
 10
116.9863685038169
 20
-8.068920289977013
 30
0.0
 10
120.9224709432966
 20
-9.216556513060365
 30
0.0
 10
124.6388803655881
 20
-9.908874990247634
 30
0.0
 10
127.0737581743647
 20
-9.93758077392383
 30
0.0
 10
128.1334456724841
 20
-9.950073869049897
 30
0.0
  0
LINE
  5
BA
330
1F
100
AcDbEntity
  8
0
  6
Continuous
 62
     4
370
    25
100
AcDbLine
 10
11.99999999999998
 20
-9.123976643142464
 30
0.0
 11
11.99999999999999
 21
-6.460877160122905
 31
0.0
  0
SPLINE
  5
BB
330
1F
100
AcDbEntity
  8
0
  6
Continuous
 62
     1
370
    25
100
AcDbSpline
210
0.0
220
0.0
230
1.0
 70
     8
 71
     3
 72
    19
 73
    15
 74
     0
 42
0.000000001
 43
0.00000001
 40
0.0
 40
0.0
 40
0.0
 40
0.0
 40
0.0858311419372439
 40
0.1717117071864859
 40
0.2575259979217215
 40
0.3433757492652915
 40
0.429251984120803
 40
0.5150572453868562
 40
0.6009212989815665
 40
0.6867888763183532
 40
0.7725929361893101
 40
0.8584669740998692
 40
0.9443215733250643
 40
1.0
 40
1.0
 40
1.0
 40
1.0
 10
132.0
 20
-9.751656983552625
 30
0.0
 10
130.5539400676941
 20
-9.507453874962339
 30
0.0
 10
127.6609875324504
 20
-9.01890704067993
 30
0.0
 10
123.3211427102488
 20
-7.561007845609703
 30
0.0
 10
118.9824559672448
 20
-5.6730861928044
 30
0.0
 10
114.6430863558568
 20
-3.420061216231506
 30
0.0
 10
110.3032724308662
 20
-0.9578189685139765
 30
0.0
 10
105.9647551315079
 20
1.567684931556794
 30
0.0
 10
101.6251291036278
 20
3.993319594329133
 30
0.0
 10
97.28544248056991
 20
6.167995811355671
 30
0.0
 10
92.94695215742851
 20
7.965937471479895
 30
0.0
 10
88.60715109335726
 20
9.239708896854102
 30
0.0
 10
84.77546467865315
 20
9.938135851153241
 30
0.0
 10
82.39100443780666
 20
9.931320627904432
 30
0.0
 10
81.4529689945953
 20
9.928639551134406
 30
0.0
  0
SPLINE
  5
BC
330
1F
100
AcDbEntity
  8
0
  6
Continuous
 62
     1
370
    25
100
AcDbSpline
210
0.0
220
0.0
230
1.0
 70
     8
 71
     3
 72
    14
 73
    10
 74
     0
 42
0.000000001
 43
0.00000001
 40
0.0
 40
0.0
 40
0.0
 40
0.0
 40
0.0121012762584536
 40
0.1908366889534373
 40
0.3697263025133778
 40
0.5485388546338906
 40
0.7238406751968343
 40
0.8992434381028013
 40
1.0
 40
1.0
 40
1.0
 40
1.0
 10
36.74790821051202
 20
-8.453235678492938
 30
0.0
 10
36.64806867902085
 20
-8.489318373067647
 30
0.0
 10
35.07360287809946
 20
-9.058341161581026
 30
0.0
 10
32.02428377982464
 20
-9.658180214789333
 30
0.0
 10
27.59788374494176
 20
-10.11348765545987
 30
0.0
 10
23.20091085692291
 20
-9.85847539739416
 30
0.0
 10
18.83322311975496
 20
-8.988550190628446
 30
0.0
 10
15.10740005817835
 20
-7.780670246510433
 30
0.0
 10
12.83066529522567
 20
-6.813682171777435
 30
0.0
 10
11.99999999999999
 20
-6.460877160122905
 30
0.0
  0
LINE
  5
BD
330
1F
100
AcDbEntity
  8
0
  6
Continuous
 62
     1
370
    25
100
AcDbLine
 10
132.0
 20
-10.00000000000004
 30
0.0
 11
132.0
 21
-9.751656983552637
 31
0.0
  0
SPLINE
  5
BE
330
1F
100
AcDbEntity
  8
0
  6
Continuous
 62
     4
370
    25
100
AcDbSpline
210
0.0
220
0.0
230
1.0
 70
    24
 71
     3
 72
    24
 73
    20
 74
     0
 42
0.000000001
 43
0.00000001
 40
0.0
 40
0.0
 40
0.0
 40
0.0
 40
0.0625000000000003
 40
0.0625000000000003
 40
0.1250000000000006
 40
0.1250000000000006
 40
0.2500000000000004
 40
0.2500000000000004
 40
0.3750000000000004
 40
0.3750000000000004
 40
0.5000000000000003
 40
0.5000000000000003
 40
0.6250000000000002
 40
0.6250000000000002
 40
0.7500000000000002
 40
0.7500000000000002
 40
0.8750000000000001
 40
0.8750000000000001
 40
1.0
 40
1.0
 40
1.0
 40
1.0
 10
11.99999999999999
 20
4.093049012092403
 30
0.0
 10
11.99999999999999
 20
3.998861532485101
 30
0.0
 10
11.99999999999999
 20
3.902372644320956
 30
0.0
 10
11.99999999999998
 20
3.706989493610362
 30
0.0
 10
11.99999999999999
 20
3.60397800610169
 30
0.0
 10
11.99999999999999
 20
3.264977508459231
 30
0.0
 10
11.99999999999999
 20
3.003603766690648
 30
0.0
 10
11.99999999999999
 20
2.395364453625705
 30
0.0
 10
11.99999999999999
 20
2.04828000000115
 30
0.0
 10
11.99999999999999
 20
1.258734892586696
 30
0.0
 10
11.99999999999999
 20
0.8159581966347114
 30
0.0
 10
11.99999999999999
 20
-0.161623024962372
 30
0.0
 10
11.99999999999999
 20
-0.6967078416668161
 30
0.0
 10
11.99999999999999
 20
-1.832690949609857
 30
0.0
 10
11.99999999999999
 20
-2.433547119130314
 30
0.0
 10
11.99999999999999
 20
-3.647213142452786
 30
0.0
 10
11.99999999999999
 20
-4.259428085172315
 30
0.0
 10
11.99999999999999
 20
-5.423267035596868
 30
0.0
 10
11.99999999999999
 20
-5.973966462085436
 30
0.0
 10
11.99999999999999
 20
-6.460877160122901
 30
0.0
  0
SPLINE
  5
BF
330
1F
100
AcDbEntity
  8
0
  6
Continuous
 62
     1
370
    25
100
AcDbSpline
210
0.0
220
0.0
230
1.0
 70
     8
 71
     3
 72
    16
 73
    12
 74
     0
 42
0.000000001
 43
0.00000001
 40
0.0
 40
0.0
 40
0.0
 40
0.0
 40
0.1195664737948117
 40
0.2390494164333917
 40
0.3585881796411773
 40
0.4781680119940549
 40
0.5976934054158183
 40
0.717185179582024
 40
0.8367578579214316
 40
0.9625144840102199
 40
1.0
 40
1.0
 40
1.0
 40
1.0
 10
11.99999999999999
 20
4.093049012092385
 30
0.0
 10
13.37549236249088
 20
3.34632315694764
 30
0.0
 10
16.12551614529733
 20
1.853393121941269
 30
0.0
 10
20.24966324900751
 20
-0.5544217672278929
 30
0.0
 10
24.37470997788613
 20
-2.91296038092771
 30
0.0
 10
28.50062062674816
 20
-5.112020265931444
 30
0.0
 10
32.62544058027992
 20
-7.018866761833602
 30
0.0
 10
36.74975210176041
 20
-8.541540469821992
 30
0.0
 10
40.9466109322497
 20
-9.555729077307245
 30
0.0
 10
44.20033550117726
 20
-10.03526831525897
 30
0.0
 10
46.07801693461622
 20
-9.95329189833986
 30
0.0
 10
46.50919148611784
 20
-9.934467541785372
 30
0.0
  0
SPLINE
  5
C0
330
1F
100
AcDbEntity
  8
0
  6
Continuous
 62
     1
370
    25
100
AcDbSpline
210
0.0
220
0.0
230
1.0
 70
     8
 71
     3
 72
    18
 73
    14
 74
     0
 42
0.000000001
 43
0.00000001
 40
0.0
 40
0.0
 40
0.0
 40
0.0
 40
0.0445957173379087
 40
0.1544978588164304
 40
0.2644813566494943
 40
0.361835078016587
 40
0.4591596865844761
 40
0.5564484918031499
 40
0.6537772085176625
 40
0.7511435381624382
 40
0.8557042109254815
 40
0.9601918358381111
 40
1.0
 40
1.0
 40
1.0
 40
1.0
 10
91.18784884124346
 20
8.39760332525877
 30
0.0
 10
91.7745445819699
 20
8.593642507712635
 30
0.0
 10
93.80709930089355
 20
9.272802654498756
 30
0.0
 10
97.28535546132309
 20
9.862883532327256
 30
0.0
 10
101.459259015135
 20
10.09335804859709
 30
0.0
 10
105.4663573194624
 20
9.736585532836903
 30
0.0
 10
109.3065917013249
 20
8.925200641372596
 30
0.0
 10
113.1458936205205
 20
7.674468520741983
 30
0.0
 10
116.9863605818292
 20
6.048922934143854
 30
0.0
 10
120.9225015485261
 20
4.07916880037594
 30
0.0
 10
124.9533802289575
 20
1.843820918307114
 30
0.0
 10
128.2267140740862
 20
-0.0596145791242557
 30
0.0
 10
130.1240069383472
 20
-1.147072892077484
 30
0.0
 10
130.647430014572
 20
-1.44707969975291
 30
0.0
  0
SPLINE
  5
C1
330
1F
100
AcDbEntity
  8
0
  6
Continuous
 62
     1
370
    25
100
AcDbSpline
210
0.0
220
0.0
230
1.0
 70
     8
 71
     3
 72
     8
 73
     4
 74
     0
 42
0.000000001
 43
0.00000001
 40
0.0
 40
0.0
 40
0.0
 40
0.0
 40
1.0
 40
1.0
 40
1.0
 40
1.0
 10
132.0
 20
-7.266081778456264
 30
0.0
 10
130.3158715379629
 20
-6.320024379565051
 30
0.0
 10
128.7255316270374
 20
-5.160603083795174
 30
0.0
 10
127.1953962218575
 20
-3.864219783566251
 30
0.0
  0
LINE
  5
C2
330
1F
100
AcDbEntity
  8
0
  6
Continuous
 62
     1
370
    25
100
AcDbLine
 10
132.0
 20
-9.751656983552637
 30
0.0
 11
132.0
 21
-7.266081778456263
 31
0.0
  0
LINE
  5
C3
330
1F
100
AcDbEntity
  8
0
  6
Continuous
 62
     1
370
    25
100
AcDbLine
 10
130.647430014572
 20
-1.447079699752922
 30
0.0
 11
130.6391247532895
 21
-1.452895106309727
 31
0.0
  0
SPLINE
  5
C4
330
1F
100
AcDbEntity
  8
0
  6
Continuous
 62
     1
370
    25
100
AcDbSpline
210
0.0
220
0.0
230
1.0
 70
    24
 71
     3
 72
    12
 73
     8
 74
     0
 42
0.000000001
 43
0.00000001
 40
0.0
 40
0.0
 40
0.0
 40
0.0
 40
0.1417016191640922
 40
0.4044194489851289
 40
0.6677788547546604
 40
0.9205995996989083
 40
1.0
 40
1.0
 40
1.0
 40
1.0
 10
130.4983925053234
 20
-1.551436887204787
 30
0.0
 10
130.4460018638715
 20
-1.588121209281055
 30
0.0
 10
130.2964778536806
 20
-1.692819048360063
 30
0.0
 10
129.7208915744439
 20
-2.095848899971746
 30
0.0
 10
128.746563443741
 20
-2.778080801779564
 30
0.0
 10
127.8410944031017
 20
-3.412097049650757
 30
0.0
 10
127.319949211416
 20
-3.777006841370884
 30
0.0
 10
127.1953962218575
 20
-3.864219783566267
 30
0.0
  0
SPLINE
  5
C5
330
1F
100
AcDbEntity
  8
0
  6
Continuous
 62
     1
370
    25
100
AcDbSpline
210
0.0
220
0.0
230
1.0
 70
     8
 71
     3
 72
    23
 73
    19
 74
     0
 42
0.000000001
 43
0.00000001
 40
0.0
 40
0.0
 40
0.0
 40
0.0
 40
0.0402330732805265
 40
0.1078870823432573
 40
0.1755064885836989
 40
0.2431802746743409
 40
0.3108206599506315
 40
0.3784514542969213
 40
0.4461262877358766
 40
0.5137519534213164
 40
0.5813980024779012
 40
0.6490704706113802
 40
0.7166871287341805
 40
0.7843454906929234
 40
0.8533569942434396
 40
0.9223172786047606
 40
0.9913370572505991
 40
1.0
 40
1.0
 40
1.0
 40
1.0
 10
91.18784884124332
 20
-8.39760332525878
 30
0.0
 10
90.32753479884718
 20
-8.669343627789198
 30
0.0
 10
88.02055786755773
 20
-9.398029408034354
 30
0.0
 10
84.26768733758959
 20
-9.95729777368712
 30
0.0
 10
79.92909058942834
 20
-10.06987349507679
 30
0.0
 10
75.58923893889497
 20
-9.530461004631205
 30
0.0
 10
71.25010753549518
 20
-8.402112812884338
 30
0.0
 10
66.91121223243795
 20
-6.74678581796838
 30
0.0
 10
62.57137121007055
 20
-4.672562896295689
 30
0.0
 10
58.23260230533735
 20
-2.304322555110915
 30
0.0
 10
53.89333058985523
 20
0.2070244194840559
 30
0.0
 10
49.55349977043185
 20
2.703754079055307
 30
0.0
 10
45.21493526347067
 20
5.035510954377647
 30
0.0
 10
40.84666166633303
 20
7.059785472033266
 30
0.0
 10
36.44921706499797
 20
8.664394482801566
 30
0.0
 10
32.02427766174611
 20
9.65386825592479
 30
0.0
 10
28.88795026153859
 20
10.07931415211522
 30
0.0
 10
27.22697118686153
 20
9.975823860966429
 30
0.0
 10
27.041743811025
 20
9.964282935890191
 30
0.0
  0
SPLINE
  5
C6
330
1F
100
AcDbEntity
  8
0
  6
Continuous
 62
     1
370
    25
100
AcDbSpline
210
0.0
220
0.0
230
1.0
 70
     8
 71
     3
 72
    23
 73
    19
 74
     0
 42
0.000000001
 43
0.00000001
 40
0.0
 40
0.0
 40
0.0
 40
0.0
 40
0.0000164760220233
 40
0.0643142601836437
 40
0.1319373369052232
 40
0.1995187315402739
 40
0.2671559070799266
 40
0.3347666773207811
 40
0.4023570748208408
 40
0.4699966144324137
 40
0.53759213791862
 40
0.6051972473329587
 40
0.6728357401424326
 40
0.7404198814619237
 40
0.8080386075576164
 40
0.8756726434812407
 40
0.9432515649912483
 40
1.0
 40
1.0
 40
1.0
 40
1.0
 10
36.74790821051192
 20
8.45323567849292
 30
0.0
 10
36.74826063365119
 20
8.45336377327287
 30
0.0
 10
38.12394667257871
 20
8.953382588155913
 30
0.0
 10
40.94665040286976
 20
9.546101185475415
 30
0.0
 10
45.21495923415905
 20
10.08699272263207
 30
0.0
 10
49.55349334363445
 20
9.946745464558882
 30
0.0
 10
53.89333231012052
 20
9.201962464412189
 30
0.0
 10
58.23260185081183
 20
7.878196396359007
 30
0.0
 10
62.57137130889464
 20
6.062692779499285
 30
0.0
 10
66.91121229205638
 20
3.870497759374718
 30
0.0
 10
71.25010719850042
 20
1.434671399039789
 30
0.0
 10
75.58924022781261
 20
-1.090290892773111
 30
0.0
 10
79.92908576988427
 20
-3.545803961849451
 30
0.0
 10
84.26770531407502
 20
-5.781258362386039
 30
0.0
 10
88.60716253152668
 20
-7.658766379204625
 30
0.0
 10
92.9469534480398
 20
-9.040724687043289
 30
0.0
 10
97.05270868178624
 20
-9.876267910890206
 30
0.0
 10
99.71270237790506
 20
-9.932218357449862
 30
0.0
 10
100.9268396652615
 20
-9.957756584668765
 30
0.0
  0
SPLINE
  5
C7
330
1F
100
AcDbEntity
  8
0
  6
Continuous
 62
     1
370
    25
100
AcDbSpline
210
0.0
220
0.0
230
1.0
 70
     8
 71
     3
 72
    22
 73
    18
 74
     0
 42
0.000000001
 43
0.00000001
 40
0.0
 40
0.0
 40
0.0
 40
0.0
 40
0.058948350839835
 40
0.1265824241190142
 40
0.1941606002928021
 40
0.2617850799016598
 40
0.3294123347256885
 40
0.3969895647093681
 40
0.4646219077271291
 40
0.5322389413001691
 40
0.5998213909626787
 40
0.6674581907547319
 40
0.7350616079872493
 40
0.8026554395315741
 40
0.8702932860995248
 40
0.9378819917860078
 40
0.9999999999999999
 40
0.9999999999999999
 40
0.9999999999999999
 40
0.9999999999999999
 10
118.4268064304718
 20
-8.421652434600498
 30
0.0
 10
117.1657182422446
 20
-8.784207883760235
 30
0.0
 10
114.457727304086
 20
-9.562739377489237
 30
0.0
 10
110.303260741054
 20
-10.05101326196479
 30
0.0
 10
105.9647583257422
 20
-9.985179839097613
 30
0.0
 10
101.6251280208196
 20
-9.282067306931296
 30
0.0
 10
97.28544361594643
 20
-8.00372728902144
 30
0.0
 10
92.94694869956399
 20
-6.222938184028001
 30
0.0
 10
88.60716380035333
 20
-4.055864020800649
 30
0.0
 10
84.2677049879832
 20
-1.634954231380287
 30
0.0
 10
79.92908580637794
 20
0.8896352224803222
 30
0.0
 10
75.58924040831957
 20
3.356238877235035
 30
0.0
 10
71.25010644051969
 20
5.614042013744243
 30
0.0
 10
66.91121514396823
 20
7.525299258866286
 30
0.0
 10
62.57136065481442
 20
8.95082977355543
 30
0.0
 10
58.35009732503038
 20
9.848095105559127
 30
0.0
 10
55.5751450451169
 20
9.935038879208221
 30
0.0
 10
54.24618910032777
 20
9.976677233024153
 30
0.0
  0
SPLINE
  5
C8
330
1F
100
AcDbEntity
  8
0
  6
Continuous
 62
     1
370
    25
100
AcDbSpline
210
0.0
220
0.0
230
1.0
 70
     8
 71
     3
 72
    13
 73
     9
 74
     0
 42
0.000000001
 43
0.00000001
 40
0.0
 40
0.0
 40
0.0
 40
0.0
 40
0.1859014715585463
 40
0.3719099889540973
 40
0.557774962533237
 40
0.7437167401618502
 40
0.9297158783676485
 40
1.0
 40
1.0
 40
1.0
 40
1.0
 10
132.0
 20
2.21476546729667
 30
0.0
 10
130.5539399974962
 20
3.015833634956765
 30
0.0
 10
127.6609873218161
 20
4.61843124157183
 30
0.0
 10
123.3211435530808
 20
6.692316462965358
 30
0.0
 10
118.9824528088577
 20
8.371041278457529
 30
0.0
 10
114.6430981544198
 20
9.48321994738739
 30
0.0
 10
111.202355787852
 20
10.01485492926681
 30
0.0
 10
109.2089083516132
 20
9.94539246996601
 30
0.0
 10
108.6622175448676
 20
9.926342813966382
 30
0.0
  0
SPLINE
  5
C9
330
1F
100
AcDbEntity
  8
0
  6
Continuous
 62
     1
370
    25
100
AcDbSpline
210
0.0
220
0.0
230
1.0
 70
     8
 71
     3
 72
    20
 73
    16
 74
     0
 42
0.000000001
 43
0.00000001
 40
0.0
 40
0.0
 40
0.0
 40
0.0
 40
0.0272198700512868
 40
0.1106624781721203
 40
0.1941302371233876
 40
0.277630594299868
 40
0.3610620880825012
 40
0.4445450397961494
 40
0.5296976188980077
 40
0.614786999173075
 40
0.6999497888293008
 40
0.7850758923581099
 40
0.8685306652421325
 40
0.9520334930766648
 40
1.0
 40
1.0
 40
1.0
 40
1.0
 10
63.98573210497247
 20
-8.403280328594615
 30
0.0
 10
63.51399591161456
 20
-8.564254924964475
 30
0.0
 10
61.59615074548748
 20
-9.218697717067506
 30
0.0
 10
58.23261398752135
 20
-9.816066039728117
 30
0.0
 10
53.8933275228442
 20
-10.10911759887777
 30
0.0
 10
49.55350034874819
 20
-9.73503853755177
 30
0.0
 10
45.21493601405232
 20
-8.76208321130993
 30
0.0
 10
40.8466580537491
 20
-7.230007857331077
 30
0.0
 10
36.44923106174473
 20
-5.226572658886441
 30
0.0
 10
32.02422542620482
 20
-2.867800557950448
 30
0.0
 10
27.59789939034352
 20
-0.326492516522755
 30
0.0
 10
23.20090675308119
 20
2.223410260754268
 30
0.0
 10
18.83322422551783
 20
4.607438929662249
 30
0.0
 10
15.10739991365362
 20
6.413709767123514
 30
0.0
 10
12.83066525659154
 20
7.306791389810297
 30
0.0
 10
11.99999999999999
 20
7.63263167733138
 30
0.0
  0
SPLINE
  5
CA
330
1F
100
AcDbEntity
  8
0
  6
Continuous
 62
     1
370
    25
100
AcDbSpline
210
0.0
220
0.0
230
1.0
 70
     8
 71
     3
 72
    22
 73
    18
 74
     0
 42
0.000000001
 43
0.00000001
 40
0.0
 40
0.0
 40
0.0
 40
0.0
 40
0.0668558358327655
 40
0.1336649650504515
 40
0.2005053064523933
 40
0.2673686117499399
 40
0.3342014774089661
 40
0.4010155447931996
 40
0.4678748499096342
 40
0.5381919219268516
 40
0.6084656513098325
 40
0.6787973838195012
 40
0.7491016590854704
 40
0.8193847499932133
 40
0.8897189407556488
 40
0.9600073618606337
 40
1.0
 40
1.0
 40
1.0
 40
1.0
 10
11.99999999999999
 20
9.123976643142425
 30
0.0
 10
13.37549236292156
 20
9.398892927922558
 30
0.0
 10
16.12551614658906
 20
9.94853343632718
 30
0.0
 10
20.24966324384378
 20
10.07371151754503
 30
0.0
 10
24.37470999726347
 20
9.666947314734859
 30
0.0
 10
28.50062055439339
 20
8.704891188817518
 30
0.0
 10
32.625440850146
 20
7.253882357426339
 30
0.0
 10
36.74975109461757
 20
5.391936528390672
 30
0.0
 10
40.94661477605744
 20
3.189669241444316
 30
0.0
 10
45.2149689523536
 20
0.7561786294564798
 30
0.0
 10
49.55349082575889
 20
-1.767002562910858
 30
0.0
 10
53.89333265654705
 20
-4.177688669354166
 30
0.0
 10
58.23260298202766
 20
-6.326925934042534
 30
0.0
 10
62.57136643788274
 20
-8.0892928299808
 30
0.0
 10
66.91123065505803
 20
-9.31634018839726
 30
0.0
 10
70.626625949735
 20
-9.962167339842313
 30
0.0
 10
72.89546811934244
 20
-9.933531505744062
 30
0.0
 10
73.71824752050324
 20
-9.923146925121086
 30
0.0
  0
SPLINE
  5
CB
330
1F
100
AcDbEntity
  8
0
  6
Continuous
 62
     1
370
    25
100
AcDbSpline
210
0.0
220
0.0
230
1.0
 70
     8
 71
     3
 72
    11
 73
     7
 74
     0
 42
0.000000001
 43
0.00000001
 40
0.0
 40
0.0
 40
0.0
 40
0.0
 40
0.1964766469531607
 40
0.5340887055471429
 40
0.8714649026599162
 40
1.0
 40
1.0
 40
1.0
 40
1.0
 10
118.4268064304719
 20
8.421652434600487
 30
0.0
 10
119.2271771223608
 20
8.670803807664543
 30
0.0
 10
121.4028501777482
 20
9.348079893085508
 30
0.0
 10
124.9533874355945
 20
9.909047558855603
 30
0.0
 10
128.2267134904257
 20
10.05939433794678
 30
0.0
 10
130.1240068121442
 20
9.930345835965657
 30
0.0
 10
130.647430014572
 20
9.894744076658196
 30
0.0
  0
SPLINE
  5
CC
330
1F
100
AcDbEntity
  8
0
  6
Continuous
 62
     1
370
    25
100
AcDbSpline
210
0.0
220
0.0
230
1.0
 70
     8
 71
     3
 72
    22
 73
    18
 74
     0
 42
0.000000001
 43
0.00000001
 40
0.0
 40
0.0
 40
0.0
 40
0.0
 40
0.249999999999999
 40
0.249999999999999
 40
0.3749999999999995
 40
0.3749999999999995
 40
0.5
 40
0.5
 40
0.5625000000000001
 40
0.5625000000000001
 40
0.6250000000000001
 40
0.6250000000000001
 40
0.7500000000000001
 40
0.7500000000000001
 40
0.875
 40
0.875
 40
1.0
 40
1.0
 40
1.0
 40
1.0
 10
130.647430014572
 20
9.89474407665821
 30
0.0
 10
130.6483300744112
 20
9.283134665630072
 30
0.0
 10
130.5878719214381
 20
8.684986715119672
 30
0.0
 10
130.3760174207948
 20
7.814347839321169
 30
0.0
 10
130.283455514206
 20
7.526023105511517
 30
0.0
 10
130.0577113305652
 20
6.983978845190975
 30
0.0
 10
129.9244379079399
 20
6.7280161848795
 30
0.0
 10
129.6909589373948
 20
6.368851405513229
 30
0.0
 10
129.6072257826093
 20
6.253066494950618
 30
0.0
 10
129.4322858014328
 20
6.035520208430535
 30
0.0
 10
129.3406527916886
 20
5.933023839203755
 30
0.0
 10
129.0535335365731
 20
5.643959723970063
 30
0.0
 10
128.844480729654
 20
5.474803869360834
 30
0.0
 10
128.3998444931174
 20
5.189912301147322
 30
0.0
 10
128.1688206389672
 20
5.076535487151675
 30
0.0
 10
127.6912435646453
 20
4.901635336322646
 30
0.0
 10
127.4430893656618
 20
4.840255663647822
 30
0.0
 10
127.1953962218575
 20
4.804603778142468
 30
0.0
  0
SPLINE
  5
CD
330
1F
100
AcDbEntity
  8
0
  6
Continuous
 62
     1
370
    25
100
AcDbSpline
210
0.0
220
0.0
230
1.0
 70
     8
 71
     3
 72
     8
 73
     4
 74
     0
 42
0.000000001
 43
0.00000001
 40
0.0
 40
0.0
 40
0.0
 40
0.0
 40
1.0
 40
1.0
 40
1.0
 40
1.0
 10
132.0
 20
2.462652369968966
 30
0.0
 10
130.3158715379629
 20
3.37323604205651
 30
0.0
 10
128.7255316270374
 20
4.136275508719671
 30
0.0
 10
127.1953962218575
 20
4.804603778142482
 30
0.0
  0
LINE
  5
CE
330
1F
100
AcDbEntity
  8
0
  6
Continuous
 62
     1
370
    25
100
AcDbLine
 10
132.0
 20
2.223589414514632
 30
0.0
 11
132.0
 21
2.46265236996897
 31
0.0
  0
LINE
  5
CF
330
1F
100
AcDbEntity
  8
0
  6
Continuous
 62
     4
370
    25
100
AcDbLine
 10
11.99999999999998
 20
4.093049012092395
 30
0.0
 11
11.99999999999999
 21
7.63263167733138
 31
0.0
  0
LINE
  5
D0
330
1F
100
AcDbEntity
  8
0
  6
Continuous
 62
     1
370
    25
100
AcDbLine
 10
132.0
 20
-0.5000000000000393
 30
0.0
 11
132.0
 21
2.214765467296671
 31
0.0
  0
LINE
  5
D1
330
1F
100
AcDbEntity
  8
0
  6
Continuous
 62
     1
370
    25
100
AcDbLine
 10
132.0
 20
-0.50000000000003
 30
0.0
 11
130.647430014572
 21
-1.447079699752914
 31
0.0
  0
LINE
  5
D2
330
1F
100
AcDbEntity
  8
0
  6
Continuous
 62
     1
370
    25
100
AcDbLine
 10
132.0
 20
9.987492177719101
 30
0.0
 11
132.0
 21
10.00000000000001
 31
0.0
  0
ELLIPSE
  5
D3
330
1F
100
AcDbEntity
  8
0
  6
Continuous
 62
     1
370
    25
100
AcDbEllipse
 10
132.7140740033711
 20
-0.000000000000012
 30
0.0
 11
14.28148006742109
 21
-5.350968460038309E-17
 31
0.0
210
0.0
220
0.0
230
1.0
 40
0.7002075382097136
 41
1.620817183600667
 42
1.716014156413955
  0
LINE
  5
D4
330
1F
100
AcDbEntity
  8
0
  6
Continuous
 62
     1
370
    25
100
AcDbLine
 10
132.0
 20
-0.5000000000000046
 30
0.0
 11
132.0
 21
-7.266081778456258
 31
0.0
  0
LINE
  5
D5
330
1F
100
AcDbEntity
  8
0
  6
Continuous
 62
     1
370
    25
100
AcDbLine
 10
132.0
 20
2.46265236996897
 30
0.0
 11
132.0
 21
9.987492177719101
 31
0.0
  0
LINE
  5
D6
330
1F
100
AcDbEntity
  8
중심선
100
AcDbLine
 10
-121.0
 20
-0.0000000000000163
 30
0.0
 11
139.0
 21
0.0000000000000156
 31
0.0
  0
CIRCLE
  5
D7
330
1F
100
AcDbEntity
  8
해칭선
100
AcDbCircle
 10
0.0000979470721977
 20
-0.0000000000000043
 30
0.0
 40
2.999999999999999
  0
INSERT
  5
D8
330
1F
100
AcDbEntity
  8
0
  6
Continuous
 62
     7
100
AcDbBlockReference
 66
     1
  2
블럭10
 10
-7.440099248941779
 20
-52.04717430164393
 30
0.0
  0
ATTRIB
  5
D9
330
D8
100
AcDbEntity
  8
FORMAT
 62
     2
100
AcDbText
 10
-25.13902121066623
 20
-49.97180738881174
 30
0.0
 40
4.233333333333333
  1
SEME72200120E [ 4 FLUTE ]
 41
0.75
  7
SLDTEXTSTYLE0
 11
-25.13902121066623
 21
-52.08847405547841
 31
0.0
100
AcDbAttribute
  2
AUTOATTR0
 70
     0
 74
     1
  0
SEQEND
  5
DA
330
D8
100
AcDbEntity
  8
0
  6
Continuous
 62
     7
  0
HATCH
  5
DB
330
1F
100
AcDbEntity
  8
중심선
100
AcDbHatch
 10
0.0
 20
0.0
 30
0.0
210
0.0
220
0.0
230
1.0
  2
SOLID
 70
     1
 71
     0
 91
        1
 92
        0
 93
        4
 72
     1
 10
-1.725189944560945
 20
-35.8
 11
-5.171465188398228
 21
-35.8
 72
     1
 10
-5.171465188398228
 20
-35.8
 11
-7.299695047602251
 21
-38.33632558057259
 72
     1
 10
-7.299695047602251
 20
-38.33632558057259
 11
-3.853386718651819
 21
-38.3362861512701
 72
     1
 10
-3.853386718651819
 20
-38.3362861512701
 11
-1.725189944560945
 21
-35.8
 97
        0
 75
     0
 76
     1
 98
        1
 10
0.0
 20
0.0
  0
HATCH
  5
DC
330
1F
100
AcDbEntity
  8
중심선
100
AcDbHatch
 10
0.0
 20
0.0
 30
0.0
210
0.0
220
0.0
230
1.0
  2
SOLID
 70
     1
 71
     0
 91
        1
 92
        0
 93
        4
 72
     1
 10
3.287574046475034
 20
-35.8
 11
-0.158701197362249
 21
-35.79999999999997
 72
     1
 10
-0.1587011973622487
 20
-35.79999999999997
 11
-4.689839205719665
 21
-41.20000000000002
 72
     1
 10
-4.689839205719665
 20
-41.20000000000002
 11
-1.243563961882383
 21
-41.20000000000002
 72
     1
 10
-1.243563961882382
 20
-41.20000000000002
 11
3.287574046475034
 21
-35.8
 97
        0
 75
     0
 76
     1
 98
        1
 10
0.0
 20
0.0
  0
HATCH
  5
DD
330
1F
100
AcDbEntity
  8
중심선
100
AcDbHatch
 10
0.0
 20
0.0
 30
0.0
210
0.0
220
0.0
230
1.0
  2
SOLID
 70
     1
 71
     0
 91
        1
 92
        0
 93
        4
 72
     1
 10
8.30033803751093
 20
-35.79999999999997
 11
4.854062793673814
 21
-35.79999999999997
 72
     1
 10
4.854062793673814
 20
-35.79999999999997
 11
-2.194374108215463
 21
-44.20000000000002
 72
     1
 10
-2.194374108215463
 20
-44.20000000000002
 11
1.251901135621819
 21
-44.20000000000002
 72
     1
 10
1.251901135621819
 20
-44.20000000000002
 11
8.30033803751093
 21
-35.79999999999997
 97
        0
 75
     0
 76
     1
 98
        1
 10
0.0
 20
0.0
  0
HATCH
  5
DE
330
1F
100
AcDbEntity
  8
중심선
100
AcDbHatch
 10
0.0
 20
0.0
 30
0.0
210
0.0
220
0.0
230
1.0
  2
SOLID
 70
     1
 71
     0
 91
        1
 92
        0
 93
        6
 72
     3
 10
13.1002284685231
 20
-40.00000000005127
 11
3.960054785062284
 21
1.540850780301639E-10
 40
0.3939339440162633
 50
17.09539180608433
 51
320.0019657685081
 73
     0
 72
     1
 10
14.78322812422367
 20
-38.58789400463833
 11
17.08852999792473
 21
-36.65356729459038
 72
     3
 10
13.10022846847025
 20
-40.00000000000015
 11
6.600054785286829
 21
-1.249000902703301E-13
 40
0.6363583540795982
 50
39.99873849337408
 51
368.4976242363725
 73
     1
 72
     1
 10
19.52556096037086
 20
-39.03999999993002
 11
11.78029577530618
 21
-39.03999999993002
 72
     1
 10
11.78029577530618
 20
-39.03999999993002
 11
11.78027073086024
 21
-40.95999999992991
 72
     1
 10
11.78027073086024
 20
-40.95999999992991
 11
16.22165050033228
 21
-40.95999999992988
 97
        0
 75
     0
 76
     1
 98
        1
 10
0.0
 20
0.0
  0
DIMENSION
  5
DF
330
1F
100
AcDbEntity
  8
치수문자_일반주서
100
AcDbDimension
  2
_D
 10
146.5325434467968
 20
10.00000000000005
 30
0.0
 11
146.5325434467967
 21
20.76025000000005
 31
0.0
 70
   160
  1
%%c<>
 71
     2
 42
20.00000000000002
 52
-270.0
  3
SLDDIMSTYLE0
100
AcDbAlignedDimension
 13
132.0
 23
-10.00000000000002
 33
0.0
 14
132.0
 24
9.999999999999996
 34
0.0
 50
90.0000000000002
100
AcDbRotatedDimension
  0
DIMENSION
  5
ED
330
1F
100
AcDbEntity
  8
치수문자_일반주서
100
AcDbDimension
  2
_D_1
 10
132.0
 20
27.38913260158162
 30
0.0
 11
6.999999999999992
 21
27.38913260158162
 31
0.0
 70
   160
  1
<>
 71
     2
 42
250.0
  3
SLDDIMSTYLE1
100
AcDbAlignedDimension
 13
-118.0
 23
9.499999999999972
 33
0.0
 14
132.0
 24
10.0
 34
0.0
 50
-0.0000000000000033
100
AcDbRotatedDimension
  0
DIMENSION
  5
F8
330
1F
100
AcDbEntity
  8
치수문자_일반주서
100
AcDbDimension
  2
_D_2
 10
-131.1283479119724
 20
-10.00000000000007
 30
0.0
 11
-131.1283479119724
 21
20.76024999999992
 31
0.0
 70
   160
  1
%%c<>
 71
     2
 42
19.99999999999999
 52
-270.0
  3
SLDDIMSTYLE2
100
AcDbAlignedDimension
 13
-117.5
 23
9.999999999999968
 33
0.0
 14
-117.5
 24
-10.00000000000002
 34
0.0
 50
90.0000000000002
100
AcDbRotatedDimension
  0
DIMENSION
  5
106
330
1F
100
AcDbEntity
  8
치수문자_일반주서
100
AcDbDimension
  2
_D_3
 10
132.0
 20
19.96989494573014
 30
0.0
 11
71.99999999999997
 21
19.96989494573014
 31
0.0
 70
   160
  1
<>
 71
     2
 42
120.0
  3
SLDDIMSTYLE1
100
AcDbAlignedDimension
 13
11.99999999999999
 23
9.373941994340157
 33
0.0
 14
132.0
 24
10.0
 34
0.0
 50
0.000000000000039
100
AcDbRotatedDimension
  0
INSERT
  5
116
330
1F
100
AcDbEntity
  8
해칭선
100
AcDbBlockReference
  2
SW_DOWELSYMBOL_0
 10
0.0000979470721977
 20
-0.0000000000000043
 30
0.0
  0
ENDSEC
  0
SECTION
  2
OBJECTS
  0
DICTIONARY
  5
C
330
0
100
AcDbDictionary
281
     1
  3
ACAD_GROUP
350
D
  3
ACAD_IMAGE_VARS
350
13A
  3
ACAD_LAYOUT
350
1A
  3
ACAD_MLINESTYLE
350
17
  3
ACAD_PLOTSETTINGS
350
19
  3
ACAD_PLOTSTYLENAME
350
E
  3
ACAD_SCALELIST
350
47
  3
APPDATA
350
138
  3
DWGPROPS
350
149
  0
DICTIONARY
  5
D
102
{ACAD_REACTORS
330
C
102
}
330
C
100
AcDbDictionary
281
     1
  0
RASTERVARIABLES
  5
13A
102
{ACAD_REACTORS
330
C
102
}
330
C
100
AcDbRasterVariables
 90
        0
 70
     1
 71
     1
 72
     1
  0
DICTIONARY
  5
1A
102
{ACAD_REACTORS
330
C
102
}
330
C
100
AcDbDictionary
281
     1
  3
Layout1
350
1E
  3
Layout2
350
26
  3
Model
350
22
  0
DICTIONARY
  5
17
102
{ACAD_REACTORS
330
C
102
}
330
C
100
AcDbDictionary
281
     1
  3
Standard
350
18
  0
DICTIONARY
  5
19
102
{ACAD_REACTORS
330
C
102
}
330
C
100
AcDbDictionary
281
     1
  0
ACDBDICTIONARYWDFLT
  5
E
102
{ACAD_REACTORS
330
C
102
}
330
C
100
AcDbDictionary
281
     1
  3
Normal
350
F
100
AcDbDictionaryWithDefault
340
F
  0
DICTIONARY
  5
47
102
{ACAD_REACTORS
330
C
102
}
330
C
100
AcDbDictionary
281
     1
  3
A0
350
48
  3
A1
350
49
  3
A2
350
4A
  3
A3
350
4B
  3
A4
350
4C
  3
A5
350
4D
  3
A6
350
4E
  3
A7
350
4F
  3
A8
350
50
  3
A9
350
51
  3
B0
350
52
  3
B1
350
53
  3
B2
350
54
  3
B3
350
55
  3
B4
350
56
  3
B5
350
57
  3
B6
350
58
  3
B7
350
59
  3
B8
350
5A
  3
B9
350
5B
  3
C0
350
5C
  3
C1
350
5D
  3
C2
350
5E
  3
C3
350
5F
  3
C4
350
60
  3
C5
350
61
  3
C6
350
62
  3
C7
350
63
  3
C8
350
64
  3
C9
350
65
  3
D0
350
66
  3
D1
350
67
  3
D2
350
68
  0
DICTIONARY
  5
138
102
{ACAD_REACTORS
330
C
102
}
330
C
100
AcDbDictionary
281
     1
  0
XRECORD
  5
149
102
{ACAD_REACTORS
330
C
102
}
330
C
100
AcDbXrecord
280
     1
  1
DWGPROPS COOKIE
  2

  3

  4

  6

  7

  8
12014102
  9

300
=
301
=
302
=
303
=
304
=
305
=
306
=
307
=
308
=
309
=
 40
0.0
 41
2458260.210531482
 42
2458268.239129433
  1

 90
        0
  0
LAYOUT
  5
1E
102
{ACAD_REACTORS
330
1A
102
}
330
1A
100
AcDbPlotSettings
  1

  2
none_device
  4

  6

 40
0.0
 41
0.0
 42
0.0
 43
0.0
 44
0.0
 45
0.0
 46
0.0
 47
0.0
 48
0.0
 49
0.0
140
0.0
141
0.0
142
1.0
143
1.0
 70
   688
 72
     1
 73
     0
 74
     5
  7

 75
    16
147
1.0
148
0.0
149
0.0
100
AcDbLayout
  1
Layout1
 70
     1
 71
     1
 10
0.0
 20
0.0
 11
420.0
 21
297.0
 12
0.0
 22
0.0
 32
0.0
 14
1.000000000000000E+20
 24
1.000000000000000E+20
 34
1.000000000000000E+20
 15
-1.000000000000000E+20
 25
-1.000000000000000E+20
 35
-1.000000000000000E+20
146
0.0
 13
0.0
 23
0.0
 33
0.0
 16
1.0
 26
0.0
 36
0.0
 17
0.0
 27
1.0
 37
0.0
 76
     0
330
1B
  0
LAYOUT
  5
26
102
{ACAD_REACTORS
330
1A
102
}
330
1A
100
AcDbPlotSettings
  1

  2
none_device
  4

  6

 40
0.0
 41
0.0
 42
0.0
 43
0.0
 44
0.0
 45
0.0
 46
0.0
 47
0.0
 48
0.0
 49
0.0
140
0.0
141
0.0
142
1.0
143
1.0
 70
   688
 72
     1
 73
     0
 74
     5
  7

 75
    16
147
1.0
148
0.0
149
0.0
100
AcDbLayout
  1
Layout2
 70
     1
 71
     2
 10
0.0
 20
0.0
 11
0.0
 21
0.0
 12
0.0
 22
0.0
 32
0.0
 14
0.0
 24
0.0
 34
0.0
 15
0.0
 25
0.0
 35
0.0
146
0.0
 13
0.0
 23
0.0
 33
0.0
 16
1.0
 26
0.0
 36
0.0
 17
0.0
 27
1.0
 37
0.0
 76
     0
330
23
  0
LAYOUT
  5
22
102
{ACAD_REACTORS
330
1A
102
}
330
1A
100
AcDbPlotSettings
  1

  2
none_device
  4
ANSI_A_(11.00_x_8.50_Inches)
  6

 40
6.35
 41
19.05
 42
6.35000508
 43
19.05000254
 44
279.4
 45
215.9
 46
127.646565480477
 47
98.03477672203266
 48
0.0
 49
0.0
140
0.0
141
0.0
142
0.0382289419350518
143
1.0
 70
  1696
 72
     0
 73
     0
 74
     0
  7

 75
     0
147
0.0235690232323232
148
0.0
149
0.0
100
AcDbLayout
  1
Model
 70
     1
 71
     0
 10
0.0
 20
0.0
 11
420.0
 21
297.0
 12
0.0
 22
0.0
 32
0.0
 14
-135.5033479119724
 24
-49.97180738881174
 34
0.0
 15
147.0828767801301
 25
31.76413260158162
 35
0.0
146
0.0
 13
0.0
 23
0.0
 33
0.0
 16
1.0
 26
0.0
 36
0.0
 17
0.0
 27
1.0
 37
0.0
 76
     0
330
1F
331
29
  0
MLINESTYLE
  5
18
102
{ACAD_REACTORS
330
17
102
}
330
17
100
AcDbMlineStyle
  2
Standard
 70
     0
  3

 62
   256
 51
90.0
 52
90.0
 71
     2
 49
0.5
 62
   256
  6
BYLAYER
 49
-0.5
 62
   256
  6
BYLAYER
  0
ACDBPLACEHOLDER
  5
F
102
{ACAD_REACTORS
330
E
102
}
330
E
  0
SCALE
  5
48
102
{ACAD_REACTORS
330
47
102
}
330
47
100
AcDbScale
 70
     0
300
1:1
140
1.0
141
1.0
290
     1
  0
SCALE
  5
49
102
{ACAD_REACTORS
330
47
102
}
330
47
100
AcDbScale
 70
     0
300
1:2
140
1.0
141
2.0
290
     0
  0
SCALE
  5
4A
102
{ACAD_REACTORS
330
47
102
}
330
47
100
AcDbScale
 70
     0
300
1:4
140
1.0
141
4.0
290
     0
  0
SCALE
  5
4B
102
{ACAD_REACTORS
330
47
102
}
330
47
100
AcDbScale
 70
     0
300
1:5
140
1.0
141
5.0
290
     0
  0
SCALE
  5
4C
102
{ACAD_REACTORS
330
47
102
}
330
47
100
AcDbScale
 70
     0
300
1:8
140
1.0
141
8.0
290
     0
  0
SCALE
  5
4D
102
{ACAD_REACTORS
330
47
102
}
330
47
100
AcDbScale
 70
     0
300
1:10
140
1.0
141
10.0
290
     0
  0
SCALE
  5
4E
102
{ACAD_REACTORS
330
47
102
}
330
47
100
AcDbScale
 70
     0
300
1:16
140
1.0
141
16.0
290
     0
  0
SCALE
  5
4F
102
{ACAD_REACTORS
330
47
102
}
330
47
100
AcDbScale
 70
     0
300
1:20
140
1.0
141
20.0
290
     0
  0
SCALE
  5
50
102
{ACAD_REACTORS
330
47
102
}
330
47
100
AcDbScale
 70
     0
300
1:30
140
1.0
141
30.0
290
     0
  0
SCALE
  5
51
102
{ACAD_REACTORS
330
47
102
}
330
47
100
AcDbScale
 70
     0
300
1:40
140
1.0
141
40.0
290
     0
  0
SCALE
  5
52
102
{ACAD_REACTORS
330
47
102
}
330
47
100
AcDbScale
 70
     0
300
1:50
140
1.0
141
50.0
290
     0
  0
SCALE
  5
53
102
{ACAD_REACTORS
330
47
102
}
330
47
100
AcDbScale
 70
     0
300
1:100
140
1.0
141
100.0
290
     0
  0
SCALE
  5
54
102
{ACAD_REACTORS
330
47
102
}
330
47
100
AcDbScale
 70
     0
300
2:1
140
2.0
141
1.0
290
     0
  0
SCALE
  5
55
102
{ACAD_REACTORS
330
47
102
}
330
47
100
AcDbScale
 70
     0
300
4:1
140
4.0
141
1.0
290
     0
  0
SCALE
  5
56
102
{ACAD_REACTORS
330
47
102
}
330
47
100
AcDbScale
 70
     0
300
8:1
140
8.0
141
1.0
290
     0
  0
SCALE
  5
57
102
{ACAD_REACTORS
330
47
102
}
330
47
100
AcDbScale
 70
     0
300
10:1
140
10.0
141
1.0
290
     0
  0
SCALE
  5
58
102
{ACAD_REACTORS
330
47
102
}
330
47
100
AcDbScale
 70
     0
300
100:1
140
100.0
141
1.0
290
     0
  0
SCALE
  5
59
102
{ACAD_REACTORS
330
47
102
}
330
47
100
AcDbScale
 70
     0
300
1/128" = 1'-0"
140
0.0078125
141
12.0
290
     0
  0
SCALE
  5
5A
102
{ACAD_REACTORS
330
47
102
}
330
47
100
AcDbScale
 70
     0
300
1/64" = 1'-0"
140
0.015625
141
12.0
290
     0
  0
SCALE
  5
5B
102
{ACAD_REACTORS
330
47
102
}
330
47
100
AcDbScale
 70
     0
300
1/32" = 1'-0"
140
0.03125
141
12.0
290
     0
  0
SCALE
  5
5C
102
{ACAD_REACTORS
330
47
102
}
330
47
100
AcDbScale
 70
     0
300
1/16" = 1'-0"
140
0.0625
141
12.0
290
     0
  0
SCALE
  5
5D
102
{ACAD_REACTORS
330
47
102
}
330
47
100
AcDbScale
 70
     0
300
3/32" = 1'-0"
140
0.09375
141
12.0
290
     0
  0
SCALE
  5
5E
102
{ACAD_REACTORS
330
47
102
}
330
47
100
AcDbScale
 70
     0
300
1/8" = 1'-0"
140
0.125
141
12.0
290
     0
  0
SCALE
  5
5F
102
{ACAD_REACTORS
330
47
102
}
330
47
100
AcDbScale
 70
     0
300
3/16" = 1'-0"
140
0.1875
141
12.0
290
     0
  0
SCALE
  5
60
102
{ACAD_REACTORS
330
47
102
}
330
47
100
AcDbScale
 70
     0
300
1/4" = 1'-0"
140
0.25
141
12.0
290
     0
  0
SCALE
  5
61
102
{ACAD_REACTORS
330
47
102
}
330
47
100
AcDbScale
 70
     0
300
3/8" = 1'-0"
140
0.375
141
12.0
290
     0
  0
SCALE
  5
62
102
{ACAD_REACTORS
330
47
102
}
330
47
100
AcDbScale
 70
     0
300
1/2" = 1'-0"
140
0.5
141
12.0
290
     0
  0
SCALE
  5
63
102
{ACAD_REACTORS
330
47
102
}
330
47
100
AcDbScale
 70
     0
300
3/4" = 1'-0"
140
0.75
141
12.0
290
     0
  0
SCALE
  5
64
102
{ACAD_REACTORS
330
47
102
}
330
47
100
AcDbScale
 70
     0
300
1" = 1'-0"
140
1.0
141
12.0
290
     0
  0
SCALE
  5
65
102
{ACAD_REACTORS
330
47
102
}
330
47
100
AcDbScale
 70
     0
300
1-1/2" = 1'-0"
140
1.5
141
12.0
290
     0
  0
SCALE
  5
66
102
{ACAD_REACTORS
330
47
102
}
330
47
100
AcDbScale
 70
     0
300
3" = 1'-0"
140
3.0
141
12.0
290
     0
  0
SCALE
  5
67
102
{ACAD_REACTORS
330
47
102
}
330
47
100
AcDbScale
 70
     0
300
6" = 1'-0"
140
6.0
141
12.0
290
     0
  0
SCALE
  5
68
102
{ACAD_REACTORS
330
47
102
}
330
47
100
AcDbScale
 70
     0
300
1'-0" = 1'-0"
140
12.0
141
12.0
290
     0
  0
ENDSEC
  0
EOF
