  0
SECTION
  2
HEADER
  9
$ACADVER
  1
AC1015
  9
$ACADMAINTVER
 70
     6
  9
$DWGCODEPAGE
  3
ANSI_949
  9
$INSBASE
 10
0.0
 20
0.0
 30
0.0
  9
$EXTMIN
 10
-64.43749366987201
 20
-49.97180738881174
 30
0.0
  9
$EXTMAX
 10
75.51824439187563
 20
31.76413260158163
 30
0.0
  9
$LIMMIN
 10
0.0
 20
0.0
  9
$LIMMAX
 10
420.0
 20
297.0
  9
$ORTHOMODE
 70
     0
  9
$REGENMODE
 70
     1
  9
$FILLMODE
 70
     1
  9
$QTEXTMODE
 70
     0
  9
$MIRRTEXT
 70
     1
  9
$LTSCALE
 40
1.0
  9
$ATTMODE
 70
     1
  9
$TEXTSIZE
 40
3.5
  9
$TRACEWID
 40
1.0
  9
$TEXTSTYLE
  7
Standard
  9
$CLAYER
  8
0
  9
$CELTYPE
  6
ByLayer
  9
$CECOLOR
 62
   256
  9
$CELTSCALE
 40
1.0
  9
$DISPSILH
 70
     0
  9
$DIMSCALE
 40
1.0
  9
$DIMASZ
 40
3.302
  9
$DIMEXO
 40
1.0
  9
$DIMDLI
 40
3.75
  9
$DIMRND
 40
0.0
  9
$DIMDLE
 40
0.0
  9
$DIMEXE
 40
1.0
  9
$DIMTP
 40
0.0
  9
$DIMTM
 40
0.0
  9
$DIMTXT
 40
3.5
  9
$DIMCEN
 40
2.5
  9
$DIMTSZ
 40
0.0
  9
$DIMTOL
 70
     0
  9
$DIMLIM
 70
     0
  9
$DIMTIH
 70
     1
  9
$DIMTOH
 70
     1
  9
$DIMSE1
 70
     0
  9
$DIMSE2
 70
     0
  9
$DIMTAD
 70
     1
  9
$DIMZIN
 70
     0
  9
$DIMBLK
  1

  9
$DIMASO
 70
     1
  9
$DIMSHO
 70
     1
  9
$DIMPOST
  1

  9
$DIMAPOST
  1

  9
$DIMALT
 70
     0
  9
$DIMALTD
 70
     3
  9
$DIMALTF
 40
0.0393700787401575
  9
$DIMLFAC
 40
1.0
  9
$DIMTOFL
 70
     1
  9
$DIMTVP
 40
0.0
  9
$DIMTIX
 70
     0
  9
$DIMSOXD
 70
     0
  9
$DIMSAH
 70
     0
  9
$DIMBLK1
  1

  9
$DIMBLK2
  1

  9
$DIMSTYLE
  2
ISO-25
  9
$DIMCLRD
 70
     0
  9
$DIMCLRE
 70
     0
  9
$DIMCLRT
 70
     0
  9
$DIMTFAC
 40
1.0
  9
$DIMGAP
 40
1.524
  9
$DIMJUST
 70
     0
  9
$DIMSD1
 70
     0
  9
$DIMSD2
 70
     0
  9
$DIMTOLJ
 70
     0
  9
$DIMTZIN
 70
     0
  9
$DIMALTZ
 70
     0
  9
$DIMALTTZ
 70
     0
  9
$DIMUPT
 70
     0
  9
$DIMDEC
 70
     2
  9
$DIMTDEC
 70
     2
  9
$DIMALTU
 70
     2
  9
$DIMALTTD
 70
     3
  9
$DIMTXSTY
  7
Standard
  9
$DIMAUNIT
 70
     0
  9
$DIMADEC
 70
     2
  9
$DIMALTRND
 40
0.0
  9
$DIMAZIN
 70
     0
  9
$DIMDSEP
 70
    44
  9
$DIMATFIT
 70
     3
  9
$DIMFRAC
 70
     0
  9
$DIMLDRBLK
  1

  9
$DIMLUNIT
 70
     2
  9
$DIMLWD
 70
    -2
  9
$DIMLWE
 70
    -2
  9
$DIMTMOVE
 70
     0
  9
$LUNITS
 70
     2
  9
$LUPREC
 70
     2
  9
$SKETCHINC
 40
1.0
  9
$FILLETRAD
 40
10.0
  9
$AUNITS
 70
     0
  9
$AUPREC
 70
     2
  9
$MENU
  1
.
  9
$ELEVATION
 40
0.0
  9
$PELEVATION
 40
0.0
  9
$THICKNESS
 40
0.0
  9
$LIMCHECK
 70
     0
  9
$CHAMFERA
 40
0.0
  9
$CHAMFERB
 40
0.0
  9
$CHAMFERC
 40
0.0
  9
$CHAMFERD
 40
0.0
  9
$SKPOLY
 70
     0
  9
$TDCREATE
 40
2458260.585909387
  9
$TDUCREATE
 40
2458260.210909387
  9
$TDUPDATE
 40
2458268.599494525
  9
$TDUUPDATE
 40
2458268.224494525
  9
$TDINDWG
 40
0.0006138426
  9
$TDUSRTIMER
 40
2458268.223880729
  9
$USRTIMER
 70
     1
  9
$ANGBASE
 50
0.0
  9
$ANGDIR
 70
     0
  9
$PDMODE
 70
     0
  9
$PDSIZE
 40
-1.0
  9
$PLINEWID
 40
0.0
  9
$SPLFRAME
 70
     0
  9
$SPLINETYPE
 70
     6
  9
$SPLINESEGS
 70
     8
  9
$HANDSEED
  5
141
  9
$SURFTAB1
 70
     6
  9
$SURFTAB2
 70
     6
  9
$SURFTYPE
 70
     6
  9
$SURFU
 70
     6
  9
$SURFV
 70
     6
  9
$UCSBASE
  2

  9
$UCSNAME
  2

  9
$UCSORG
 10
0.0
 20
0.0
 30
0.0
  9
$UCSXDIR
 10
1.0
 20
0.0
 30
0.0
  9
$UCSYDIR
 10
0.0
 20
1.0
 30
0.0
  9
$UCSORTHOREF
  2

  9
$UCSORTHOVIEW
 70
     0
  9
$UCSORGTOP
 10
0.0
 20
0.0
 30
0.0
  9
$UCSORGBOTTOM
 10
0.0
 20
0.0
 30
0.0
  9
$UCSORGLEFT
 10
0.0
 20
0.0
 30
0.0
  9
$UCSORGRIGHT
 10
0.0
 20
0.0
 30
0.0
  9
$UCSORGFRONT
 10
0.0
 20
0.0
 30
0.0
  9
$UCSORGBACK
 10
0.0
 20
0.0
 30
0.0
  9
$PUCSBASE
  2

  9
$PUCSNAME
  2

  9
$PUCSORG
 10
0.0
 20
0.0
 30
0.0
  9
$PUCSXDIR
 10
1.0
 20
0.0
 30
0.0
  9
$PUCSYDIR
 10
0.0
 20
1.0
 30
0.0
  9
$PUCSORTHOREF
  2

  9
$PUCSORTHOVIEW
 70
     0
  9
$PUCSORGTOP
 10
0.0
 20
0.0
 30
0.0
  9
$PUCSORGBOTTOM
 10
0.0
 20
0.0
 30
0.0
  9
$PUCSORGLEFT
 10
0.0
 20
0.0
 30
0.0
  9
$PUCSORGRIGHT
 10
0.0
 20
0.0
 30
0.0
  9
$PUCSORGFRONT
 10
0.0
 20
0.0
 30
0.0
  9
$PUCSORGBACK
 10
0.0
 20
0.0
 30
0.0
  9
$USERI1
 70
     0
  9
$USERI2
 70
     0
  9
$USERI3
 70
     0
  9
$USERI4
 70
     0
  9
$USERI5
 70
     0
  9
$USERR1
 40
0.0
  9
$USERR2
 40
0.0
  9
$USERR3
 40
0.0
  9
$USERR4
 40
0.0
  9
$USERR5
 40
0.0
  9
$WORLDVIEW
 70
     1
  9
$SHADEDGE
 70
     3
  9
$SHADEDIF
 70
    70
  9
$TILEMODE
 70
     1
  9
$MAXACTVP
 70
    64
  9
$PINSBASE
 10
0.0
 20
0.0
 30
0.0
  9
$PLIMCHECK
 70
     0
  9
$PEXTMIN
 10
1.000000000000000E+20
 20
1.000000000000000E+20
 30
1.000000000000000E+20
  9
$PEXTMAX
 10
-1.000000000000000E+20
 20
-1.000000000000000E+20
 30
-1.000000000000000E+20
  9
$PLIMMIN
 10
0.0
 20
0.0
  9
$PLIMMAX
 10
0.0
 20
0.0
  9
$UNITMODE
 70
     0
  9
$VISRETAIN
 70
     1
  9
$PLINEGEN
 70
     0
  9
$PSLTSCALE
 70
     1
  9
$TREEDEPTH
 70
  3020
  9
$CMLSTYLE
  2
Standard
  9
$CMLJUST
 70
     0
  9
$CMLSCALE
 40
20.0
  9
$PROXYGRAPHICS
 70
     1
  9
$MEASUREMENT
 70
     1
  9
$CELWEIGHT
370
    -1
  9
$ENDCAPS
280
     0
  9
$JOINSTYLE
280
     0
  9
$LWDISPLAY
290
     1
  9
$INSUNITS
 70
     4
  9
$HYPERLINKBASE
  1

  9
$STYLESHEET
  1

  9
$XEDIT
290
     1
  9
$CEPSNTYPE
380
     0
  9
$PSTYLEMODE
290
     1
  9
$FINGERPRINTGUID
  2
{3907A517-C61B-4064-9C53-EFAA23795908}
  9
$VERSIONGUID
  2
{FAEB1C32-E019-11D5-929B-00C0DF256EC4}
  9
$EXTNAMES
290
     1
  9
$PSVPSCALE
 40
0.0
  9
$OLESTARTUP
290
     0
  0
ENDSEC
  0
SECTION
  2
CLASSES
  0
CLASS
  1
ACDBDICTIONARYWDFLT
  2
AcDbDictionaryWithDefault
  3
ObjectDBX Classes
 90
        0
280
     0
281
     0
  0
CLASS
  1
VISUALSTYLE
  2
AcDbVisualStyle
  3
ObjectDBX Classes
 90
     4095
280
     0
281
     0
  0
CLASS
  1
MATERIAL
  2
AcDbMaterial
  3
ObjectDBX Classes
 90
     1153
280
     0
281
     0
  0
CLASS
  1
SCALE
  2
AcDbScale
  3
ObjectDBX Classes
 90
     1153
280
     0
281
     0
  0
CLASS
  1
TABLESTYLE
  2
AcDbTableStyle
  3
ObjectDBX Classes
 90
     4095
280
     0
281
     0
  0
CLASS
  1
MLEADERSTYLE
  2
AcDbMLeaderStyle
  3
ACDB_MLEADERSTYLE_CLASS
 90
     4095
280
     0
281
     0
  0
CLASS
  1
SUN
  2
AcDbSun
  3
SCENEOE
 90
     1153
280
     0
281
     0
  0
CLASS
  1
ACDBPLACEHOLDER
  2
AcDbPlaceHolder
  3
ObjectDBX Classes
 90
        0
280
     0
281
     0
  0
CLASS
  1
LAYOUT
  2
AcDbLayout
  3
ObjectDBX Classes
 90
        0
280
     0
281
     0
  0
CLASS
  1
RASTERVARIABLES
  2
AcDbRasterVariables
  3
ISM
 90
        0
280
     0
281
     0
  0
ENDSEC
  0
SECTION
  2
TABLES
  0
TABLE
  2
VPORT
  5
8
330
0
100
AcDbSymbolTable
 70
     1
  0
VPORT
  5
29
330
8
100
AcDbSymbolTableRecord
100
AcDbViewportTableRecord
  2
*Active
 70
     0
 10
0.0
 20
0.0
 11
1.0
 21
1.0
 12
5.540375361001807
 22
-9.103837393615052
 13
0.0
 23
0.0
 14
10.0
 24
10.0
 15
10.0
 25
10.0
 16
0.0
 26
0.0
 36
1.0
 17
0.0
 27
0.0
 37
0.0
 40
83.37065879020125
 41
1.739018087855297
 42
50.0
 43
0.0
 44
0.0
 50
0.0
 51
0.0
 71
    16
 72
  2000
 73
     1
 74
     3
 75
     0
 76
     0
 77
     0
 78
     0
281
     0
 65
     1
110
0.0
120
0.0
130
0.0
111
1.0
121
0.0
131
0.0
112
0.0
122
1.0
132
0.0
 79
     0
146
0.0
  0
ENDTAB
  0
TABLE
  2
LTYPE
  5
5
330
0
100
AcDbSymbolTable
 70
     6
  0
LTYPE
  5
14
330
5
100
AcDbSymbolTableRecord
100
AcDbLinetypeTableRecord
  2
ByBlock
 70
     0
  3

 72
    65
 73
     0
 40
0.0
  0
LTYPE
  5
15
330
5
100
AcDbSymbolTableRecord
100
AcDbLinetypeTableRecord
  2
ByLayer
 70
     0
  3

 72
    65
 73
     0
 40
0.0
  0
LTYPE
  5
16
330
5
100
AcDbSymbolTableRecord
100
AcDbLinetypeTableRecord
  2
Continuous
 70
     0
  3
Solid line
 72
    65
 73
     0
 40
0.0
  0
LTYPE
  5
6E
330
5
100
AcDbSymbolTableRecord
100
AcDbLinetypeTableRecord
  2
HIDDEN
 70
     0
  3
Hidden __ __ __ __ __ __ __ __ __ __ __ __ __ __
 72
    65
 73
     2
 40
1.905
 49
1.27
 74
     0
 49
-0.635
 74
     0
  0
LTYPE
  5
6F
330
5
100
AcDbSymbolTableRecord
100
AcDbLinetypeTableRecord
  2
PHANTOM
 70
     0
  3
Phantom ______  __  __  ______  __  __  ______
 72
    65
 73
     6
 40
12.7
 49
6.35
 74
     0
 49
-1.27
 74
     0
 49
1.27
 74
     0
 49
-1.27
 74
     0
 49
1.27
 74
     0
 49
-1.27
 74
     0
  0
LTYPE
  5
70
330
5
100
AcDbSymbolTableRecord
100
AcDbLinetypeTableRecord
  2
CENTER
 70
     0
  3
Center ____ _ ____ _ ____ _ ____ _ ____ _ ____
 72
    65
 73
     4
 40
10.16
 49
6.35
 74
     0
 49
-1.27
 74
     0
 49
1.27
 74
     0
 49
-1.27
 74
     0
  0
LTYPE
  5
71
330
5
100
AcDbSymbolTableRecord
100
AcDbLinetypeTableRecord
  2
CENTERX2
 70
     0
  3
Center (2x) ________  __  ________  __  _____
 72
    65
 73
     4
 40
20.32
 49
12.7
 74
     0
 49
-2.54
 74
     0
 49
2.54
 74
     0
 49
-2.54
 74
     0
  0
LTYPE
  5
72
330
5
100
AcDbSymbolTableRecord
100
AcDbLinetypeTableRecord
  2
DOT2
 70
     0
  3
Dot (.5x) ........................................
 72
    65
 73
     2
 40
0.635
 49
0.0
 74
     0
 49
-0.635
 74
     0
  0
ENDTAB
  0
TABLE
  2
LAYER
  5
2
330
0
100
AcDbSymbolTable
 70
    17
  0
LAYER
  5
10
330
2
100
AcDbSymbolTableRecord
100
AcDbLayerTableRecord
  2
0
 70
     0
 62
     7
  6
Continuous
370
    -3
390
F
  0
LAYER
  5
73
330
2
100
AcDbSymbolTableRecord
100
AcDbLayerTableRecord
  2
FORMAT
 70
     0
 62
     2
  6
Continuous
370
    -3
390
F
  0
LAYER
  5
74
330
2
100
AcDbSymbolTableRecord
100
AcDbLayerTableRecord
  2
외형선
 70
     0
 62
   100
  6
Continuous
370
    35
390
F
  0
LAYER
  5
75
330
2
100
AcDbSymbolTableRecord
100
AcDbLayerTableRecord
  2
숨은선
 70
     0
 62
     2
  6
HIDDEN
370
    25
390
F
  0
LAYER
  5
76
330
2
100
AcDbSymbolTableRecord
100
AcDbLayerTableRecord
  2
중심선
 70
     0
 62
     1
  6
CENTERX2
370
    -3
390
F
  0
LAYER
  5
77
330
2
100
AcDbSymbolTableRecord
100
AcDbLayerTableRecord
  2
파단선
 70
     0
 62
     4
  6
Continuous
370
    -3
390
F
  0
LAYER
  5
78
330
2
100
AcDbSymbolTableRecord
100
AcDbLayerTableRecord
  2
해칭선
 70
     0
 62
   100
  6
Continuous
370
    -3
390
F
  0
LAYER
  5
79
330
2
100
AcDbSymbolTableRecord
100
AcDbLayerTableRecord
  2
가는실선
 70
     0
 62
     4
  6
Continuous
370
    -3
390
F
  0
LAYER
  5
7A
330
2
100
AcDbSymbolTableRecord
100
AcDbLayerTableRecord
  2
치수_보조선
 70
     0
 62
     4
  6
Continuous
370
    -3
390
F
  0
LAYER
  5
7B
330
2
100
AcDbSymbolTableRecord
100
AcDbLayerTableRecord
  2
치수문자_일반주서
 70
     0
 62
     7
  6
Continuous
370
    25
390
F
  0
LAYER
  5
7C
330
2
100
AcDbSymbolTableRecord
100
AcDbLayerTableRecord
  2
개별주서
 70
     0
 62
   100
  6
Continuous
370
    35
390
F
  0
LAYER
  5
7D
330
2
100
AcDbSymbolTableRecord
100
AcDbLayerTableRecord
  2
중간선
 70
     0
 62
     2
  6
Continuous
370
    25
390
F
  0
LAYER
  5
7E
330
2
100
AcDbSymbolTableRecord
100
AcDbLayerTableRecord
  2
윤곽선
 70
     0
 62
     3
  6
Continuous
370
    50
390
F
  0
LAYER
  5
7F
330
2
100
AcDbSymbolTableRecord
100
AcDbLayerTableRecord
  2
중심마크
 70
     0
 62
   100
  6
Continuous
370
    35
390
F
  0
LAYER
  5
80
330
2
100
AcDbSymbolTableRecord
100
AcDbLayerTableRecord
  2
가상선
 70
     0
 62
     4
  6
PHANTOM
370
    -3
390
F
  0
LAYER
  5
81
330
2
100
AcDbSymbolTableRecord
100
AcDbLayerTableRecord
  2
특수지정선
 70
     0
 62
     5
  6
CENTERX2
370
    70
390
F
  0
LAYER
  5
132
330
2
100
AcDbSymbolTableRecord
100
AcDbLayerTableRecord
  2
Defpoints
 70
     0
 62
     7
  6
Continuous
290
     0
370
    -3
390
F
  0
ENDTAB
  0
TABLE
  2
STYLE
  5
3
330
0
100
AcDbSymbolTable
 70
     2
  0
STYLE
  5
11
330
3
100
AcDbSymbolTableRecord
100
AcDbTextStyleTableRecord
  2
Standard
 70
     0
 40
0.0
 41
1.0
 50
0.0
 71
     0
 42
3.5
  3
txt
  4

  0
STYLE
  5
97
330
3
100
AcDbSymbolTableRecord
100
AcDbTextStyleTableRecord
  2
SLDTEXTSTYLE0
 70
     0
 40
0.0
 41
0.75
 50
0.0
 71
     0
 42
3.5
  3
TXT
  4

  0
ENDTAB
  0
TABLE
  2
VIEW
  5
6
330
0
100
AcDbSymbolTable
 70
     0
  0
ENDTAB
  0
TABLE
  2
UCS
  5
7
330
0
100
AcDbSymbolTable
 70
     0
  0
ENDTAB
  0
TABLE
  2
APPID
  5
9
330
0
100
AcDbSymbolTable
 70
     1
  0
APPID
  5
12
330
9
100
AcDbSymbolTableRecord
100
AcDbRegAppTableRecord
  2
ACAD
 70
     0
  0
ENDTAB
  0
TABLE
  2
DIMSTYLE
  5
A
330
0
100
AcDbSymbolTable
 70
     4
100
AcDbDimStyleTable
  0
DIMSTYLE
105
27
330
A
100
AcDbSymbolTableRecord
100
AcDbDimStyleTableRecord
  2
ISO-25
 70
     0
 41
2.5
 42
0.625
 43
3.75
 44
1.25
 73
     0
 74
     0
 77
     1
 78
     8
140
2.5
141
2.5
143
0.03937007874016
147
0.625
171
     3
172
     1
178
     0
271
     2
272
     2
274
     3
278
    44
283
     0
284
     8
340
11
  0
DIMSTYLE
105
D7
102
{ACAD_REACTORS
330
D6
102
}
330
A
100
AcDbSymbolTableRecord
100
AcDbDimStyleTableRecord
  2
SLDDIMSTYLE0
 70
     0
 41
3.302
 44
0.0
 45
0.000000001
 73
     0
 74
     0
 77
     1
 78
    12
 79
     3
140
3.5
147
0.875
172
     1
173
     1
178
     0
271
     1
272
     1
276
     2
284
    12
289
     0
340
97
  0
DIMSTYLE
105
E5
102
{ACAD_REACTORS
330
E4
330
FD
102
}
330
A
100
AcDbSymbolTableRecord
100
AcDbDimStyleTableRecord
  2
SLDDIMSTYLE1
 70
     0
 41
3.302
 44
0.0
 45
0.000000001
 73
     0
 74
     0
 77
     1
 78
    12
 79
     3
140
3.5
147
0.875
173
     1
178
     0
271
     2
272
     2
276
     2
284
    12
340
97
  0
DIMSTYLE
105
F0
102
{ACAD_REACTORS
330
EF
102
}
330
A
100
AcDbSymbolTableRecord
100
AcDbDimStyleTableRecord
  2
SLDDIMSTYLE2
 70
     0
 41
3.302
 44
0.0
 45
0.000000001
 73
     0
 74
     0
 77
     1
 78
    12
 79
     3
140
3.5
147
0.875
172
     1
173
     1
178
     0
271
     2
272
     2
276
     2
284
    12
289
     0
340
97
  0
ENDTAB
  0
TABLE
  2
BLOCK_RECORD
  5
1
330
0
100
AcDbSymbolTable
 70
     7
  0
BLOCK_RECORD
  5
1F
330
1
100
AcDbSymbolTableRecord
100
AcDbBlockTableRecord
  2
*Model_Space
340
22
  0
BLOCK_RECORD
  5
1B
330
1
100
AcDbSymbolTableRecord
100
AcDbBlockTableRecord
  2
*Paper_Space
340
1E
  0
BLOCK_RECORD
  5
23
330
1
100
AcDbSymbolTableRecord
100
AcDbBlockTableRecord
  2
*Paper_Space0
340
26
  0
BLOCK_RECORD
  5
82
330
1
100
AcDbSymbolTableRecord
100
AcDbBlockTableRecord
  2
블럭10
340
0
102
{BLKREFS
331
CF
102
}
  0
BLOCK_RECORD
  5
D8
330
1
100
AcDbSymbolTableRecord
100
AcDbBlockTableRecord
  2
_D
340
0
  0
BLOCK_RECORD
  5
E6
330
1
100
AcDbSymbolTableRecord
100
AcDbBlockTableRecord
  2
_D_1
340
0
  0
BLOCK_RECORD
  5
F1
330
1
100
AcDbSymbolTableRecord
100
AcDbBlockTableRecord
  2
_D_2
340
0
  0
BLOCK_RECORD
  5
FE
330
1
100
AcDbSymbolTableRecord
100
AcDbBlockTableRecord
  2
_D_3
340
0
  0
BLOCK_RECORD
  5
107
330
1
100
AcDbSymbolTableRecord
100
AcDbBlockTableRecord
  2
SW_DOWELSYMBOL_0
340
0
102
{BLKREFS
331
10D
102
}
  0
ENDTAB
  0
ENDSEC
  0
SECTION
  2
BLOCKS
  0
BLOCK
  5
20
330
1F
100
AcDbEntity
  8
0
100
AcDbBlockBegin
  2
*Model_Space
 70
     0
 10
0.0
 20
0.0
 30
0.0
  3
*Model_Space
  1

  0
ENDBLK
  5
21
330
1F
100
AcDbEntity
  8
0
100
AcDbBlockEnd
  0
BLOCK
  5
1C
330
1B
100
AcDbEntity
 67
     1
  8
0
100
AcDbBlockBegin
  2
*Paper_Space
 70
     0
 10
0.0
 20
0.0
 30
0.0
  3
*Paper_Space
  1

  0
ENDBLK
  5
1D
330
1B
100
AcDbEntity
 67
     1
  8
0
100
AcDbBlockEnd
  0
BLOCK
  5
24
330
23
100
AcDbEntity
  8
0
100
AcDbBlockBegin
  2
*Paper_Space0
 70
     0
 10
0.0
 20
0.0
 30
0.0
  3
*Paper_Space0
  1

  0
ENDBLK
  5
25
330
23
100
AcDbEntity
  8
0
100
AcDbBlockEnd
  0
BLOCK
  5
83
330
82
100
AcDbEntity
  8
0
100
AcDbBlockBegin
  2
블럭10
 70
     2
 10
0.0
 20
0.0
 30
0.0
  3
블럭10
  1

  0
ELLIPSE
  5
85
330
82
100
AcDbEntity
  8
중심선
100
AcDbEllipse
 10
20.54032771741204
 20
12.0471743016438
 30
0.0
 11
6.600054785286829
 21
-1.261213355974178E-13
 31
0.0
210
0.0
220
0.0
230
1.0
 40
0.636358354079598
 41
0.9219305317359503
 42
6.513795318482858
  0
ELLIPSE
  5
86
330
82
100
AcDbEntity
  8
중심선
100
AcDbEllipse
 10
20.54032771746488
 20
12.04717430159265
 30
0.0
 11
3.960054785062283
 21
1.540847449632565E-10
 31
0.0
210
0.0
220
0.0
230
1.0
 40
0.3939339440162632
 41
1.131841032648279
 42
5.62031148352944
  0
LINE
  5
87
330
82
100
AcDbEntity
  8
중심선
100
AcDbLine
 10
2.268634060543552
 20
16.24717430164393
 30
0.0
 11
5.714909304380834
 21
16.24717430164393
 31
0.0
  0
LINE
  5
88
330
82
100
AcDbEntity
  8
중심선
100
AcDbLine
 10
5.245725140726316
 20
7.84717430164391
 30
0.0
 11
8.692000384563599
 21
7.84717430164391
 31
0.0
  0
LINE
  5
89
330
82
100
AcDbEntity
  8
중심선
100
AcDbLine
 10
15.74043728645272
 20
16.24717430164393
 30
0.0
 11
8.692000384563599
 21
7.84717430164391
 31
0.0
  0
LINE
  5
8A
330
82
100
AcDbEntity
  8
중심선
100
AcDbLine
 10
0.1404042013395286
 20
13.71084872107135
 30
0.0
 11
3.58671253028996
 21
13.71088815037384
 31
0.0
  0
LINE
  5
8B
330
82
100
AcDbEntity
  8
중심선
100
AcDbLine
 10
2.750260043222114
 20
10.84717430164391
 30
0.0
 11
6.196535287059397
 21
10.84717430164391
 31
0.0
  0
LINE
  5
8C
330
82
100
AcDbEntity
  8
중심선
100
AcDbLine
 10
12.29416204261559
 20
16.24717430164393
 30
0.0
 11
5.245725140726316
 21
7.84717430164391
 31
0.0
  0
LINE
  5
8D
330
82
100
AcDbEntity
  8
중심선
100
AcDbLine
 10
10.72767329541681
 20
16.24717430164393
 30
0.0
 11
6.196535287059397
 21
10.84717430164391
 31
0.0
  0
LINE
  5
8E
330
82
100
AcDbEntity
  8
중심선
100
AcDbLine
 10
7.28139805157953
 20
16.24717430164393
 30
0.0
 11
2.750260043222114
 21
10.84717430164391
 31
0.0
  0
LINE
  5
8F
330
82
100
AcDbEntity
  8
중심선
100
AcDbLine
 10
5.714909304380834
 20
16.24717430164393
 30
0.0
 11
3.58671253028996
 21
13.71088815037384
 31
0.0
  0
LINE
  5
90
330
82
100
AcDbEntity
  8
중심선
100
AcDbLine
 10
2.268634060543552
 20
16.24717430164393
 30
0.0
 11
0.1404042013395286
 21
13.71084872107135
 31
0.0
  0
LINE
  5
91
330
82
100
AcDbEntity
  8
중심선
100
AcDbLine
 10
7.28139805157953
 20
16.24717430164393
 30
0.0
 11
10.72767329541681
 21
16.24717430164393
 31
0.0
  0
LINE
  5
92
330
82
100
AcDbEntity
  8
중심선
100
AcDbLine
 10
12.29416204261559
 20
16.24717430164393
 30
0.0
 11
15.74043728645272
 21
16.24717430164393
 31
0.0
  0
LINE
  5
93
330
82
100
AcDbEntity
  8
중심선
100
AcDbLine
 10
19.22036997980202
 20
11.08717430171403
 30
0.0
 11
23.66174974927406
 21
11.08717430171406
 31
0.0
  0
LINE
  5
94
330
82
100
AcDbEntity
  8
중심선
100
AcDbLine
 10
19.22039502424796
 20
13.00717430171391
 30
0.0
 11
19.22036997980202
 21
11.08717430171403
 31
0.0
  0
LINE
  5
95
330
82
100
AcDbEntity
  8
중심선
100
AcDbLine
 10
19.22039502424796
 20
13.00717430171391
 30
0.0
 11
26.96566020931264
 21
13.00717430171391
 31
0.0
  0
LINE
  5
96
330
82
100
AcDbEntity
  8
중심선
100
AcDbLine
 10
22.22332737316547
 20
13.45928029700563
 30
0.0
 11
24.52862924686651
 21
15.39360700705356
 31
0.0
  0
ATTDEF
  5
98
330
82
100
AcDbEntity
  8
FORMAT
 62
     2
100
AcDbText
 10
-16.11926103943555
 20
2.075366912832191
 30
0.0
 40
4.233333333333333
  1
SEME7220050E [ 4 FLUTE ]
 41
0.75
  7
SLDTEXTSTYLE0
 11
-16.11926103943555
 21
-0.0412997538344756
 31
0.0
100
AcDbAttributeDefinition
  3

  2
AUTOATTR0
 70
     0
 74
     1
  0
ENDBLK
  5
84
330
82
100
AcDbEntity
  8
0
100
AcDbBlockEnd
  0
BLOCK
  5
D9
330
D8
100
AcDbEntity
  8
0
100
AcDbBlockBegin
  2
_D
 70
     0
 10
0.0
 20
0.0
 30
0.0
  3
_D
  1

  0
LINE
  5
DB
330
D8
100
AcDbEntity
  8
치수문자_일반주서
 62
     0
370
    -2
100
AcDbLine
 10
62.06249999999999
 20
-10.00000000000002
 30
0.0
 11
74.96791105854227
 21
-9.999999999999968
 31
0.0
  0
LINE
  5
DC
330
D8
100
AcDbEntity
  8
치수문자_일반주서
 62
     0
370
    -2
100
AcDbLine
 10
62.06249999999999
 20
10.0
 30
0.0
 11
74.9679110585422
 21
10.00000000000005
 31
0.0
  0
LINE
  5
DD
330
D8
100
AcDbEntity
  8
치수문자_일반주서
 62
     0
370
    -2
100
AcDbLine
 10
74.96791105854227
 20
-9.999999999999968
 30
0.0
 11
74.96791105854214
 21
24.91650000000005
 31
0.0
  0
LINE
  5
DE
330
D8
100
AcDbEntity
  8
치수문자_일반주서
 62
     0
370
    -2
100
AcDbLine
 10
74.96791105854227
 20
-9.999999999999968
 30
0.0
 11
74.9679110585422
 21
10.00000000000005
 31
0.0
  0
LINE
  5
DF
330
D8
100
AcDbEntity
  8
치수문자_일반주서
 62
     0
370
    -2
100
AcDbLine
 10
74.96791105854228
 20
-13.30199999999997
 30
0.0
 11
74.9679110585423
 21
-16.60399999999997
 31
0.0
  0
LINE
  5
E0
330
D8
100
AcDbEntity
  8
치수문자_일반주서
 62
     0
370
    -2
100
AcDbLine
 10
74.96791105854219
 20
13.30200000000005
 30
0.0
 11
74.96791105854217
 21
16.60400000000005
 31
0.0
  0
SOLID
  5
E1
330
D8
100
AcDbEntity
  8
치수문자_일반주서
 62
     0
100
AcDbTrace
 10
75.51824439187561
 20
-13.30199999999997
 30
0.0
 11
74.41757772520896
 21
-13.30199999999997
 31
0.0
 12
74.96791105854227
 22
-9.999999999999968
 32
0.0
 13
74.96791105854227
 23
-9.999999999999968
 33
0.0
  0
SOLID
  5
E2
330
D8
100
AcDbEntity
  8
치수문자_일반주서
 62
     0
100
AcDbTrace
 10
74.41757772520886
 20
13.30200000000005
 30
0.0
 11
75.51824439187551
 21
13.30200000000005
 31
0.0
 12
74.9679110585422
 22
10.00000000000005
 32
0.0
 13
74.9679110585422
 23
10.00000000000005
 33
0.0
  0
MTEXT
  5
E3
330
D8
100
AcDbEntity
  8
치수문자_일반주서
 62
     0
100
AcDbMText
 10
70.59291105854216
 20
20.76025000000003
 30
0.0
 40
3.5
 41
0.0
 71
     2
 72
     1
  1
\A1;%%c20
  7
SLDTEXTSTYLE0
 11
-3.552713678800499E-15
 21
1.0
 31
0.0
 73
     1
 44
1.0
  0
POINT
  5
13C
330
D8
100
AcDbEntity
  8
Defpoints
 62
     0
100
AcDbPoint
 10
61.99999999999999
 20
-10.00000000000002
 30
0.0
  0
POINT
  5
13D
330
D8
100
AcDbEntity
  8
Defpoints
 62
     0
100
AcDbPoint
 10
61.99999999999999
 20
10.0
 30
0.0
  0
POINT
  5
13E
330
D8
100
AcDbEntity
  8
Defpoints
 62
     0
100
AcDbPoint
 10
74.96791105854219
 20
10.00000000000005
 30
0.0
  0
ENDBLK
  5
DA
330
D8
100
AcDbEntity
  8
0
100
AcDbBlockEnd
  0
BLOCK
  5
E7
330
E6
100
AcDbEntity
  8
0
100
AcDbBlockBegin
  2
_D_1
 70
     0
 10
0.0
 20
0.0
 30
0.0
  3
_D_1
  1

  0
LINE
  5
E9
330
E6
100
AcDbEntity
  8
치수문자_일반주서
 62
     0
370
    -2
100
AcDbLine
 10
-48.00000000000001
 20
9.562499999999988
 30
0.0
 11
-48.00000000000001
 21
27.38913260158164
 31
0.0
  0
LINE
  5
EA
330
E6
100
AcDbEntity
  8
치수문자_일반주서
 62
     0
370
    -2
100
AcDbLine
 10
61.99999999999999
 20
10.0625
 30
0.0
 11
61.99999999999999
 21
27.38913260158164
 31
0.0
  0
LINE
  5
EB
330
E6
100
AcDbEntity
  8
치수문자_일반주서
 62
     0
370
    -2
100
AcDbLine
 10
-44.69800000000001
 20
27.38913260158164
 30
0.0
 11
58.69799999999999
 21
27.38913260158164
 31
0.0
  0
SOLID
  5
EC
330
E6
100
AcDbEntity
  8
치수문자_일반주서
 62
     0
100
AcDbTrace
 10
-44.69800000000001
 20
27.93946593491497
 30
0.0
 11
-44.69800000000001
 21
26.83879926824831
 31
0.0
 12
-48.00000000000001
 22
27.38913260158164
 32
0.0
 13
-48.00000000000001
 23
27.38913260158164
 33
0.0
  0
SOLID
  5
ED
330
E6
100
AcDbEntity
  8
치수문자_일반주서
 62
     0
100
AcDbTrace
 10
58.69799999999999
 20
26.83879926824831
 30
0.0
 11
58.69799999999999
 21
27.93946593491497
 31
0.0
 12
61.99999999999999
 22
27.38913260158164
 32
0.0
 13
61.99999999999999
 23
27.38913260158164
 33
0.0
  0
MTEXT
  5
EE
330
E6
100
AcDbEntity
  8
치수문자_일반주서
 62
     0
100
AcDbMText
 10
6.999999999999999
 20
31.76413260158164
 30
0.0
 40
3.5
 41
0.0
 71
     2
 72
     1
  1
\A1;110
  7
SLDTEXTSTYLE0
 73
     1
 44
1.0
  0
POINT
  5
133
330
E6
100
AcDbEntity
  8
Defpoints
 62
     0
100
AcDbPoint
 10
-48.00000000000001
 20
9.499999999999988
 30
0.0
  0
POINT
  5
134
330
E6
100
AcDbEntity
  8
Defpoints
 62
     0
100
AcDbPoint
 10
61.99999999999999
 20
9.999999999999998
 30
0.0
  0
POINT
  5
135
330
E6
100
AcDbEntity
  8
Defpoints
 62
     0
100
AcDbPoint
 10
61.99999999999999
 20
27.38913260158164
 30
0.0
  0
ENDBLK
  5
E8
330
E6
100
AcDbEntity
  8
0
100
AcDbBlockEnd
  0
BLOCK
  5
F2
330
F1
100
AcDbEntity
  8
0
100
AcDbBlockBegin
  2
_D_2
 70
     0
 10
0.0
 20
0.0
 30
0.0
  3
_D_2
  1

  0
LINE
  5
F4
330
F1
100
AcDbEntity
  8
치수문자_일반주서
 62
     0
370
    -2
100
AcDbLine
 10
-47.5625
 20
10.0
 30
0.0
 11
-60.06249366987196
 21
9.999999999999956
 31
0.0
  0
LINE
  5
F5
330
F1
100
AcDbEntity
  8
치수문자_일반주서
 62
     0
370
    -2
100
AcDbLine
 10
-47.5625
 20
-10.00000000000002
 30
0.0
 11
-60.06249366987188
 21
-10.00000000000006
 31
0.0
  0
LINE
  5
F6
330
F1
100
AcDbEntity
  8
치수문자_일반주서
 62
     0
370
    -2
100
AcDbLine
 10
-60.06249366987196
 20
9.999999999999956
 30
0.0
 11
-60.062493669872
 21
24.91649999999996
 31
0.0
  0
LINE
  5
F7
330
F1
100
AcDbEntity
  8
치수문자_일반주서
 62
     0
370
    -2
100
AcDbLine
 10
-60.06249366987196
 20
9.999999999999956
 30
0.0
 11
-60.06249366987188
 21
-10.00000000000006
 31
0.0
  0
LINE
  5
F8
330
F1
100
AcDbEntity
  8
치수문자_일반주서
 62
     0
370
    -2
100
AcDbLine
 10
-60.06249366987197
 20
13.30199999999996
 30
0.0
 11
-60.06249366987198
 21
16.60399999999996
 31
0.0
  0
LINE
  5
F9
330
F1
100
AcDbEntity
  8
치수문자_일반주서
 62
     0
370
    -2
100
AcDbLine
 10
-60.06249366987187
 20
-13.30200000000006
 30
0.0
 11
-60.06249366987186
 21
-16.60400000000006
 31
0.0
  0
SOLID
  5
FA
330
F1
100
AcDbEntity
  8
치수문자_일반주서
 62
     0
100
AcDbTrace
 10
-60.6128270032053
 20
13.30199999999995
 30
0.0
 11
-59.51216033653863
 21
13.30199999999996
 31
0.0
 12
-60.06249366987196
 22
9.999999999999956
 32
0.0
 13
-60.06249366987196
 23
9.999999999999956
 33
0.0
  0
SOLID
  5
FB
330
F1
100
AcDbEntity
  8
치수문자_일반주서
 62
     0
100
AcDbTrace
 10
-59.51216033653854
 20
-13.30200000000006
 30
0.0
 11
-60.6128270032052
 21
-13.30200000000006
 31
0.0
 12
-60.06249366987188
 22
-10.00000000000006
 32
0.0
 13
-60.06249366987188
 23
-10.00000000000006
 33
0.0
  0
MTEXT
  5
FC
330
F1
100
AcDbEntity
  8
치수문자_일반주서
 62
     0
100
AcDbMText
 10
-64.437493669872
 20
20.76024999999994
 30
0.0
 40
3.5
 41
0.0
 71
     2
 72
     1
  1
\A1;%%c20
  7
SLDTEXTSTYLE0
 11
-3.552713678800498E-15
 21
1.0
 31
0.0
 73
     1
 44
1.0
  0
POINT
  5
139
330
F1
100
AcDbEntity
  8
Defpoints
 62
     0
100
AcDbPoint
 10
-47.5
 20
10.0
 30
0.0
  0
POINT
  5
13A
330
F1
100
AcDbEntity
  8
Defpoints
 62
     0
100
AcDbPoint
 10
-47.5
 20
-10.00000000000002
 30
0.0
  0
POINT
  5
13B
330
F1
100
AcDbEntity
  8
Defpoints
 62
     0
100
AcDbPoint
 10
-60.06249366987188
 20
-10.00000000000006
 30
0.0
  0
ENDBLK
  5
F3
330
F1
100
AcDbEntity
  8
0
100
AcDbBlockEnd
  0
BLOCK
  5
FF
330
FE
100
AcDbEntity
  8
0
100
AcDbBlockBegin
  2
_D_3
 70
     0
 10
0.0
 20
0.0
 30
0.0
  3
_D_3
  1

  0
LINE
  5
101
330
FE
100
AcDbEntity
  8
치수문자_일반주서
 62
     0
370
    -2
100
AcDbLine
 10
11.99999999999999
 20
10.05752564199147
 30
0.0
 11
11.99999999999999
 21
20.84094394457911
 31
0.0
  0
LINE
  5
102
330
FE
100
AcDbEntity
  8
치수문자_일반주서
 62
     0
370
    -2
100
AcDbLine
 10
61.99999999999999
 20
10.0625
 30
0.0
 11
61.99999999999999
 21
20.84094394457911
 31
0.0
  0
LINE
  5
103
330
FE
100
AcDbEntity
  8
치수문자_일반주서
 62
     0
370
    -2
100
AcDbLine
 10
15.30199999999999
 20
20.84094394457911
 30
0.0
 11
58.69799999999999
 21
20.84094394457911
 31
0.0
  0
SOLID
  5
104
330
FE
100
AcDbEntity
  8
치수문자_일반주서
 62
     0
100
AcDbTrace
 10
15.30199999999999
 20
21.39127727791245
 30
0.0
 11
15.30199999999999
 21
20.29061061124578
 31
0.0
 12
11.99999999999999
 22
20.84094394457911
 32
0.0
 13
11.99999999999999
 23
20.84094394457911
 33
0.0
  0
SOLID
  5
105
330
FE
100
AcDbEntity
  8
치수문자_일반주서
 62
     0
100
AcDbTrace
 10
58.69799999999999
 20
20.29061061124578
 30
0.0
 11
58.69799999999999
 21
21.39127727791245
 31
0.0
 12
61.99999999999999
 22
20.84094394457911
 32
0.0
 13
61.99999999999999
 23
20.84094394457911
 33
0.0
  0
MTEXT
  5
106
330
FE
100
AcDbEntity
  8
치수문자_일반주서
 62
     0
100
AcDbMText
 10
37.0
 20
25.21594394457911
 30
0.0
 40
3.5
 41
0.0
 71
     2
 72
     1
  1
\A1;50
  7
SLDTEXTSTYLE0
 73
     1
 44
1.0
  0
POINT
  5
136
330
FE
100
AcDbEntity
  8
Defpoints
 62
     0
100
AcDbPoint
 10
11.99999999999999
 20
9.995025641991468
 30
0.0
  0
POINT
  5
137
330
FE
100
AcDbEntity
  8
Defpoints
 62
     0
100
AcDbPoint
 10
61.99999999999999
 20
9.999999999999998
 30
0.0
  0
POINT
  5
138
330
FE
100
AcDbEntity
  8
Defpoints
 62
     0
100
AcDbPoint
 10
61.99999999999999
 20
20.84094394457911
 30
0.0
  0
ENDBLK
  5
100
330
FE
100
AcDbEntity
  8
0
100
AcDbBlockEnd
  0
BLOCK
  5
108
330
107
100
AcDbEntity
  8
0
100
AcDbBlockBegin
  2
SW_DOWELSYMBOL_0
 70
     0
 10
0.0
 20
0.0
 30
0.0
  3
SW_DOWELSYMBOL_0
  1

  0
CIRCLE
  5
10A
330
107
100
AcDbEntity
  8
해칭선
 62
     0
100
AcDbCircle
 10
0.0
 20
0.0
 30
0.0
 40
3.0
  0
HATCH
  5
10B
330
107
100
AcDbEntity
  8
0
  6
Continuous
 62
     0
370
    18
100
AcDbHatch
 10
0.0
 20
0.0
 30
0.0
210
0.0
220
0.0
230
1.0
  2
SOLID
 70
     1
 71
     0
 91
        1
 92
        0
 93
        3
 72
     2
 10
0.0
 20
0.0
 40
3.0
 50
0.0
 51
90.0
 73
     1
 72
     1
 10
0.0
 20
3.0
 11
0.0
 21
0.0
 72
     1
 10
0.0
 20
0.0
 11
3.0
 21
0.0
 97
        0
 75
     0
 76
     1
 98
        1
 10
0.0
 20
0.0
  0
HATCH
  5
10C
330
107
100
AcDbEntity
  8
0
  6
Continuous
 62
     0
370
    18
100
AcDbHatch
 10
0.0
 20
0.0
 30
0.0
210
0.0
220
0.0
230
1.0
  2
SOLID
 70
     1
 71
     0
 91
        1
 92
        0
 93
        3
 72
     2
 10
0.0
 20
0.0
 40
3.0
 50
180.0
 51
270.0000000000008
 73
     1
 72
     1
 10
0.0
 20
-3.0
 11
0.0
 21
0.0
 72
     1
 10
0.0
 20
0.0
 11
-3.0
 21
0.0
 97
        0
 75
     0
 76
     1
 98
        1
 10
0.0
 20
0.0
  0
ENDBLK
  5
109
330
107
100
AcDbEntity
  8
0
100
AcDbBlockEnd
  0
ENDSEC
  0
SECTION
  2
ENTITIES
  0
LINE
  5
99
330
1F
100
AcDbEntity
  8
0
  6
Continuous
 62
     4
370
    25
100
AcDbLine
 10
11.46990059837173
 20
9.999999999999995
 30
0.0
 11
-47.50000000000001
 21
9.999999999999991
 31
0.0
  0
LINE
  5
9A
330
1F
100
AcDbEntity
  8
0
  6
Continuous
 62
     4
370
    25
100
AcDbLine
 10
-47.50000000000001
 20
-10.00000000000001
 30
0.0
 11
11.46249050527509
 21
-10.00000000000001
 31
0.0
  0
LINE
  5
9B
330
1F
100
AcDbEntity
  8
0
  6
Continuous
 62
     4
370
    25
100
AcDbLine
 10
-47.50000000000001
 20
9.999999999999988
 30
0.0
 11
-48.00000000000001
 21
9.499999999999988
 31
0.0
  0
LINE
  5
9C
330
1F
100
AcDbEntity
  8
0
  6
Continuous
 62
     4
370
    25
100
AcDbLine
 10
-48.00000000000001
 20
-9.500000000000009
 30
0.0
 11
-47.50000000000001
 21
-10.00000000000001
 31
0.0
  0
LINE
  5
9D
330
1F
100
AcDbEntity
  8
0
  6
Continuous
 62
     1
370
    25
100
AcDbLine
 10
58.13239010012494
 20
-10.00000000000001
 30
0.0
 11
61.99999999999999
 21
-10.00000000000001
 31
0.0
  0
LINE
  5
9E
330
1F
100
AcDbEntity
  8
0
  6
Continuous
 62
     1
370
    25
100
AcDbLine
 10
38.66224692345143
 20
9.999999999999998
 30
0.0
 11
30.92365379016299
 21
9.999999999999998
 31
0.0
  0
LINE
  5
9F
330
1F
100
AcDbEntity
  8
0
  6
Continuous
 62
     1
370
    25
100
AcDbLine
 10
30.92365379016287
 20
-10.00000000000001
 30
0.0
 11
38.66224692345139
 21
-10.00000000000001
 31
0.0
  0
LINE
  5
A0
330
1F
100
AcDbEntity
  8
0
  6
Continuous
 62
     1
370
    25
100
AcDbLine
 10
61.99999999999999
 20
9.999999999999998
 30
0.0
 11
58.13239010012494
 21
9.999999999999998
 31
0.0
  0
SPLINE
  5
A1
330
1F
100
AcDbEntity
  8
0
  6
Continuous
 62
     4
370
    25
100
AcDbSpline
210
0.0
220
0.0
230
1.0
 70
    24
 71
     3
 72
    18
 73
    14
 74
     0
 42
0.000000001
 43
0.00000001
 40
0.0
 40
0.0
 40
0.0
 40
0.0
 40
0.2499999999999998
 40
0.2499999999999998
 40
0.4999999999999996
 40
0.4999999999999996
 40
0.6249999999999996
 40
0.6249999999999996
 40
0.7499999999999998
 40
0.7499999999999998
 40
0.8749999999999999
 40
0.8749999999999999
 40
1.0
 40
1.0
 40
1.0
 40
1.0
 10
11.99999999999999
 20
8.555851808619206
 30
0.0
 10
11.99999999999999
 20
7.93348927956811
 30
0.0
 10
11.99999999999999
 20
7.283842931808687
 30
0.0
 10
11.99999999999999
 20
5.927244386977184
 30
0.0
 10
11.99999999999999
 20
5.255049439741896
 30
0.0
 10
11.99999999999999
 20
4.25639609168182
 30
0.0
 10
11.99999999999999
 20
3.927596495036084
 30
0.0
 10
11.99999999999999
 20
3.299560474885216
 30
0.0
 10
11.99999999999999
 20
2.997151755246011
 30
0.0
 10
11.99999999999999
 20
2.416137598962056
 30
0.0
 10
11.99999999999999
 20
2.138193947361577
 30
0.0
 10
11.99999999999999
 20
1.626506175668418
 30
0.0
 10
11.99999999999999
 20
1.389931946970427
 30
0.0
 10
11.99999999999999
 20
1.1726405413109
 30
0.0
  0
SPLINE
  5
A2
330
1F
100
AcDbEntity
  8
0
  6
Continuous
 62
     4
370
    25
100
AcDbSpline
210
0.0
220
0.0
230
1.0
 70
     8
 71
     3
 72
    14
 73
    10
 74
     0
 42
0.000000001
 43
0.00000001
 40
0.0
 40
0.0
 40
0.0
 40
0.0
 40
0.25
 40
0.25
 40
0.5
 40
0.5
 40
0.75
 40
0.75
 40
1.0
 40
1.0
 40
1.0
 40
1.0
 10
11.50796478300853
 20
-0.0315574448079768
 30
0.0
 10
11.35016176727462
 20
0.059537253541441
 30
0.0
 10
11.20836598331529
 20
0.1699260220238829
 30
0.0
 10
10.95584849974071
 20
0.4280892034853331
 30
0.0
 10
10.84707285854997
 20
0.5750639494638269
 30
0.0
 10
10.67368269086145
 20
0.8892553648595087
 30
0.0
 10
10.6073308891996
 20
1.060165339457071
 30
0.0
 10
10.52123527101668
 20
1.406722689052543
 30
0.0
 10
10.50014033998314
 20
1.585689864463729
 30
0.0
 10
10.50014033998314
 20
1.764848104924812
 30
0.0
  0
SPLINE
  5
A3
330
1F
100
AcDbEntity
  8
0
  6
Continuous
 62
     4
370
    25
100
AcDbSpline
210
0.0
220
0.0
230
1.0
 70
     8
 71
     3
 72
    16
 73
    12
 74
     0
 42
0.000000001
 43
0.00000001
 40
0.0
 40
0.0
 40
0.0
 40
0.0
 40
0.2499999999999987
 40
0.2499999999999987
 40
0.499999999999998
 40
0.499999999999998
 40
0.6249999999999984
 40
0.6249999999999984
 40
0.7499999999999988
 40
0.7499999999999988
 40
1.0
 40
1.0
 40
1.0
 40
1.0
 10
10.50014033998314
 20
7.351906353529245
 30
0.0
 10
10.50014033998314
 20
7.505720305519317
 30
0.0
 10
10.53204351865399
 20
7.650217805608587
 30
0.0
 10
10.6675573226235
 20
7.921396592135831
 30
0.0
 10
10.76856120455267
 20
8.042072566193982
 30
0.0
 10
10.96923423902751
 20
8.200174345233835
 30
0.0
 10
11.0443476437788
 20
8.24882287613912
 30
0.0
 10
11.20584740361953
 20
8.335674244555884
 30
0.0
 10
11.2928488224827
 20
8.37439529567983
 30
0.0
 10
11.57306626670121
 20
8.477293044544957
 30
0.0
 10
11.78007779406546
 20
8.526237897666245
 30
0.0
 10
11.99999999999999
 20
8.55585180861921
 30
0.0
  0
SPLINE
  5
A4
330
1F
100
AcDbEntity
  8
0
  6
Continuous
 62
     4
370
    25
100
AcDbSpline
210
0.0
220
0.0
230
1.0
 70
     8
 71
     3
 72
    14
 73
    10
 74
     0
 42
0.000000001
 43
0.00000001
 40
0.0
 40
0.0
 40
0.0
 40
0.0
 40
0.25
 40
0.25
 40
0.5
 40
0.5
 40
0.75
 40
0.75
 40
1.0
 40
1.0
 40
1.0
 40
1.0
 10
11.50796478300853
 20
-9.999950206257516
 30
0.0
 10
11.35016176727462
 20
-10.0002376792805
 30
0.0
 10
11.20836598331529
 20
-9.99939008711251
 30
0.0
 10
10.95584849974071
 20
-9.99166735840741
 30
0.0
 10
10.84707285854997
 20
-9.984693962381785
 30
0.0
 10
10.67368269086145
 20
-9.961628228581151
 30
0.0
 10
10.6073308891996
 20
-9.945176660694937
 30
0.0
 10
10.52123527101668
 20
-9.902101829183655
 30
0.0
 10
10.50014033998314
 20
-9.875156566429652
 30
0.0
 10
10.50014033998314
 20
-9.843033636361492
 30
0.0
  0
SPLINE
  5
A5
330
1F
100
AcDbEntity
  8
0
  6
Continuous
 62
     4
370
    25
100
AcDbSpline
210
0.0
220
0.0
230
1.0
 70
     8
 71
     3
 72
     8
 73
     4
 74
     0
 42
0.000000001
 43
0.00000001
 40
0.0
 40
0.0
 40
0.0
 40
0.0
 40
1.0
 40
1.0
 40
1.0
 40
1.0
 10
11.99999999999999
 20
-9.995025641989113
 30
0.0
 10
11.83587718886715
 20
-9.998010529242446
 30
0.0
 10
11.67183246414901
 20
-9.99965168510792
 30
0.0
 10
11.50796478300853
 20
-9.999950206257516
 30
0.0
  0
LINE
  5
A6
330
1F
100
AcDbEntity
  8
0
  6
Continuous
 62
     4
370
    25
100
AcDbLine
 10
11.50796478300853
 20
9.999950206257504
 30
0.0
 11
11.46990059837173
 21
9.999380802241848
 31
0.0
  0
SPLINE
  5
A7
330
1F
100
AcDbEntity
  8
0
  6
Continuous
 62
     4
370
    25
100
AcDbSpline
210
0.0
220
0.0
230
1.0
 70
     8
 71
     3
 72
     8
 73
     4
 74
     0
 42
0.000000001
 43
0.00000001
 40
0.0
 40
0.0
 40
0.0
 40
0.0
 40
1.0
 40
1.0
 40
1.0
 40
1.0
 10
11.99999999999999
 20
9.995025641989102
 30
0.0
 10
11.83587718886715
 20
9.998010529242439
 30
0.0
 10
11.67183246414901
 20
9.99965168510791
 30
0.0
 10
11.50796478300853
 20
9.999950206257504
 30
0.0
  0
LINE
  5
A8
330
1F
100
AcDbEntity
  8
0
  6
Continuous
 62
     4
370
    25
100
AcDbLine
 10
11.99999999999999
 20
9.995025641989102
 30
0.0
 11
11.99999999999999
 21
8.555851808619206
 31
0.0
  0
LINE
  5
A9
330
1F
100
AcDbEntity
  8
0
  6
Continuous
 62
     4
370
    25
100
AcDbLine
 10
10.50014033998314
 20
7.351906353529244
 30
0.0
 11
10.50014033998313
 21
1.764848104924811
 31
0.0
  0
SPLINE
  5
AA
330
1F
100
AcDbEntity
  8
0
  6
Continuous
 62
     4
370
    25
100
AcDbSpline
210
0.0
220
0.0
230
1.0
 70
     8
 71
     3
 72
     8
 73
     4
 74
     0
 42
0.000000001
 43
0.00000001
 40
0.0
 40
0.0
 40
0.0
 40
0.0
 40
1.0
 40
1.0
 40
1.0
 40
1.0
 10
11.99999999999999
 20
-0.3153766255331399
 30
0.0
 10
11.83587718886715
 20
-0.2207785411472091
 30
0.0
 10
11.67183246414901
 20
-0.1261530830046604
 30
0.0
 10
11.50796478300853
 20
-0.0315574448079768
 30
0.0
  0
LINE
  5
AB
330
1F
100
AcDbEntity
  8
0
  6
Continuous
 62
     4
370
    25
100
AcDbLine
 10
11.99999999999999
 20
-0.3153766255331399
 30
0.0
 11
11.99999999999999
 21
-5.176620502697528
 31
0.0
  0
SPLINE
  5
AC
330
1F
100
AcDbEntity
  8
0
  6
Continuous
 62
     4
370
    25
100
AcDbSpline
210
0.0
220
0.0
230
1.0
 70
     8
 71
     3
 72
    16
 73
    12
 74
     0
 42
0.000000001
 43
0.00000001
 40
0.0
 40
0.0
 40
0.0
 40
0.0
 40
0.2500000000000003
 40
0.2500000000000003
 40
0.5000000000000006
 40
0.5000000000000006
 40
0.6250000000000004
 40
0.6250000000000004
 40
0.7500000000000003
 40
0.7500000000000003
 40
1.0
 40
1.0
 40
1.0
 40
1.0
 10
10.50014033998314
 20
-6.778604057542922
 30
0.0
 10
10.50014033998314
 20
-6.611781248407326
 30
0.0
 10
10.53204351865399
 20
-6.443667505423968
 30
0.0
 10
10.6675573226235
 20
-6.107221907201852
 30
0.0
 10
10.76856120455267
 20
-5.946268930776171
 30
0.0
 10
10.96923423902751
 20
-5.724107096048333
 30
0.0
 10
11.0443476437788
 20
-5.653579210179288
 30
0.0
 10
11.20584740361952
 20
-5.52472366877613
 30
0.0
 10
11.2928488224827
 20
-5.465667335501135
 30
0.0
 10
11.57306626670121
 20
-5.305804990722712
 30
0.0
 10
11.78007779406546
 20
-5.225565993960625
 30
0.0
 10
11.99999999999999
 20
-5.176620502697516
 30
0.0
  0
LINE
  5
AD
330
1F
100
AcDbEntity
  8
0
  6
Continuous
 62
     4
370
    25
100
AcDbLine
 10
10.50014033998314
 20
-6.778604057542924
 30
0.0
 11
10.50014033998314
 21
-9.843033636361492
 31
0.0
  0
LINE
  5
AE
330
1F
100
AcDbEntity
  8
0
  6
Continuous
 62
     4
370
    25
100
AcDbLine
 10
-47.50000000000001
 20
9.999999999999988
 30
0.0
 11
-47.50000000000001
 21
-10.00000000000001
 31
0.0
  0
LINE
  5
AF
330
1F
100
AcDbEntity
  8
0
  6
Continuous
 62
     4
370
    25
100
AcDbLine
 10
-48.00000000000001
 20
9.499999999999988
 30
0.0
 11
-48.00000000000001
 21
-9.500000000000009
 31
0.0
  0
SPLINE
  5
B0
330
1F
100
AcDbEntity
  8
0
  6
Continuous
 62
     4
370
    25
100
AcDbSpline
210
0.0
220
0.0
230
1.0
 70
    24
 71
     3
 72
    10
 73
     6
 74
     0
 42
0.000000001
 43
0.00000001
 40
0.0
 40
0.0
 40
0.0
 40
0.0
 40
0.5000000000000003
 40
0.5000000000000003
 40
1.0
 40
1.0
 40
1.0
 40
1.0
 10
11.99999999999999
 20
1.172640541310797
 30
0.0
 10
11.99999999999999
 20
0.8045575579814633
 30
0.0
 10
11.99999999999999
 20
0.4825109781462033
 30
0.0
 10
11.99999999999999
 20
-0.0249307086257202
 30
0.0
 10
11.99999999999999
 20
-0.2098587631378338
 30
0.0
 10
11.99999999999999
 20
-0.3153766255331435
 30
0.0
  0
SPLINE
  5
B1
330
1F
100
AcDbEntity
  8
0
  6
Continuous
 62
     4
370
    25
100
AcDbSpline
210
0.0
220
0.0
230
1.0
 70
    24
 71
     3
 72
    10
 73
     6
 74
     0
 42
0.000000001
 43
0.00000001
 40
0.0
 40
0.0
 40
0.0
 40
0.0
 40
0.2998074852848931
 40
0.6463054251893529
 40
1.0
 40
1.0
 40
1.0
 40
1.0
 10
11.99999999999999
 20
-5.254322012730682
 30
0.0
 10
11.99999999999999
 20
-5.366425049945583
 30
0.0
 10
11.99999999999999
 20
-5.608089466907513
 30
0.0
 10
11.99999999999999
 20
-6.12488955716772
 30
0.0
 10
11.99999999999999
 20
-6.550259333261391
 30
0.0
 10
12.0
 20
-6.765130213670569
 30
0.0
  0
SPLINE
  5
B2
330
1F
100
AcDbEntity
  8
0
  6
Continuous
 62
     4
370
    25
100
AcDbSpline
210
0.0
220
0.0
230
1.0
 70
    24
 71
     3
 72
    10
 73
     6
 74
     0
 42
0.000000001
 43
0.00000001
 40
0.0
 40
0.0
 40
0.0
 40
0.0
 40
0.5
 40
0.5
 40
1.0
 40
1.0
 40
1.0
 40
1.0
 10
11.99999999999999
 20
-6.765130213671086
 30
0.0
 10
11.99999999999999
 20
-7.21243435642829
 30
0.0
 10
11.99999999999999
 20
-7.718755543360815
 30
0.0
 10
11.99999999999999
 20
-8.81169686729141
 30
0.0
 10
12.0
 20
-9.397852716026938
 30
0.0
 10
12.0
 20
-9.995025641989113
 30
0.0
  0
SPLINE
  5
B3
330
1F
100
AcDbEntity
  8
0
  6
Continuous
 62
     1
370
    25
100
AcDbSpline
210
0.0
220
0.0
230
1.0
 70
     8
 71
     3
 72
    25
 73
    21
 74
     0
 42
0.000000001
 43
0.00000001
 40
0.0
 40
0.0
 40
0.0
 40
0.0
 40
0.0551077795979216
 40
0.1102549321950532
 40
0.1653881122579839
 40
0.220488399020221
 40
0.2755815687386761
 40
0.3306934457943021
 40
0.3956532199312406
 40
0.4606180326197515
 40
0.5255855125852259
 40
0.5905479961542649
 40
0.6485492259144761
 40
0.7065323934312284
 40
0.7645106062594192
 40
0.8224969934310771
 40
0.8805046485517081
 40
0.9385333888808532
 40
0.9965369751399231
 40
1.0
 40
1.0
 40
1.0
 40
1.0
 10
11.99999999999999
 20
8.878248656838734
 30
0.0
 10
12.84732260391362
 20
8.634609725673624
 30
0.0
 10
14.54257320053459
 20
8.147157789999957
 30
0.0
 10
17.08614373938353
 20
7.190095217250139
 30
0.0
 10
19.62934970353564
 20
6.091900939558688
 30
0.0
 10
22.17134402336212
 20
4.858840893983663
 30
0.0
 10
24.7129659732739
 20
3.522280882175332
 30
0.0
 10
27.4063569353181
 20
2.025961085497435
 30
0.0
 10
30.25204410538693
 20
0.389949772245591
 30
0.0
 10
33.24921147917534
 20
-1.344745987204253
 30
0.0
 10
36.2464805972473
 20
-3.039233170574029
 30
0.0
 10
39.13665434511771
 20
-4.585816103210258
 30
0.0
 10
41.9191327920146
 20
-5.952992948278318
 30
0.0
 10
44.59403737666447
 20
-7.125912575661432
 30
0.0
 10
47.26866973933549
 20
-8.1295706759111
 30
0.0
 10
49.94375460435913
 20
-8.93780237417309
 30
0.0
 10
52.61980941254806
 20
-9.540302386510588
 30
0.0
 10
55.2964579761877
 20
-9.888980676408497
 30
0.0
 10
57.13400054994501
 20
-10.03470522127006
 30
0.0
 10
58.07914095156325
 20
-9.995520051467178
 30
0.0
 10
58.13239010012494
 20
-9.993312361557111
 30
0.0
  0
LINE
  5
B4
330
1F
100
AcDbEntity
  8
0
  6
Continuous
 62
     4
370
    25
100
AcDbLine
 10
11.99999999999999
 20
8.878248656838807
 30
0.0
 11
11.99999999999999
 21
9.995025641991468
 31
0.0
  0
SPLINE
  5
B5
330
1F
100
AcDbEntity
  8
0
  6
Continuous
 62
     1
370
    25
100
AcDbSpline
210
0.0
220
0.0
230
1.0
 70
     8
 71
     3
 72
    66
 73
    62
 74
     0
 42
0.000000001
 43
0.00000001
 40
0.0
 40
0.0
 40
0.0
 40
0.0
 40
0.0625
 40
0.0625
 40
0.125
 40
0.125
 40
0.15625
 40
0.15625
 40
0.1875
 40
0.1875
 40
0.21875
 40
0.21875
 40
0.25
 40
0.25
 40
0.28125
 40
0.28125
 40
0.3125
 40
0.3125
 40
0.34375
 40
0.34375
 40
0.375
 40
0.375
 40
0.40625
 40
0.40625
 40
0.4375
 40
0.4375
 40
0.46875
 40
0.46875
 40
0.5
 40
0.5
 40
0.53125
 40
0.53125
 40
0.5625
 40
0.5625
 40
0.59375
 40
0.59375
 40
0.625
 40
0.625
 40
0.65625
 40
0.65625
 40
0.6875
 40
0.6875
 40
0.71875
 40
0.71875
 40
0.75
 40
0.75
 40
0.78125
 40
0.78125
 40
0.8125
 40
0.8125
 40
0.84375
 40
0.84375
 40
0.875
 40
0.875
 40
0.90625
 40
0.90625
 40
0.9375
 40
0.9375
 40
0.96875
 40
0.96875
 40
1.0
 40
1.0
 40
1.0
 40
1.0
 10
61.99999999999999
 20
-9.751656983552616
 30
0.0
 10
60.96279303492523
 20
-9.618651063966421
 30
0.0
 10
59.91256994731553
 20
-9.431912040865242
 30
0.0
 10
57.8369251581281
 20
-8.959946016061291
 30
0.0
 10
56.78794717364055
 20
-8.672994855299244
 30
0.0
 10
55.23033469926059
 20
-8.175993113579992
 30
0.0
 10
54.7099127262362
 20
-7.99889937350003
 30
0.0
 10
53.66612978584561
 20
-7.623128325075746
 30
0.0
 10
53.14385409974031
 20
-7.424567592716818
 30
0.0
 10
52.10488942559956
 20
-7.008608788552694
 30
0.0
 10
51.58506843413637
 20
-6.790813067936853
 30
0.0
 10
50.54137574357438
 20
-6.3368048341781
 30
0.0
 10
50.01898982083672
 20
-6.100791333419902
 30
0.0
 10
48.97949840570805
 20
-5.61368921193069
 30
0.0
 10
48.46020143842401
 20
-5.362278852462522
 30
0.0
 10
47.41662906748029
 20
-4.844780377138131
 30
0.0
 10
46.89414799457214
 20
-4.578972920871866
 30
0.0
 10
45.85415950568639
 20
-4.036524845996051
 30
0.0
 10
45.33530955507801
 20
-3.759668450511159
 30
0.0
 10
44.29188756198573
 20
-3.195488316099549
 30
0.0
 10
43.76932643455474
 20
-2.908514618710318
 30
0.0
 10
42.7288705866679
 20
-2.328321382336248
 30
0.0
 10
42.21039060246647
 20
-2.035005005159245
 30
0.0
 10
41.16714903101765
 20
-1.442466864754311
 30
0.0
 10
40.6445229524414
 20
-1.143643172877271
 30
0.0
 10
39.60362950501895
 20
-0.5445372303411452
 30
0.0
 10
39.08544240155516
 20
-0.2442744765253921
 30
0.0
 10
38.04241127821885
 20
0.357378743819344
 30
0.0
 10
37.51973535814764
 20
0.6583504420214552
 30
0.0
 10
36.47843411253993
 20
1.256916962657063
 30
0.0
 10
35.96046277611572
 20
1.554391635016624
 30
0.0
 10
34.91767210715962
 20
2.145623370095642
 30
0.0
 10
34.39496146005785
 20
2.438970705182402
 30
0.0
 10
33.35328225666705
 20
3.017558310502161
 30
0.0
 10
32.83544955293296
 20
3.302603259727269
 30
0.0
 10
31.79292932154919
 20
3.864218412240089
 30
0.0
 10
31.27019906523585
 20
4.140416301336738
 30
0.0
 10
30.22817178067503
 20
4.680230180505523
 30
0.0
 10
29.71040056201183
 20
4.943607179077618
 30
0.0
 10
28.66818072544731
 20
5.457376030989455
 30
0.0
 10
28.14544597963571
 20
5.707456315582785
 30
0.0
 10
27.10310052388068
 20
6.190957556488142
 30
0.0
 10
26.58531363678359
 20
6.424129374689602
 30
0.0
 10
25.54342412347565
 20
6.873380001255047
 30
0.0
 10
25.02070000831283
 20
7.089222978354966
 30
0.0
 10
23.97806632184728
 20
7.500699053645056
 30
0.0
 10
23.46018661431138
 20
7.696104503932195
 30
0.0
 10
22.41865732102917
 20
8.066264417337223
 30
0.0
 10
21.89595895563515
 20
8.240862776736433
 30
0.0
 10
20.85306700658965
 20
8.566938723931353
 30
0.0
 10
20.33501733549497
 20
8.718236360925276
 30
0.0
 10
19.29387812448722
 20
8.997305766770227
 30
0.0
 10
18.77122062549457
 20
9.124992345518068
 30
0.0
 10
17.72810040677994
 20
9.35506599333126
 30
0.0
 10
17.20980364527477
 20
9.45733866435303
 30
0.0
 10
16.16908434142455
 20
9.636279944055383
 30
0.0
 10
15.64648282151836
 20
9.712911887431622
 30
0.0
 10
14.60316434795415
 20
9.839498951120028
 30
0.0
 10
14.08454339283517
 20
9.889412640541638
 30
0.0
 10
13.0442737808221
 20
9.962443403406802
 30
0.0
 10
12.52174334728076
 20
9.985536741234393
 30
0.0
 10
11.99999999999999
 20
9.995025641991475
 30
0.0
  0
LINE
  5
B6
330
1F
100
AcDbEntity
  8
0
  6
Continuous
 62
     1
370
    25
100
AcDbLine
 10
61.99999999999999
 20
-10.00000000000002
 30
0.0
 11
61.99999999999999
 21
-9.75165698355262
 31
0.0
  0
SPLINE
  5
B7
330
1F
100
AcDbEntity
  8
0
  6
Continuous
 62
     1
370
    25
100
AcDbSpline
210
0.0
220
0.0
230
1.0
 70
     8
 71
     3
 72
    21
 73
    17
 74
     0
 42
0.000000001
 43
0.00000001
 40
0.0
 40
0.0
 40
0.0
 40
0.0
 40
0.0574469149453924
 40
0.1251206569281005
 40
0.1927608295169635
 40
0.2604133165259183
 40
0.3281229782554985
 40
0.3958188254125157
 40
0.4713296066557121
 40
0.5468324159906529
 40
0.622337772596374
 40
0.6978561874888274
 40
0.773398129873544
 40
0.8489562029134285
 40
0.9244878538454209
 40
1.0
 40
1.0
 40
1.0
 40
1.0
 10
48.41118319955604
 20
-8.441428667266
 30
0.0
 10
47.71385259385319
 20
-8.650669072871448
 30
0.0
 10
46.19505104350799
 20
-9.106399324533221
 30
0.0
 10
43.85562702802873
 20
-9.582448652649157
 30
0.0
 10
41.39259104267182
 20
-9.910205221327423
 30
0.0
 10
38.929096043267
 20
-10.03235681518056
 30
0.0
 10
36.46423177474508
 20
-9.9532605259928
 30
0.0
 10
33.90429044242477
 20
-9.66189265732708
 30
0.0
 10
31.24986750343907
 20
-9.13684939358073
 30
0.0
 10
28.50072589982507
 20
-8.363202260440094
 30
0.0
 10
25.75147093886836
 20
-7.379199385876594
 30
0.0
 10
23.00164904625264
 20
-6.209490521075916
 30
0.0
 10
20.25100517326146
 20
-4.883560474562165
 30
0.0
 10
17.49999382788124
 20
-3.434868317506117
 30
0.0
 10
14.74964990369963
 20
-1.900046061851106
 30
0.0
 10
12.91647105978183
 20
-0.843554294898583
 30
0.0
 10
11.99999999999999
 20
-0.3153766255335624
 30
0.0
  0
LINE
  5
B8
330
1F
100
AcDbEntity
  8
0
  6
Continuous
 62
     4
370
    25
100
AcDbLine
 10
11.99999999999999
 20
8.878248656838807
 30
0.0
 11
11.99999999999999
 21
8.633543318652361
 31
0.0
  0
SPLINE
  5
B9
330
1F
100
AcDbEntity
  8
0
  6
Continuous
 62
     4
370
    25
100
AcDbSpline
210
0.0
220
0.0
230
1.0
 70
    24
 71
     3
 72
    18
 73
    14
 74
     0
 42
0.000000001
 43
0.00000001
 40
0.0
 40
0.0
 40
0.0
 40
0.0
 40
0.042780832258923
 40
0.142251240200953
 40
0.2446062967119058
 40
0.3440767046539369
 40
0.4464317611648911
 40
0.5459021691069222
 40
0.648257225617876
 40
0.7477276335599069
 40
0.8500826900708612
 40
0.9244520305781719
 40
0.9999999999999999
 40
0.9999999999999999
 40
0.9999999999999999
 40
0.9999999999999999
 10
11.99999999999999
 20
8.478160298586053
 30
0.0
 10
11.99999999999999
 20
8.318234396197523
 30
0.0
 10
11.99999999999999
 20
7.786462180609552
 30
0.0
 10
11.99999999999999
 20
6.830766518476332
 30
0.0
 10
11.99999999999999
 20
5.654350602703584
 30
0.0
 10
11.99999999999999
 20
4.491237058994988
 30
0.0
 10
11.99999999999999
 20
3.398205390543978
 30
0.0
 10
11.99999999999999
 20
2.385665621210841
 30
0.0
 10
11.99999999999999
 20
1.500993390317434
 30
0.0
 10
11.99999999999999
 20
0.7521906721914959
 30
0.0
 10
12.0
 20
0.2257382253880356
 30
0.0
 10
12.0
 20
-0.1308256152895639
 30
0.0
 10
11.99999999999999
 20
-0.2535380394824576
 30
0.0
 10
11.99999999999999
 20
-0.3153766255335619
 30
0.0
  0
SPLINE
  5
BA
330
1F
100
AcDbEntity
  8
0
  6
Continuous
 62
     1
370
    25
100
AcDbSpline
210
0.0
220
0.0
230
1.0
 70
     8
 71
     3
 72
    22
 73
    18
 74
     0
 42
0.000000001
 43
0.00000001
 40
0.0
 40
0.0
 40
0.0
 40
0.0
 40
0.0249637508927037
 40
0.0893710890058256
 40
0.1538002971583101
 40
0.2297423088082281
 40
0.3056902108379586
 40
0.3816412310801664
 40
0.4575864102245358
 40
0.5253934511922911
 40
0.5931793762753101
 40
0.6609595090195863
 40
0.7287491980792137
 40
0.796563750692481
 40
0.8644029532244388
 40
0.9322127490857596
 40
0.9999999999999999
 40
0.9999999999999999
 40
0.9999999999999999
 40
0.9999999999999999
 10
21.18644915176358
 20
8.438973698706745
 30
0.0
 10
21.5147832533192
 20
8.54551159008744
 30
0.0
 10
22.69023065863485
 20
8.926920914912099
 30
0.0
 10
24.71295824836272
 20
9.39045303728421
 30
0.0
 10
27.40635942101976
 20
9.838610278669078
 30
0.0
 10
30.25204339361267
 20
10.04180085051639
 30
0.0
 10
33.24921167018587
 20
9.959814645615916
 30
0.0
 10
36.24648054504065
 20
9.579413632437545
 30
0.0
 10
39.13665436044447
 20
8.936949527077374
 30
0.0
 10
41.91913277836821
 20
8.084582328253653
 30
0.0
 10
44.59403741702689
 20
7.072391149589254
 30
0.0
 10
47.26866959153114
 20
5.891823067547864
 30
0.0
 10
49.94375515538886
 20
4.570930120776643
 30
0.0
 10
52.61980735513362
 20
3.140882351637831
 30
0.0
 10
55.29646565611195
 20
1.637120370104325
 30
0.0
 10
57.97237412028485
 20
0.0914423839947032
 30
0.0
 10
59.75584355890459
 20
-0.9342958530512154
 30
0.0
 10
60.64743001457202
 20
-1.447079699752913
 30
0.0
  0
SPLINE
  5
BB
330
1F
100
AcDbEntity
  8
0
  6
Continuous
 62
     1
370
    25
100
AcDbSpline
210
0.0
220
0.0
230
1.0
 70
     8
 71
     3
 72
     8
 73
     4
 74
     0
 42
0.000000001
 43
0.00000001
 40
0.0
 40
0.0
 40
0.0
 40
0.0
 40
1.0
 40
1.0
 40
1.0
 40
1.0
 10
61.99999999999999
 20
-7.266081778456263
 30
0.0
 10
60.31587153796293
 20
-6.320024379565051
 30
0.0
 10
58.72553162703738
 20
-5.160603083795178
 30
0.0
 10
57.19539622185751
 20
-3.86421978356625
 30
0.0
  0
LINE
  5
BC
330
1F
100
AcDbEntity
  8
0
  6
Continuous
 62
     1
370
    25
100
AcDbLine
 10
61.99999999999999
 20
-9.75165698355262
 30
0.0
 11
61.99999999999999
 21
-7.266081778456265
 31
0.0
  0
SPLINE
  5
BD
330
1F
100
AcDbEntity
  8
0
  6
Continuous
 62
     1
370
    25
100
AcDbSpline
210
0.0
220
0.0
230
1.0
 70
    24
 71
     3
 72
    22
 73
    18
 74
     0
 42
0.000000001
 43
0.00000001
 40
0.0
 40
0.0
 40
0.0
 40
0.0
 40
0.2499999999999992
 40
0.2499999999999992
 40
0.3749999999999992
 40
0.3749999999999992
 40
0.4999999999999991
 40
0.4999999999999991
 40
0.5624999999999984
 40
0.5624999999999984
 40
0.6249999999999979
 40
0.6249999999999979
 40
0.7499999999999986
 40
0.7499999999999986
 40
0.8749999999999992
 40
0.8749999999999992
 40
1.0
 40
1.0
 40
1.0
 40
1.0
 10
60.647430014572
 20
-1.447079699752914
 30
0.0
 10
60.64833007441128
 20
-1.446449471068632
 30
0.0
 10
60.58787192143811
 20
-1.488782725526663
 30
0.0
 10
60.37601742079481
 20
-1.637124843880748
 30
0.0
 10
60.28345551420593
 20
-1.701937388625339
 30
0.0
 10
60.05771133056519
 20
-1.860005167717573
 30
0.0
 10
59.92443790793985
 20
-1.953324222882905
 30
0.0
 10
59.69095893739475
 20
-2.116807958072025
 30
0.0
 10
59.60722578260926
 20
-2.175438544250961
 30
0.0
 10
59.43228580143279
 20
-2.297932837804999
 30
0.0
 10
59.34065279168862
 20
-2.36209496197661
 30
0.0
 10
59.05353353657316
 20
-2.563138028773614
 30
0.0
 10
58.84448072965397
 20
-2.709518380062355
 30
0.0
 10
58.39984449311738
 20
-3.020856024646476
 30
0.0
 10
58.16882063896724
 20
-3.182620668828628
 30
0.0
 10
57.69124356464535
 20
-3.517023736344949
 30
0.0
 10
57.44308936566176
 20
-3.690783177111653
 30
0.0
 10
57.19539622185751
 20
-3.864219783566267
 30
0.0
  0
SPLINE
  5
BE
330
1F
100
AcDbEntity
  8
0
  6
Continuous
 62
     1
370
    25
100
AcDbSpline
210
0.0
220
0.0
230
1.0
 70
     8
 71
     3
 72
    17
 73
    13
 74
     0
 42
0.000000001
 43
0.00000001
 40
0.0
 40
0.0
 40
0.0
 40
0.0
 40
0.1120214729916955
 40
0.2239805029670067
 40
0.3359132525371719
 40
0.447856026341016
 40
0.5598450748195334
 40
0.6718864392793562
 40
0.7774668449353673
 40
0.8829948776899259
 40
0.9885421226445285
 40
1.0
 40
1.0
 40
1.0
 40
1.0
 10
61.99999999999999
 20
2.214765467296675
 30
0.0
 10
61.12844719872353
 20
2.700385785431788
 30
0.0
 10
59.38582741718689
 20
3.671355727194327
 30
0.0
 10
56.77275892242145
 20
5.031331135386165
 30
0.0
 10
54.16039455829729
 20
6.280447809685442
 30
0.0
 10
51.54775173711553
 20
7.385843661937823
 30
0.0
 10
48.93407080970848
 20
8.324169405991164
 30
0.0
 10
46.36941607780353
 20
9.057147701644446
 30
0.0
 10
43.85563549854579
 20
9.589231166363898
 30
0.0
 10
41.39256883674494
 20
9.89643091954641
 30
0.0
 10
39.66169990804934
 20
10.02590592744539
 30
0.0
 10
38.75139017676092
 20
9.993405475888652
 30
0.0
 10
38.66224692345143
 20
9.990222827295302
 30
0.0
  0
LINE
  5
BF
330
1F
100
AcDbEntity
  8
0
  6
Continuous
 62
     1
370
    25
100
AcDbLine
 10
61.99999999999999
 20
-0.5000000000000377
 30
0.0
 11
61.99999999999999
 21
2.214765467296675
 31
0.0
  0
LINE
  5
C0
330
1F
100
AcDbEntity
  8
0
  6
Continuous
 62
     1
370
    25
100
AcDbLine
 10
61.99999999999999
 20
-0.5000000000000414
 30
0.0
 11
60.647430014572
 21
-1.447079699752924
 31
0.0
  0
SPLINE
  5
C1
330
1F
100
AcDbEntity
  8
0
  6
Continuous
 62
     1
370
    25
100
AcDbSpline
210
0.0
220
0.0
230
1.0
 70
     8
 71
     3
 72
    15
 73
    11
 74
     0
 42
0.000000001
 43
0.00000001
 40
0.0
 40
0.0
 40
0.0
 40
0.0
 40
0.1343396449438232
 40
0.2687752718846141
 40
0.4031768371140238
 40
0.5374982163085675
 40
0.6718022458450108
 40
0.8061518794150716
 40
0.9645083411861498
 40
1.0
 40
1.0
 40
1.0
 40
1.0
 10
11.99999999999999
 20
-4.601814944925686
 30
0.0
 10
12.84732260445504
 20
-5.026705306346081
 30
0.0
 10
14.54257320215925
 20
-5.876789601713048
 30
0.0
 10
17.08614373288021
 20
-6.998053091336065
 30
0.0
 10
19.62934972790951
 20
-7.976592015077864
 30
0.0
 10
22.17134393243116
 20
-8.780324178310195
 30
0.0
 10
24.71296631264806
 20
-9.400872428629844
 30
0.0
 10
27.40635557257374
 20
-9.823177396914446
 30
0.0
 10
29.47685586954794
 20
-10.02554896394699
 30
0.0
 10
30.69975343451734
 20
-9.981980800037157
 30
0.0
 10
30.92365379016287
 20
-9.974003903464896
 30
0.0
  0
LINE
  5
C2
330
1F
100
AcDbEntity
  8
0
  6
Continuous
 62
     4
370
    25
100
AcDbLine
 10
11.99999999999999
 20
-4.601814944925716
 30
0.0
 11
11.99999999999999
 21
-0.3153766255335619
 31
0.0
  0
SPLINE
  5
C3
330
1F
100
AcDbEntity
  8
0
  6
Continuous
 62
     1
370
    25
100
AcDbSpline
210
0.0
220
0.0
230
1.0
 70
     8
 71
     3
 72
    12
 73
     8
 74
     0
 42
0.000000001
 43
0.00000001
 40
0.0
 40
0.0
 40
0.0
 40
0.0
 40
0.1252318210389242
 40
0.3439298388014374
 40
0.5627073511288744
 40
0.7813900286409301
 40
0.9999999999999999
 40
0.9999999999999999
 40
0.9999999999999999
 40
0.9999999999999999
 10
48.41118319955604
 20
8.441428667265994
 30
0.0
 10
48.92193707336912
 20
8.601652039706753
 30
0.0
 10
50.32464363812591
 20
9.041680765621754
 30
0.0
 10
52.61981106365896
 20
9.53080361890614
 30
0.0
 10
55.29646466748793
 20
9.904260734542449
 30
0.0
 10
57.97237436730037
 20
10.04960415020493
 30
0.0
 10
59.75584364123398
 20
9.946358379145408
 30
0.0
 10
60.64743001457203
 20
9.894744076658194
 30
0.0
  0
SPLINE
  5
C4
330
1F
100
AcDbEntity
  8
0
  6
Continuous
 62
     1
370
    25
100
AcDbSpline
210
0.0
220
0.0
230
1.0
 70
     8
 71
     3
 72
    22
 73
    18
 74
     0
 42
0.000000001
 43
0.00000001
 40
0.0
 40
0.0
 40
0.0
 40
0.0
 40
0.2499999999999969
 40
0.2499999999999969
 40
0.3749999999999953
 40
0.3749999999999953
 40
0.4999999999999938
 40
0.4999999999999938
 40
0.5624999999999939
 40
0.5624999999999939
 40
0.624999999999994
 40
0.624999999999994
 40
0.749999999999996
 40
0.749999999999996
 40
0.874999999999998
 40
0.874999999999998
 40
1.0
 40
1.0
 40
1.0
 40
1.0
 10
60.647430014572
 20
9.894744076658212
 30
0.0
 10
60.64833007441125
 20
9.283134665630067
 30
0.0
 10
60.5878719214381
 20
8.684986715119681
 30
0.0
 10
60.37601742079481
 20
7.814347839321178
 30
0.0
 10
60.28345551420595
 20
7.526023105511518
 30
0.0
 10
60.05771133056522
 20
6.983978845190975
 30
0.0
 10
59.92443790793989
 20
6.728016184879502
 30
0.0
 10
59.69095893739478
 20
6.368851405513236
 30
0.0
 10
59.60722578260925
 20
6.253066494950615
 30
0.0
 10
59.43228580143278
 20
6.035520208430534
 30
0.0
 10
59.34065279168862
 20
5.933023839203761
 30
0.0
 10
59.05353353657316
 20
5.643959723970069
 30
0.0
 10
58.84448072965395
 20
5.474803869360842
 30
0.0
 10
58.39984449311735
 20
5.18991230114733
 30
0.0
 10
58.16882063896724
 20
5.076535487151684
 30
0.0
 10
57.69124356464538
 20
4.901635336322653
 30
0.0
 10
57.44308936566177
 20
4.840255663647828
 30
0.0
 10
57.19539622185751
 20
4.804603778142475
 30
0.0
  0
SPLINE
  5
C5
330
1F
100
AcDbEntity
  8
0
  6
Continuous
 62
     1
370
    25
100
AcDbSpline
210
0.0
220
0.0
230
1.0
 70
     8
 71
     3
 72
     8
 73
     4
 74
     0
 42
0.000000001
 43
0.00000001
 40
0.0
 40
0.0
 40
0.0
 40
0.0
 40
1.0
 40
1.0
 40
1.0
 40
1.0
 10
61.99999999999999
 20
2.462652369968972
 30
0.0
 10
60.31587153796293
 20
3.373236042056514
 30
0.0
 10
58.72553162703738
 20
4.136275508719669
 30
0.0
 10
57.19539622185751
 20
4.804603778142479
 30
0.0
  0
LINE
  5
C6
330
1F
100
AcDbEntity
  8
0
  6
Continuous
 62
     1
370
    25
100
AcDbLine
 10
61.99999999999999
 20
2.222472992326023
 30
0.0
 11
61.99999999999999
 21
2.462652369968974
 31
0.0
  0
SPLINE
  5
C7
330
1F
100
AcDbEntity
  8
0
  6
Continuous
 62
     1
370
    25
100
AcDbSpline
210
0.0
220
0.0
230
1.0
 70
     8
 71
     3
 72
    11
 73
     7
 74
     0
 42
0.000000001
 43
0.00000001
 40
0.0
 40
0.0
 40
0.0
 40
0.0
 40
0.1018091845628557
 40
0.4013017138993552
 40
0.7006895128793925
 40
1.0
 40
1.0
 40
1.0
 40
1.0
 10
21.18644915176346
 20
-8.438973698706755
 30
0.0
 10
20.87469080669063
 20
-8.541351317477362
 30
0.0
 10
19.64583155654201
 20
-8.944893631012103
 30
0.0
 10
17.49998544651255
 20
-9.42421229973704
 30
0.0
 10
14.74965199810527
 20
-9.874342532570909
 30
0.0
 10
12.91647175785694
 20
-9.954801402156578
 30
0.0
 10
12.0
 20
-9.995025641991486
 30
0.0
  0
SPLINE
  5
C8
330
1F
100
AcDbEntity
  8
0
  6
Continuous
 62
     4
370
    25
100
AcDbSpline
210
0.0
220
0.0
230
1.0
 70
    24
 71
     3
 72
    13
 73
     9
 74
     0
 42
0.000000001
 43
0.00000001
 40
0.0
 40
0.0
 40
0.0
 40
0.0
 40
0.1061231032369796
 40
0.3076057223062565
 40
0.5034100039433346
 40
0.7048926230126125
 40
0.8512862650528006
 40
1.0
 40
1.0
 40
1.0
 40
1.0
 10
11.99999999999999
 20
-5.254322012730683
 30
0.0
 10
11.99999999999999
 20
-5.360437166126092
 30
0.0
 10
11.99999999999999
 20
-5.668019845224183
 30
0.0
 10
12.0
 20
-6.350764084238558
 30
0.0
 10
12.0
 20
-7.270068068871367
 30
0.0
 10
12.0
 20
-8.21559580798828
 30
0.0
 10
12.0
 20
-9.13498943688916
 30
0.0
 10
12.0
 20
-9.706848282214523
 30
0.0
 10
12.0
 20
-9.995025641991479
 30
0.0
  0
LINE
  5
C9
330
1F
100
AcDbEntity
  8
0
  6
Continuous
 62
     1
370
    25
100
AcDbLine
 10
61.99999999999999
 20
-0.5000000000000029
 30
0.0
 11
61.99999999999999
 21
-7.266081778456258
 31
0.0
  0
ELLIPSE
  5
CA
330
1F
100
AcDbEntity
  8
0
  6
Continuous
 62
     1
370
    25
100
AcDbEllipse
 10
62.71407400337105
 20
-0.000000000000006
 30
0.0
 11
14.28148006742111
 21
-5.350968460038310E-17
 31
0.0
210
0.0
220
0.0
230
1.0
 40
0.7002075382097122
 41
1.620817183600667
 42
1.716014156413952
  0
LINE
  5
CB
330
1F
100
AcDbEntity
  8
0
  6
Continuous
 62
     1
370
    25
100
AcDbLine
 10
61.99999999999999
 20
2.462652369968974
 30
0.0
 11
61.99999999999999
 21
9.987492177719094
 31
0.0
  0
LINE
  5
CC
330
1F
100
AcDbEntity
  8
0
  6
Continuous
 62
     1
370
    25
100
AcDbLine
 10
61.99999999999999
 20
9.987492177719094
 30
0.0
 11
61.99999999999999
 21
10.00000000000001
 31
0.0
  0
LINE
  5
CD
330
1F
100
AcDbEntity
  8
중심선
100
AcDbLine
 10
-51.00000000000001
 20
-0.0000000000000104
 30
0.0
 11
65.00000000000003
 21
0.0000000000000087
 31
0.0
  0
CIRCLE
  5
CE
330
1F
100
AcDbEntity
  8
해칭선
100
AcDbCircle
 10
0.0003140231665689
 20
-0.0000000000000043
 30
0.0
 40
2.999999999999999
  0
INSERT
  5
CF
330
1F
100
AcDbEntity
  8
0
  6
Continuous
 62
     7
100
AcDbBlockReference
 66
     1
  2
블럭10
 10
-7.440099248941772
 20
-52.04717430164393
 30
0.0
  0
ATTRIB
  5
D0
330
CF
100
AcDbEntity
  8
FORMAT
 62
     2
100
AcDbText
 10
-23.55936028837733
 20
-49.97180738881174
 30
0.0
 40
4.233333333333333
  1
SEME7220050E [ 4 FLUTE ]
 41
0.75
  7
SLDTEXTSTYLE0
 11
-23.55936028837733
 21
-52.08847405547841
 31
0.0
100
AcDbAttribute
  2
AUTOATTR0
 70
     0
 74
     1
  0
SEQEND
  5
D1
330
CF
100
AcDbEntity
  8
0
  6
Continuous
 62
     7
  0
HATCH
  5
D2
330
1F
100
AcDbEntity
  8
중심선
100
AcDbHatch
 10
0.0
 20
0.0
 30
0.0
210
0.0
220
0.0
230
1.0
  2
SOLID
 70
     1
 71
     0
 91
        1
 92
        0
 93
        4
 72
     1
 10
-1.725189944560918
 20
-35.8
 11
-5.1714651883982
 21
-35.8
 72
     1
 10
-5.1714651883982
 20
-35.8
 11
-7.299695047602222
 21
-38.33632558057259
 72
     1
 10
-7.299695047602222
 20
-38.33632558057259
 11
-3.853386718651791
 21
-38.3362861512701
 72
     1
 10
-3.853386718651791
 20
-38.3362861512701
 11
-1.725189944560918
 21
-35.8
 97
        0
 75
     0
 76
     1
 98
        1
 10
0.0
 20
0.0
  0
HATCH
  5
D3
330
1F
100
AcDbEntity
  8
중심선
100
AcDbHatch
 10
0.0
 20
0.0
 30
0.0
210
0.0
220
0.0
230
1.0
  2
SOLID
 70
     1
 71
     0
 91
        1
 92
        0
 93
        4
 72
     1
 10
3.287574046475034
 20
-35.80000000000003
 11
-0.158701197362221
 21
-35.79999999999997
 72
     1
 10
-0.158701197362221
 20
-35.79999999999997
 11
-4.689839205719638
 21
-41.20000000000002
 72
     1
 10
-4.689839205719637
 20
-41.20000000000002
 11
-1.243563961882355
 21
-41.20000000000002
 72
     1
 10
-1.243563961882355
 20
-41.20000000000002
 11
3.287574046475033
 21
-35.80000000000003
 97
        0
 75
     0
 76
     1
 98
        1
 10
0.0
 20
0.0
  0
HATCH
  5
D4
330
1F
100
AcDbEntity
  8
중심선
100
AcDbHatch
 10
0.0
 20
0.0
 30
0.0
210
0.0
220
0.0
230
1.0
  2
SOLID
 70
     1
 71
     0
 91
        1
 92
        0
 93
        4
 72
     1
 10
8.30033803751093
 20
-35.79999999999997
 11
4.854062793673869
 21
-35.79999999999997
 72
     1
 10
4.854062793673869
 20
-35.79999999999997
 11
-2.194374108215436
 21
-44.20000000000002
 72
     1
 10
-2.194374108215436
 20
-44.20000000000002
 11
1.251901135621847
 21
-44.20000000000002
 72
     1
 10
1.251901135621847
 20
-44.20000000000002
 11
8.30033803751093
 21
-35.79999999999997
 97
        0
 75
     0
 76
     1
 98
        1
 10
0.0
 20
0.0
  0
HATCH
  5
D5
330
1F
100
AcDbEntity
  8
중심선
100
AcDbHatch
 10
0.0
 20
0.0
 30
0.0
210
0.0
220
0.0
230
1.0
  2
SOLID
 70
     1
 71
     0
 91
        1
 92
        0
 93
        6
 72
     3
 10
13.10022846852313
 20
-40.00000000005127
 11
3.960054785062284
 21
1.540850780301639E-10
 40
0.3939339440162633
 50
17.09539180608433
 51
320.0019657685087
 73
     0
 72
     1
 10
14.7832281242237
 20
-38.58789400463836
 11
17.08852999792476
 21
-36.6535672945904
 72
     3
 10
13.10022846847028
 20
-40.00000000000015
 11
6.600054785286829
 21
-1.249000902703301E-13
 40
0.6363583540795982
 50
39.9987384933739
 51
368.4976242363725
 73
     1
 72
     1
 10
19.52556096037089
 20
-39.03999999993002
 11
11.7802957753062
 21
-39.03999999993002
 72
     1
 10
11.7802957753062
 20
-39.03999999993002
 11
11.78027073086027
 21
-40.95999999992991
 72
     1
 10
11.78027073086027
 20
-40.95999999992991
 11
16.22165050033231
 21
-40.95999999992988
 97
        0
 75
     0
 76
     1
 98
        1
 10
0.0
 20
0.0
  0
DIMENSION
  5
D6
330
1F
100
AcDbEntity
  8
치수문자_일반주서
100
AcDbDimension
  2
_D
 10
74.9679110585422
 20
10.00000000000005
 30
0.0
 11
74.96791105854216
 21
20.76025000000005
 31
0.0
 70
   160
  1
%%c<>
 71
     2
 42
20.00000000000002
 52
-270.0
  3
SLDDIMSTYLE0
100
AcDbAlignedDimension
 13
61.99999999999999
 23
-10.00000000000002
 33
0.0
 14
61.99999999999999
 24
10.0
 34
0.0
 50
90.0000000000002
100
AcDbRotatedDimension
  0
DIMENSION
  5
E4
330
1F
100
AcDbEntity
  8
치수문자_일반주서
100
AcDbDimension
  2
_D_1
 10
61.99999999999999
 20
27.38913260158164
 30
0.0
 11
6.999999999999999
 21
27.38913260158164
 31
0.0
 70
   160
  1
<>
 71
     2
 42
110.0
  3
SLDDIMSTYLE1
100
AcDbAlignedDimension
 13
-48.00000000000001
 23
9.499999999999988
 33
0.0
 14
61.99999999999999
 24
9.999999999999998
 34
0.0
 50
-0.0000000000000037
100
AcDbRotatedDimension
  0
DIMENSION
  5
EF
330
1F
100
AcDbEntity
  8
치수문자_일반주서
100
AcDbDimension
  2
_D_2
 10
-60.06249366987188
 20
-10.00000000000006
 30
0.0
 11
-60.06249366987199
 21
20.76024999999996
 31
0.0
 70
   160
  1
%%c<>
 71
     2
 42
20.00000000000002
 52
-270.0
  3
SLDDIMSTYLE2
100
AcDbAlignedDimension
 13
-47.5
 23
10.0
 33
0.0
 14
-47.5
 24
-10.00000000000002
 34
0.0
 50
90.0000000000002
100
AcDbRotatedDimension
  0
DIMENSION
  5
FD
330
1F
100
AcDbEntity
  8
치수문자_일반주서
100
AcDbDimension
  2
_D_3
 10
61.99999999999999
 20
20.84094394457911
 30
0.0
 11
37.0
 21
20.84094394457911
 31
0.0
 70
   160
  1
<>
 71
     2
 42
50.0
  3
SLDDIMSTYLE1
100
AcDbAlignedDimension
 13
11.99999999999999
 23
9.995025641991468
 33
0.0
 14
61.99999999999999
 24
9.999999999999998
 34
0.0
 50
-0.0000000000000122
100
AcDbRotatedDimension
  0
INSERT
  5
10D
330
1F
100
AcDbEntity
  8
해칭선
100
AcDbBlockReference
  2
SW_DOWELSYMBOL_0
 10
0.0003140231665689
 20
-0.0000000000000043
 30
0.0
  0
ENDSEC
  0
SECTION
  2
OBJECTS
  0
DICTIONARY
  5
C
330
0
100
AcDbDictionary
281
     1
  3
ACAD_GROUP
350
D
  3
ACAD_IMAGE_VARS
350
131
  3
ACAD_LAYOUT
350
1A
  3
ACAD_MLINESTYLE
350
17
  3
ACAD_PLOTSETTINGS
350
19
  3
ACAD_PLOTSTYLENAME
350
E
  3
ACAD_SCALELIST
350
47
  3
APPDATA
350
12F
  3
DWGPROPS
350
140
  0
DICTIONARY
  5
D
102
{ACAD_REACTORS
330
C
102
}
330
C
100
AcDbDictionary
281
     1
  0
RASTERVARIABLES
  5
131
102
{ACAD_REACTORS
330
C
102
}
330
C
100
AcDbRasterVariables
 90
        0
 70
     1
 71
     1
 72
     1
  0
DICTIONARY
  5
1A
102
{ACAD_REACTORS
330
C
102
}
330
C
100
AcDbDictionary
281
     1
  3
Layout1
350
1E
  3
Layout2
350
26
  3
Model
350
22
  0
DICTIONARY
  5
17
102
{ACAD_REACTORS
330
C
102
}
330
C
100
AcDbDictionary
281
     1
  3
Standard
350
18
  0
DICTIONARY
  5
19
102
{ACAD_REACTORS
330
C
102
}
330
C
100
AcDbDictionary
281
     1
  0
ACDBDICTIONARYWDFLT
  5
E
102
{ACAD_REACTORS
330
C
102
}
330
C
100
AcDbDictionary
281
     1
  3
Normal
350
F
100
AcDbDictionaryWithDefault
340
F
  0
DICTIONARY
  5
47
102
{ACAD_REACTORS
330
C
102
}
330
C
100
AcDbDictionary
281
     1
  3
A0
350
48
  3
A1
350
49
  3
A2
350
4A
  3
A3
350
4B
  3
A4
350
4C
  3
A5
350
4D
  3
A6
350
4E
  3
A7
350
4F
  3
A8
350
50
  3
A9
350
51
  3
B0
350
52
  3
B1
350
53
  3
B2
350
54
  3
B3
350
55
  3
B4
350
56
  3
B5
350
57
  3
B6
350
58
  3
B7
350
59
  3
B8
350
5A
  3
B9
350
5B
  3
C0
350
5C
  3
C1
350
5D
  3
C2
350
5E
  3
C3
350
5F
  3
C4
350
60
  3
C5
350
61
  3
C6
350
62
  3
C7
350
63
  3
C8
350
64
  3
C9
350
65
  3
D0
350
66
  3
D1
350
67
  3
D2
350
68
  0
DICTIONARY
  5
12F
102
{ACAD_REACTORS
330
C
102
}
330
C
100
AcDbDictionary
281
     1
  0
XRECORD
  5
140
102
{ACAD_REACTORS
330
C
102
}
330
C
100
AcDbXrecord
280
     1
  1
DWGPROPS COOKIE
  2

  3

  4

  6

  7

  8
12014102
  9

300
=
301
=
302
=
303
=
304
=
305
=
306
=
307
=
308
=
309
=
 40
0.0
 41
2458260.210909387
 42
2458268.224494525
  1

 90
        0
  0
LAYOUT
  5
1E
102
{ACAD_REACTORS
330
1A
102
}
330
1A
100
AcDbPlotSettings
  1

  2
none_device
  4

  6

 40
0.0
 41
0.0
 42
0.0
 43
0.0
 44
0.0
 45
0.0
 46
0.0
 47
0.0
 48
0.0
 49
0.0
140
0.0
141
0.0
142
1.0
143
1.0
 70
   688
 72
     1
 73
     0
 74
     5
  7

 75
    16
147
1.0
148
0.0
149
0.0
100
AcDbLayout
  1
Layout1
 70
     1
 71
     1
 10
0.0
 20
0.0
 11
420.0
 21
297.0
 12
0.0
 22
0.0
 32
0.0
 14
1.000000000000000E+20
 24
1.000000000000000E+20
 34
1.000000000000000E+20
 15
-1.000000000000000E+20
 25
-1.000000000000000E+20
 35
-1.000000000000000E+20
146
0.0
 13
0.0
 23
0.0
 33
0.0
 16
1.0
 26
0.0
 36
0.0
 17
0.0
 27
1.0
 37
0.0
 76
     0
330
1B
  0
LAYOUT
  5
26
102
{ACAD_REACTORS
330
1A
102
}
330
1A
100
AcDbPlotSettings
  1

  2
none_device
  4

  6

 40
0.0
 41
0.0
 42
0.0
 43
0.0
 44
0.0
 45
0.0
 46
0.0
 47
0.0
 48
0.0
 49
0.0
140
0.0
141
0.0
142
1.0
143
1.0
 70
   688
 72
     1
 73
     0
 74
     5
  7

 75
    16
147
1.0
148
0.0
149
0.0
100
AcDbLayout
  1
Layout2
 70
     1
 71
     2
 10
0.0
 20
0.0
 11
0.0
 21
0.0
 12
0.0
 22
0.0
 32
0.0
 14
0.0
 24
0.0
 34
0.0
 15
0.0
 25
0.0
 35
0.0
146
0.0
 13
0.0
 23
0.0
 33
0.0
 16
1.0
 26
0.0
 36
0.0
 17
0.0
 27
1.0
 37
0.0
 76
     0
330
23
  0
LAYOUT
  5
22
102
{ACAD_REACTORS
330
1A
102
}
330
1A
100
AcDbPlotSettings
  1

  2
none_device
  4
ANSI_A_(11.00_x_8.50_Inches)
  6

 40
6.35
 41
19.05
 42
6.35000508
 43
19.05000254
 44
279.4
 45
215.9
 46
122.1345846736796
 47
106.8629211002268
 48
0.0
 49
0.0
140
0.0
141
0.0
142
0.0751746256859428
143
1.0
 70
  1696
 72
     0
 73
     0
 74
     0
  7

 75
     0
147
0.0235690232323232
148
0.0
149
0.0
100
AcDbLayout
  1
Model
 70
     1
 71
     0
 10
0.0
 20
0.0
 11
420.0
 21
297.0
 12
0.0
 22
0.0
 32
0.0
 14
-64.43749366987201
 24
-49.97180738881174
 34
0.0
 15
75.51824439187563
 25
31.76413260158163
 35
0.0
146
0.0
 13
0.0
 23
0.0
 33
0.0
 16
1.0
 26
0.0
 36
0.0
 17
0.0
 27
1.0
 37
0.0
 76
     0
330
1F
331
29
  0
MLINESTYLE
  5
18
102
{ACAD_REACTORS
330
17
102
}
330
17
100
AcDbMlineStyle
  2
Standard
 70
     0
  3

 62
   256
 51
90.0
 52
90.0
 71
     2
 49
0.5
 62
   256
  6
BYLAYER
 49
-0.5
 62
   256
  6
BYLAYER
  0
ACDBPLACEHOLDER
  5
F
102
{ACAD_REACTORS
330
E
102
}
330
E
  0
SCALE
  5
48
102
{ACAD_REACTORS
330
47
102
}
330
47
100
AcDbScale
 70
     0
300
1:1
140
1.0
141
1.0
290
     1
  0
SCALE
  5
49
102
{ACAD_REACTORS
330
47
102
}
330
47
100
AcDbScale
 70
     0
300
1:2
140
1.0
141
2.0
290
     0
  0
SCALE
  5
4A
102
{ACAD_REACTORS
330
47
102
}
330
47
100
AcDbScale
 70
     0
300
1:4
140
1.0
141
4.0
290
     0
  0
SCALE
  5
4B
102
{ACAD_REACTORS
330
47
102
}
330
47
100
AcDbScale
 70
     0
300
1:5
140
1.0
141
5.0
290
     0
  0
SCALE
  5
4C
102
{ACAD_REACTORS
330
47
102
}
330
47
100
AcDbScale
 70
     0
300
1:8
140
1.0
141
8.0
290
     0
  0
SCALE
  5
4D
102
{ACAD_REACTORS
330
47
102
}
330
47
100
AcDbScale
 70
     0
300
1:10
140
1.0
141
10.0
290
     0
  0
SCALE
  5
4E
102
{ACAD_REACTORS
330
47
102
}
330
47
100
AcDbScale
 70
     0
300
1:16
140
1.0
141
16.0
290
     0
  0
SCALE
  5
4F
102
{ACAD_REACTORS
330
47
102
}
330
47
100
AcDbScale
 70
     0
300
1:20
140
1.0
141
20.0
290
     0
  0
SCALE
  5
50
102
{ACAD_REACTORS
330
47
102
}
330
47
100
AcDbScale
 70
     0
300
1:30
140
1.0
141
30.0
290
     0
  0
SCALE
  5
51
102
{ACAD_REACTORS
330
47
102
}
330
47
100
AcDbScale
 70
     0
300
1:40
140
1.0
141
40.0
290
     0
  0
SCALE
  5
52
102
{ACAD_REACTORS
330
47
102
}
330
47
100
AcDbScale
 70
     0
300
1:50
140
1.0
141
50.0
290
     0
  0
SCALE
  5
53
102
{ACAD_REACTORS
330
47
102
}
330
47
100
AcDbScale
 70
     0
300
1:100
140
1.0
141
100.0
290
     0
  0
SCALE
  5
54
102
{ACAD_REACTORS
330
47
102
}
330
47
100
AcDbScale
 70
     0
300
2:1
140
2.0
141
1.0
290
     0
  0
SCALE
  5
55
102
{ACAD_REACTORS
330
47
102
}
330
47
100
AcDbScale
 70
     0
300
4:1
140
4.0
141
1.0
290
     0
  0
SCALE
  5
56
102
{ACAD_REACTORS
330
47
102
}
330
47
100
AcDbScale
 70
     0
300
8:1
140
8.0
141
1.0
290
     0
  0
SCALE
  5
57
102
{ACAD_REACTORS
330
47
102
}
330
47
100
AcDbScale
 70
     0
300
10:1
140
10.0
141
1.0
290
     0
  0
SCALE
  5
58
102
{ACAD_REACTORS
330
47
102
}
330
47
100
AcDbScale
 70
     0
300
100:1
140
100.0
141
1.0
290
     0
  0
SCALE
  5
59
102
{ACAD_REACTORS
330
47
102
}
330
47
100
AcDbScale
 70
     0
300
1/128" = 1'-0"
140
0.0078125
141
12.0
290
     0
  0
SCALE
  5
5A
102
{ACAD_REACTORS
330
47
102
}
330
47
100
AcDbScale
 70
     0
300
1/64" = 1'-0"
140
0.015625
141
12.0
290
     0
  0
SCALE
  5
5B
102
{ACAD_REACTORS
330
47
102
}
330
47
100
AcDbScale
 70
     0
300
1/32" = 1'-0"
140
0.03125
141
12.0
290
     0
  0
SCALE
  5
5C
102
{ACAD_REACTORS
330
47
102
}
330
47
100
AcDbScale
 70
     0
300
1/16" = 1'-0"
140
0.0625
141
12.0
290
     0
  0
SCALE
  5
5D
102
{ACAD_REACTORS
330
47
102
}
330
47
100
AcDbScale
 70
     0
300
3/32" = 1'-0"
140
0.09375
141
12.0
290
     0
  0
SCALE
  5
5E
102
{ACAD_REACTORS
330
47
102
}
330
47
100
AcDbScale
 70
     0
300
1/8" = 1'-0"
140
0.125
141
12.0
290
     0
  0
SCALE
  5
5F
102
{ACAD_REACTORS
330
47
102
}
330
47
100
AcDbScale
 70
     0
300
3/16" = 1'-0"
140
0.1875
141
12.0
290
     0
  0
SCALE
  5
60
102
{ACAD_REACTORS
330
47
102
}
330
47
100
AcDbScale
 70
     0
300
1/4" = 1'-0"
140
0.25
141
12.0
290
     0
  0
SCALE
  5
61
102
{ACAD_REACTORS
330
47
102
}
330
47
100
AcDbScale
 70
     0
300
3/8" = 1'-0"
140
0.375
141
12.0
290
     0
  0
SCALE
  5
62
102
{ACAD_REACTORS
330
47
102
}
330
47
100
AcDbScale
 70
     0
300
1/2" = 1'-0"
140
0.5
141
12.0
290
     0
  0
SCALE
  5
63
102
{ACAD_REACTORS
330
47
102
}
330
47
100
AcDbScale
 70
     0
300
3/4" = 1'-0"
140
0.75
141
12.0
290
     0
  0
SCALE
  5
64
102
{ACAD_REACTORS
330
47
102
}
330
47
100
AcDbScale
 70
     0
300
1" = 1'-0"
140
1.0
141
12.0
290
     0
  0
SCALE
  5
65
102
{ACAD_REACTORS
330
47
102
}
330
47
100
AcDbScale
 70
     0
300
1-1/2" = 1'-0"
140
1.5
141
12.0
290
     0
  0
SCALE
  5
66
102
{ACAD_REACTORS
330
47
102
}
330
47
100
AcDbScale
 70
     0
300
3" = 1'-0"
140
3.0
141
12.0
290
     0
  0
SCALE
  5
67
102
{ACAD_REACTORS
330
47
102
}
330
47
100
AcDbScale
 70
     0
300
6" = 1'-0"
140
6.0
141
12.0
290
     0
  0
SCALE
  5
68
102
{ACAD_REACTORS
330
47
102
}
330
47
100
AcDbScale
 70
     0
300
1'-0" = 1'-0"
140
12.0
141
12.0
290
     0
  0
ENDSEC
  0
EOF
