  0
SECTION
  2
HEADER
  9
$ACADVER
  1
AC1015
  9
$ACADMAINTVER
 70
     6
  9
$DWGCODEPAGE
  3
ANSI_949
  9
$INSBASE
 10
0.0
 20
0.0
 30
0.0
  9
$EXTMIN
 10
-66.56509034755389
 20
-49.97180738881174
 30
0.0
  9
$EXTMAX
 10
98.1858960119775
 20
31.76413260158164
 30
0.0
  9
$LIMMIN
 10
0.0
 20
0.0
  9
$LIMMAX
 10
420.0
 20
297.0
  9
$ORTHOMODE
 70
     0
  9
$REGENMODE
 70
     1
  9
$FILLMODE
 70
     1
  9
$QTEXTMODE
 70
     0
  9
$MIRRTEXT
 70
     1
  9
$LTSCALE
 40
1.0
  9
$ATTMODE
 70
     1
  9
$TEXTSIZE
 40
3.5
  9
$TRACEWID
 40
1.0
  9
$TEXTSTYLE
  7
Standard
  9
$CLAYER
  8
0
  9
$CELTYPE
  6
ByLayer
  9
$CECOLOR
 62
   256
  9
$CELTSCALE
 40
1.0
  9
$DISPSILH
 70
     0
  9
$DIMSCALE
 40
1.0
  9
$DIMASZ
 40
3.302
  9
$DIMEXO
 40
1.0
  9
$DIMDLI
 40
3.75
  9
$DIMRND
 40
0.0
  9
$DIMDLE
 40
0.0
  9
$DIMEXE
 40
1.0
  9
$DIMTP
 40
0.0
  9
$DIMTM
 40
0.0
  9
$DIMTXT
 40
3.5
  9
$DIMCEN
 40
2.5
  9
$DIMTSZ
 40
0.0
  9
$DIMTOL
 70
     0
  9
$DIMLIM
 70
     0
  9
$DIMTIH
 70
     1
  9
$DIMTOH
 70
     1
  9
$DIMSE1
 70
     0
  9
$DIMSE2
 70
     0
  9
$DIMTAD
 70
     1
  9
$DIMZIN
 70
     0
  9
$DIMBLK
  1

  9
$DIMASO
 70
     1
  9
$DIMSHO
 70
     1
  9
$DIMPOST
  1

  9
$DIMAPOST
  1

  9
$DIMALT
 70
     0
  9
$DIMALTD
 70
     3
  9
$DIMALTF
 40
0.0393700787401575
  9
$DIMLFAC
 40
1.0
  9
$DIMTOFL
 70
     1
  9
$DIMTVP
 40
0.0
  9
$DIMTIX
 70
     0
  9
$DIMSOXD
 70
     0
  9
$DIMSAH
 70
     0
  9
$DIMBLK1
  1

  9
$DIMBLK2
  1

  9
$DIMSTYLE
  2
ISO-25
  9
$DIMCLRD
 70
     0
  9
$DIMCLRE
 70
     0
  9
$DIMCLRT
 70
     0
  9
$DIMTFAC
 40
1.0
  9
$DIMGAP
 40
1.524
  9
$DIMJUST
 70
     0
  9
$DIMSD1
 70
     0
  9
$DIMSD2
 70
     0
  9
$DIMTOLJ
 70
     0
  9
$DIMTZIN
 70
     0
  9
$DIMALTZ
 70
     0
  9
$DIMALTTZ
 70
     0
  9
$DIMUPT
 70
     0
  9
$DIMDEC
 70
     2
  9
$DIMTDEC
 70
     2
  9
$DIMALTU
 70
     2
  9
$DIMALTTD
 70
     3
  9
$DIMTXSTY
  7
Standard
  9
$DIMAUNIT
 70
     0
  9
$DIMADEC
 70
     2
  9
$DIMALTRND
 40
0.0
  9
$DIMAZIN
 70
     0
  9
$DIMDSEP
 70
    44
  9
$DIMATFIT
 70
     3
  9
$DIMFRAC
 70
     0
  9
$DIMLDRBLK
  1

  9
$DIMLUNIT
 70
     2
  9
$DIMLWD
 70
    -2
  9
$DIMLWE
 70
    -2
  9
$DIMTMOVE
 70
     0
  9
$LUNITS
 70
     2
  9
$LUPREC
 70
     2
  9
$SKETCHINC
 40
1.0
  9
$FILLETRAD
 40
10.0
  9
$AUNITS
 70
     0
  9
$AUPREC
 70
     2
  9
$MENU
  1
.
  9
$ELEVATION
 40
0.0
  9
$PELEVATION
 40
0.0
  9
$THICKNESS
 40
0.0
  9
$LIMCHECK
 70
     0
  9
$CHAMFERA
 40
0.0
  9
$CHAMFERB
 40
0.0
  9
$CHAMFERC
 40
0.0
  9
$CHAMFERD
 40
0.0
  9
$SKPOLY
 70
     0
  9
$TDCREATE
 40
2458260.58628765
  9
$TDUCREATE
 40
2458260.21128765
  9
$TDUPDATE
 40
2458268.600827002
  9
$TDUUPDATE
 40
2458268.225827002
  9
$TDINDWG
 40
0.0005526968
  9
$TDUSRTIMER
 40
2458268.22527434
  9
$USRTIMER
 70
     1
  9
$ANGBASE
 50
0.0
  9
$ANGDIR
 70
     0
  9
$PDMODE
 70
     0
  9
$PDSIZE
 40
-1.0
  9
$PLINEWID
 40
0.0
  9
$SPLFRAME
 70
     0
  9
$SPLINETYPE
 70
     6
  9
$SPLINESEGS
 70
     8
  9
$HANDSEED
  5
145
  9
$SURFTAB1
 70
     6
  9
$SURFTAB2
 70
     6
  9
$SURFTYPE
 70
     6
  9
$SURFU
 70
     6
  9
$SURFV
 70
     6
  9
$UCSBASE
  2

  9
$UCSNAME
  2

  9
$UCSORG
 10
0.0
 20
0.0
 30
0.0
  9
$UCSXDIR
 10
1.0
 20
0.0
 30
0.0
  9
$UCSYDIR
 10
0.0
 20
1.0
 30
0.0
  9
$UCSORTHOREF
  2

  9
$UCSORTHOVIEW
 70
     0
  9
$UCSORGTOP
 10
0.0
 20
0.0
 30
0.0
  9
$UCSORGBOTTOM
 10
0.0
 20
0.0
 30
0.0
  9
$UCSORGLEFT
 10
0.0
 20
0.0
 30
0.0
  9
$UCSORGRIGHT
 10
0.0
 20
0.0
 30
0.0
  9
$UCSORGFRONT
 10
0.0
 20
0.0
 30
0.0
  9
$UCSORGBACK
 10
0.0
 20
0.0
 30
0.0
  9
$PUCSBASE
  2

  9
$PUCSNAME
  2

  9
$PUCSORG
 10
0.0
 20
0.0
 30
0.0
  9
$PUCSXDIR
 10
1.0
 20
0.0
 30
0.0
  9
$PUCSYDIR
 10
0.0
 20
1.0
 30
0.0
  9
$PUCSORTHOREF
  2

  9
$PUCSORTHOVIEW
 70
     0
  9
$PUCSORGTOP
 10
0.0
 20
0.0
 30
0.0
  9
$PUCSORGBOTTOM
 10
0.0
 20
0.0
 30
0.0
  9
$PUCSORGLEFT
 10
0.0
 20
0.0
 30
0.0
  9
$PUCSORGRIGHT
 10
0.0
 20
0.0
 30
0.0
  9
$PUCSORGFRONT
 10
0.0
 20
0.0
 30
0.0
  9
$PUCSORGBACK
 10
0.0
 20
0.0
 30
0.0
  9
$USERI1
 70
     0
  9
$USERI2
 70
     0
  9
$USERI3
 70
     0
  9
$USERI4
 70
     0
  9
$USERI5
 70
     0
  9
$USERR1
 40
0.0
  9
$USERR2
 40
0.0
  9
$USERR3
 40
0.0
  9
$USERR4
 40
0.0
  9
$USERR5
 40
0.0
  9
$WORLDVIEW
 70
     1
  9
$SHADEDGE
 70
     3
  9
$SHADEDIF
 70
    70
  9
$TILEMODE
 70
     1
  9
$MAXACTVP
 70
    64
  9
$PINSBASE
 10
0.0
 20
0.0
 30
0.0
  9
$PLIMCHECK
 70
     0
  9
$PEXTMIN
 10
1.000000000000000E+20
 20
1.000000000000000E+20
 30
1.000000000000000E+20
  9
$PEXTMAX
 10
-1.000000000000000E+20
 20
-1.000000000000000E+20
 30
-1.000000000000000E+20
  9
$PLIMMIN
 10
0.0
 20
0.0
  9
$PLIMMAX
 10
0.0
 20
0.0
  9
$UNITMODE
 70
     0
  9
$VISRETAIN
 70
     1
  9
$PLINEGEN
 70
     0
  9
$PSLTSCALE
 70
     1
  9
$TREEDEPTH
 70
  3020
  9
$CMLSTYLE
  2
Standard
  9
$CMLJUST
 70
     0
  9
$CMLSCALE
 40
20.0
  9
$PROXYGRAPHICS
 70
     1
  9
$MEASUREMENT
 70
     1
  9
$CELWEIGHT
370
    -1
  9
$ENDCAPS
280
     0
  9
$JOINSTYLE
280
     0
  9
$LWDISPLAY
290
     1
  9
$INSUNITS
 70
     4
  9
$HYPERLINKBASE
  1

  9
$STYLESHEET
  1

  9
$XEDIT
290
     1
  9
$CEPSNTYPE
380
     0
  9
$PSTYLEMODE
290
     1
  9
$FINGERPRINTGUID
  2
{37491E3C-75B8-4502-9D65-B8F5140040EB}
  9
$VERSIONGUID
  2
{FAEB1C32-E019-11D5-929B-00C0DF256EC4}
  9
$EXTNAMES
290
     1
  9
$PSVPSCALE
 40
0.0
  9
$OLESTARTUP
290
     0
  0
ENDSEC
  0
SECTION
  2
CLASSES
  0
CLASS
  1
ACDBDICTIONARYWDFLT
  2
AcDbDictionaryWithDefault
  3
ObjectDBX Classes
 90
        0
280
     0
281
     0
  0
CLASS
  1
VISUALSTYLE
  2
AcDbVisualStyle
  3
ObjectDBX Classes
 90
     4095
280
     0
281
     0
  0
CLASS
  1
MATERIAL
  2
AcDbMaterial
  3
ObjectDBX Classes
 90
     1153
280
     0
281
     0
  0
CLASS
  1
SCALE
  2
AcDbScale
  3
ObjectDBX Classes
 90
     1153
280
     0
281
     0
  0
CLASS
  1
TABLESTYLE
  2
AcDbTableStyle
  3
ObjectDBX Classes
 90
     4095
280
     0
281
     0
  0
CLASS
  1
MLEADERSTYLE
  2
AcDbMLeaderStyle
  3
ACDB_MLEADERSTYLE_CLASS
 90
     4095
280
     0
281
     0
  0
CLASS
  1
SUN
  2
AcDbSun
  3
SCENEOE
 90
     1153
280
     0
281
     0
  0
CLASS
  1
ACDBPLACEHOLDER
  2
AcDbPlaceHolder
  3
ObjectDBX Classes
 90
        0
280
     0
281
     0
  0
CLASS
  1
LAYOUT
  2
AcDbLayout
  3
ObjectDBX Classes
 90
        0
280
     0
281
     0
  0
CLASS
  1
RASTERVARIABLES
  2
AcDbRasterVariables
  3
ISM
 90
        0
280
     0
281
     0
  0
ENDSEC
  0
SECTION
  2
TABLES
  0
TABLE
  2
VPORT
  5
8
330
0
100
AcDbSymbolTable
 70
     1
  0
VPORT
  5
29
330
8
100
AcDbSymbolTableRecord
100
AcDbViewportTableRecord
  2
*Active
 70
     0
 10
0.0
 20
0.0
 11
1.0
 21
1.0
 12
15.81040283221181
 22
-9.103837393615052
 13
0.0
 23
0.0
 14
10.0
 24
10.0
 15
10.0
 25
10.0
 16
0.0
 26
0.0
 36
1.0
 17
0.0
 27
0.0
 37
0.0
 40
96.63269592208235
 41
1.739018087855297
 42
50.0
 43
0.0
 44
0.0
 50
0.0
 51
0.0
 71
    16
 72
  2000
 73
     1
 74
     3
 75
     0
 76
     0
 77
     0
 78
     0
281
     0
 65
     1
110
0.0
120
0.0
130
0.0
111
1.0
121
0.0
131
0.0
112
0.0
122
1.0
132
0.0
 79
     0
146
0.0
  0
ENDTAB
  0
TABLE
  2
LTYPE
  5
5
330
0
100
AcDbSymbolTable
 70
     6
  0
LTYPE
  5
14
330
5
100
AcDbSymbolTableRecord
100
AcDbLinetypeTableRecord
  2
ByBlock
 70
     0
  3

 72
    65
 73
     0
 40
0.0
  0
LTYPE
  5
15
330
5
100
AcDbSymbolTableRecord
100
AcDbLinetypeTableRecord
  2
ByLayer
 70
     0
  3

 72
    65
 73
     0
 40
0.0
  0
LTYPE
  5
16
330
5
100
AcDbSymbolTableRecord
100
AcDbLinetypeTableRecord
  2
Continuous
 70
     0
  3
Solid line
 72
    65
 73
     0
 40
0.0
  0
LTYPE
  5
6E
330
5
100
AcDbSymbolTableRecord
100
AcDbLinetypeTableRecord
  2
HIDDEN
 70
     0
  3
Hidden __ __ __ __ __ __ __ __ __ __ __ __ __ __
 72
    65
 73
     2
 40
1.905
 49
1.27
 74
     0
 49
-0.635
 74
     0
  0
LTYPE
  5
6F
330
5
100
AcDbSymbolTableRecord
100
AcDbLinetypeTableRecord
  2
PHANTOM
 70
     0
  3
Phantom ______  __  __  ______  __  __  ______
 72
    65
 73
     6
 40
12.7
 49
6.35
 74
     0
 49
-1.27
 74
     0
 49
1.27
 74
     0
 49
-1.27
 74
     0
 49
1.27
 74
     0
 49
-1.27
 74
     0
  0
LTYPE
  5
70
330
5
100
AcDbSymbolTableRecord
100
AcDbLinetypeTableRecord
  2
CENTER
 70
     0
  3
Center ____ _ ____ _ ____ _ ____ _ ____ _ ____
 72
    65
 73
     4
 40
10.16
 49
6.35
 74
     0
 49
-1.27
 74
     0
 49
1.27
 74
     0
 49
-1.27
 74
     0
  0
LTYPE
  5
71
330
5
100
AcDbSymbolTableRecord
100
AcDbLinetypeTableRecord
  2
CENTERX2
 70
     0
  3
Center (2x) ________  __  ________  __  _____
 72
    65
 73
     4
 40
20.32
 49
12.7
 74
     0
 49
-2.54
 74
     0
 49
2.54
 74
     0
 49
-2.54
 74
     0
  0
LTYPE
  5
72
330
5
100
AcDbSymbolTableRecord
100
AcDbLinetypeTableRecord
  2
DOT2
 70
     0
  3
Dot (.5x) ........................................
 72
    65
 73
     2
 40
0.635
 49
0.0
 74
     0
 49
-0.635
 74
     0
  0
ENDTAB
  0
TABLE
  2
LAYER
  5
2
330
0
100
AcDbSymbolTable
 70
    17
  0
LAYER
  5
10
330
2
100
AcDbSymbolTableRecord
100
AcDbLayerTableRecord
  2
0
 70
     0
 62
     7
  6
Continuous
370
    -3
390
F
  0
LAYER
  5
73
330
2
100
AcDbSymbolTableRecord
100
AcDbLayerTableRecord
  2
FORMAT
 70
     0
 62
     2
  6
Continuous
370
    -3
390
F
  0
LAYER
  5
74
330
2
100
AcDbSymbolTableRecord
100
AcDbLayerTableRecord
  2
외형선
 70
     0
 62
   100
  6
Continuous
370
    35
390
F
  0
LAYER
  5
75
330
2
100
AcDbSymbolTableRecord
100
AcDbLayerTableRecord
  2
숨은선
 70
     0
 62
     2
  6
HIDDEN
370
    25
390
F
  0
LAYER
  5
76
330
2
100
AcDbSymbolTableRecord
100
AcDbLayerTableRecord
  2
중심선
 70
     0
 62
     1
  6
CENTERX2
370
    -3
390
F
  0
LAYER
  5
77
330
2
100
AcDbSymbolTableRecord
100
AcDbLayerTableRecord
  2
파단선
 70
     0
 62
     4
  6
Continuous
370
    -3
390
F
  0
LAYER
  5
78
330
2
100
AcDbSymbolTableRecord
100
AcDbLayerTableRecord
  2
해칭선
 70
     0
 62
   100
  6
Continuous
370
    -3
390
F
  0
LAYER
  5
79
330
2
100
AcDbSymbolTableRecord
100
AcDbLayerTableRecord
  2
가는실선
 70
     0
 62
     4
  6
Continuous
370
    -3
390
F
  0
LAYER
  5
7A
330
2
100
AcDbSymbolTableRecord
100
AcDbLayerTableRecord
  2
치수_보조선
 70
     0
 62
     4
  6
Continuous
370
    -3
390
F
  0
LAYER
  5
7B
330
2
100
AcDbSymbolTableRecord
100
AcDbLayerTableRecord
  2
치수문자_일반주서
 70
     0
 62
     7
  6
Continuous
370
    25
390
F
  0
LAYER
  5
7C
330
2
100
AcDbSymbolTableRecord
100
AcDbLayerTableRecord
  2
개별주서
 70
     0
 62
   100
  6
Continuous
370
    35
390
F
  0
LAYER
  5
7D
330
2
100
AcDbSymbolTableRecord
100
AcDbLayerTableRecord
  2
중간선
 70
     0
 62
     2
  6
Continuous
370
    25
390
F
  0
LAYER
  5
7E
330
2
100
AcDbSymbolTableRecord
100
AcDbLayerTableRecord
  2
윤곽선
 70
     0
 62
     3
  6
Continuous
370
    50
390
F
  0
LAYER
  5
7F
330
2
100
AcDbSymbolTableRecord
100
AcDbLayerTableRecord
  2
중심마크
 70
     0
 62
   100
  6
Continuous
370
    35
390
F
  0
LAYER
  5
80
330
2
100
AcDbSymbolTableRecord
100
AcDbLayerTableRecord
  2
가상선
 70
     0
 62
     4
  6
PHANTOM
370
    -3
390
F
  0
LAYER
  5
81
330
2
100
AcDbSymbolTableRecord
100
AcDbLayerTableRecord
  2
특수지정선
 70
     0
 62
     5
  6
CENTERX2
370
    70
390
F
  0
LAYER
  5
135
330
2
100
AcDbSymbolTableRecord
100
AcDbLayerTableRecord
  2
Defpoints
 70
     0
 62
     7
  6
Continuous
290
     0
370
    -3
390
F
  0
ENDTAB
  0
TABLE
  2
STYLE
  5
3
330
0
100
AcDbSymbolTable
 70
     2
  0
STYLE
  5
11
330
3
100
AcDbSymbolTableRecord
100
AcDbTextStyleTableRecord
  2
Standard
 70
     0
 40
0.0
 41
1.0
 50
0.0
 71
     0
 42
3.5
  3
txt
  4

  0
STYLE
  5
97
330
3
100
AcDbSymbolTableRecord
100
AcDbTextStyleTableRecord
  2
SLDTEXTSTYLE0
 70
     0
 40
0.0
 41
0.75
 50
0.0
 71
     0
 42
3.5
  3
TXT
  4

  0
ENDTAB
  0
TABLE
  2
VIEW
  5
6
330
0
100
AcDbSymbolTable
 70
     0
  0
ENDTAB
  0
TABLE
  2
UCS
  5
7
330
0
100
AcDbSymbolTable
 70
     0
  0
ENDTAB
  0
TABLE
  2
APPID
  5
9
330
0
100
AcDbSymbolTable
 70
     1
  0
APPID
  5
12
330
9
100
AcDbSymbolTableRecord
100
AcDbRegAppTableRecord
  2
ACAD
 70
     0
  0
ENDTAB
  0
TABLE
  2
DIMSTYLE
  5
A
330
0
100
AcDbSymbolTable
 70
     4
100
AcDbDimStyleTable
  0
DIMSTYLE
105
27
330
A
100
AcDbSymbolTableRecord
100
AcDbDimStyleTableRecord
  2
ISO-25
 70
     0
 41
2.5
 42
0.625
 43
3.75
 44
1.25
 73
     0
 74
     0
 77
     1
 78
     8
140
2.5
141
2.5
143
0.03937007874016
147
0.625
171
     3
172
     1
178
     0
271
     2
272
     2
274
     3
278
    44
283
     0
284
     8
340
11
  0
DIMSTYLE
105
DA
102
{ACAD_REACTORS
330
D9
102
}
330
A
100
AcDbSymbolTableRecord
100
AcDbDimStyleTableRecord
  2
SLDDIMSTYLE0
 70
     0
 41
3.302
 44
0.0
 45
0.000000001
 73
     0
 74
     0
 77
     1
 78
    12
 79
     3
140
3.5
147
0.875
172
     1
173
     1
178
     0
271
     1
272
     1
276
     2
284
    12
289
     0
340
97
  0
DIMSTYLE
105
E8
102
{ACAD_REACTORS
330
E7
330
100
102
}
330
A
100
AcDbSymbolTableRecord
100
AcDbDimStyleTableRecord
  2
SLDDIMSTYLE1
 70
     0
 41
3.302
 44
0.0
 45
0.000000001
 73
     0
 74
     0
 77
     1
 78
    12
 79
     3
140
3.5
147
0.875
173
     1
178
     0
271
     2
272
     2
276
     2
284
    12
340
97
  0
DIMSTYLE
105
F3
102
{ACAD_REACTORS
330
F2
102
}
330
A
100
AcDbSymbolTableRecord
100
AcDbDimStyleTableRecord
  2
SLDDIMSTYLE2
 70
     0
 41
3.302
 44
0.0
 45
0.000000001
 73
     0
 74
     0
 77
     1
 78
    12
 79
     3
140
3.5
147
0.875
172
     1
173
     1
178
     0
271
     2
272
     2
276
     2
284
    12
289
     0
340
97
  0
ENDTAB
  0
TABLE
  2
BLOCK_RECORD
  5
1
330
0
100
AcDbSymbolTable
 70
     7
  0
BLOCK_RECORD
  5
1F
330
1
100
AcDbSymbolTableRecord
100
AcDbBlockTableRecord
  2
*Model_Space
340
22
  0
BLOCK_RECORD
  5
1B
330
1
100
AcDbSymbolTableRecord
100
AcDbBlockTableRecord
  2
*Paper_Space
340
1E
  0
BLOCK_RECORD
  5
23
330
1
100
AcDbSymbolTableRecord
100
AcDbBlockTableRecord
  2
*Paper_Space0
340
26
  0
BLOCK_RECORD
  5
82
330
1
100
AcDbSymbolTableRecord
100
AcDbBlockTableRecord
  2
블럭10
340
0
102
{BLKREFS
331
D2
102
}
  0
BLOCK_RECORD
  5
DB
330
1
100
AcDbSymbolTableRecord
100
AcDbBlockTableRecord
  2
_D
340
0
  0
BLOCK_RECORD
  5
E9
330
1
100
AcDbSymbolTableRecord
100
AcDbBlockTableRecord
  2
_D_1
340
0
  0
BLOCK_RECORD
  5
F4
330
1
100
AcDbSymbolTableRecord
100
AcDbBlockTableRecord
  2
_D_2
340
0
  0
BLOCK_RECORD
  5
101
330
1
100
AcDbSymbolTableRecord
100
AcDbBlockTableRecord
  2
_D_3
340
0
  0
BLOCK_RECORD
  5
10A
330
1
100
AcDbSymbolTableRecord
100
AcDbBlockTableRecord
  2
SW_DOWELSYMBOL_0
340
0
102
{BLKREFS
331
110
102
}
  0
ENDTAB
  0
ENDSEC
  0
SECTION
  2
BLOCKS
  0
BLOCK
  5
20
330
1F
100
AcDbEntity
  8
0
100
AcDbBlockBegin
  2
*Model_Space
 70
     0
 10
0.0
 20
0.0
 30
0.0
  3
*Model_Space
  1

  0
ENDBLK
  5
21
330
1F
100
AcDbEntity
  8
0
100
AcDbBlockEnd
  0
BLOCK
  5
1C
330
1B
100
AcDbEntity
 67
     1
  8
0
100
AcDbBlockBegin
  2
*Paper_Space
 70
     0
 10
0.0
 20
0.0
 30
0.0
  3
*Paper_Space
  1

  0
ENDBLK
  5
1D
330
1B
100
AcDbEntity
 67
     1
  8
0
100
AcDbBlockEnd
  0
BLOCK
  5
24
330
23
100
AcDbEntity
  8
0
100
AcDbBlockBegin
  2
*Paper_Space0
 70
     0
 10
0.0
 20
0.0
 30
0.0
  3
*Paper_Space0
  1

  0
ENDBLK
  5
25
330
23
100
AcDbEntity
  8
0
100
AcDbBlockEnd
  0
BLOCK
  5
83
330
82
100
AcDbEntity
  8
0
100
AcDbBlockBegin
  2
블럭10
 70
     2
 10
0.0
 20
0.0
 30
0.0
  3
블럭10
  1

  0
ELLIPSE
  5
85
330
82
100
AcDbEntity
  8
중심선
100
AcDbEllipse
 10
20.54032771741204
 20
12.0471743016438
 30
0.0
 11
6.600054785286829
 21
-1.261213355974178E-13
 31
0.0
210
0.0
220
0.0
230
1.0
 40
0.636358354079598
 41
0.9219305317359503
 42
6.513795318482858
  0
ELLIPSE
  5
86
330
82
100
AcDbEntity
  8
중심선
100
AcDbEllipse
 10
20.54032771746488
 20
12.04717430159265
 30
0.0
 11
3.960054785062283
 21
1.540847449632565E-10
 31
0.0
210
0.0
220
0.0
230
1.0
 40
0.3939339440162632
 41
1.131841032648279
 42
5.62031148352944
  0
LINE
  5
87
330
82
100
AcDbEntity
  8
중심선
100
AcDbLine
 10
2.268634060543552
 20
16.24717430164393
 30
0.0
 11
5.714909304380834
 21
16.24717430164393
 31
0.0
  0
LINE
  5
88
330
82
100
AcDbEntity
  8
중심선
100
AcDbLine
 10
5.245725140726316
 20
7.84717430164391
 30
0.0
 11
8.692000384563599
 21
7.84717430164391
 31
0.0
  0
LINE
  5
89
330
82
100
AcDbEntity
  8
중심선
100
AcDbLine
 10
15.74043728645272
 20
16.24717430164393
 30
0.0
 11
8.692000384563599
 21
7.84717430164391
 31
0.0
  0
LINE
  5
8A
330
82
100
AcDbEntity
  8
중심선
100
AcDbLine
 10
0.1404042013395286
 20
13.71084872107135
 30
0.0
 11
3.58671253028996
 21
13.71088815037384
 31
0.0
  0
LINE
  5
8B
330
82
100
AcDbEntity
  8
중심선
100
AcDbLine
 10
2.750260043222114
 20
10.84717430164391
 30
0.0
 11
6.196535287059397
 21
10.84717430164391
 31
0.0
  0
LINE
  5
8C
330
82
100
AcDbEntity
  8
중심선
100
AcDbLine
 10
12.29416204261559
 20
16.24717430164393
 30
0.0
 11
5.245725140726316
 21
7.84717430164391
 31
0.0
  0
LINE
  5
8D
330
82
100
AcDbEntity
  8
중심선
100
AcDbLine
 10
10.72767329541681
 20
16.24717430164393
 30
0.0
 11
6.196535287059397
 21
10.84717430164391
 31
0.0
  0
LINE
  5
8E
330
82
100
AcDbEntity
  8
중심선
100
AcDbLine
 10
7.28139805157953
 20
16.24717430164393
 30
0.0
 11
2.750260043222114
 21
10.84717430164391
 31
0.0
  0
LINE
  5
8F
330
82
100
AcDbEntity
  8
중심선
100
AcDbLine
 10
5.714909304380834
 20
16.24717430164393
 30
0.0
 11
3.58671253028996
 21
13.71088815037384
 31
0.0
  0
LINE
  5
90
330
82
100
AcDbEntity
  8
중심선
100
AcDbLine
 10
2.268634060543552
 20
16.24717430164393
 30
0.0
 11
0.1404042013395286
 21
13.71084872107135
 31
0.0
  0
LINE
  5
91
330
82
100
AcDbEntity
  8
중심선
100
AcDbLine
 10
7.28139805157953
 20
16.24717430164393
 30
0.0
 11
10.72767329541681
 21
16.24717430164393
 31
0.0
  0
LINE
  5
92
330
82
100
AcDbEntity
  8
중심선
100
AcDbLine
 10
12.29416204261559
 20
16.24717430164393
 30
0.0
 11
15.74043728645272
 21
16.24717430164393
 31
0.0
  0
LINE
  5
93
330
82
100
AcDbEntity
  8
중심선
100
AcDbLine
 10
19.22036997980202
 20
11.08717430171403
 30
0.0
 11
23.66174974927406
 21
11.08717430171406
 31
0.0
  0
LINE
  5
94
330
82
100
AcDbEntity
  8
중심선
100
AcDbLine
 10
19.22039502424796
 20
13.00717430171391
 30
0.0
 11
19.22036997980202
 21
11.08717430171403
 31
0.0
  0
LINE
  5
95
330
82
100
AcDbEntity
  8
중심선
100
AcDbLine
 10
19.22039502424796
 20
13.00717430171391
 30
0.0
 11
26.96566020931264
 21
13.00717430171391
 31
0.0
  0
LINE
  5
96
330
82
100
AcDbEntity
  8
중심선
100
AcDbLine
 10
22.22332737316547
 20
13.45928029700563
 30
0.0
 11
24.52862924686651
 21
15.39360700705356
 31
0.0
  0
ATTDEF
  5
98
330
82
100
AcDbEntity
  8
FORMAT
 62
     2
100
AcDbText
 10
-16.11926103943555
 20
2.075366912832191
 30
0.0
 40
4.233333333333333
  1
SEME7220070E [ 4 FLUTE ]
 41
0.75
  7
SLDTEXTSTYLE0
 11
-16.11926103943555
 21
-0.0412997538344756
 31
0.0
100
AcDbAttributeDefinition
  3

  2
AUTOATTR0
 70
     0
 74
     1
  0
ENDBLK
  5
84
330
82
100
AcDbEntity
  8
0
100
AcDbBlockEnd
  0
BLOCK
  5
DC
330
DB
100
AcDbEntity
  8
0
100
AcDbBlockBegin
  2
_D
 70
     0
 10
0.0
 20
0.0
 30
0.0
  3
_D
  1

  0
LINE
  5
DE
330
DB
100
AcDbEntity
  8
치수문자_일반주서
 62
     0
370
    -2
100
AcDbLine
 10
82.06250000000001
 20
-10.00000000000001
 30
0.0
 11
97.63556267864415
 21
-9.999999999999957
 31
0.0
  0
LINE
  5
DF
330
DB
100
AcDbEntity
  8
치수문자_일반주서
 62
     0
370
    -2
100
AcDbLine
 10
82.06250000000001
 20
10.00000000000001
 30
0.0
 11
97.63556267864408
 21
10.00000000000006
 31
0.0
  0
LINE
  5
E0
330
DB
100
AcDbEntity
  8
치수문자_일반주서
 62
     0
370
    -2
100
AcDbLine
 10
97.63556267864415
 20
-9.999999999999957
 30
0.0
 11
97.63556267864402
 21
24.91650000000007
 31
0.0
  0
LINE
  5
E1
330
DB
100
AcDbEntity
  8
치수문자_일반주서
 62
     0
370
    -2
100
AcDbLine
 10
97.63556267864415
 20
-9.999999999999957
 30
0.0
 11
97.63556267864408
 21
10.00000000000006
 31
0.0
  0
LINE
  5
E2
330
DB
100
AcDbEntity
  8
치수문자_일반주서
 62
     0
370
    -2
100
AcDbLine
 10
97.63556267864416
 20
-13.30199999999996
 30
0.0
 11
97.63556267864418
 21
-16.60399999999996
 31
0.0
  0
LINE
  5
E3
330
DB
100
AcDbEntity
  8
치수문자_일반주서
 62
     0
370
    -2
100
AcDbLine
 10
97.63556267864406
 20
13.30200000000006
 30
0.0
 11
97.63556267864405
 21
16.60400000000006
 31
0.0
  0
SOLID
  5
E4
330
DB
100
AcDbEntity
  8
치수문자_일반주서
 62
     0
100
AcDbTrace
 10
98.18589601197749
 20
-13.30199999999996
 30
0.0
 11
97.08522934531084
 21
-13.30199999999996
 31
0.0
 12
97.63556267864415
 22
-9.999999999999957
 32
0.0
 13
97.63556267864415
 23
-9.999999999999957
 33
0.0
  0
SOLID
  5
E5
330
DB
100
AcDbEntity
  8
치수문자_일반주서
 62
     0
100
AcDbTrace
 10
97.08522934531074
 20
13.30200000000006
 30
0.0
 11
98.18589601197739
 21
13.30200000000006
 31
0.0
 12
97.63556267864408
 22
10.00000000000006
 32
0.0
 13
97.63556267864408
 23
10.00000000000006
 33
0.0
  0
MTEXT
  5
E6
330
DB
100
AcDbEntity
  8
치수문자_일반주서
 62
     0
100
AcDbMText
 10
93.26056267864404
 20
20.76025000000005
 30
0.0
 40
3.5
 41
0.0
 71
     2
 72
     1
  1
\A1;%%c20
  7
SLDTEXTSTYLE0
 11
-3.552713678800497E-15
 21
1.0
 31
0.0
 73
     1
 44
1.0
  0
POINT
  5
13F
330
DB
100
AcDbEntity
  8
Defpoints
 62
     0
100
AcDbPoint
 10
82.00000000000001
 20
-10.00000000000001
 30
0.0
  0
POINT
  5
140
330
DB
100
AcDbEntity
  8
Defpoints
 62
     0
100
AcDbPoint
 10
82.00000000000001
 20
10.00000000000001
 30
0.0
  0
POINT
  5
141
330
DB
100
AcDbEntity
  8
Defpoints
 62
     0
100
AcDbPoint
 10
97.63556267864406
 20
10.00000000000006
 30
0.0
  0
ENDBLK
  5
DD
330
DB
100
AcDbEntity
  8
0
100
AcDbBlockEnd
  0
BLOCK
  5
EA
330
E9
100
AcDbEntity
  8
0
100
AcDbBlockBegin
  2
_D_1
 70
     0
 10
0.0
 20
0.0
 30
0.0
  3
_D_1
  1

  0
LINE
  5
EC
330
E9
100
AcDbEntity
  8
치수문자_일반주서
 62
     0
370
    -2
100
AcDbLine
 10
-48.0
 20
9.562499999999991
 30
0.0
 11
-47.99999999999999
 21
27.38913260158164
 31
0.0
  0
LINE
  5
ED
330
E9
100
AcDbEntity
  8
치수문자_일반주서
 62
     0
370
    -2
100
AcDbLine
 10
82.00000000000001
 20
10.06250000000001
 30
0.0
 11
82.00000000000003
 21
27.38913260158164
 31
0.0
  0
LINE
  5
EE
330
E9
100
AcDbEntity
  8
치수문자_일반주서
 62
     0
370
    -2
100
AcDbLine
 10
-44.69799999999999
 20
27.38913260158164
 30
0.0
 11
78.69800000000004
 21
27.38913260158164
 31
0.0
  0
SOLID
  5
EF
330
E9
100
AcDbEntity
  8
치수문자_일반주서
 62
     0
100
AcDbTrace
 10
-44.69799999999999
 20
27.93946593491498
 30
0.0
 11
-44.69799999999999
 21
26.83879926824831
 31
0.0
 12
-47.99999999999999
 22
27.38913260158164
 32
0.0
 13
-47.99999999999999
 23
27.38913260158164
 33
0.0
  0
SOLID
  5
F0
330
E9
100
AcDbEntity
  8
치수문자_일반주서
 62
     0
100
AcDbTrace
 10
78.69800000000004
 20
26.83879926824831
 30
0.0
 11
78.69800000000004
 21
27.93946593491498
 31
0.0
 12
82.00000000000003
 22
27.38913260158164
 32
0.0
 13
82.00000000000003
 23
27.38913260158164
 33
0.0
  0
MTEXT
  5
F1
330
E9
100
AcDbEntity
  8
치수문자_일반주서
 62
     0
100
AcDbMText
 10
17.0
 20
31.76413260158164
 30
0.0
 40
3.5
 41
0.0
 71
     2
 72
     1
  1
\A1;130
  7
SLDTEXTSTYLE0
 73
     1
 44
1.0
  0
POINT
  5
136
330
E9
100
AcDbEntity
  8
Defpoints
 62
     0
100
AcDbPoint
 10
-48.0
 20
9.499999999999991
 30
0.0
  0
POINT
  5
137
330
E9
100
AcDbEntity
  8
Defpoints
 62
     0
100
AcDbPoint
 10
82.00000000000001
 20
10.00000000000001
 30
0.0
  0
POINT
  5
138
330
E9
100
AcDbEntity
  8
Defpoints
 62
     0
100
AcDbPoint
 10
82.00000000000001
 20
27.38913260158164
 30
0.0
  0
ENDBLK
  5
EB
330
E9
100
AcDbEntity
  8
0
100
AcDbBlockEnd
  0
BLOCK
  5
F5
330
F4
100
AcDbEntity
  8
0
100
AcDbBlockBegin
  2
_D_2
 70
     0
 10
0.0
 20
0.0
 30
0.0
  3
_D_2
  1

  0
LINE
  5
F7
330
F4
100
AcDbEntity
  8
치수문자_일반주서
 62
     0
370
    -2
100
AcDbLine
 10
-47.56249999999999
 20
10.00000000000001
 30
0.0
 11
-62.19009034755384
 21
9.99999999999995
 31
0.0
  0
LINE
  5
F8
330
F4
100
AcDbEntity
  8
치수문자_일반주서
 62
     0
370
    -2
100
AcDbLine
 10
-47.56249999999999
 20
-10.00000000000001
 30
0.0
 11
-62.19009034755377
 21
-10.00000000000007
 31
0.0
  0
LINE
  5
F9
330
F4
100
AcDbEntity
  8
치수문자_일반주서
 62
     0
370
    -2
100
AcDbLine
 10
-62.19009034755384
 20
9.99999999999995
 30
0.0
 11
-62.19009034755389
 21
24.91649999999995
 31
0.0
  0
LINE
  5
FA
330
F4
100
AcDbEntity
  8
치수문자_일반주서
 62
     0
370
    -2
100
AcDbLine
 10
-62.19009034755384
 20
9.99999999999995
 30
0.0
 11
-62.19009034755377
 21
-10.00000000000007
 31
0.0
  0
LINE
  5
FB
330
F4
100
AcDbEntity
  8
치수문자_일반주서
 62
     0
370
    -2
100
AcDbLine
 10
-62.19009034755386
 20
13.30199999999995
 30
0.0
 11
-62.19009034755387
 21
16.60399999999995
 31
0.0
  0
LINE
  5
FC
330
F4
100
AcDbEntity
  8
치수문자_일반주서
 62
     0
370
    -2
100
AcDbLine
 10
-62.19009034755376
 20
-13.30200000000007
 30
0.0
 11
-62.19009034755374
 21
-16.60400000000007
 31
0.0
  0
SOLID
  5
FD
330
F4
100
AcDbEntity
  8
치수문자_일반주서
 62
     0
100
AcDbTrace
 10
-62.74042368088719
 20
13.30199999999995
 30
0.0
 11
-61.63975701422052
 21
13.30199999999995
 31
0.0
 12
-62.19009034755384
 22
9.99999999999995
 32
0.0
 13
-62.19009034755384
 23
9.99999999999995
 33
0.0
  0
SOLID
  5
FE
330
F4
100
AcDbEntity
  8
치수문자_일반주서
 62
     0
100
AcDbTrace
 10
-61.63975701422042
 20
-13.30200000000007
 30
0.0
 11
-62.74042368088709
 21
-13.30200000000007
 31
0.0
 12
-62.19009034755377
 22
-10.00000000000007
 32
0.0
 13
-62.19009034755377
 23
-10.00000000000007
 33
0.0
  0
MTEXT
  5
FF
330
F4
100
AcDbEntity
  8
치수문자_일반주서
 62
     0
100
AcDbMText
 10
-66.56509034755388
 20
20.76024999999993
 30
0.0
 40
3.5
 41
0.0
 71
     2
 72
     1
  1
\A1;%%c20
  7
SLDTEXTSTYLE0
 11
-3.552713678800498E-15
 21
1.0
 31
0.0
 73
     1
 44
1.0
  0
POINT
  5
13C
330
F4
100
AcDbEntity
  8
Defpoints
 62
     0
100
AcDbPoint
 10
-47.49999999999999
 20
10.00000000000001
 30
0.0
  0
POINT
  5
13D
330
F4
100
AcDbEntity
  8
Defpoints
 62
     0
100
AcDbPoint
 10
-47.49999999999999
 20
-10.00000000000001
 30
0.0
  0
POINT
  5
13E
330
F4
100
AcDbEntity
  8
Defpoints
 62
     0
100
AcDbPoint
 10
-62.19009034755376
 20
-10.00000000000007
 30
0.0
  0
ENDBLK
  5
F6
330
F4
100
AcDbEntity
  8
0
100
AcDbBlockEnd
  0
BLOCK
  5
102
330
101
100
AcDbEntity
  8
0
100
AcDbBlockBegin
  2
_D_3
 70
     0
 10
0.0
 20
0.0
 30
0.0
  3
_D_3
  1

  0
LINE
  5
104
330
101
100
AcDbEntity
  8
치수문자_일반주서
 62
     0
370
    -2
100
AcDbLine
 10
12.0
 20
9.077155156397906
 30
0.0
 11
12.0
 21
19.86057345898555
 31
0.0
  0
LINE
  5
105
330
101
100
AcDbEntity
  8
치수문자_일반주서
 62
     0
370
    -2
100
AcDbLine
 10
82.00000000000001
 20
10.06250000000001
 30
0.0
 11
82.00000000000001
 21
19.86057345898555
 31
0.0
  0
LINE
  5
106
330
101
100
AcDbEntity
  8
치수문자_일반주서
 62
     0
370
    -2
100
AcDbLine
 10
15.302
 20
19.86057345898555
 30
0.0
 11
78.69800000000001
 21
19.86057345898555
 31
0.0
  0
SOLID
  5
107
330
101
100
AcDbEntity
  8
치수문자_일반주서
 62
     0
100
AcDbTrace
 10
15.302
 20
20.41090679231889
 30
0.0
 11
15.302
 21
19.31024012565222
 31
0.0
 12
12.0
 22
19.86057345898555
 32
0.0
 13
12.0
 23
19.86057345898555
 33
0.0
  0
SOLID
  5
108
330
101
100
AcDbEntity
  8
치수문자_일반주서
 62
     0
100
AcDbTrace
 10
78.69800000000001
 20
19.31024012565222
 30
0.0
 11
78.69800000000001
 21
20.41090679231889
 31
0.0
 12
82.00000000000001
 22
19.86057345898555
 32
0.0
 13
82.00000000000001
 23
19.86057345898555
 33
0.0
  0
MTEXT
  5
109
330
101
100
AcDbEntity
  8
치수문자_일반주서
 62
     0
100
AcDbMText
 10
47.00000000000001
 20
24.23557345898555
 30
0.0
 40
3.5
 41
0.0
 71
     2
 72
     1
  1
\A1;70
  7
SLDTEXTSTYLE0
 73
     1
 44
1.0
  0
POINT
  5
139
330
101
100
AcDbEntity
  8
Defpoints
 62
     0
100
AcDbPoint
 10
12.0
 20
9.014655156397906
 30
0.0
  0
POINT
  5
13A
330
101
100
AcDbEntity
  8
Defpoints
 62
     0
100
AcDbPoint
 10
82.00000000000001
 20
10.00000000000001
 30
0.0
  0
POINT
  5
13B
330
101
100
AcDbEntity
  8
Defpoints
 62
     0
100
AcDbPoint
 10
82.00000000000001
 20
19.86057345898555
 30
0.0
  0
ENDBLK
  5
103
330
101
100
AcDbEntity
  8
0
100
AcDbBlockEnd
  0
BLOCK
  5
10B
330
10A
100
AcDbEntity
  8
0
100
AcDbBlockBegin
  2
SW_DOWELSYMBOL_0
 70
     0
 10
0.0
 20
0.0
 30
0.0
  3
SW_DOWELSYMBOL_0
  1

  0
CIRCLE
  5
10D
330
10A
100
AcDbEntity
  8
해칭선
 62
     0
100
AcDbCircle
 10
0.0
 20
0.0
 30
0.0
 40
3.0
  0
HATCH
  5
10E
330
10A
100
AcDbEntity
  8
0
  6
Continuous
 62
     0
370
    18
100
AcDbHatch
 10
0.0
 20
0.0
 30
0.0
210
0.0
220
0.0
230
1.0
  2
SOLID
 70
     1
 71
     0
 91
        1
 92
        0
 93
        3
 72
     2
 10
0.0
 20
0.0
 40
3.0
 50
0.0
 51
90.0
 73
     1
 72
     1
 10
0.0
 20
3.0
 11
0.0
 21
0.0
 72
     1
 10
0.0
 20
0.0
 11
3.0
 21
0.0
 97
        0
 75
     0
 76
     1
 98
        1
 10
0.0
 20
0.0
  0
HATCH
  5
10F
330
10A
100
AcDbEntity
  8
0
  6
Continuous
 62
     0
370
    18
100
AcDbHatch
 10
0.0
 20
0.0
 30
0.0
210
0.0
220
0.0
230
1.0
  2
SOLID
 70
     1
 71
     0
 91
        1
 92
        0
 93
        3
 72
     2
 10
0.0
 20
0.0
 40
3.0
 50
180.0
 51
270.0000000000008
 73
     1
 72
     1
 10
0.0
 20
-3.0
 11
0.0
 21
0.0
 72
     1
 10
0.0
 20
0.0
 11
-3.0
 21
0.0
 97
        0
 75
     0
 76
     1
 98
        1
 10
0.0
 20
0.0
  0
ENDBLK
  5
10C
330
10A
100
AcDbEntity
  8
0
100
AcDbBlockEnd
  0
ENDSEC
  0
SECTION
  2
ENTITIES
  0
LINE
  5
99
330
1F
100
AcDbEntity
  8
0
  6
Continuous
 62
     4
370
    25
100
AcDbLine
 10
10.50015140288136
 20
9.999999999999998
 30
0.0
 11
-47.5
 21
9.999999999999995
 31
0.0
  0
LINE
  5
9A
330
1F
100
AcDbEntity
  8
0
  6
Continuous
 62
     4
370
    25
100
AcDbLine
 10
-47.5
 20
-10.00000000000001
 30
0.0
 11
10.50015140288136
 21
-10.0
 31
0.0
  0
LINE
  5
9B
330
1F
100
AcDbEntity
  8
0
  6
Continuous
 62
     4
370
    25
100
AcDbLine
 10
-47.5
 20
9.999999999999991
 30
0.0
 11
-48.0
 21
9.499999999999991
 31
0.0
  0
LINE
  5
9C
330
1F
100
AcDbEntity
  8
0
  6
Continuous
 62
     4
370
    25
100
AcDbLine
 10
-48.0
 20
-9.500000000000005
 30
0.0
 11
-47.5
 21
-10.0
 31
0.0
  0
LINE
  5
9D
330
1F
100
AcDbEntity
  8
0
  6
Continuous
 62
     1
370
    25
100
AcDbLine
 10
78.13242712028118
 20
-10.00000000000001
 30
0.0
 11
82.00000000000001
 21
-10.00000000000001
 31
0.0
  0
LINE
  5
9E
330
1F
100
AcDbEntity
  8
0
  6
Continuous
 62
     1
370
    25
100
AcDbLine
 10
31.45306919546723
 20
10.0
 30
0.0
 11
23.71878402483556
 21
10.0
 31
0.0
  0
LINE
  5
9F
330
1F
100
AcDbEntity
  8
0
  6
Continuous
 62
     1
370
    25
100
AcDbLine
 10
50.92357939509506
 20
-10.00000000000001
 30
0.0
 11
58.66040131931563
 21
-10.00000000000001
 31
0.0
  0
LINE
  5
A0
330
1F
100
AcDbEntity
  8
0
  6
Continuous
 62
     1
370
    25
100
AcDbLine
 10
58.66040131931563
 20
10.0
 30
0.0
 11
50.92357939509526
 21
10.0
 31
0.0
  0
LINE
  5
A1
330
1F
100
AcDbEntity
  8
0
  6
Continuous
 62
     1
370
    25
100
AcDbLine
 10
23.71878402483559
 20
-10.00000000000001
 30
0.0
 11
31.45306919546718
 21
-10.00000000000001
 31
0.0
  0
LINE
  5
A2
330
1F
100
AcDbEntity
  8
0
  6
Continuous
 62
     1
370
    25
100
AcDbLine
 10
82.00000000000001
 20
10.0
 30
0.0
 11
78.13242712028112
 21
10.0
 31
0.0
  0
SPLINE
  5
A3
330
1F
100
AcDbEntity
  8
0
  6
Continuous
 62
     4
370
    25
100
AcDbSpline
210
0.0
220
0.0
230
1.0
 70
     8
 71
     3
 72
    14
 73
    10
 74
     0
 42
0.000000001
 43
0.00000001
 40
0.0
 40
0.0
 40
0.0
 40
0.0
 40
0.25
 40
0.25
 40
0.5
 40
0.5
 40
0.75
 40
0.75
 40
1.0
 40
1.0
 40
1.0
 40
1.0
 10
11.50603703352456
 20
-4.069185409244565
 30
0.0
 10
11.34850426287092
 20
-3.985900208033602
 30
0.0
 10
11.20696693183734
 20
-3.884559575630826
 30
0.0
 10
10.95493968396591
 20
-3.6453546616635
 30
0.0
 10
10.84637243394773
 20
-3.508161510391072
 30
0.0
 10
10.67333767762448
 20
-3.211675564045811
 30
0.0
 10
10.60712083023292
 20
-3.048841444570168
 30
0.0
 10
10.52120083732759
 20
-2.714761930095807
 30
0.0
 10
10.50015140288136
 20
-2.540380985229572
 30
0.0
 10
10.50015140288136
 20
-2.363712134570839
 30
0.0
  0
SPLINE
  5
A4
330
1F
100
AcDbEntity
  8
0
  6
Continuous
 62
     4
370
    25
100
AcDbSpline
210
0.0
220
0.0
230
1.0
 70
     8
 71
     3
 72
     8
 73
     4
 74
     0
 42
0.000000001
 43
0.00000001
 40
0.0
 40
0.0
 40
0.0
 40
0.0
 40
1.0
 40
1.0
 40
1.0
 40
1.0
 10
12.0
 20
-4.328509259689522
 30
0.0
 10
11.83508617957252
 20
-4.242600256812466
 30
0.0
 10
11.67056829189941
 20
-4.15617060541921
 30
0.0
 10
11.50603703352456
 20
-4.069185409244565
 30
0.0
  0
LINE
  5
A5
330
1F
100
AcDbEntity
  8
0
  6
Continuous
 62
     4
370
    25
100
AcDbLine
 10
12.0
 20
-4.328509259689523
 30
0.0
 11
12.0
 21
-8.193266929794854
 31
0.0
  0
SPLINE
  5
A6
330
1F
100
AcDbEntity
  8
0
  6
Continuous
 62
     4
370
    25
100
AcDbSpline
210
0.0
220
0.0
230
1.0
 70
     8
 71
     3
 72
    16
 73
    12
 74
     0
 42
0.000000001
 43
0.00000001
 40
0.0
 40
0.0
 40
0.0
 40
0.0
 40
0.2500000000000006
 40
0.2500000000000006
 40
0.5000000000000011
 40
0.5000000000000011
 40
0.6250000000000009
 40
0.6250000000000009
 40
0.7500000000000008
 40
0.7500000000000008
 40
1.0
 40
1.0
 40
1.0
 40
1.0
 10
10.50015140288136
 20
-9.171915480693228
 30
0.0
 10
10.50015140288136
 20
-9.08150223245921
 30
0.0
 10
10.53205198076693
 20
-8.986141898517122
 30
0.0
 10
10.66755896095428
 20
-8.788019338278541
 30
0.0
 10
10.76855983398479
 20
-8.689577839227189
 30
0.0
 10
10.96922846732301
 20
-8.550278075434337
 30
0.0
 10
11.04434164074766
 20
-8.505431344029423
 30
0.0
 10
11.2058408089316
 20
-8.422675354231087
 30
0.0
 10
11.29284205971986
 20
-8.384308868293521
 30
0.0
 10
11.57305916357047
 20
-8.279677473685565
 30
0.0
 10
11.78007471872376
 20
-8.226066872470618
 30
0.0
 10
11.99999999999999
 20
-8.193266929794843
 30
0.0
  0
LINE
  5
A7
330
1F
100
AcDbEntity
  8
0
  6
Continuous
 62
     4
370
    25
100
AcDbLine
 10
10.50015140288136
 20
-9.171915480693231
 30
0.0
 11
10.50015140288136
 21
-10.0
 31
0.0
  0
SPLINE
  5
A8
330
1F
100
AcDbEntity
  8
0
  6
Continuous
 62
     4
370
    25
100
AcDbSpline
210
0.0
220
0.0
230
1.0
 70
     8
 71
     3
 72
    14
 73
    10
 74
     0
 42
0.000000001
 43
0.00000001
 40
0.0
 40
0.0
 40
0.0
 40
0.0
 40
0.25
 40
0.25
 40
0.5
 40
0.5
 40
0.75
 40
0.75
 40
1.0
 40
1.0
 40
1.0
 40
1.0
 10
11.50603703352456
 20
-9.134644498016566
 30
0.0
 10
11.34850426287092
 20
-9.171745331622871
 30
0.0
 10
11.20696693183734
 20
-9.21557725962148
 30
0.0
 10
10.95493968396591
 20
-9.312789953358006
 30
0.0
 10
10.84637243394773
 20
-9.365766139737115
 30
0.0
 10
10.67333767762448
 20
-9.4715316944276
 30
0.0
 10
10.60712083023292
 20
-9.525491862322461
 30
0.0
 10
10.52120083732759
 20
-9.626032258215352
 30
0.0
 10
10.50015140288136
 20
-9.673650985007484
 30
0.0
 10
10.50015140288136
 20
-9.71662827038696
 30
0.0
  0
SPLINE
  5
A9
330
1F
100
AcDbEntity
  8
0
  6
Continuous
 62
     4
370
    25
100
AcDbSpline
210
0.0
220
0.0
230
1.0
 70
     8
 71
     3
 72
     8
 73
     4
 74
     0
 42
0.000000001
 43
0.00000001
 40
0.0
 40
0.0
 40
0.0
 40
0.0
 40
1.0
 40
1.0
 40
1.0
 40
1.0
 10
12.0
 20
-9.01465515639591
 30
0.0
 10
11.83508617957252
 20
-9.05590553236622
 30
0.0
 10
11.67056829189941
 20
-9.095895437648542
 30
0.0
 10
11.50603703352456
 20
-9.134644498016574
 30
0.0
  0
LINE
  5
AA
330
1F
100
AcDbEntity
  8
0
  6
Continuous
 62
     4
370
    25
100
AcDbLine
 10
10.50015140288136
 20
9.999999999999998
 30
0.0
 11
10.50015140288136
 21
9.716628270386957
 31
0.0
  0
SPLINE
  5
AB
330
1F
100
AcDbEntity
  8
0
  6
Continuous
 62
     4
370
    25
100
AcDbSpline
210
0.0
220
0.0
230
1.0
 70
     8
 71
     3
 72
    14
 73
    10
 74
     0
 42
0.000000001
 43
0.00000001
 40
0.0
 40
0.0
 40
0.0
 40
0.0
 40
0.25
 40
0.25
 40
0.5
 40
0.5
 40
0.75
 40
0.75
 40
1.0
 40
1.0
 40
1.0
 40
1.0
 10
11.50603703352456
 20
9.134644498016563
 30
0.0
 10
11.34850426287092
 20
9.171745331622864
 30
0.0
 10
11.20696693183733
 20
9.215577259621476
 30
0.0
 10
10.95493968396591
 20
9.312789953358003
 30
0.0
 10
10.84637243394773
 20
9.365766139737108
 30
0.0
 10
10.67333767762448
 20
9.471531694427593
 30
0.0
 10
10.60712083023292
 20
9.525491862322454
 30
0.0
 10
10.52120083732759
 20
9.626032258215348
 30
0.0
 10
10.50015140288136
 20
9.67365098500748
 30
0.0
 10
10.50015140288136
 20
9.716628270386957
 30
0.0
  0
SPLINE
  5
AC
330
1F
100
AcDbEntity
  8
0
  6
Continuous
 62
     4
370
    25
100
AcDbSpline
210
0.0
220
0.0
230
1.0
 70
     8
 71
     3
 72
     8
 73
     4
 74
     0
 42
0.000000001
 43
0.00000001
 40
0.0
 40
0.0
 40
0.0
 40
0.0
 40
1.0
 40
1.0
 40
1.0
 40
1.0
 10
12.0
 20
9.014655156395907
 30
0.0
 10
11.83508617957252
 20
9.055905532366216
 30
0.0
 10
11.67056829189941
 20
9.095895437648538
 30
0.0
 10
11.50603703352456
 20
9.134644498016566
 30
0.0
  0
LINE
  5
AD
330
1F
100
AcDbEntity
  8
0
  6
Continuous
 62
     4
370
    25
100
AcDbLine
 10
12.0
 20
9.014655156395907
 30
0.0
 11
12.0
 21
5.733269313151882
 31
0.0
  0
SPLINE
  5
AE
330
1F
100
AcDbEntity
  8
0
  6
Continuous
 62
     4
370
    25
100
AcDbSpline
210
0.0
220
0.0
230
1.0
 70
     8
 71
     3
 72
    16
 73
    12
 74
     0
 42
0.000000001
 43
0.00000001
 40
0.0
 40
0.0
 40
0.0
 40
0.0
 40
0.25
 40
0.25
 40
0.5
 40
0.5
 40
0.625
 40
0.625
 40
0.75
 40
0.75
 40
1.0
 40
1.0
 40
1.0
 40
1.0
 10
10.50015140288136
 20
3.984465637324424
 30
0.0
 10
10.50015140288136
 20
4.192589573284424
 30
0.0
 10
10.53205198076692
 20
4.392714307958636
 30
0.0
 10
10.66755896095427
 20
4.776756359881854
 30
0.0
 10
10.76855983398479
 20
4.952199936068825
 30
0.0
 10
10.96922846732301
 20
5.186618034947591
 30
0.0
 10
11.04434164074766
 20
5.259626874026492
 30
0.0
 10
11.2058408089316
 20
5.391157304253709
 30
0.0
 10
11.29284205971986
 20
5.450447788415764
 30
0.0
 10
11.57305916357047
 20
5.609189433822875
 30
0.0
 10
11.78007471872375
 20
5.686395763184845
 30
0.0
 10
11.99999999999999
 20
5.733269313151897
 30
0.0
  0
LINE
  5
AF
330
1F
100
AcDbEntity
  8
0
  6
Continuous
 62
     4
370
    25
100
AcDbLine
 10
-47.5
 20
9.999999999999991
 30
0.0
 11
-47.5
 21
-10.0
 31
0.0
  0
LINE
  5
B0
330
1F
100
AcDbEntity
  8
0
  6
Continuous
 62
     4
370
    25
100
AcDbLine
 10
10.50015140288136
 20
3.984465637324424
 30
0.0
 11
10.50015140288136
 21
-2.363712134570839
 31
0.0
  0
LINE
  5
B1
330
1F
100
AcDbEntity
  8
0
  6
Continuous
 62
     4
370
    25
100
AcDbLine
 10
-48.0
 20
9.499999999999991
 30
0.0
 11
-48.0
 21
-9.500000000000005
 31
0.0
  0
SPLINE
  5
B2
330
1F
100
AcDbEntity
  8
0
  6
Continuous
 62
     4
370
    25
100
AcDbSpline
210
0.0
220
0.0
230
1.0
 70
    24
 71
     3
 72
    18
 73
    14
 74
     0
 42
0.000000001
 43
0.00000001
 40
0.0
 40
0.0
 40
0.0
 40
0.0
 40
0.2499999999999999
 40
0.2499999999999999
 40
0.4999999999999998
 40
0.4999999999999998
 40
0.6249999999999998
 40
0.6249999999999998
 40
0.7499999999999999
 40
0.7499999999999999
 40
0.8749999999999999
 40
0.8749999999999999
 40
1.0
 40
1.0
 40
1.0
 40
1.0
 10
12.0
 20
5.733269313151882
 30
0.0
 10
12.0
 20
5.278085434212386
 30
0.0
 10
12.0
 20
4.759190120506462
 30
0.0
 10
12.0
 20
3.586210497741791
 30
0.0
 10
12.0
 20
2.962257396683824
 30
0.0
 10
12.0
 20
1.967190432498042
 30
0.0
 10
12.0
 20
1.627545673036219
 30
0.0
 10
12.0
 20
0.9546802739888197
 30
0.0
 10
12.0
 20
0.618317438274893
 30
0.0
 10
12.0
 20
-0.0542649897595332
 30
0.0
 10
12.0
 20
-0.390150305104745
 30
0.0
 10
12.0
 20
-1.037322946299379
 30
0.0
 10
12.0
 20
-1.351816807983446
 30
0.0
 10
12.0
 20
-1.657212953907331
 30
0.0
  0
SPLINE
  5
B3
330
1F
100
AcDbEntity
  8
0
  6
Continuous
 62
     4
370
    25
100
AcDbSpline
210
0.0
220
0.0
230
1.0
 70
    24
 71
     3
 72
    10
 73
     6
 74
     0
 42
0.000000001
 43
0.00000001
 40
0.0
 40
0.0
 40
0.0
 40
0.0
 40
0.5
 40
0.5
 40
1.0
 40
1.0
 40
1.0
 40
1.0
 10
12.0
 20
-1.657212953907767
 30
0.0
 10
12.0
 20
-2.175585135746449
 30
0.0
 10
12.0
 20
-2.67573593053048
 30
0.0
 10
12.0
 20
-3.583304216954022
 30
0.0
 10
12.0
 20
-3.990102015592605
 30
0.0
 10
12.0
 20
-4.32850925968952
 30
0.0
  0
SPLINE
  5
B4
330
1F
100
AcDbEntity
  8
0
  6
Continuous
 62
     4
370
    25
100
AcDbSpline
210
0.0
220
0.0
230
1.0
 70
    24
 71
     3
 72
     9
 73
     5
 74
     0
 42
0.000000001
 43
0.00000001
 40
0.0
 40
0.0
 40
0.0
 40
0.0
 40
0.0441144980019055
 40
1.0
 40
1.0
 40
1.0
 40
1.0
 10
12.0
 20
-8.284226595340384
 30
0.0
 10
12.0
 20
-8.293649938729903
 30
0.0
 10
12.0
 20
-8.507260969486973
 30
0.0
 10
12.0
 20
-8.766680136094934
 30
0.0
 10
12.0
 20
-9.01465515639591
 30
0.0
  0
SPLINE
  5
B5
330
1F
100
AcDbEntity
  8
0
  6
Continuous
 62
     1
370
    25
100
AcDbSpline
210
0.0
220
0.0
230
1.0
 70
     8
 71
     3
 72
    31
 73
    27
 74
     0
 42
0.000000001
 43
0.00000001
 40
0.0
 40
0.0
 40
0.0
 40
0.0
 40
0.0168035758023304
 40
0.0647572069344583
 40
0.1127123004567925
 40
0.160668273698104
 40
0.2086228877763716
 40
0.2565760798442176
 40
0.3045279769339009
 40
0.3484847225158464
 40
0.392434264093482
 40
0.4363802190194326
 40
0.4803262129086545
 40
0.5242758712863091
 40
0.568232811236075
 40
0.6122006330895636
 40
0.6561727900237789
 40
0.7001332617372759
 40
0.7440851437140369
 40
0.7880320479190411
 40
0.8319775977797721
 40
0.8734130377066976
 40
0.9148634736387056
 40
0.9563318305627356
 40
0.9977825694661884
 40
1.0
 40
1.0
 40
1.0
 40
1.0
 10
13.99780637732704
 20
8.436427482905993
 30
0.0
 10
14.35705356789239
 20
8.554867337163222
 30
0.0
 10
15.74151155074841
 20
9.011307933001088
 30
0.0
 10
18.15122868563068
 20
9.526893260562439
 30
0.0
 10
21.22697960410737
 20
9.951908416677542
 30
0.0
 10
24.30277006992811
 20
10.04615865503637
 30
0.0
 10
27.37849796038636
 20
9.829277271705468
 30
0.0
 10
30.45410343436575
 20
9.302049468543672
 30
0.0
 10
33.44428989608969
 20
8.505374970923636
 30
0.0
 10
36.34862738200876
 20
7.490167692079415
 30
0.0
 10
39.16726024012645
 20
6.306809076487253
 30
0.0
 10
41.9856104306951
 20
4.956811179660733
 30
0.0
 10
44.8039650253595
 20
3.475809405498827
 30
0.0
 10
47.62260264637348
 20
1.902896021449996
 30
0.0
 10
50.44179433693627
 20
0.2795674166698292
 30
0.0
 10
53.26162940876574
 20
-1.351147036455477
 30
0.0
 10
56.08163958853063
 20
-2.946025858441159
 30
0.0
 10
58.90108123969749
 20
-4.463204498168205
 30
0.0
 10
61.7198964207625
 20
-5.862302254024497
 30
0.0
 10
64.53830599814916
 20
-7.106262523900133
 30
0.0
 10
67.30297103720919
 20
-8.142799088054296
 30
0.0
 10
70.0140656466728
 20
-8.955819076861836
 30
0.0
 10
72.67245429030284
 20
-9.549318478708674
 30
0.0
 10
75.33153559774073
 20
-9.891798934380642
 30
0.0
 10
77.15156968438075
 20
-10.03476906791742
 30
0.0
 10
78.08502699411842
 20
-9.99601495333773
 30
0.0
 10
78.13242712028115
 20
-9.994047054108446
 30
0.0
  0
SPLINE
  5
B6
330
1F
100
AcDbEntity
  8
0
  6
Continuous
 62
     1
370
    25
100
AcDbSpline
210
0.0
220
0.0
230
1.0
 70
     8
 71
     3
 72
    24
 73
    20
 74
     0
 42
0.000000001
 43
0.00000001
 40
0.0
 40
0.0
 40
0.0
 40
0.0
 40
0.0620429640262646
 40
0.1240853968089776
 40
0.1861273205281276
 40
0.2481687573977474
 40
0.310209729664447
 40
0.3722502596059412
 40
0.434290369529575
 40
0.4911639001355089
 40
0.5480302257330509
 40
0.604892207300532
 40
0.6617527131366125
 40
0.7186146140283682
 40
0.7754807784104758
 40
0.8323540675328129
 40
0.8892373306537288
 40
0.9461286972216647
 40
0.9999999999999999
 40
0.9999999999999999
 40
0.9999999999999999
 40
0.9999999999999999
 10
82.00000000000001
 20
-9.751656983552612
 30
0.0
 10
80.9545966980322
 20
-9.587144697419347
 30
0.0
 10
78.86379904537364
 20
-9.258121533791051
 30
0.0
 10
75.72762256834814
 20
-8.376488039855763
 30
0.0
 10
72.59147619905937
 20
-7.243897515710443
 30
0.0
 10
69.45536081941557
 20
-5.868358801761707
 30
0.0
 10
66.3192685173561
 20
-4.302613438927984
 30
0.0
 10
63.18322196787049
 20
-2.595789579112776
 30
0.0
 10
60.1341794354604
 20
-0.8538901449685188
 30
0.0
 10
57.17256338511942
 20
0.8618019770969315
 30
0.0
 10
54.29823047880134
 20
2.503485807040469
 30
0.0
 10
51.42416979872519
 20
4.076308899663917
 30
0.0
 10
48.55019625007152
 20
5.537080776153707
 30
0.0
 10
45.67613866130372
 20
6.845829416902565
 30
0.0
 10
42.80182273148488
 20
7.966062726845631
 30
0.0
 10
39.92707365476932
 20
8.869036669739497
 30
0.0
 10
37.05180376699784
 20
9.522265691407016
 30
0.0
 10
34.22697087393995
 20
9.928880690935879
 30
0.0
 10
32.36074150191706
 20
9.972092865878441
 30
0.0
 10
31.45306919546725
 20
9.993109840042939
 30
0.0
  0
LINE
  5
B7
330
1F
100
AcDbEntity
  8
0
  6
Continuous
 62
     1
370
    25
100
AcDbLine
 10
82.00000000000001
 20
-10.00000000000002
 30
0.0
 11
82.00000000000001
 21
-9.75165698355262
 31
0.0
  0
SPLINE
  5
B8
330
1F
100
AcDbEntity
  8
0
  6
Continuous
 62
     1
370
    25
100
AcDbSpline
210
0.0
220
0.0
230
1.0
 70
     8
 71
     3
 72
    22
 73
    18
 74
     0
 42
0.000000001
 43
0.00000001
 40
0.0
 40
0.0
 40
0.0
 40
0.0
 40
0.0204071053283242
 40
0.0918179781989341
 40
0.1632348057492418
 40
0.234663465627694
 40
0.3061098082611496
 40
0.3775631952659178
 40
0.4489975941505567
 40
0.5204180349802339
 40
0.5918303870856692
 40
0.6632405384237956
 40
0.7305718392112647
 40
0.7979275080404533
 40
0.8653122979241398
 40
0.9326684590725005
 40
1.0
 40
1.0
 40
1.0
 40
1.0
 10
41.18022801253527
 20
8.4361279577456
 30
0.0
 10
41.44868873692437
 20
8.525345785596727
 30
0.0
 10
42.65657787860562
 20
8.926764822779878
 30
0.0
 10
44.8039640540505
 20
9.41327178343683
 30
0.0
 10
47.62260290670727
 20
9.865134193392276
 30
0.0
 10
50.44179426709133
 20
10.03961569124684
 30
0.0
 10
53.26162942772669
 20
9.953159245495376
 30
0.0
 10
56.08163958254866
 20
9.60244397896004
 30
0.0
 10
58.90108124466714
 20
8.998166204916645
 30
0.0
 10
61.7198964068674
 20
8.156007245837301
 30
0.0
 10
64.53830604875444
 20
7.098349304099644
 30
0.0
 10
67.30297085323984
 20
5.876827668959187
 30
0.0
 10
70.01406628976827
 20
4.534374808366218
 30
0.0
 10
72.672451884138
 20
3.111658780163718
 30
0.0
 10
75.33154458152899
 20
1.616935035396358
 30
0.0
 10
77.98993522823503
 20
0.0812932954962167
 30
0.0
 10
79.76170637601798
 20
-0.9376841226177622
 30
0.0
 10
80.64743001457202
 20
-1.447079699752906
 30
0.0
  0
SPLINE
  5
B9
330
1F
100
AcDbEntity
  8
0
  6
Continuous
 62
     1
370
    25
100
AcDbSpline
210
0.0
220
0.0
230
1.0
 70
     8
 71
     3
 72
     8
 73
     4
 74
     0
 42
0.000000001
 43
0.00000001
 40
0.0
 40
0.0
 40
0.0
 40
0.0
 40
1.0
 40
1.0
 40
1.0
 40
1.0
 10
82.00000000000001
 20
-7.266081778456259
 30
0.0
 10
80.31587153796296
 20
-6.320024379565035
 30
0.0
 10
78.72553162703741
 20
-5.160603083795175
 30
0.0
 10
77.19539622185751
 20
-3.864219783566246
 30
0.0
  0
LINE
  5
BA
330
1F
100
AcDbEntity
  8
0
  6
Continuous
 62
     1
370
    25
100
AcDbLine
 10
82.00000000000001
 20
-9.75165698355262
 30
0.0
 11
82.00000000000001
 21
-7.266081778456255
 31
0.0
  0
SPLINE
  5
BB
330
1F
100
AcDbEntity
  8
0
  6
Continuous
 62
     1
370
    25
100
AcDbSpline
210
0.0
220
0.0
230
1.0
 70
    24
 71
     3
 72
    22
 73
    18
 74
     0
 42
0.000000001
 43
0.00000001
 40
0.0
 40
0.0
 40
0.0
 40
0.0
 40
0.2500000000000033
 40
0.2500000000000033
 40
0.3750000000000047
 40
0.3750000000000047
 40
0.500000000000006
 40
0.500000000000006
 40
0.5625000000000053
 40
0.5625000000000053
 40
0.6250000000000048
 40
0.6250000000000048
 40
0.7500000000000032
 40
0.7500000000000032
 40
0.8750000000000017
 40
0.8750000000000017
 40
1.0
 40
1.0
 40
1.0
 40
1.0
 10
80.64743001457202
 20
-1.447079699752907
 30
0.0
 10
80.64833007441125
 20
-1.446449471068624
 30
0.0
 10
80.58787192143812
 20
-1.488782725526657
 30
0.0
 10
80.37601742079481
 20
-1.637124843880742
 30
0.0
 10
80.28345551420595
 20
-1.701937388625344
 30
0.0
 10
80.05771133056524
 20
-1.860005167717579
 30
0.0
 10
79.9244379079399
 20
-1.953324222882905
 30
0.0
 10
79.69095893739484
 20
-2.116807958072026
 30
0.0
 10
79.60722578260929
 20
-2.175438544250959
 30
0.0
 10
79.43228580143277
 20
-2.297932837804999
 30
0.0
 10
79.34065279168861
 20
-2.362094961976603
 30
0.0
 10
79.05353353657313
 20
-2.563138028773607
 30
0.0
 10
78.84448072965391
 20
-2.70951838006235
 30
0.0
 10
78.39984449311731
 20
-3.02085602464647
 30
0.0
 10
78.16882063896723
 20
-3.182620668828627
 30
0.0
 10
77.69124356464535
 20
-3.517023736344951
 30
0.0
 10
77.44308936566178
 20
-3.690783177111666
 30
0.0
 10
77.19539622185754
 20
-3.86421978356628
 30
0.0
  0
SPLINE
  5
BC
330
1F
100
AcDbEntity
  8
0
  6
Continuous
 62
     1
370
    25
100
AcDbSpline
210
0.0
220
0.0
230
1.0
 70
     8
 71
     3
 72
    27
 73
    23
 74
     0
 42
0.000000001
 43
0.00000001
 40
0.0
 40
0.0
 40
0.0
 40
0.0
 40
0.0366043724782285
 40
0.0922214988966424
 40
0.1478382487839973
 40
0.1988233442458621
 40
0.2498019806742054
 40
0.3007767228342487
 40
0.3517501420536283
 40
0.4027248118907559
 40
0.4537033037952016
 40
0.5046881827756188
 40
0.5556820030906824
 40
0.6066830878575128
 40
0.6576753111203386
 40
0.7086589996248682
 40
0.7596367096321684
 40
0.8076940149112926
 40
0.8557523507098146
 40
0.9038204562550199
 40
0.9519070338211533
 40
1.0
 40
1.0
 40
1.0
 40
1.0
 10
68.38326432409283
 20
-8.433860296163415
 30
0.0
 10
67.69526385115135
 20
-8.64617288507307
 30
0.0
 10
65.96190713552944
 20
-9.181075790334479
 30
0.0
 10
63.18322219696262
 20
-9.707030998464699
 30
0.0
 10
60.13417937969798
 20
-10.01567277943947
 30
0.0
 10
57.17256339964527
 20
-10.00853955651434
 30
0.0
 10
54.29823047438762
 20
-9.729191396930608
 30
0.0
 10
51.42416980185596
 20
-9.181798680875326
 30
0.0
 10
48.55019624196197
 20
-8.382298762885318
 30
0.0
 10
45.67613869061298
 20
-7.352406316577623
 30
0.0
 10
42.80182262234307
 20
-6.120451603611865
 30
0.0
 10
39.92707406210916
 20
-4.720227369814094
 30
0.0
 10
37.05180224642153
 20
-3.190201287463153
 30
0.0
 10
34.17625505496567
 20
-1.572649535449359
 30
0.0
 10
31.30105558056254
 20
0.0882948764570043
 30
0.0
 10
28.42640221919102
 20
1.746694167704289
 30
0.0
 10
25.60690125080058
 20
3.326358581137666
 30
0.0
 10
22.84268614999277
 20
4.788895158859418
 30
0.0
 10
20.13307803878139
 20
6.106594144119434
 30
0.0
 10
17.42284319449228
 20
7.270953221556145
 30
0.0
 10
14.71167367630494
 20
8.27336603156742
 30
0.0
 10
12.90393125115421
 20
8.7675478396399
 30
0.0
 10
12.0
 20
9.014655156397906
 30
0.0
  0
SPLINE
  5
BD
330
1F
100
AcDbEntity
  8
0
  6
Continuous
 62
     1
370
    25
100
AcDbSpline
210
0.0
220
0.0
230
1.0
 70
     8
 71
     3
 72
    21
 73
    17
 74
     0
 42
0.000000001
 43
0.00000001
 40
0.0
 40
0.0
 40
0.0
 40
0.0
 40
0.0790123059885457
 40
0.1580268124637007
 40
0.2370437285591013
 40
0.3160620941914646
 40
0.3950782202937946
 40
0.4740920033107522
 40
0.553103652556858
 40
0.6255323816522949
 40
0.6979492405132619
 40
0.7703601895503828
 40
0.8427712027883488
 40
0.9151882541038945
 40
0.9876173034644924
 40
0.9999999999999999
 40
0.9999999999999999
 40
0.9999999999999999
 40
0.9999999999999999
 10
12.0
 20
6.260572837152796
 30
0.0
 10
13.02518169984315
 20
5.780010815812743
 30
0.0
 10
15.07557365076047
 20
4.818873389517525
 30
0.0
 10
18.15122818327455
 20
3.172896696219409
 30
0.0
 10
21.22697973865825
 20
1.441268334191694
 30
0.0
 10
24.30277003409855
 20
-0.3394468558243683
 30
0.0
 10
27.37849796915613
 20
-2.108500704068027
 30
0.0
 10
30.45410343511432
 20
-3.811483559363878
 30
0.0
 10
33.44428988467363
 20
-5.350644495730584
 30
0.0
 10
36.34862742265672
 20
-6.692015284756147
 30
0.0
 10
39.16726008745216
 20
-7.817645460685434
 30
0.0
 10
41.98561100070461
 20
-8.734861504121064
 30
0.0
 10
44.80396289789905
 20
-9.427725706631703
 30
0.0
 10
47.62261058747794
 20
-9.847210136668634
 30
0.0
 10
49.66249242850321
 20
-10.02786000634767
 30
0.0
 10
50.76291529927315
 20
-9.987188632681356
 30
0.0
 10
50.92357939509509
 20
-9.981250525023377
 30
0.0
  0
LINE
  5
BE
330
1F
100
AcDbEntity
  8
0
  6
Continuous
 62
     4
370
    25
100
AcDbLine
 10
12.0
 20
6.260572837152817
 30
0.0
 11
12.0
 21
9.014655156397906
 31
0.0
  0
SPLINE
  5
BF
330
1F
100
AcDbEntity
  8
0
  6
Continuous
 62
     1
370
    25
100
AcDbSpline
210
0.0
220
0.0
230
1.0
 70
     8
 71
     3
 72
    15
 73
    11
 74
     0
 42
0.000000001
 43
0.00000001
 40
0.0
 40
0.0
 40
0.0
 40
0.0
 40
0.134371763196948
 40
0.268742375834218
 40
0.4031118859489118
 40
0.5374803416518633
 40
0.6718477911244624
 40
0.8062142826154645
 40
0.9405798644377978
 40
1.0
 40
1.0
 40
1.0
 40
1.0
 10
82.00000000000001
 20
2.214765467296678
 30
0.0
 10
80.95459669586333
 20
2.796302273889537
 30
0.0
 10
78.86379903886703
 20
3.95937090766005
 30
0.0
 10
75.72762259437421
 20
5.555054225636301
 30
0.0
 10
72.59147610146277
 20
6.974640123024018
 30
0.0
 10
69.455361183772
 20
8.163615190719154
 30
0.0
 10
66.31926715754079
 20
9.090539551379461
 30
0.0
 10
63.18322704272573
 20
9.703506621032254
 30
0.0
 10
60.6301844228154
 20
9.994921276183948
 30
0.0
 10
59.12265279445317
 20
9.972504338317842
 30
0.0
 10
58.66040131931563
 20
9.965630676497604
 30
0.0
  0
LINE
  5
C0
330
1F
100
AcDbEntity
  8
0
  6
Continuous
 62
     1
370
    25
100
AcDbLine
 10
13.99780637732704
 20
-8.436427482905996
 30
0.0
 11
12.0
 21
-9.014655156397913
 31
0.0
  0
LINE
  5
C1
330
1F
100
AcDbEntity
  8
0
  6
Continuous
 62
     1
370
    25
100
AcDbLine
 10
82.00000000000001
 20
-0.500000000000034
 30
0.0
 11
82.00000000000001
 21
2.214765467296677
 31
0.0
  0
LINE
  5
C2
330
1F
100
AcDbEntity
  8
0
  6
Continuous
 62
     1
370
    25
100
AcDbLine
 10
82.00000000000001
 20
-0.5000000000000374
 30
0.0
 11
80.64743001457202
 21
-1.44707969975292
 31
0.0
  0
SPLINE
  5
C3
330
1F
100
AcDbEntity
  8
0
  6
Continuous
 62
     1
370
    25
100
AcDbSpline
210
0.0
220
0.0
230
1.0
 70
     8
 71
     3
 72
    18
 73
    14
 74
     0
 42
0.000000001
 43
0.00000001
 40
0.0
 40
0.0
 40
0.0
 40
0.0
 40
0.0429398525445233
 40
0.1414720326639896
 40
0.24001824943075
 40
0.3385473436657349
 40
0.4370599467193076
 40
0.535560997895374
 40
0.6284191330686678
 40
0.7212792594503531
 40
0.8141582633045239
 40
0.9070729594932169
 40
1.0
 40
1.0
 40
1.0
 40
1.0
 10
41.18022801253515
 20
-8.436127957745603
 30
0.0
 10
40.7625623525087
 20
-8.571110136422124
 30
0.0
 10
39.38649777854166
 20
-9.015829949350698
 30
0.0
 10
37.05179909212747
 20
-9.517545294714914
 30
0.0
 10
34.17625590005711
 20
-9.92443103459096
 30
0.0
 10
31.30105535414697
 20
-10.04502469335307
 30
0.0
 10
28.42640227996585
 20
-9.893151718129774
 30
0.0
 10
25.60690123555205
 20
-9.476589804855276
 30
0.0
 10
22.84268615397625
 20
-8.825114825223562
 30
0.0
 10
20.13307803771414
 20
-7.971391957676427
 30
0.0
 10
17.42284319477703
 20
-6.920751168076774
 30
0.0
 10
14.71167367623373
 20
-5.708646536493495
 30
0.0
 10
12.90393125113047
 20
-4.788575390171851
 30
0.0
 10
12.0
 20
-4.328509259690866
 30
0.0
  0
SPLINE
  5
C4
330
1F
100
AcDbEntity
  8
0
  6
Continuous
 62
     4
370
    25
100
AcDbSpline
210
0.0
220
0.0
230
1.0
 70
    24
 71
     3
 72
    18
 73
    14
 74
     0
 42
0.000000001
 43
0.00000001
 40
0.0
 40
0.0
 40
0.0
 40
0.0
 40
0.0080990200115174
 40
0.086950497138365
 40
0.1912963429366022
 40
0.2956421887348393
 40
0.3999880345330766
 40
0.504333880331314
 40
0.608679726129551
 40
0.713025571927788
 40
0.8173714177260206
 40
0.9217172635242531
 40
0.9999999999999999
 40
0.9999999999999999
 40
0.9999999999999999
 40
0.9999999999999999
 10
12.0
 20
5.64231964760635
 30
0.0
 10
12.0
 20
5.618825796264623
 30
0.0
 10
12.0
 20
5.366597495685927
 30
0.0
 10
12.0
 20
4.738200742249685
 30
0.0
 10
12.0
 20
3.747796086611852
 30
0.0
 10
12.0
 20
2.5959313452692
 30
0.0
 10
12.0
 20
1.414740280592858
 30
0.0
 10
12.0
 20
0.2346593836739223
 30
0.0
 10
12.0
 20
-0.9088234270536429
 30
0.0
 10
12.0
 20
-1.986545392743538
 30
0.0
 10
12.0
 20
-2.961032935015554
 30
0.0
 10
12.0
 20
-3.750218804757493
 30
0.0
 10
12.0
 20
-4.155001419912501
 30
0.0
 10
12.0
 20
-4.328509259690863
 30
0.0
  0
SPLINE
  5
C5
330
1F
100
AcDbEntity
  8
0
  6
Continuous
 62
     4
370
    25
100
AcDbSpline
210
0.0
220
0.0
230
1.0
 70
    24
 71
     3
 72
     9
 73
     5
 74
     0
 42
0.000000001
 43
0.00000001
 40
0.0
 40
0.0
 40
0.0
 40
0.0
 40
0.0441144980017917
 40
1.0
 40
1.0
 40
1.0
 40
1.0
 10
12.0
 20
-8.284226595340384
 30
0.0
 10
12.0
 20
-8.293649938729903
 30
0.0
 10
12.0
 20
-8.507260969487517
 30
0.0
 10
12.0
 20
-8.766680136096205
 30
0.0
 10
12.0
 20
-9.014655156397913
 30
0.0
  0
SPLINE
  5
C6
330
1F
100
AcDbEntity
  8
0
  6
Continuous
 62
     1
370
    25
100
AcDbSpline
210
0.0
220
0.0
230
1.0
 70
     8
 71
     3
 72
    11
 73
     7
 74
     0
 42
0.000000001
 43
0.00000001
 40
0.0
 40
0.0
 40
0.0
 40
0.0
 40
0.2624480933250078
 40
0.5249034958091112
 40
0.7873669021127612
 40
1.0
 40
1.0
 40
1.0
 40
1.0
 10
12.0
 20
-7.797770691082354
 30
0.0
 10
13.02518171638276
 20
-8.14507115099705
 30
0.0
 10
15.07557370037978
 20
-8.839681743117389
 30
0.0
 10
18.15122798478842
 20
-9.529320011882819
 30
0.0
 10
21.03231064606442
 20
-9.94336810779825
 30
0.0
 10
22.8881768280629
 20
-9.965762523412396
 30
0.0
 10
23.7187840248356
 20
-9.975785316519495
 30
0.0
  0
SPLINE
  5
C7
330
1F
100
AcDbEntity
  8
0
  6
Continuous
 62
     1
370
    25
100
AcDbSpline
210
0.0
220
0.0
230
1.0
 70
     8
 71
     3
 72
    12
 73
     8
 74
     0
 42
0.000000001
 43
0.00000001
 40
0.0
 40
0.0
 40
0.0
 40
0.0
 40
0.1329588764717783
 40
0.3497147441831995
 40
0.566564325750425
 40
0.7833217777838664
 40
1.0
 40
1.0
 40
1.0
 40
1.0
 10
68.38326432409283
 20
8.433860296163418
 30
0.0
 10
68.92676653219856
 20
8.603389254474358
 30
0.0
 10
70.35631182255044
 20
9.049292362718054
 30
0.0
 10
72.6724518009875
 20
9.540297462081536
 30
0.0
 10
75.33154460369629
 20
9.906953305559071
 30
0.0
 10
77.98993522269653
 20
10.04906453258165
 30
0.0
 10
79.76170637417206
 20
9.946177959586803
 30
0.0
 10
80.64743001457205
 20
9.894744076658197
 30
0.0
  0
SPLINE
  5
C8
330
1F
100
AcDbEntity
  8
0
  6
Continuous
 62
     1
370
    25
100
AcDbSpline
210
0.0
220
0.0
230
1.0
 70
     8
 71
     3
 72
    22
 73
    18
 74
     0
 42
0.000000001
 43
0.00000001
 40
0.0
 40
0.0
 40
0.0
 40
0.0
 40
0.2499999999999999
 40
0.2499999999999999
 40
0.3750000000000002
 40
0.3750000000000002
 40
0.5000000000000006
 40
0.5000000000000006
 40
0.5624999999999991
 40
0.5624999999999991
 40
0.6249999999999977
 40
0.6249999999999977
 40
0.7499999999999984
 40
0.7499999999999984
 40
0.8749999999999991
 40
0.8749999999999991
 40
1.0
 40
1.0
 40
1.0
 40
1.0
 10
80.64743001457202
 20
9.894744076658219
 30
0.0
 10
80.64833007441128
 20
9.283134665630078
 30
0.0
 10
80.5878719214381
 20
8.684986715119681
 30
0.0
 10
80.37601742079478
 20
7.814347839321173
 30
0.0
 10
80.28345551420598
 20
7.526023105511523
 30
0.0
 10
80.05771133056524
 20
6.983978845190983
 30
0.0
 10
79.92443790793993
 20
6.728016184879507
 30
0.0
 10
79.69095893739478
 20
6.368851405513239
 30
0.0
 10
79.60722578260932
 20
6.253066494950624
 30
0.0
 10
79.4322858014328
 20
6.035520208430542
 30
0.0
 10
79.34065279168858
 20
5.933023839203762
 30
0.0
 10
79.05353353657316
 20
5.643959723970069
 30
0.0
 10
78.84448072965397
 20
5.474803869360848
 30
0.0
 10
78.39984449311737
 20
5.189912301147335
 30
0.0
 10
78.16882063896723
 20
5.076535487151688
 30
0.0
 10
77.69124356464538
 20
4.901635336322657
 30
0.0
 10
77.44308936566182
 20
4.840255663647832
 30
0.0
 10
77.19539622185754
 20
4.804603778142478
 30
0.0
  0
SPLINE
  5
C9
330
1F
100
AcDbEntity
  8
0
  6
Continuous
 62
     1
370
    25
100
AcDbSpline
210
0.0
220
0.0
230
1.0
 70
     8
 71
     3
 72
     8
 73
     4
 74
     0
 42
0.000000001
 43
0.00000001
 40
0.0
 40
0.0
 40
0.0
 40
0.0
 40
1.0
 40
1.0
 40
1.0
 40
1.0
 10
82.00000000000001
 20
2.462652369968975
 30
0.0
 10
80.31587153796296
 20
3.37323604205651
 30
0.0
 10
78.72553162703736
 20
4.136275508719667
 30
0.0
 10
77.19539622185748
 20
4.804603778142476
 30
0.0
  0
LINE
  5
CA
330
1F
100
AcDbEntity
  8
0
  6
Continuous
 62
     1
370
    25
100
AcDbLine
 10
82.00000000000001
 20
2.222621067643371
 30
0.0
 11
82.00000000000001
 21
2.462652369968977
 31
0.0
  0
LINE
  5
CB
330
1F
100
AcDbEntity
  8
0
  6
Continuous
 62
     4
370
    25
100
AcDbLine
 10
12.0
 20
-7.797770691082373
 30
0.0
 11
12.0
 21
-4.328509259690863
 31
0.0
  0
ELLIPSE
  5
CC
330
1F
100
AcDbEntity
  8
0
  6
Continuous
 62
     1
370
    25
100
AcDbEllipse
 10
82.71407400337108
 20
-0.0000000000000034
 30
0.0
 11
14.2814800674211
 21
-5.350968460038300E-17
 31
0.0
210
0.0
220
0.0
230
1.0
 40
0.7002075382097124
 41
1.620817183600667
 42
1.716014156413955
  0
LINE
  5
CD
330
1F
100
AcDbEntity
  8
0
  6
Continuous
 62
     1
370
    25
100
AcDbLine
 10
82.00000000000001
 20
9.987492177719101
 30
0.0
 11
82.00000000000001
 21
10.00000000000001
 31
0.0
  0
LINE
  5
CE
330
1F
100
AcDbEntity
  8
0
  6
Continuous
 62
     1
370
    25
100
AcDbLine
 10
82.00000000000001
 20
-0.499999999999999
 30
0.0
 11
82.00000000000001
 21
-7.266081778456255
 31
0.0
  0
LINE
  5
CF
330
1F
100
AcDbEntity
  8
0
  6
Continuous
 62
     1
370
    25
100
AcDbLine
 10
82.00000000000001
 20
2.462652369968977
 30
0.0
 11
82.00000000000001
 21
9.987492177719101
 31
0.0
  0
LINE
  5
D0
330
1F
100
AcDbEntity
  8
중심선
100
AcDbLine
 10
-51.0
 20
-0.0000000000000077
 30
0.0
 11
85.00000000000001
 21
0.0000000000000089
 31
0.0
  0
CIRCLE
  5
D1
330
1F
100
AcDbEntity
  8
해칭선
100
AcDbCircle
 10
0.0003250860647914
 20
-0.0000000000000043
 30
0.0
 40
3.0
  0
INSERT
  5
D2
330
1F
100
AcDbEntity
  8
0
  6
Continuous
 62
     7
100
AcDbBlockReference
 66
     1
  2
블럭10
 10
2.559900751058223
 20
-52.04717430164393
 30
0.0
  0
ATTRIB
  5
D3
330
D2
100
AcDbEntity
  8
FORMAT
 62
     2
100
AcDbText
 10
-13.55936028837733
 20
-49.97180738881174
 30
0.0
 40
4.233333333333333
  1
SEME7220070E [ 4 FLUTE ]
 41
0.75
  7
SLDTEXTSTYLE0
 11
-13.55936028837733
 21
-52.08847405547841
 31
0.0
100
AcDbAttribute
  2
AUTOATTR0
 70
     0
 74
     1
  0
SEQEND
  5
D4
330
D2
100
AcDbEntity
  8
0
  6
Continuous
 62
     7
  0
HATCH
  5
D5
330
1F
100
AcDbEntity
  8
중심선
100
AcDbHatch
 10
0.0
 20
0.0
 30
0.0
210
0.0
220
0.0
230
1.0
  2
SOLID
 70
     1
 71
     0
 91
        1
 92
        0
 93
        4
 72
     1
 10
8.274810055439064
 20
-35.8
 11
4.828534811601781
 21
-35.8
 72
     1
 10
4.828534811601781
 20
-35.8
 11
2.70030495239773
 21
-38.33632558057257
 72
     1
 10
2.70030495239773
 20
-38.33632558057257
 11
6.14661328134819
 21
-38.33628615127008
 72
     1
 10
6.14661328134819
 20
-38.33628615127008
 11
8.274810055439064
 21
-35.8
 97
        0
 75
     0
 76
     1
 98
        1
 10
0.0
 20
0.0
  0
HATCH
  5
D6
330
1F
100
AcDbEntity
  8
중심선
100
AcDbHatch
 10
0.0
 20
0.0
 30
0.0
210
0.0
220
0.0
230
1.0
  2
SOLID
 70
     1
 71
     0
 91
        1
 92
        0
 93
        4
 72
     1
 10
13.28757404647504
 20
-35.79999999999997
 11
9.84129880263776
 21
-35.8
 72
     1
 10
9.84129880263776
 20
-35.8
 11
5.310160794280344
 21
-41.20000000000002
 72
     1
 10
5.310160794280344
 20
-41.20000000000002
 11
8.756436038117627
 21
-41.20000000000002
 72
     1
 10
8.756436038117627
 20
-41.20000000000002
 11
13.28757404647504
 21
-35.79999999999997
 97
        0
 75
     0
 76
     1
 98
        1
 10
0.0
 20
0.0
  0
HATCH
  5
D7
330
1F
100
AcDbEntity
  8
중심선
100
AcDbHatch
 10
0.0
 20
0.0
 30
0.0
210
0.0
220
0.0
230
1.0
  2
SOLID
 70
     1
 71
     0
 91
        1
 92
        0
 93
        4
 72
     1
 10
18.30033803751094
 20
-35.79999999999997
 11
14.85406279367382
 21
-35.79999999999997
 72
     1
 10
14.85406279367382
 20
-35.79999999999997
 11
7.805625891784546
 21
-44.20000000000002
 72
     1
 10
7.805625891784546
 20
-44.20000000000002
 11
11.25190113562183
 21
-44.20000000000002
 72
     1
 10
11.25190113562183
 20
-44.20000000000002
 11
18.30033803751094
 21
-35.79999999999997
 97
        0
 75
     0
 76
     1
 98
        1
 10
0.0
 20
0.0
  0
HATCH
  5
D8
330
1F
100
AcDbEntity
  8
중심선
100
AcDbHatch
 10
0.0
 20
0.0
 30
0.0
210
0.0
220
0.0
230
1.0
  2
SOLID
 70
     1
 71
     0
 91
        1
 92
        0
 93
        6
 72
     3
 10
23.10022846852311
 20
-40.00000000005127
 11
3.960054785062284
 21
1.540850780301639E-10
 40
0.3939339440162633
 50
17.09539180608434
 51
320.0019657685081
 73
     0
 72
     1
 10
24.78322812422368
 20
-38.58789400463833
 11
27.08852999792474
 21
-36.65356729459038
 72
     3
 10
23.10022846847026
 20
-40.00000000000015
 11
6.600054785286829
 21
-1.249000902703301E-13
 40
0.6363583540795982
 50
39.9987384933741
 51
368.4976242363725
 73
     1
 72
     1
 10
29.52556096037087
 20
-39.03999999993002
 11
21.78029577530619
 21
-39.03999999993002
 72
     1
 10
21.78029577530619
 20
-39.03999999993002
 11
21.78027073086025
 21
-40.95999999992991
 72
     1
 10
21.78027073086025
 20
-40.95999999992991
 11
26.22165050033229
 21
-40.95999999992988
 97
        0
 75
     0
 76
     1
 98
        1
 10
0.0
 20
0.0
  0
DIMENSION
  5
D9
330
1F
100
AcDbEntity
  8
치수문자_일반주서
100
AcDbDimension
  2
_D
 10
97.63556267864408
 20
10.00000000000006
 30
0.0
 11
97.63556267864404
 21
20.76025000000007
 31
0.0
 70
   160
  1
%%c<>
 71
     2
 42
20.00000000000002
 52
-270.0
  3
SLDDIMSTYLE0
100
AcDbAlignedDimension
 13
82.00000000000001
 23
-10.00000000000001
 33
0.0
 14
82.00000000000001
 24
10.00000000000001
 34
0.0
 50
90.0000000000002
100
AcDbRotatedDimension
  0
DIMENSION
  5
E7
330
1F
100
AcDbEntity
  8
치수문자_일반주서
100
AcDbDimension
  2
_D_1
 10
82.00000000000003
 20
27.38913260158164
 30
0.0
 11
17.0
 21
27.38913260158164
 31
0.0
 70
   160
  1
<>
 71
     2
 42
130.0
  3
SLDDIMSTYLE1
100
AcDbAlignedDimension
 13
-48.0
 23
9.499999999999991
 33
0.0
 14
82.00000000000001
 24
10.00000000000001
 34
0.0
 50
-0.0000000000000031
100
AcDbRotatedDimension
  0
DIMENSION
  5
F2
330
1F
100
AcDbEntity
  8
치수문자_일반주서
100
AcDbDimension
  2
_D_2
 10
-62.19009034755377
 20
-10.00000000000007
 30
0.0
 11
-62.19009034755388
 21
20.76024999999995
 31
0.0
 70
   160
  1
%%c<>
 71
     2
 42
20.00000000000002
 52
-270.0
  3
SLDDIMSTYLE2
100
AcDbAlignedDimension
 13
-47.49999999999999
 23
10.00000000000001
 33
0.0
 14
-47.49999999999999
 24
-10.00000000000001
 34
0.0
 50
90.0000000000002
100
AcDbRotatedDimension
  0
DIMENSION
  5
100
330
1F
100
AcDbEntity
  8
치수문자_일반주서
100
AcDbDimension
  2
_D_3
 10
82.00000000000001
 20
19.86057345898555
 30
0.0
 11
47.00000000000001
 21
19.86057345898555
 31
0.0
 70
   160
  1
<>
 71
     2
 42
70.00000000000001
  3
SLDDIMSTYLE1
100
AcDbAlignedDimension
 13
12.0
 23
9.014655156397906
 33
0.0
 14
82.00000000000001
 24
10.00000000000001
 34
0.0
 50
-0.0000000000000029
100
AcDbRotatedDimension
  0
INSERT
  5
110
330
1F
100
AcDbEntity
  8
해칭선
100
AcDbBlockReference
  2
SW_DOWELSYMBOL_0
 10
0.0003250860647914
 20
-0.0000000000000043
 30
0.0
  0
ENDSEC
  0
SECTION
  2
OBJECTS
  0
DICTIONARY
  5
C
330
0
100
AcDbDictionary
281
     1
  3
ACAD_GROUP
350
D
  3
ACAD_IMAGE_VARS
350
134
  3
ACAD_LAYOUT
350
1A
  3
ACAD_MLINESTYLE
350
17
  3
ACAD_PLOTSETTINGS
350
19
  3
ACAD_PLOTSTYLENAME
350
E
  3
ACAD_SCALELIST
350
47
  3
APPDATA
350
132
  3
DWGPROPS
350
144
  0
DICTIONARY
  5
D
102
{ACAD_REACTORS
330
C
102
}
330
C
100
AcDbDictionary
281
     1
  0
RASTERVARIABLES
  5
134
102
{ACAD_REACTORS
330
C
102
}
330
C
100
AcDbRasterVariables
 90
        0
 70
     1
 71
     1
 72
     1
  0
DICTIONARY
  5
1A
102
{ACAD_REACTORS
330
C
102
}
330
C
100
AcDbDictionary
281
     1
  3
Layout1
350
1E
  3
Layout2
350
26
  3
Model
350
22
  0
DICTIONARY
  5
17
102
{ACAD_REACTORS
330
C
102
}
330
C
100
AcDbDictionary
281
     1
  3
Standard
350
18
  0
DICTIONARY
  5
19
102
{ACAD_REACTORS
330
C
102
}
330
C
100
AcDbDictionary
281
     1
  0
ACDBDICTIONARYWDFLT
  5
E
102
{ACAD_REACTORS
330
C
102
}
330
C
100
AcDbDictionary
281
     1
  3
Normal
350
F
100
AcDbDictionaryWithDefault
340
F
  0
DICTIONARY
  5
47
102
{ACAD_REACTORS
330
C
102
}
330
C
100
AcDbDictionary
281
     1
  3
A0
350
48
  3
A1
350
49
  3
A2
350
4A
  3
A3
350
4B
  3
A4
350
4C
  3
A5
350
4D
  3
A6
350
4E
  3
A7
350
4F
  3
A8
350
50
  3
A9
350
51
  3
B0
350
52
  3
B1
350
53
  3
B2
350
54
  3
B3
350
55
  3
B4
350
56
  3
B5
350
57
  3
B6
350
58
  3
B7
350
59
  3
B8
350
5A
  3
B9
350
5B
  3
C0
350
5C
  3
C1
350
5D
  3
C2
350
5E
  3
C3
350
5F
  3
C4
350
60
  3
C5
350
61
  3
C6
350
62
  3
C7
350
63
  3
C8
350
64
  3
C9
350
65
  3
D0
350
66
  3
D1
350
67
  3
D2
350
68
  0
DICTIONARY
  5
132
102
{ACAD_REACTORS
330
C
102
}
330
C
100
AcDbDictionary
281
     1
  0
XRECORD
  5
144
102
{ACAD_REACTORS
330
C
102
}
330
C
100
AcDbXrecord
280
     1
  1
DWGPROPS COOKIE
  2

  3

  4

  6

  7

  8
12014102
  9

300
=
301
=
302
=
303
=
304
=
305
=
306
=
307
=
308
=
309
=
 40
0.0
 41
2458260.21128765
 42
2458268.225827002
  1

 90
        0
  0
LAYOUT
  5
1E
102
{ACAD_REACTORS
330
1A
102
}
330
1A
100
AcDbPlotSettings
  1

  2
none_device
  4

  6

 40
0.0
 41
0.0
 42
0.0
 43
0.0
 44
0.0
 45
0.0
 46
0.0
 47
0.0
 48
0.0
 49
0.0
140
0.0
141
0.0
142
1.0
143
1.0
 70
   688
 72
     1
 73
     0
 74
     5
  7

 75
    16
147
1.0
148
0.0
149
0.0
100
AcDbLayout
  1
Layout1
 70
     1
 71
     1
 10
0.0
 20
0.0
 11
420.0
 21
297.0
 12
0.0
 22
0.0
 32
0.0
 14
1.000000000000000E+20
 24
1.000000000000000E+20
 34
1.000000000000000E+20
 15
-1.000000000000000E+20
 25
-1.000000000000000E+20
 35
-1.000000000000000E+20
146
0.0
 13
0.0
 23
0.0
 33
0.0
 16
1.0
 26
0.0
 36
0.0
 17
0.0
 27
1.0
 37
0.0
 76
     0
330
1B
  0
LAYOUT
  5
26
102
{ACAD_REACTORS
330
1A
102
}
330
1A
100
AcDbPlotSettings
  1

  2
none_device
  4

  6

 40
0.0
 41
0.0
 42
0.0
 43
0.0
 44
0.0
 45
0.0
 46
0.0
 47
0.0
 48
0.0
 49
0.0
140
0.0
141
0.0
142
1.0
143
1.0
 70
   688
 72
     1
 73
     0
 74
     5
  7

 75
    16
147
1.0
148
0.0
149
0.0
100
AcDbLayout
  1
Layout2
 70
     1
 71
     2
 10
0.0
 20
0.0
 11
0.0
 21
0.0
 12
0.0
 22
0.0
 32
0.0
 14
0.0
 24
0.0
 34
0.0
 15
0.0
 25
0.0
 35
0.0
146
0.0
 13
0.0
 23
0.0
 33
0.0
 16
1.0
 26
0.0
 36
0.0
 17
0.0
 27
1.0
 37
0.0
 76
     0
330
23
  0
LAYOUT
  5
22
102
{ACAD_REACTORS
330
1A
102
}
330
1A
100
AcDbPlotSettings
  1

  2
none_device
  4
ANSI_A_(11.00_x_8.50_Inches)
  6

 40
6.35
 41
19.05
 42
6.35000508
 43
19.05000254
 44
279.4
 45
215.9
 46
106.7172004495918
 47
104.6837840024109
 48
0.0
 49
0.0
140
0.0
141
0.0
142
0.0660549617320314
143
1.0
 70
  1696
 72
     0
 73
     0
 74
     0
  7

 75
     0
147
0.0235690232323232
148
0.0
149
0.0
100
AcDbLayout
  1
Model
 70
     1
 71
     0
 10
0.0
 20
0.0
 11
420.0
 21
297.0
 12
0.0
 22
0.0
 32
0.0
 14
-66.56509034755389
 24
-49.97180738881174
 34
0.0
 15
98.1858960119775
 25
31.76413260158164
 35
0.0
146
0.0
 13
0.0
 23
0.0
 33
0.0
 16
1.0
 26
0.0
 36
0.0
 17
0.0
 27
1.0
 37
0.0
 76
     0
330
1F
331
29
  0
MLINESTYLE
  5
18
102
{ACAD_REACTORS
330
17
102
}
330
17
100
AcDbMlineStyle
  2
Standard
 70
     0
  3

 62
   256
 51
90.0
 52
90.0
 71
     2
 49
0.5
 62
   256
  6
BYLAYER
 49
-0.5
 62
   256
  6
BYLAYER
  0
ACDBPLACEHOLDER
  5
F
102
{ACAD_REACTORS
330
E
102
}
330
E
  0
SCALE
  5
48
102
{ACAD_REACTORS
330
47
102
}
330
47
100
AcDbScale
 70
     0
300
1:1
140
1.0
141
1.0
290
     1
  0
SCALE
  5
49
102
{ACAD_REACTORS
330
47
102
}
330
47
100
AcDbScale
 70
     0
300
1:2
140
1.0
141
2.0
290
     0
  0
SCALE
  5
4A
102
{ACAD_REACTORS
330
47
102
}
330
47
100
AcDbScale
 70
     0
300
1:4
140
1.0
141
4.0
290
     0
  0
SCALE
  5
4B
102
{ACAD_REACTORS
330
47
102
}
330
47
100
AcDbScale
 70
     0
300
1:5
140
1.0
141
5.0
290
     0
  0
SCALE
  5
4C
102
{ACAD_REACTORS
330
47
102
}
330
47
100
AcDbScale
 70
     0
300
1:8
140
1.0
141
8.0
290
     0
  0
SCALE
  5
4D
102
{ACAD_REACTORS
330
47
102
}
330
47
100
AcDbScale
 70
     0
300
1:10
140
1.0
141
10.0
290
     0
  0
SCALE
  5
4E
102
{ACAD_REACTORS
330
47
102
}
330
47
100
AcDbScale
 70
     0
300
1:16
140
1.0
141
16.0
290
     0
  0
SCALE
  5
4F
102
{ACAD_REACTORS
330
47
102
}
330
47
100
AcDbScale
 70
     0
300
1:20
140
1.0
141
20.0
290
     0
  0
SCALE
  5
50
102
{ACAD_REACTORS
330
47
102
}
330
47
100
AcDbScale
 70
     0
300
1:30
140
1.0
141
30.0
290
     0
  0
SCALE
  5
51
102
{ACAD_REACTORS
330
47
102
}
330
47
100
AcDbScale
 70
     0
300
1:40
140
1.0
141
40.0
290
     0
  0
SCALE
  5
52
102
{ACAD_REACTORS
330
47
102
}
330
47
100
AcDbScale
 70
     0
300
1:50
140
1.0
141
50.0
290
     0
  0
SCALE
  5
53
102
{ACAD_REACTORS
330
47
102
}
330
47
100
AcDbScale
 70
     0
300
1:100
140
1.0
141
100.0
290
     0
  0
SCALE
  5
54
102
{ACAD_REACTORS
330
47
102
}
330
47
100
AcDbScale
 70
     0
300
2:1
140
2.0
141
1.0
290
     0
  0
SCALE
  5
55
102
{ACAD_REACTORS
330
47
102
}
330
47
100
AcDbScale
 70
     0
300
4:1
140
4.0
141
1.0
290
     0
  0
SCALE
  5
56
102
{ACAD_REACTORS
330
47
102
}
330
47
100
AcDbScale
 70
     0
300
8:1
140
8.0
141
1.0
290
     0
  0
SCALE
  5
57
102
{ACAD_REACTORS
330
47
102
}
330
47
100
AcDbScale
 70
     0
300
10:1
140
10.0
141
1.0
290
     0
  0
SCALE
  5
58
102
{ACAD_REACTORS
330
47
102
}
330
47
100
AcDbScale
 70
     0
300
100:1
140
100.0
141
1.0
290
     0
  0
SCALE
  5
59
102
{ACAD_REACTORS
330
47
102
}
330
47
100
AcDbScale
 70
     0
300
1/128" = 1'-0"
140
0.0078125
141
12.0
290
     0
  0
SCALE
  5
5A
102
{ACAD_REACTORS
330
47
102
}
330
47
100
AcDbScale
 70
     0
300
1/64" = 1'-0"
140
0.015625
141
12.0
290
     0
  0
SCALE
  5
5B
102
{ACAD_REACTORS
330
47
102
}
330
47
100
AcDbScale
 70
     0
300
1/32" = 1'-0"
140
0.03125
141
12.0
290
     0
  0
SCALE
  5
5C
102
{ACAD_REACTORS
330
47
102
}
330
47
100
AcDbScale
 70
     0
300
1/16" = 1'-0"
140
0.0625
141
12.0
290
     0
  0
SCALE
  5
5D
102
{ACAD_REACTORS
330
47
102
}
330
47
100
AcDbScale
 70
     0
300
3/32" = 1'-0"
140
0.09375
141
12.0
290
     0
  0
SCALE
  5
5E
102
{ACAD_REACTORS
330
47
102
}
330
47
100
AcDbScale
 70
     0
300
1/8" = 1'-0"
140
0.125
141
12.0
290
     0
  0
SCALE
  5
5F
102
{ACAD_REACTORS
330
47
102
}
330
47
100
AcDbScale
 70
     0
300
3/16" = 1'-0"
140
0.1875
141
12.0
290
     0
  0
SCALE
  5
60
102
{ACAD_REACTORS
330
47
102
}
330
47
100
AcDbScale
 70
     0
300
1/4" = 1'-0"
140
0.25
141
12.0
290
     0
  0
SCALE
  5
61
102
{ACAD_REACTORS
330
47
102
}
330
47
100
AcDbScale
 70
     0
300
3/8" = 1'-0"
140
0.375
141
12.0
290
     0
  0
SCALE
  5
62
102
{ACAD_REACTORS
330
47
102
}
330
47
100
AcDbScale
 70
     0
300
1/2" = 1'-0"
140
0.5
141
12.0
290
     0
  0
SCALE
  5
63
102
{ACAD_REACTORS
330
47
102
}
330
47
100
AcDbScale
 70
     0
300
3/4" = 1'-0"
140
0.75
141
12.0
290
     0
  0
SCALE
  5
64
102
{ACAD_REACTORS
330
47
102
}
330
47
100
AcDbScale
 70
     0
300
1" = 1'-0"
140
1.0
141
12.0
290
     0
  0
SCALE
  5
65
102
{ACAD_REACTORS
330
47
102
}
330
47
100
AcDbScale
 70
     0
300
1-1/2" = 1'-0"
140
1.5
141
12.0
290
     0
  0
SCALE
  5
66
102
{ACAD_REACTORS
330
47
102
}
330
47
100
AcDbScale
 70
     0
300
3" = 1'-0"
140
3.0
141
12.0
290
     0
  0
SCALE
  5
67
102
{ACAD_REACTORS
330
47
102
}
330
47
100
AcDbScale
 70
     0
300
6" = 1'-0"
140
6.0
141
12.0
290
     0
  0
SCALE
  5
68
102
{ACAD_REACTORS
330
47
102
}
330
47
100
AcDbScale
 70
     0
300
1'-0" = 1'-0"
140
12.0
141
12.0
290
     0
  0
ENDSEC
  0
EOF
