  0
SECTION
  2
HEADER
  9
$ACADVER
  1
AC1015
  9
$ACADMAINTVER
 70
     6
  9
$DWGCODEPAGE
  3
ANSI_949
  9
$INSBASE
 10
0.0
 20
0.0
 30
0.0
  9
$EXTMIN
 10
-65.89350618282081
 20
-49.97180738881174
 30
0.0
  9
$EXTMAX
 10
118.0823602881134
 20
31.76413260158164
 30
0.0
  9
$LIMMIN
 10
0.0
 20
0.0
  9
$LIMMAX
 10
420.0
 20
297.0
  9
$ORTHOMODE
 70
     0
  9
$REGENMODE
 70
     1
  9
$FILLMODE
 70
     1
  9
$QTEXTMODE
 70
     0
  9
$MIRRTEXT
 70
     1
  9
$LTSCALE
 40
1.0
  9
$ATTMODE
 70
     1
  9
$TEXTSIZE
 40
3.5
  9
$TRACEWID
 40
1.0
  9
$TEXTSTYLE
  7
Standard
  9
$CLAYER
  8
0
  9
$CELTYPE
  6
ByLayer
  9
$CECOLOR
 62
   256
  9
$CELTSCALE
 40
1.0
  9
$DISPSILH
 70
     0
  9
$DIMSCALE
 40
1.0
  9
$DIMASZ
 40
3.302
  9
$DIMEXO
 40
1.0
  9
$DIMDLI
 40
3.75
  9
$DIMRND
 40
0.0
  9
$DIMDLE
 40
0.0
  9
$DIMEXE
 40
1.0
  9
$DIMTP
 40
0.0
  9
$DIMTM
 40
0.0
  9
$DIMTXT
 40
3.5
  9
$DIMCEN
 40
2.5
  9
$DIMTSZ
 40
0.0
  9
$DIMTOL
 70
     0
  9
$DIMLIM
 70
     0
  9
$DIMTIH
 70
     1
  9
$DIMTOH
 70
     1
  9
$DIMSE1
 70
     0
  9
$DIMSE2
 70
     0
  9
$DIMTAD
 70
     1
  9
$DIMZIN
 70
     0
  9
$DIMBLK
  1

  9
$DIMASO
 70
     1
  9
$DIMSHO
 70
     1
  9
$DIMPOST
  1

  9
$DIMAPOST
  1

  9
$DIMALT
 70
     0
  9
$DIMALTD
 70
     3
  9
$DIMALTF
 40
0.0393700787401575
  9
$DIMLFAC
 40
1.0
  9
$DIMTOFL
 70
     1
  9
$DIMTVP
 40
0.0
  9
$DIMTIX
 70
     0
  9
$DIMSOXD
 70
     0
  9
$DIMSAH
 70
     0
  9
$DIMBLK1
  1

  9
$DIMBLK2
  1

  9
$DIMSTYLE
  2
ISO-25
  9
$DIMCLRD
 70
     0
  9
$DIMCLRE
 70
     0
  9
$DIMCLRT
 70
     0
  9
$DIMTFAC
 40
1.0
  9
$DIMGAP
 40
1.524
  9
$DIMJUST
 70
     0
  9
$DIMSD1
 70
     0
  9
$DIMSD2
 70
     0
  9
$DIMTOLJ
 70
     0
  9
$DIMTZIN
 70
     0
  9
$DIMALTZ
 70
     0
  9
$DIMALTTZ
 70
     0
  9
$DIMUPT
 70
     0
  9
$DIMDEC
 70
     2
  9
$DIMTDEC
 70
     2
  9
$DIMALTU
 70
     2
  9
$DIMALTTD
 70
     3
  9
$DIMTXSTY
  7
Standard
  9
$DIMAUNIT
 70
     0
  9
$DIMADEC
 70
     2
  9
$DIMALTRND
 40
0.0
  9
$DIMAZIN
 70
     0
  9
$DIMDSEP
 70
    44
  9
$DIMATFIT
 70
     3
  9
$DIMFRAC
 70
     0
  9
$DIMLDRBLK
  1

  9
$DIMLUNIT
 70
     2
  9
$DIMLWD
 70
    -2
  9
$DIMLWE
 70
    -2
  9
$DIMTMOVE
 70
     0
  9
$LUNITS
 70
     2
  9
$LUPREC
 70
     2
  9
$SKETCHINC
 40
1.0
  9
$FILLETRAD
 40
10.0
  9
$AUNITS
 70
     0
  9
$AUPREC
 70
     2
  9
$MENU
  1
.
  9
$ELEVATION
 40
0.0
  9
$PELEVATION
 40
0.0
  9
$THICKNESS
 40
0.0
  9
$LIMCHECK
 70
     0
  9
$CHAMFERA
 40
0.0
  9
$CHAMFERB
 40
0.0
  9
$CHAMFERC
 40
0.0
  9
$CHAMFERD
 40
0.0
  9
$SKPOLY
 70
     0
  9
$TDCREATE
 40
2458260.58685478
  9
$TDUCREATE
 40
2458260.21185478
  9
$TDUPDATE
 40
2458268.602124479
  9
$TDUUPDATE
 40
2458268.227124479
  9
$TDINDWG
 40
0.0005737616
  9
$TDUSRTIMER
 40
2458268.226550752
  9
$USRTIMER
 70
     1
  9
$ANGBASE
 50
0.0
  9
$ANGDIR
 70
     0
  9
$PDMODE
 70
     0
  9
$PDSIZE
 40
-1.0
  9
$PLINEWID
 40
0.0
  9
$SPLFRAME
 70
     0
  9
$SPLINETYPE
 70
     6
  9
$SPLINESEGS
 70
     8
  9
$HANDSEED
  5
148
  9
$SURFTAB1
 70
     6
  9
$SURFTAB2
 70
     6
  9
$SURFTYPE
 70
     6
  9
$SURFU
 70
     6
  9
$SURFV
 70
     6
  9
$UCSBASE
  2

  9
$UCSNAME
  2

  9
$UCSORG
 10
0.0
 20
0.0
 30
0.0
  9
$UCSXDIR
 10
1.0
 20
0.0
 30
0.0
  9
$UCSYDIR
 10
0.0
 20
1.0
 30
0.0
  9
$UCSORTHOREF
  2

  9
$UCSORTHOVIEW
 70
     0
  9
$UCSORGTOP
 10
0.0
 20
0.0
 30
0.0
  9
$UCSORGBOTTOM
 10
0.0
 20
0.0
 30
0.0
  9
$UCSORGLEFT
 10
0.0
 20
0.0
 30
0.0
  9
$UCSORGRIGHT
 10
0.0
 20
0.0
 30
0.0
  9
$UCSORGFRONT
 10
0.0
 20
0.0
 30
0.0
  9
$UCSORGBACK
 10
0.0
 20
0.0
 30
0.0
  9
$PUCSBASE
  2

  9
$PUCSNAME
  2

  9
$PUCSORG
 10
0.0
 20
0.0
 30
0.0
  9
$PUCSXDIR
 10
1.0
 20
0.0
 30
0.0
  9
$PUCSYDIR
 10
0.0
 20
1.0
 30
0.0
  9
$PUCSORTHOREF
  2

  9
$PUCSORTHOVIEW
 70
     0
  9
$PUCSORGTOP
 10
0.0
 20
0.0
 30
0.0
  9
$PUCSORGBOTTOM
 10
0.0
 20
0.0
 30
0.0
  9
$PUCSORGLEFT
 10
0.0
 20
0.0
 30
0.0
  9
$PUCSORGRIGHT
 10
0.0
 20
0.0
 30
0.0
  9
$PUCSORGFRONT
 10
0.0
 20
0.0
 30
0.0
  9
$PUCSORGBACK
 10
0.0
 20
0.0
 30
0.0
  9
$USERI1
 70
     0
  9
$USERI2
 70
     0
  9
$USERI3
 70
     0
  9
$USERI4
 70
     0
  9
$USERI5
 70
     0
  9
$USERR1
 40
0.0
  9
$USERR2
 40
0.0
  9
$USERR3
 40
0.0
  9
$USERR4
 40
0.0
  9
$USERR5
 40
0.0
  9
$WORLDVIEW
 70
     1
  9
$SHADEDGE
 70
     3
  9
$SHADEDIF
 70
    70
  9
$TILEMODE
 70
     1
  9
$MAXACTVP
 70
    64
  9
$PINSBASE
 10
0.0
 20
0.0
 30
0.0
  9
$PLIMCHECK
 70
     0
  9
$PEXTMIN
 10
1.000000000000000E+20
 20
1.000000000000000E+20
 30
1.000000000000000E+20
  9
$PEXTMAX
 10
-1.000000000000000E+20
 20
-1.000000000000000E+20
 30
-1.000000000000000E+20
  9
$PLIMMIN
 10
0.0
 20
0.0
  9
$PLIMMAX
 10
0.0
 20
0.0
  9
$UNITMODE
 70
     0
  9
$VISRETAIN
 70
     1
  9
$PLINEGEN
 70
     0
  9
$PSLTSCALE
 70
     1
  9
$TREEDEPTH
 70
  3020
  9
$CMLSTYLE
  2
Standard
  9
$CMLJUST
 70
     0
  9
$CMLSCALE
 40
20.0
  9
$PROXYGRAPHICS
 70
     1
  9
$MEASUREMENT
 70
     1
  9
$CELWEIGHT
370
    -1
  9
$ENDCAPS
280
     0
  9
$JOINSTYLE
280
     0
  9
$LWDISPLAY
290
     1
  9
$INSUNITS
 70
     4
  9
$HYPERLINKBASE
  1

  9
$STYLESHEET
  1

  9
$XEDIT
290
     1
  9
$CEPSNTYPE
380
     0
  9
$PSTYLEMODE
290
     1
  9
$FINGERPRINTGUID
  2
{066FFDF4-C081-4101-83DD-6F443E961D33}
  9
$VERSIONGUID
  2
{FAEB1C32-E019-11D5-929B-00C0DF256EC4}
  9
$EXTNAMES
290
     1
  9
$PSVPSCALE
 40
0.0
  9
$OLESTARTUP
290
     0
  0
ENDSEC
  0
SECTION
  2
CLASSES
  0
CLASS
  1
ACDBDICTIONARYWDFLT
  2
AcDbDictionaryWithDefault
  3
ObjectDBX Classes
 90
        0
280
     0
281
     0
  0
CLASS
  1
VISUALSTYLE
  2
AcDbVisualStyle
  3
ObjectDBX Classes
 90
     4095
280
     0
281
     0
  0
CLASS
  1
MATERIAL
  2
AcDbMaterial
  3
ObjectDBX Classes
 90
     1153
280
     0
281
     0
  0
CLASS
  1
SCALE
  2
AcDbScale
  3
ObjectDBX Classes
 90
     1153
280
     0
281
     0
  0
CLASS
  1
TABLESTYLE
  2
AcDbTableStyle
  3
ObjectDBX Classes
 90
     4095
280
     0
281
     0
  0
CLASS
  1
MLEADERSTYLE
  2
AcDbMLeaderStyle
  3
ACDB_MLEADERSTYLE_CLASS
 90
     4095
280
     0
281
     0
  0
CLASS
  1
SUN
  2
AcDbSun
  3
SCENEOE
 90
     1153
280
     0
281
     0
  0
CLASS
  1
ACDBPLACEHOLDER
  2
AcDbPlaceHolder
  3
ObjectDBX Classes
 90
        0
280
     0
281
     0
  0
CLASS
  1
LAYOUT
  2
AcDbLayout
  3
ObjectDBX Classes
 90
        0
280
     0
281
     0
  0
CLASS
  1
RASTERVARIABLES
  2
AcDbRasterVariables
  3
ISM
 90
        0
280
     0
281
     0
  0
ENDSEC
  0
SECTION
  2
TABLES
  0
TABLE
  2
VPORT
  5
8
330
0
100
AcDbSymbolTable
 70
     1
  0
VPORT
  5
29
330
8
100
AcDbSymbolTableRecord
100
AcDbViewportTableRecord
  2
*Active
 70
     0
 10
0.0
 20
0.0
 11
1.0
 21
1.0
 12
26.0944270526463
 22
-9.103837393615052
 13
0.0
 23
0.0
 14
10.0
 24
10.0
 15
10.0
 25
10.0
 16
0.0
 26
0.0
 36
1.0
 17
0.0
 27
0.0
 37
0.0
 40
107.9088165389845
 41
1.739018087855297
 42
50.0
 43
0.0
 44
0.0
 50
0.0
 51
0.0
 71
    16
 72
  2000
 73
     1
 74
     3
 75
     0
 76
     0
 77
     0
 78
     0
281
     0
 65
     1
110
0.0
120
0.0
130
0.0
111
1.0
121
0.0
131
0.0
112
0.0
122
1.0
132
0.0
 79
     0
146
0.0
  0
ENDTAB
  0
TABLE
  2
LTYPE
  5
5
330
0
100
AcDbSymbolTable
 70
     6
  0
LTYPE
  5
14
330
5
100
AcDbSymbolTableRecord
100
AcDbLinetypeTableRecord
  2
ByBlock
 70
     0
  3

 72
    65
 73
     0
 40
0.0
  0
LTYPE
  5
15
330
5
100
AcDbSymbolTableRecord
100
AcDbLinetypeTableRecord
  2
ByLayer
 70
     0
  3

 72
    65
 73
     0
 40
0.0
  0
LTYPE
  5
16
330
5
100
AcDbSymbolTableRecord
100
AcDbLinetypeTableRecord
  2
Continuous
 70
     0
  3
Solid line
 72
    65
 73
     0
 40
0.0
  0
LTYPE
  5
6E
330
5
100
AcDbSymbolTableRecord
100
AcDbLinetypeTableRecord
  2
HIDDEN
 70
     0
  3
Hidden __ __ __ __ __ __ __ __ __ __ __ __ __ __
 72
    65
 73
     2
 40
1.905
 49
1.27
 74
     0
 49
-0.635
 74
     0
  0
LTYPE
  5
6F
330
5
100
AcDbSymbolTableRecord
100
AcDbLinetypeTableRecord
  2
PHANTOM
 70
     0
  3
Phantom ______  __  __  ______  __  __  ______
 72
    65
 73
     6
 40
12.7
 49
6.35
 74
     0
 49
-1.27
 74
     0
 49
1.27
 74
     0
 49
-1.27
 74
     0
 49
1.27
 74
     0
 49
-1.27
 74
     0
  0
LTYPE
  5
70
330
5
100
AcDbSymbolTableRecord
100
AcDbLinetypeTableRecord
  2
CENTER
 70
     0
  3
Center ____ _ ____ _ ____ _ ____ _ ____ _ ____
 72
    65
 73
     4
 40
10.16
 49
6.35
 74
     0
 49
-1.27
 74
     0
 49
1.27
 74
     0
 49
-1.27
 74
     0
  0
LTYPE
  5
71
330
5
100
AcDbSymbolTableRecord
100
AcDbLinetypeTableRecord
  2
CENTERX2
 70
     0
  3
Center (2x) ________  __  ________  __  _____
 72
    65
 73
     4
 40
20.32
 49
12.7
 74
     0
 49
-2.54
 74
     0
 49
2.54
 74
     0
 49
-2.54
 74
     0
  0
LTYPE
  5
72
330
5
100
AcDbSymbolTableRecord
100
AcDbLinetypeTableRecord
  2
DOT2
 70
     0
  3
Dot (.5x) ........................................
 72
    65
 73
     2
 40
0.635
 49
0.0
 74
     0
 49
-0.635
 74
     0
  0
ENDTAB
  0
TABLE
  2
LAYER
  5
2
330
0
100
AcDbSymbolTable
 70
    17
  0
LAYER
  5
10
330
2
100
AcDbSymbolTableRecord
100
AcDbLayerTableRecord
  2
0
 70
     0
 62
     7
  6
Continuous
370
    -3
390
F
  0
LAYER
  5
73
330
2
100
AcDbSymbolTableRecord
100
AcDbLayerTableRecord
  2
FORMAT
 70
     0
 62
     2
  6
Continuous
370
    -3
390
F
  0
LAYER
  5
74
330
2
100
AcDbSymbolTableRecord
100
AcDbLayerTableRecord
  2
외형선
 70
     0
 62
   100
  6
Continuous
370
    35
390
F
  0
LAYER
  5
75
330
2
100
AcDbSymbolTableRecord
100
AcDbLayerTableRecord
  2
숨은선
 70
     0
 62
     2
  6
HIDDEN
370
    25
390
F
  0
LAYER
  5
76
330
2
100
AcDbSymbolTableRecord
100
AcDbLayerTableRecord
  2
중심선
 70
     0
 62
     1
  6
CENTERX2
370
    -3
390
F
  0
LAYER
  5
77
330
2
100
AcDbSymbolTableRecord
100
AcDbLayerTableRecord
  2
파단선
 70
     0
 62
     4
  6
Continuous
370
    -3
390
F
  0
LAYER
  5
78
330
2
100
AcDbSymbolTableRecord
100
AcDbLayerTableRecord
  2
해칭선
 70
     0
 62
   100
  6
Continuous
370
    -3
390
F
  0
LAYER
  5
79
330
2
100
AcDbSymbolTableRecord
100
AcDbLayerTableRecord
  2
가는실선
 70
     0
 62
     4
  6
Continuous
370
    -3
390
F
  0
LAYER
  5
7A
330
2
100
AcDbSymbolTableRecord
100
AcDbLayerTableRecord
  2
치수_보조선
 70
     0
 62
     4
  6
Continuous
370
    -3
390
F
  0
LAYER
  5
7B
330
2
100
AcDbSymbolTableRecord
100
AcDbLayerTableRecord
  2
치수문자_일반주서
 70
     0
 62
     7
  6
Continuous
370
    25
390
F
  0
LAYER
  5
7C
330
2
100
AcDbSymbolTableRecord
100
AcDbLayerTableRecord
  2
개별주서
 70
     0
 62
   100
  6
Continuous
370
    35
390
F
  0
LAYER
  5
7D
330
2
100
AcDbSymbolTableRecord
100
AcDbLayerTableRecord
  2
중간선
 70
     0
 62
     2
  6
Continuous
370
    25
390
F
  0
LAYER
  5
7E
330
2
100
AcDbSymbolTableRecord
100
AcDbLayerTableRecord
  2
윤곽선
 70
     0
 62
     3
  6
Continuous
370
    50
390
F
  0
LAYER
  5
7F
330
2
100
AcDbSymbolTableRecord
100
AcDbLayerTableRecord
  2
중심마크
 70
     0
 62
   100
  6
Continuous
370
    35
390
F
  0
LAYER
  5
80
330
2
100
AcDbSymbolTableRecord
100
AcDbLayerTableRecord
  2
가상선
 70
     0
 62
     4
  6
PHANTOM
370
    -3
390
F
  0
LAYER
  5
81
330
2
100
AcDbSymbolTableRecord
100
AcDbLayerTableRecord
  2
특수지정선
 70
     0
 62
     5
  6
CENTERX2
370
    70
390
F
  0
LAYER
  5
139
330
2
100
AcDbSymbolTableRecord
100
AcDbLayerTableRecord
  2
Defpoints
 70
     0
 62
     7
  6
Continuous
290
     0
370
    -3
390
F
  0
ENDTAB
  0
TABLE
  2
STYLE
  5
3
330
0
100
AcDbSymbolTable
 70
     2
  0
STYLE
  5
11
330
3
100
AcDbSymbolTableRecord
100
AcDbTextStyleTableRecord
  2
Standard
 70
     0
 40
0.0
 41
1.0
 50
0.0
 71
     0
 42
3.5
  3
txt
  4

  0
STYLE
  5
97
330
3
100
AcDbSymbolTableRecord
100
AcDbTextStyleTableRecord
  2
SLDTEXTSTYLE0
 70
     0
 40
0.0
 41
0.75
 50
0.0
 71
     0
 42
3.5
  3
TXT
  4

  0
ENDTAB
  0
TABLE
  2
VIEW
  5
6
330
0
100
AcDbSymbolTable
 70
     0
  0
ENDTAB
  0
TABLE
  2
UCS
  5
7
330
0
100
AcDbSymbolTable
 70
     0
  0
ENDTAB
  0
TABLE
  2
APPID
  5
9
330
0
100
AcDbSymbolTable
 70
     1
  0
APPID
  5
12
330
9
100
AcDbSymbolTableRecord
100
AcDbRegAppTableRecord
  2
ACAD
 70
     0
  0
ENDTAB
  0
TABLE
  2
DIMSTYLE
  5
A
330
0
100
AcDbSymbolTable
 70
     4
100
AcDbDimStyleTable
  0
DIMSTYLE
105
27
330
A
100
AcDbSymbolTableRecord
100
AcDbDimStyleTableRecord
  2
ISO-25
 70
     0
 41
2.5
 42
0.625
 43
3.75
 44
1.25
 73
     0
 74
     0
 77
     1
 78
     8
140
2.5
141
2.5
143
0.03937007874016
147
0.625
171
     3
172
     1
178
     0
271
     2
272
     2
274
     3
278
    44
283
     0
284
     8
340
11
  0
DIMSTYLE
105
DE
102
{ACAD_REACTORS
330
DD
102
}
330
A
100
AcDbSymbolTableRecord
100
AcDbDimStyleTableRecord
  2
SLDDIMSTYLE0
 70
     0
 41
3.302
 44
0.0
 45
0.000000001
 73
     0
 74
     0
 77
     1
 78
    12
 79
     3
140
3.5
147
0.875
172
     1
173
     1
178
     0
271
     1
272
     1
276
     2
284
    12
289
     0
340
97
  0
DIMSTYLE
105
EC
102
{ACAD_REACTORS
330
EB
330
104
102
}
330
A
100
AcDbSymbolTableRecord
100
AcDbDimStyleTableRecord
  2
SLDDIMSTYLE1
 70
     0
 41
3.302
 44
0.0
 45
0.000000001
 73
     0
 74
     0
 77
     1
 78
    12
 79
     3
140
3.5
147
0.875
173
     1
178
     0
271
     2
272
     2
276
     2
284
    12
340
97
  0
DIMSTYLE
105
F7
102
{ACAD_REACTORS
330
F6
102
}
330
A
100
AcDbSymbolTableRecord
100
AcDbDimStyleTableRecord
  2
SLDDIMSTYLE2
 70
     0
 41
3.302
 44
0.0
 45
0.000000001
 73
     0
 74
     0
 77
     1
 78
    12
 79
     3
140
3.5
147
0.875
172
     1
173
     1
178
     0
271
     2
272
     2
276
     2
284
    12
289
     0
340
97
  0
ENDTAB
  0
TABLE
  2
BLOCK_RECORD
  5
1
330
0
100
AcDbSymbolTable
 70
     7
  0
BLOCK_RECORD
  5
1F
330
1
100
AcDbSymbolTableRecord
100
AcDbBlockTableRecord
  2
*Model_Space
340
22
  0
BLOCK_RECORD
  5
1B
330
1
100
AcDbSymbolTableRecord
100
AcDbBlockTableRecord
  2
*Paper_Space
340
1E
  0
BLOCK_RECORD
  5
23
330
1
100
AcDbSymbolTableRecord
100
AcDbBlockTableRecord
  2
*Paper_Space0
340
26
  0
BLOCK_RECORD
  5
82
330
1
100
AcDbSymbolTableRecord
100
AcDbBlockTableRecord
  2
블럭10
340
0
102
{BLKREFS
331
D6
102
}
  0
BLOCK_RECORD
  5
DF
330
1
100
AcDbSymbolTableRecord
100
AcDbBlockTableRecord
  2
_D
340
0
  0
BLOCK_RECORD
  5
ED
330
1
100
AcDbSymbolTableRecord
100
AcDbBlockTableRecord
  2
_D_1
340
0
  0
BLOCK_RECORD
  5
F8
330
1
100
AcDbSymbolTableRecord
100
AcDbBlockTableRecord
  2
_D_2
340
0
  0
BLOCK_RECORD
  5
105
330
1
100
AcDbSymbolTableRecord
100
AcDbBlockTableRecord
  2
_D_3
340
0
  0
BLOCK_RECORD
  5
10E
330
1
100
AcDbSymbolTableRecord
100
AcDbBlockTableRecord
  2
SW_DOWELSYMBOL_0
340
0
102
{BLKREFS
331
114
102
}
  0
ENDTAB
  0
ENDSEC
  0
SECTION
  2
BLOCKS
  0
BLOCK
  5
20
330
1F
100
AcDbEntity
  8
0
100
AcDbBlockBegin
  2
*Model_Space
 70
     0
 10
0.0
 20
0.0
 30
0.0
  3
*Model_Space
  1

  0
ENDBLK
  5
21
330
1F
100
AcDbEntity
  8
0
100
AcDbBlockEnd
  0
BLOCK
  5
1C
330
1B
100
AcDbEntity
 67
     1
  8
0
100
AcDbBlockBegin
  2
*Paper_Space
 70
     0
 10
0.0
 20
0.0
 30
0.0
  3
*Paper_Space
  1

  0
ENDBLK
  5
1D
330
1B
100
AcDbEntity
 67
     1
  8
0
100
AcDbBlockEnd
  0
BLOCK
  5
24
330
23
100
AcDbEntity
  8
0
100
AcDbBlockBegin
  2
*Paper_Space0
 70
     0
 10
0.0
 20
0.0
 30
0.0
  3
*Paper_Space0
  1

  0
ENDBLK
  5
25
330
23
100
AcDbEntity
  8
0
100
AcDbBlockEnd
  0
BLOCK
  5
83
330
82
100
AcDbEntity
  8
0
100
AcDbBlockBegin
  2
블럭10
 70
     2
 10
0.0
 20
0.0
 30
0.0
  3
블럭10
  1

  0
ELLIPSE
  5
85
330
82
100
AcDbEntity
  8
중심선
100
AcDbEllipse
 10
20.54032771741204
 20
12.0471743016438
 30
0.0
 11
6.600054785286829
 21
-1.261213355974178E-13
 31
0.0
210
0.0
220
0.0
230
1.0
 40
0.636358354079598
 41
0.9219305317359503
 42
6.513795318482858
  0
ELLIPSE
  5
86
330
82
100
AcDbEntity
  8
중심선
100
AcDbEllipse
 10
20.54032771746488
 20
12.04717430159265
 30
0.0
 11
3.960054785062283
 21
1.540847449632565E-10
 31
0.0
210
0.0
220
0.0
230
1.0
 40
0.3939339440162632
 41
1.131841032648279
 42
5.62031148352944
  0
LINE
  5
87
330
82
100
AcDbEntity
  8
중심선
100
AcDbLine
 10
2.268634060543552
 20
16.24717430164393
 30
0.0
 11
5.714909304380834
 21
16.24717430164393
 31
0.0
  0
LINE
  5
88
330
82
100
AcDbEntity
  8
중심선
100
AcDbLine
 10
5.245725140726316
 20
7.84717430164391
 30
0.0
 11
8.692000384563599
 21
7.84717430164391
 31
0.0
  0
LINE
  5
89
330
82
100
AcDbEntity
  8
중심선
100
AcDbLine
 10
15.74043728645272
 20
16.24717430164393
 30
0.0
 11
8.692000384563599
 21
7.84717430164391
 31
0.0
  0
LINE
  5
8A
330
82
100
AcDbEntity
  8
중심선
100
AcDbLine
 10
0.1404042013395286
 20
13.71084872107135
 30
0.0
 11
3.58671253028996
 21
13.71088815037384
 31
0.0
  0
LINE
  5
8B
330
82
100
AcDbEntity
  8
중심선
100
AcDbLine
 10
2.750260043222114
 20
10.84717430164391
 30
0.0
 11
6.196535287059397
 21
10.84717430164391
 31
0.0
  0
LINE
  5
8C
330
82
100
AcDbEntity
  8
중심선
100
AcDbLine
 10
12.29416204261559
 20
16.24717430164393
 30
0.0
 11
5.245725140726316
 21
7.84717430164391
 31
0.0
  0
LINE
  5
8D
330
82
100
AcDbEntity
  8
중심선
100
AcDbLine
 10
10.72767329541681
 20
16.24717430164393
 30
0.0
 11
6.196535287059397
 21
10.84717430164391
 31
0.0
  0
LINE
  5
8E
330
82
100
AcDbEntity
  8
중심선
100
AcDbLine
 10
7.28139805157953
 20
16.24717430164393
 30
0.0
 11
2.750260043222114
 21
10.84717430164391
 31
0.0
  0
LINE
  5
8F
330
82
100
AcDbEntity
  8
중심선
100
AcDbLine
 10
5.714909304380834
 20
16.24717430164393
 30
0.0
 11
3.58671253028996
 21
13.71088815037384
 31
0.0
  0
LINE
  5
90
330
82
100
AcDbEntity
  8
중심선
100
AcDbLine
 10
2.268634060543552
 20
16.24717430164393
 30
0.0
 11
0.1404042013395286
 21
13.71084872107135
 31
0.0
  0
LINE
  5
91
330
82
100
AcDbEntity
  8
중심선
100
AcDbLine
 10
7.28139805157953
 20
16.24717430164393
 30
0.0
 11
10.72767329541681
 21
16.24717430164393
 31
0.0
  0
LINE
  5
92
330
82
100
AcDbEntity
  8
중심선
100
AcDbLine
 10
12.29416204261559
 20
16.24717430164393
 30
0.0
 11
15.74043728645272
 21
16.24717430164393
 31
0.0
  0
LINE
  5
93
330
82
100
AcDbEntity
  8
중심선
100
AcDbLine
 10
19.22036997980202
 20
11.08717430171403
 30
0.0
 11
23.66174974927406
 21
11.08717430171406
 31
0.0
  0
LINE
  5
94
330
82
100
AcDbEntity
  8
중심선
100
AcDbLine
 10
19.22039502424796
 20
13.00717430171391
 30
0.0
 11
19.22036997980202
 21
11.08717430171403
 31
0.0
  0
LINE
  5
95
330
82
100
AcDbEntity
  8
중심선
100
AcDbLine
 10
19.22039502424796
 20
13.00717430171391
 30
0.0
 11
26.96566020931264
 21
13.00717430171391
 31
0.0
  0
LINE
  5
96
330
82
100
AcDbEntity
  8
중심선
100
AcDbLine
 10
22.22332737316547
 20
13.45928029700563
 30
0.0
 11
24.52862924686651
 21
15.39360700705356
 31
0.0
  0
ATTDEF
  5
98
330
82
100
AcDbEntity
  8
FORMAT
 62
     2
100
AcDbText
 10
-16.11926103943555
 20
2.075366912832191
 30
0.0
 40
4.233333333333333
  1
SEME7220090E [ 4 FLUTE ]
 41
0.75
  7
SLDTEXTSTYLE0
 11
-16.11926103943555
 21
-0.0412997538344756
 31
0.0
100
AcDbAttributeDefinition
  3

  2
AUTOATTR0
 70
     0
 74
     1
  0
ENDBLK
  5
84
330
82
100
AcDbEntity
  8
0
100
AcDbBlockEnd
  0
BLOCK
  5
E0
330
DF
100
AcDbEntity
  8
0
100
AcDbBlockBegin
  2
_D
 70
     0
 10
0.0
 20
0.0
 30
0.0
  3
_D
  1

  0
LINE
  5
E2
330
DF
100
AcDbEntity
  8
치수문자_일반주서
 62
     0
370
    -2
100
AcDbLine
 10
102.0625
 20
-10.00000000000002
 30
0.0
 11
117.5320269547801
 21
-9.999999999999961
 31
0.0
  0
LINE
  5
E3
330
DF
100
AcDbEntity
  8
치수문자_일반주서
 62
     0
370
    -2
100
AcDbLine
 10
102.0625
 20
10.0
 30
0.0
 11
117.53202695478
 21
10.00000000000006
 31
0.0
  0
LINE
  5
E4
330
DF
100
AcDbEntity
  8
치수문자_일반주서
 62
     0
370
    -2
100
AcDbLine
 10
117.5320269547801
 20
-9.999999999999961
 30
0.0
 11
117.5320269547799
 21
24.91650000000006
 31
0.0
  0
LINE
  5
E5
330
DF
100
AcDbEntity
  8
치수문자_일반주서
 62
     0
370
    -2
100
AcDbLine
 10
117.5320269547801
 20
-9.999999999999961
 30
0.0
 11
117.53202695478
 21
10.00000000000006
 31
0.0
  0
LINE
  5
E6
330
DF
100
AcDbEntity
  8
치수문자_일반주서
 62
     0
370
    -2
100
AcDbLine
 10
117.5320269547801
 20
-13.30199999999996
 30
0.0
 11
117.5320269547801
 21
-16.60399999999996
 31
0.0
  0
LINE
  5
E7
330
DF
100
AcDbEntity
  8
치수문자_일반주서
 62
     0
370
    -2
100
AcDbLine
 10
117.53202695478
 20
13.30200000000006
 30
0.0
 11
117.53202695478
 21
16.60400000000006
 31
0.0
  0
SOLID
  5
E8
330
DF
100
AcDbEntity
  8
치수문자_일반주서
 62
     0
100
AcDbTrace
 10
118.0823602881134
 20
-13.30199999999996
 30
0.0
 11
116.9816936214468
 21
-13.30199999999996
 31
0.0
 12
117.5320269547801
 22
-9.999999999999961
 32
0.0
 13
117.5320269547801
 23
-9.999999999999961
 33
0.0
  0
SOLID
  5
E9
330
DF
100
AcDbEntity
  8
치수문자_일반주서
 62
     0
100
AcDbTrace
 10
116.9816936214467
 20
13.30200000000005
 30
0.0
 11
118.0823602881133
 21
13.30200000000006
 31
0.0
 12
117.53202695478
 22
10.00000000000006
 32
0.0
 13
117.53202695478
 23
10.00000000000006
 33
0.0
  0
MTEXT
  5
EA
330
DF
100
AcDbEntity
  8
치수문자_일반주서
 62
     0
100
AcDbMText
 10
113.15702695478
 20
20.76025000000005
 30
0.0
 40
3.5
 41
0.0
 71
     2
 72
     1
  1
\A1;%%c20
  7
SLDTEXTSTYLE0
 11
-3.552713678800497E-15
 21
1.0
 31
0.0
 73
     1
 44
1.0
  0
POINT
  5
143
330
DF
100
AcDbEntity
  8
Defpoints
 62
     0
100
AcDbPoint
 10
102.0
 20
-10.00000000000002
 30
0.0
  0
POINT
  5
144
330
DF
100
AcDbEntity
  8
Defpoints
 62
     0
100
AcDbPoint
 10
102.0
 20
10.0
 30
0.0
  0
POINT
  5
145
330
DF
100
AcDbEntity
  8
Defpoints
 62
     0
100
AcDbPoint
 10
117.53202695478
 20
10.00000000000006
 30
0.0
  0
ENDBLK
  5
E1
330
DF
100
AcDbEntity
  8
0
100
AcDbBlockEnd
  0
BLOCK
  5
EE
330
ED
100
AcDbEntity
  8
0
100
AcDbBlockBegin
  2
_D_1
 70
     0
 10
0.0
 20
0.0
 30
0.0
  3
_D_1
  1

  0
LINE
  5
F0
330
ED
100
AcDbEntity
  8
치수문자_일반주서
 62
     0
370
    -2
100
AcDbLine
 10
-48.0
 20
9.562499999999988
 30
0.0
 11
-48.00000000000001
 21
27.38913260158164
 31
0.0
  0
LINE
  5
F1
330
ED
100
AcDbEntity
  8
치수문자_일반주서
 62
     0
370
    -2
100
AcDbLine
 10
102.0
 20
10.06250000000001
 30
0.0
 11
102.0
 21
27.38913260158164
 31
0.0
  0
LINE
  5
F2
330
ED
100
AcDbEntity
  8
치수문자_일반주서
 62
     0
370
    -2
100
AcDbLine
 10
-44.69800000000001
 20
27.38913260158164
 30
0.0
 11
98.69800000000001
 21
27.38913260158164
 31
0.0
  0
SOLID
  5
F3
330
ED
100
AcDbEntity
  8
치수문자_일반주서
 62
     0
100
AcDbTrace
 10
-44.69800000000001
 20
27.93946593491497
 30
0.0
 11
-44.69800000000001
 21
26.83879926824831
 31
0.0
 12
-48.00000000000001
 22
27.38913260158164
 32
0.0
 13
-48.00000000000001
 23
27.38913260158164
 33
0.0
  0
SOLID
  5
F4
330
ED
100
AcDbEntity
  8
치수문자_일반주서
 62
     0
100
AcDbTrace
 10
98.69800000000001
 20
26.83879926824831
 30
0.0
 11
98.69800000000001
 21
27.93946593491497
 31
0.0
 12
102.0
 22
27.38913260158164
 32
0.0
 13
102.0
 23
27.38913260158164
 33
0.0
  0
MTEXT
  5
F5
330
ED
100
AcDbEntity
  8
치수문자_일반주서
 62
     0
100
AcDbMText
 10
26.99999999999999
 20
31.76413260158164
 30
0.0
 40
3.5
 41
0.0
 71
     2
 72
     1
  1
\A1;150
  7
SLDTEXTSTYLE0
 73
     1
 44
1.0
  0
POINT
  5
13A
330
ED
100
AcDbEntity
  8
Defpoints
 62
     0
100
AcDbPoint
 10
-48.0
 20
9.499999999999988
 30
0.0
  0
POINT
  5
13B
330
ED
100
AcDbEntity
  8
Defpoints
 62
     0
100
AcDbPoint
 10
102.0
 20
10.00000000000001
 30
0.0
  0
POINT
  5
13C
330
ED
100
AcDbEntity
  8
Defpoints
 62
     0
100
AcDbPoint
 10
102.0
 20
27.38913260158164
 30
0.0
  0
ENDBLK
  5
EF
330
ED
100
AcDbEntity
  8
0
100
AcDbBlockEnd
  0
BLOCK
  5
F9
330
F8
100
AcDbEntity
  8
0
100
AcDbBlockBegin
  2
_D_2
 70
     0
 10
0.0
 20
0.0
 30
0.0
  3
_D_2
  1

  0
LINE
  5
FB
330
F8
100
AcDbEntity
  8
치수문자_일반주서
 62
     0
370
    -2
100
AcDbLine
 10
-47.5625
 20
10.0
 30
0.0
 11
-61.51850618282077
 21
9.99999999999995
 31
0.0
  0
LINE
  5
FC
330
F8
100
AcDbEntity
  8
치수문자_일반주서
 62
     0
370
    -2
100
AcDbLine
 10
-47.5625
 20
-10.00000000000002
 30
0.0
 11
-61.5185061828207
 21
-10.00000000000007
 31
0.0
  0
LINE
  5
FD
330
F8
100
AcDbEntity
  8
치수문자_일반주서
 62
     0
370
    -2
100
AcDbLine
 10
-61.51850618282077
 20
9.99999999999995
 30
0.0
 11
-61.51850618282082
 21
24.91649999999994
 31
0.0
  0
LINE
  5
FE
330
F8
100
AcDbEntity
  8
치수문자_일반주서
 62
     0
370
    -2
100
AcDbLine
 10
-61.51850618282077
 20
9.99999999999995
 30
0.0
 11
-61.5185061828207
 21
-10.00000000000007
 31
0.0
  0
LINE
  5
FF
330
F8
100
AcDbEntity
  8
치수문자_일반주서
 62
     0
370
    -2
100
AcDbLine
 10
-61.51850618282079
 20
13.30199999999995
 30
0.0
 11
-61.5185061828208
 21
16.60399999999995
 31
0.0
  0
LINE
  5
100
330
F8
100
AcDbEntity
  8
치수문자_일반주서
 62
     0
370
    -2
100
AcDbLine
 10
-61.51850618282069
 20
-13.30200000000007
 30
0.0
 11
-61.51850618282067
 21
-16.60400000000007
 31
0.0
  0
SOLID
  5
101
330
F8
100
AcDbEntity
  8
치수문자_일반주서
 62
     0
100
AcDbTrace
 10
-62.06883951615412
 20
13.30199999999995
 30
0.0
 11
-60.96817284948745
 21
13.30199999999995
 31
0.0
 12
-61.51850618282077
 22
9.99999999999995
 32
0.0
 13
-61.51850618282077
 23
9.99999999999995
 33
0.0
  0
SOLID
  5
102
330
F8
100
AcDbEntity
  8
치수문자_일반주서
 62
     0
100
AcDbTrace
 10
-60.96817284948735
 20
-13.30200000000007
 30
0.0
 11
-62.06883951615402
 21
-13.30200000000007
 31
0.0
 12
-61.5185061828207
 22
-10.00000000000007
 32
0.0
 13
-61.5185061828207
 23
-10.00000000000007
 33
0.0
  0
MTEXT
  5
103
330
F8
100
AcDbEntity
  8
치수문자_일반주서
 62
     0
100
AcDbMText
 10
-65.8935061828208
 20
20.76024999999993
 30
0.0
 40
3.5
 41
0.0
 71
     2
 72
     1
  1
\A1;%%c20
  7
SLDTEXTSTYLE0
 11
-3.552713678800498E-15
 21
1.0
 31
0.0
 73
     1
 44
1.0
  0
POINT
  5
140
330
F8
100
AcDbEntity
  8
Defpoints
 62
     0
100
AcDbPoint
 10
-47.5
 20
10.0
 30
0.0
  0
POINT
  5
141
330
F8
100
AcDbEntity
  8
Defpoints
 62
     0
100
AcDbPoint
 10
-47.5
 20
-10.00000000000002
 30
0.0
  0
POINT
  5
142
330
F8
100
AcDbEntity
  8
Defpoints
 62
     0
100
AcDbPoint
 10
-61.51850618282069
 20
-10.00000000000007
 30
0.0
  0
ENDBLK
  5
FA
330
F8
100
AcDbEntity
  8
0
100
AcDbBlockEnd
  0
BLOCK
  5
106
330
105
100
AcDbEntity
  8
0
100
AcDbBlockBegin
  2
_D_3
 70
     0
 10
0.0
 20
0.0
 30
0.0
  3
_D_3
  1

  0
LINE
  5
108
330
105
100
AcDbEntity
  8
치수문자_일반주서
 62
     0
370
    -2
100
AcDbLine
 10
12.0
 20
9.874090833943919
 30
0.0
 11
12.0
 21
20.65750913653157
 31
0.0
  0
LINE
  5
109
330
105
100
AcDbEntity
  8
치수문자_일반주서
 62
     0
370
    -2
100
AcDbLine
 10
102.0
 20
10.06250000000001
 30
0.0
 11
102.0
 21
20.65750913653157
 31
0.0
  0
LINE
  5
10A
330
105
100
AcDbEntity
  8
치수문자_일반주서
 62
     0
370
    -2
100
AcDbLine
 10
15.302
 20
20.65750913653157
 30
0.0
 11
98.69800000000001
 21
20.65750913653157
 31
0.0
  0
SOLID
  5
10B
330
105
100
AcDbEntity
  8
치수문자_일반주서
 62
     0
100
AcDbTrace
 10
15.302
 20
21.2078424698649
 30
0.0
 11
15.302
 21
20.10717580319823
 31
0.0
 12
12.0
 22
20.65750913653157
 32
0.0
 13
12.0
 23
20.65750913653157
 33
0.0
  0
SOLID
  5
10C
330
105
100
AcDbEntity
  8
치수문자_일반주서
 62
     0
100
AcDbTrace
 10
98.69800000000001
 20
20.10717580319823
 30
0.0
 11
98.69800000000001
 21
21.2078424698649
 31
0.0
 12
102.0
 22
20.65750913653157
 32
0.0
 13
102.0
 23
20.65750913653157
 33
0.0
  0
MTEXT
  5
10D
330
105
100
AcDbEntity
  8
치수문자_일반주서
 62
     0
100
AcDbMText
 10
57.0
 20
25.03250913653157
 30
0.0
 40
3.5
 41
0.0
 71
     2
 72
     1
  1
\A1;90
  7
SLDTEXTSTYLE0
 73
     1
 44
1.0
  0
POINT
  5
13D
330
105
100
AcDbEntity
  8
Defpoints
 62
     0
100
AcDbPoint
 10
12.0
 20
9.811590833943919
 30
0.0
  0
POINT
  5
13E
330
105
100
AcDbEntity
  8
Defpoints
 62
     0
100
AcDbPoint
 10
102.0
 20
10.00000000000001
 30
0.0
  0
POINT
  5
13F
330
105
100
AcDbEntity
  8
Defpoints
 62
     0
100
AcDbPoint
 10
102.0
 20
20.65750913653157
 30
0.0
  0
ENDBLK
  5
107
330
105
100
AcDbEntity
  8
0
100
AcDbBlockEnd
  0
BLOCK
  5
10F
330
10E
100
AcDbEntity
  8
0
100
AcDbBlockBegin
  2
SW_DOWELSYMBOL_0
 70
     0
 10
0.0
 20
0.0
 30
0.0
  3
SW_DOWELSYMBOL_0
  1

  0
CIRCLE
  5
111
330
10E
100
AcDbEntity
  8
해칭선
 62
     0
100
AcDbCircle
 10
0.0
 20
0.0
 30
0.0
 40
3.000000000000003
  0
HATCH
  5
112
330
10E
100
AcDbEntity
  8
0
  6
Continuous
 62
     0
370
    18
100
AcDbHatch
 10
0.0
 20
0.0
 30
0.0
210
0.0
220
0.0
230
1.0
  2
SOLID
 70
     1
 71
     0
 91
        1
 92
        0
 93
        3
 72
     2
 10
0.0
 20
0.0
 40
3.000000000000003
 50
0.0
 51
90.0
 73
     1
 72
     1
 10
0.0
 20
3.000000000000003
 11
0.0
 21
0.0
 72
     1
 10
0.0
 20
0.0
 11
3.000000000000003
 21
0.0
 97
        0
 75
     0
 76
     1
 98
        1
 10
0.0
 20
0.0
  0
HATCH
  5
113
330
10E
100
AcDbEntity
  8
0
  6
Continuous
 62
     0
370
    18
100
AcDbHatch
 10
0.0
 20
0.0
 30
0.0
210
0.0
220
0.0
230
1.0
  2
SOLID
 70
     1
 71
     0
 91
        1
 92
        0
 93
        3
 72
     2
 10
0.0
 20
0.0
 40
3.000000000000003
 50
180.0
 51
270.0000000000008
 73
     1
 72
     1
 10
0.0
 20
-3.000000000000003
 11
0.0
 21
0.0
 72
     1
 10
0.0
 20
0.0
 11
-3.000000000000003
 21
0.0
 97
        0
 75
     0
 76
     1
 98
        1
 10
0.0
 20
0.0
  0
ENDBLK
  5
110
330
10E
100
AcDbEntity
  8
0
100
AcDbBlockEnd
  0
ENDSEC
  0
SECTION
  2
ENTITIES
  0
LINE
  5
99
330
1F
100
AcDbEntity
  8
0
  6
Continuous
 62
     4
370
    25
100
AcDbLine
 10
10.50999167087669
 20
9.999999999999995
 30
0.0
 11
-47.5
 21
9.999999999999991
 31
0.0
  0
LINE
  5
9A
330
1F
100
AcDbEntity
  8
0
  6
Continuous
 62
     4
370
    25
100
AcDbLine
 10
-47.5
 20
-10.00000000000001
 30
0.0
 11
10.50999167087667
 21
-10.00000000000001
 31
0.0
  0
LINE
  5
9B
330
1F
100
AcDbEntity
  8
0
  6
Continuous
 62
     4
370
    25
100
AcDbLine
 10
-47.5
 20
9.999999999999988
 30
0.0
 11
-48.0
 21
9.499999999999988
 31
0.0
  0
LINE
  5
9C
330
1F
100
AcDbEntity
  8
0
  6
Continuous
 62
     4
370
    25
100
AcDbLine
 10
-48.0
 20
-9.500000000000009
 30
0.0
 11
-47.5
 21
-10.00000000000001
 31
0.0
  0
LINE
  5
9D
330
1F
100
AcDbEntity
  8
0
  6
Continuous
 62
     1
370
    25
100
AcDbLine
 10
98.13154900066249
 20
-10.00000000000002
 30
0.0
 11
102.0
 21
-10.00000000000002
 31
0.0
  0
LINE
  5
9E
330
1F
100
AcDbEntity
  8
0
  6
Continuous
 62
     1
370
    25
100
AcDbLine
 10
51.45503813156266
 20
10.0
 30
0.0
 11
43.71750301182315
 21
10.0
 31
0.0
  0
LINE
  5
9F
330
1F
100
AcDbEntity
  8
0
  6
Continuous
 62
     1
370
    25
100
AcDbLine
 10
19.08148195867046
 20
-1.477420362804918
 30
0.0
 11
18.99319465611972
 21
-1.428553455080513
 31
0.0
  0
LINE
  5
A0
330
1F
100
AcDbEntity
  8
0
  6
Continuous
 62
     1
370
    25
100
AcDbLine
 10
19.43819248662332
 20
-1.674859178469025
 30
0.0
 11
19.17274396488017
 21
-1.527933765155515
 31
0.0
  0
LINE
  5
A1
330
1F
100
AcDbEntity
  8
0
  6
Continuous
 62
     1
370
    25
100
AcDbLine
 10
101.859370474377
 20
2.291785681983491
 30
0.0
 11
102.0
 21
2.222083174755545
 31
0.0
  0
LINE
  5
A2
330
1F
100
AcDbEntity
  8
0
  6
Continuous
 62
     1
370
    25
100
AcDbLine
 10
70.92567572164987
 20
-10.00000000000002
 30
0.0
 11
78.66282809354047
 21
-10.00000000000002
 31
0.0
  0
LINE
  5
A3
330
1F
100
AcDbEntity
  8
0
  6
Continuous
 62
     1
370
    25
100
AcDbLine
 10
24.24786732647831
 20
10.0
 30
0.0
 11
16.51163617288729
 21
10.0
 31
0.0
  0
LINE
  5
A4
330
1F
100
AcDbEntity
  8
0
  6
Continuous
 62
     1
370
    25
100
AcDbLine
 10
16.51163617288731
 20
-10.00000000000002
 30
0.0
 11
24.24786732647824
 21
-10.00000000000002
 31
0.0
  0
LINE
  5
A5
330
1F
100
AcDbEntity
  8
0
  6
Continuous
 62
     1
370
    25
100
AcDbLine
 10
78.66282809354044
 20
10.0
 30
0.0
 11
70.92567572164998
 21
10.0
 31
0.0
  0
LINE
  5
A6
330
1F
100
AcDbEntity
  8
0
  6
Continuous
 62
     1
370
    25
100
AcDbLine
 10
43.71750301182317
 20
-10.00000000000002
 30
0.0
 11
51.45503813156255
 21
-10.00000000000002
 31
0.0
  0
LINE
  5
A7
330
1F
100
AcDbEntity
  8
0
  6
Continuous
 62
     1
370
    25
100
AcDbLine
 10
102.0
 20
10.0
 30
0.0
 11
98.13154900066246
 21
10.0
 31
0.0
  0
SPLINE
  5
A8
330
1F
100
AcDbEntity
  8
0
  6
Continuous
 62
     4
370
    25
100
AcDbSpline
210
0.0
220
0.0
230
1.0
 70
    24
 71
     3
 72
    18
 73
    14
 74
     0
 42
0.000000001
 43
0.00000001
 40
0.0
 40
0.0
 40
0.0
 40
0.0
 40
0.2500000000000001
 40
0.2500000000000001
 40
0.4999999999999999
 40
0.4999999999999999
 40
0.6249999999999999
 40
0.6249999999999999
 40
0.7499999999999999
 40
0.7499999999999999
 40
0.875
 40
0.875
 40
1.0
 40
1.0
 40
1.0
 40
1.0
 10
12.0
 20
1.932015866205018
 30
0.0
 10
12.0
 20
1.721390934758954
 30
0.0
 10
12.0
 20
1.421479282418471
 30
0.0
 10
12.0
 20
0.6318202840283472
 30
0.0
 10
12.0
 20
0.162407465106345
 30
0.0
 10
12.0
 20
-0.6594681417736803
 30
0.0
 10
12.0
 20
-0.9520017372359489
 30
0.0
 10
12.0
 20
-1.554866942457194
 30
0.0
 10
12.0
 20
-1.867765260856225
 30
0.0
 10
12.0
 20
-2.517075738186511
 30
0.0
 10
12.0
 20
-2.853489742730999
 30
0.0
 10
12.0
 20
-3.525481200097296
 30
0.0
 10
12.0
 20
-3.8640938955703
 30
0.0
 10
12.0
 20
-4.205323203626034
 30
0.0
  0
SPLINE
  5
A9
330
1F
100
AcDbEntity
  8
0
  6
Continuous
 62
     4
370
    25
100
AcDbSpline
210
0.0
220
0.0
230
1.0
 70
     8
 71
     3
 72
    14
 73
    10
 74
     0
 42
0.000000001
 43
0.00000001
 40
0.0
 40
0.0
 40
0.0
 40
0.0
 40
0.25
 40
0.25
 40
0.5
 40
0.5
 40
0.75
 40
0.75
 40
1.0
 40
1.0
 40
1.0
 40
1.0
 10
11.50803356216463
 20
-7.414664774863041
 30
0.0
 10
11.35018963214749
 20
-7.353549239752478
 30
0.0
 10
11.20835464452436
 20
-7.278597657203821
 30
0.0
 10
10.95576262461934
 20
-7.099052744095816
 30
0.0
 10
10.84695516648867
 20
-6.994927526622885
 30
0.0
 10
10.67351049842614
 20
-6.766293106396589
 30
0.0
 10
10.60713781628519
 20
-6.639033530441238
 30
0.0
 10
10.52101475206207
 20
-6.373798979830734
 30
0.0
 10
10.49991250821521
 20
-6.233346847856127
 30
0.0
 10
10.49991250821521
 20
-6.088939758703687
 30
0.0
  0
SPLINE
  5
AA
330
1F
100
AcDbEntity
  8
0
  6
Continuous
 62
     4
370
    25
100
AcDbSpline
210
0.0
220
0.0
230
1.0
 70
     8
 71
     3
 72
    16
 73
    12
 74
     0
 42
0.000000001
 43
0.00000001
 40
0.0
 40
0.0
 40
0.0
 40
0.0
 40
0.25
 40
0.25
 40
0.5
 40
0.5
 40
0.625
 40
0.625
 40
0.75
 40
0.75
 40
1.0
 40
1.0
 40
1.0
 40
1.0
 10
10.49991250821521
 20
-0.0631912082820228
 30
0.0
 10
10.49991250821521
 20
0.1637388787919059
 30
0.0
 10
10.53181940138807
 20
0.3853511582187094
 30
0.0
 10
10.66735353451237
 20
0.8167411676414459
 30
0.0
 10
10.7683722641363
 20
1.017015590878122
 30
0.0
 10
10.96907874863515
 20
1.28775034104739
 30
0.0
 10
11.0442038761655
 20
1.372657400577489
 30
0.0
 10
11.20572948543139
 20
1.526415170237599
 30
0.0
 10
11.2927450240564
 20
1.596153406533424
 30
0.0
 10
11.57300915869362
 20
1.783634902681132
 30
0.0
 10
11.78004801646435
 20
1.875905823886942
 30
0.0
 10
12.0
 20
1.932015866205021
 30
0.0
  0
SPLINE
  5
AB
330
1F
100
AcDbEntity
  8
0
  6
Continuous
 62
     4
370
    25
100
AcDbSpline
210
0.0
220
0.0
230
1.0
 70
     8
 71
     3
 72
    14
 73
    10
 74
     0
 42
0.000000001
 43
0.00000001
 40
0.0
 40
0.0
 40
0.0
 40
0.0
 40
0.2500000000000001
 40
0.2500000000000001
 40
0.5
 40
0.5
 40
0.75
 40
0.75
 40
1.0
 40
1.0
 40
1.0
 40
1.0
 10
11.50803356216464
 20
6.709899125646775
 30
0.0
 10
11.35018963214749
 20
6.777433852607002
 30
0.0
 10
11.20835464452437
 20
6.858476103303428
 30
0.0
 10
10.95576262461935
 20
7.044155623748155
 30
0.0
 10
10.84695516648868
 20
7.148133100449478
 30
0.0
 10
10.67351049842614
 20
7.364923320902807
 30
0.0
 10
10.60713781628519
 20
7.480222732319737
 30
0.0
 10
10.52101475206207
 20
7.707475910318807
 30
0.0
 10
10.49991250821521
 20
7.821670363302928
 30
0.0
 10
10.49991250821521
 20
7.932516159131128
 30
0.0
  0
SPLINE
  5
AC
330
1F
100
AcDbEntity
  8
0
  6
Continuous
 62
     4
370
    25
100
AcDbSpline
210
0.0
220
0.0
230
1.0
 70
     8
 71
     3
 72
     8
 73
     4
 74
     0
 42
0.000000001
 43
0.00000001
 40
0.0
 40
0.0
 40
0.0
 40
0.0
 40
1.0
 40
1.0
 40
1.0
 40
1.0
 10
12.0
 20
6.496573674033751
 30
0.0
 10
11.83622484127876
 20
6.568534419369488
 30
0.0
 10
11.67220307228115
 20
6.639657951090943
 30
0.0
 10
11.50803356216463
 20
6.709899125646775
 30
0.0
  0
SPLINE
  5
AD
330
1F
100
AcDbEntity
  8
0
  6
Continuous
 62
     4
370
    25
100
AcDbSpline
210
0.0
220
0.0
230
1.0
 70
     8
 71
     3
 72
     8
 73
     4
 74
     0
 42
0.000000001
 43
0.00000001
 40
0.0
 40
0.0
 40
0.0
 40
0.0
 40
1.0
 40
1.0
 40
1.0
 40
1.0
 10
12.0
 20
-7.6022714038505
 30
0.0
 10
11.83622484127875
 20
-7.540776850594321
 30
0.0
 10
11.67220307228114
 20
-7.478229509082049
 30
0.0
 10
11.50803356216462
 20
-7.414664774863126
 30
0.0
  0
SPLINE
  5
AE
330
1F
100
AcDbEntity
  8
0
  6
Continuous
 62
     4
370
    25
100
AcDbSpline
210
0.0
220
0.0
230
1.0
 70
     8
 71
     3
 72
    12
 73
     8
 74
     0
 42
0.000000001
 43
0.00000001
 40
0.0
 40
0.0
 40
0.0
 40
0.0
 40
0.2466527812602635
 40
0.3808799993592678
 40
0.5194681565854541
 40
0.7761044324943158
 40
0.9999999999999999
 40
0.9999999999999999
 40
0.9999999999999999
 40
0.9999999999999999
 10
10.50999167087668
 20
-9.997978926427097
 30
0.0
 10
10.52885152393673
 20
-9.99480810506161
 30
0.0
 10
10.55797481532928
 20
-9.989911738462855
 30
0.0
 10
10.74580778527316
 20
-9.954152338779165
 30
0.0
 10
11.00157982282435
 20
-9.910896654018442
 30
0.0
 10
11.41464861990353
 20
-9.851225703268549
 30
0.0
 10
11.81395161885349
 20
-9.824188401021633
 30
0.0
 10
12.0
 20
-9.811590833943916
 30
0.0
  0
LINE
  5
AF
330
1F
100
AcDbEntity
  8
0
  6
Continuous
 62
     4
370
    25
100
AcDbLine
 10
10.49991250821521
 20
9.999800341566612
 30
0.0
 11
10.50999167087669
 21
9.997978926427082
 31
0.0
  0
SPLINE
  5
B0
330
1F
100
AcDbEntity
  8
0
  6
Continuous
 62
     4
370
    25
100
AcDbSpline
210
0.0
220
0.0
230
1.0
 70
     8
 71
     3
 72
    14
 73
    10
 74
     0
 42
0.000000001
 43
0.00000001
 40
0.0
 40
0.0
 40
0.0
 40
0.0
 40
0.25
 40
0.25
 40
0.5
 40
0.5
 40
0.75
 40
0.75
 40
1.0
 40
1.0
 40
1.0
 40
1.0
 10
10.61211379597262
 20
9.97952433937677
 30
0.0
 10
10.66516002414772
 20
9.969396578056042
 30
0.0
 10
10.73578481810819
 20
9.95615103304449
 30
0.0
 10
10.91229985768716
 20
9.925992328173143
 30
0.0
 10
11.01965727430163
 20
9.908900699974843
 30
0.0
 10
11.25933397173018
 20
9.875837922793561
 30
0.0
 10
11.3942076105038
 20
9.859505863368767
 30
0.0
 10
11.6848740739205
 20
9.831357203776234
 30
0.0
 10
11.83831812753832
 20
9.819712503273657
 30
0.0
 10
12.0
 20
9.811590833943919
 30
0.0
  0
LINE
  5
B1
330
1F
100
AcDbEntity
  8
0
  6
Continuous
 62
     4
370
    25
100
AcDbLine
 10
10.49991250821521
 20
9.999800341566612
 30
0.0
 11
10.49991250821521
 21
7.932516159131126
 31
0.0
  0
LINE
  5
B2
330
1F
100
AcDbEntity
  8
0
  6
Continuous
 62
     4
370
    25
100
AcDbLine
 10
-47.5
 20
9.999999999999988
 30
0.0
 11
-47.5
 21
-10.00000000000001
 31
0.0
  0
LINE
  5
B3
330
1F
100
AcDbEntity
  8
0
  6
Continuous
 62
     4
370
    25
100
AcDbLine
 10
10.49991250821521
 20
-0.0631912082820228
 30
0.0
 11
10.49991250821521
 21
-6.088939758703687
 31
0.0
  0
LINE
  5
B4
330
1F
100
AcDbEntity
  8
0
  6
Continuous
 62
     4
370
    25
100
AcDbLine
 10
12.0
 20
-7.6022714038505
 30
0.0
 11
12.0
 21
-9.811590833943916
 31
0.0
  0
LINE
  5
B5
330
1F
100
AcDbEntity
  8
0
  6
Continuous
 62
     4
370
    25
100
AcDbLine
 10
12.0
 20
6.496573674033751
 30
0.0
 11
12.0
 21
1.932015866205018
 31
0.0
  0
LINE
  5
B6
330
1F
100
AcDbEntity
  8
0
  6
Continuous
 62
     4
370
    25
100
AcDbLine
 10
-48.0
 20
9.499999999999988
 30
0.0
 11
-48.0
 21
-9.500000000000009
 31
0.0
  0
SPLINE
  5
B7
330
1F
100
AcDbEntity
  8
0
  6
Continuous
 62
     4
370
    25
100
AcDbSpline
210
0.0
220
0.0
230
1.0
 70
    24
 71
     3
 72
    11
 73
     7
 74
     0
 42
0.000000001
 43
0.00000001
 40
0.0
 40
0.0
 40
0.0
 40
0.0
 40
0.249809608592319
 40
0.5053631123689694
 40
0.783107816183241
 40
1.0
 40
1.0
 40
1.0
 40
1.0
 10
12.0
 20
9.811590833943919
 30
0.0
 10
12.0
 20
9.497488089471165
 30
0.0
 10
12.0
 20
8.86206040738613
 30
0.0
 10
12.0
 20
7.964885911587973
 30
0.0
 10
12.0
 20
7.179407883869678
 30
0.0
 10
12.0
 20
6.777231860242702
 30
0.0
 10
12.0
 20
6.600882626644371
 30
0.0
  0
SPLINE
  5
B8
330
1F
100
AcDbEntity
  8
0
  6
Continuous
 62
     4
370
    25
100
AcDbSpline
210
0.0
220
0.0
230
1.0
 70
    24
 71
     3
 72
    10
 73
     6
 74
     0
 42
0.000000001
 43
0.00000001
 40
0.0
 40
0.0
 40
0.0
 40
0.0
 40
0.5
 40
0.5
 40
1.0
 40
1.0
 40
1.0
 40
1.0
 10
12.0
 20
-4.205323203626685
 30
0.0
 10
12.0
 20
-4.784942889163169
 30
0.0
 10
12.0
 20
-5.377360864491247
 30
0.0
 10
12.0
 20
-6.529554639253891
 30
0.0
 10
12.0
 20
-7.088666265784394
 30
0.0
 10
12.0
 20
-7.6022714038505
 30
0.0
  0
SPLINE
  5
B9
330
1F
100
AcDbEntity
  8
0
  6
Continuous
 62
     1
370
    25
100
AcDbSpline
210
0.0
220
0.0
230
1.0
 70
     8
 71
     3
 72
    28
 73
    24
 74
     0
 42
0.000000001
 43
0.00000001
 40
0.0
 40
0.0
 40
0.0
 40
0.0
 40
0.0414523065803314
 40
0.0923964485144058
 40
0.1433404947155395
 40
0.1942844255833654
 40
0.2452282215258316
 40
0.2961718629606103
 40
0.3471153303165068
 40
0.398058604034868
 40
0.4490016645709871
 40
0.4999444923955068
 40
0.5508870679958205
 40
0.601829371877471
 40
0.6527713845655444
 40
0.7037130866060646
 40
0.7516454518521254
 40
0.799576775186471
 40
0.8475071869501933
 40
0.8954368177159032
 40
0.9433657982546878
 40
0.9912942595029677
 40
1.0
 40
1.0
 40
1.0
 40
1.0
 10
33.98465838445087
 20
8.438743398252486
 30
0.0
 10
34.87102055473837
 20
8.701582128164409
 30
0.0
 10
36.84670594810426
 20
9.287444946891654
 30
0.0
 10
39.9117114113038
 20
9.811992861702656
 30
0.0
 10
43.17967219968183
 20
10.05612541402909
 30
0.0
 10
46.44762408725968
 20
9.934486435407484
 30
0.0
 10
49.71556559507381
 20
9.462636478739666
 30
0.0
 10
52.98349520970362
 20
8.654310929085806
 30
0.0
 10
56.25141142051987
 20
7.53900668783101
 30
0.0
 10
59.51931274552915
 20
6.156092118095937
 30
0.0
 10
62.78719759142358
 20
4.554707578704845
 30
0.0
 10
66.05506478820898
 20
2.791672585816737
 30
0.0
 10
69.32291159132909
 20
0.9295657343819619
 30
0.0
 10
72.59074113916006
 20
-0.9655343678907355
 30
0.0
 10
75.85853462179121
 20
-2.826339181839715
 30
0.0
 10
79.06201431178089
 20
-4.552256793192233
 30
0.0
 10
82.20093596812636
 20
-6.091428144847003
 30
0.0
 10
85.27550041289486
 20
-7.408219241121905
 30
0.0
 10
88.34998339451111
 20
-8.49013920378211
 30
0.0
 10
91.42440939385895
 20
-9.312820006761976
 30
0.0
 10
94.49878414249457
 20
-9.814563198566482
 30
0.0
 10
96.73449199706646
 20
-10.03186834861792
 30
0.0
 10
97.94540840556127
 20
-9.983977853991869
 30
0.0
 10
98.13154900066249
 20
-9.976616185501088
 30
0.0
  0
SPLINE
  5
BA
330
1F
100
AcDbEntity
  8
0
  6
Continuous
 62
     1
370
    25
100
AcDbSpline
210
0.0
220
0.0
230
1.0
 70
     8
 71
     3
 72
    23
 73
    19
 74
     0
 42
0.000000001
 43
0.00000001
 40
0.0
 40
0.0
 40
0.0
 40
0.0
 40
0.0646474899713113
 40
0.1292955461244436
 40
0.1939441440051426
 40
0.2585932591203414
 40
0.3232428669398948
 40
0.3878929428983185
 40
0.4525434623965298
 40
0.5171944008036001
 40
0.5818457334585071
 40
0.6464974356718948
 40
0.7111494827278353
 40
0.775801849885597
 40
0.8404545123814147
 40
0.9051074454302662
 40
0.9697606242276473
 40
1.0
 40
1.0
 40
1.0
 40
1.0
 10
102.0
 20
-9.751656983550225
 30
0.0
 10
100.9108098742483
 20
-9.578876776071999
 30
0.0
 10
98.7324200836328
 20
-9.233314847908881
 30
0.0
 10
95.46481418873684
 20
-8.294564136518554
 30
0.0
 10
92.19717587219414
 20
-7.086292180900602
 30
0.0
 10
88.92950607594402
 20
-5.619871843407387
 30
0.0
 10
85.66180643232013
 20
-3.955785024536985
 30
0.0
 10
82.3940783915122
 20
-2.150826613855371
 30
0.0
 10
79.12632345524781
 20
-0.2696569425161389
 30
0.0
 10
75.8585431139548
 20
1.621114835323452
 30
0.0
 10
72.59073886376532
 20
3.454375584921297
 30
0.0
 10
69.32291220067505
 20
5.164944942624735
 30
0.0
 10
66.05506462623731
 20
6.692588710422363
 30
0.0
 10
62.78719762995993
 20
7.981301977420721
 30
0.0
 10
59.51931275335656
 20
8.992016141088992
 30
0.0
 10
56.25141135067324
 20
9.663963406326994
 30
0.0
 10
53.5633182189612
 20
9.994835164090038
 30
0.0
 10
51.96452498773057
 20
9.965174881119813
 30
0.0
 10
51.45503813156266
 20
9.95572304955813
 30
0.0
  0
LINE
  5
BB
330
1F
100
AcDbEntity
  8
0
  6
Continuous
 62
     1
370
    25
100
AcDbLine
 10
102.0
 20
-10.00000000000002
 30
0.0
 11
102.0
 21
-9.751656983552627
 31
0.0
  0
SPLINE
  5
BC
330
1F
100
AcDbEntity
  8
0
  6
Continuous
 62
     1
370
    25
100
AcDbSpline
210
0.0
220
0.0
230
1.0
 70
     8
 71
     3
 72
    23
 73
    19
 74
     0
 42
0.000000001
 43
0.00000001
 40
0.0
 40
0.0
 40
0.0
 40
0.0
 40
0.0339678972010288
 40
0.1004003125489396
 40
0.1668329804092672
 40
0.2332658752766113
 40
0.2996989716292182
 40
0.3661322439308149
 40
0.4325656666324472
 40
0.498999214174319
 40
0.5654328609876337
 40
0.6275106585790762
 40
0.6895890810512564
 40
0.7516683982932036
 40
0.8137488798855387
 40
0.8758307950077556
 40
0.9379144123457982
 40
1.0
 40
1.0
 40
1.0
 40
1.0
 10
61.1902429213246
 20
-8.423935807511569
 30
0.0
 10
60.63326762906524
 20
-8.60224637595233
 30
0.0
 10
58.98699282159252
 20
-9.12928626588961
 30
0.0
 10
56.25141133884283
 20
-9.666601108962357
 30
0.0
 10
52.98349520819676
 20
-10.02293973810723
 30
0.0
 10
49.71556568277907
 20
-10.00813520424926
 30
0.0
 10
46.44762373794396
 20
-9.642261755095472
 30
0.0
 10
43.17967350924407
 20
-8.933064934354796
 30
0.0
 10
39.91170652235617
 20
-7.907118303087893
 30
0.0
 10
36.64376158706625
 20
-6.600455559869033
 30
0.0
 10
33.44712775738191
 20
-5.093237025415273
 30
0.0
 10
30.32228597052415
 20
-3.453575002361142
 30
0.0
 10
27.26873339617901
 20
-1.744263372350438
 30
0.0
 10
24.2151538764936
 20
0.0188651937414411
 30
0.0
 10
21.16149881135588
 20
1.782458667472629
 30
0.0
 10
18.10776057680868
 20
3.486929697926541
 30
0.0
 10
15.05392296613957
 20
5.097770209959661
 30
0.0
 10
13.01798509079639
 20
6.030300920211881
 30
0.0
 10
12.00000000000014
 20
6.496573674033694
 30
0.0
  0
SPLINE
  5
BD
330
1F
100
AcDbEntity
  8
0
  6
Continuous
 62
     1
370
    25
100
AcDbSpline
210
0.0
220
0.0
230
1.0
 70
     8
 71
     3
 72
    26
 73
    22
 74
     0
 42
0.000000001
 43
0.00000001
 40
0.0
 40
0.0
 40
0.0
 40
0.0
 40
0.0518282657177877
 40
0.1036548866404903
 40
0.1554800865748856
 40
0.2073040898166111
 40
0.2591271210733145
 40
0.3109494053874989
 40
0.3627711680591228
 40
0.4182291387369458
 40
0.4736870265442198
 40
0.5291448101364364
 40
0.5846024681765994
 40
0.6400599793367644
 40
0.6955173222995727
 40
0.7509744757597859
 40
0.8064314184258174
 40
0.8618881290212629
 40
0.917344586286428
 40
0.9728007689798525
 40
1.0
 40
1.0
 40
1.0
 40
1.0
 10
12.0
 20
9.662672584330238
 30
0.0
 10
13.01798509079625
 20
9.785052940085393
 30
0.0
 10
15.05392296613943
 20
10.02980976779591
 30
0.0
 10
18.10776057680858
 20
10.00569582302781
 30
0.0
 10
21.16149881135574
 20
9.692865992144531
 30
0.0
 10
24.21515387649368
 20
9.073757463461066
 30
0.0
 10
27.26873339617835
 20
8.174877431963187
 30
0.0
 10
30.32228597052637
 20
7.022143415291065
 30
0.0
 10
33.44712775737325
 20
5.619754744918749
 30
0.0
 10
36.64376158710108
 20
3.995465118287965
 30
0.0
 10
39.91170652222648
 20
2.193061013702342
 30
0.0
 10
43.17967350972802
 20
0.3128264646361694
 30
0.0
 10
46.44762373613788
 20
-1.578503254300088
 30
0.0
 10
49.71556568951937
 20
-3.413833704154723
 30
0.0
 10
52.9834951830417
 20
-5.127903885568541
 30
0.0
 10
56.25141143272235
 20
-6.660340304191126
 30
0.0
 10
59.51931272338113
 20
-7.955037245405007
 30
0.0
 10
62.78719766781271
 20
-8.972460081387759
 30
0.0
 10
66.0550645048023
 20
-9.652562824435845
 30
0.0
 10
68.7678890379684
 20
-9.991254457777748
 30
0.0
 10
70.3914230403553
 20
-9.964393480327196
 30
0.0
 10
70.92567572164988
 20
-9.955554398913415
 30
0.0
  0
SPLINE
  5
BE
330
1F
100
AcDbEntity
  8
0
  6
Continuous
 62
     1
370
    25
100
AcDbSpline
210
0.0
220
0.0
230
1.0
 70
     8
 71
     3
 72
     9
 73
     5
 74
     0
 42
0.000000001
 43
0.00000001
 40
0.0
 40
0.0
 40
0.0
 40
0.0
 40
0.6769040559243347
 40
1.0
 40
1.0
 40
1.0
 40
1.0
 10
12.0
 20
-9.662672584330235
 30
0.0
 10
13.01798587930615
 20
-9.798172213823078
 30
0.0
 10
14.52187091352426
 20
-9.998347745801265
 30
0.0
 10
16.02574164056601
 20
-9.970307757107909
 30
0.0
 10
16.51163617288732
 20
-9.961248150489155
 30
0.0
  0
SPLINE
  5
BF
330
1F
100
AcDbEntity
  8
0
  6
Continuous
 62
     1
370
    25
100
AcDbSpline
210
0.0
220
0.0
230
1.0
 70
     8
 71
     3
 72
    20
 73
    16
 74
     0
 42
0.000000001
 43
0.00000001
 40
0.0
 40
0.0
 40
0.0
 40
0.0
 40
0.0404720556558122
 40
0.1232903463650035
 40
0.2061082270306518
 40
0.2889256659604129
 40
0.3717426314937147
 40
0.4545590920040237
 40
0.5324832420532035
 40
0.6104056982555549
 40
0.6883266725079618
 40
0.7662463770836897
 40
0.8441650245786703
 40
0.9220828278576183
 40
1.0
 40
1.0
 40
1.0
 40
1.0
 10
61.19024292132471
 20
8.423935807511562
 30
0.0
 10
61.72256271562118
 20
8.595237860171867
 30
0.0
 10
63.34417275623521
 20
9.117076671255132
 30
0.0
 10
66.05506469611342
 20
9.65435624858807
 30
0.0
 10
69.32291161601167
 20
10.01914697318357
 30
0.0
 10
72.59074113252464
 20
10.01233675826563
 30
0.0
 10
75.85853462365041
 20
9.654491124796715
 30
0.0
 10
79.0620143110318
 20
8.966620996284028
 30
0.0
 10
82.20093596930447
 20
7.996836451176391
 30
0.0
 10
85.275500408892
 20
6.795514305270289
 30
0.0
 10
88.34998340934405
 20
5.38072765764935
 30
0.0
 10
91.42440933853113
 20
3.796614781795216
 30
0.0
 10
94.49878434896921
 20
2.094075660111455
 30
0.0
 10
97.57311984314524
 20
0.3224717693008242
 30
0.0
 10
99.62266272433418
 20
-0.8572308026791975
 30
0.0
 10
100.647430014572
 20
-1.447079699752893
 30
0.0
  0
SPLINE
  5
C0
330
1F
100
AcDbEntity
  8
0
  6
Continuous
 62
     1
370
    25
100
AcDbSpline
210
0.0
220
0.0
230
1.0
 70
     8
 71
     3
 72
     8
 73
     4
 74
     0
 42
0.000000001
 43
0.00000001
 40
0.0
 40
0.0
 40
0.0
 40
0.0
 40
1.0
 40
1.0
 40
1.0
 40
1.0
 10
102.0
 20
-7.26608177845626
 30
0.0
 10
100.3158715379629
 20
-6.320024379565034
 30
0.0
 10
98.72553162703737
 20
-5.160603083795173
 30
0.0
 10
97.1953962218575
 20
-3.864219783566239
 30
0.0
  0
LINE
  5
C1
330
1F
100
AcDbEntity
  8
0
  6
Continuous
 62
     1
370
    25
100
AcDbLine
 10
102.0
 20
-9.751656983552627
 30
0.0
 11
102.0
 21
-7.266081778456254
 31
0.0
  0
SPLINE
  5
C2
330
1F
100
AcDbEntity
  8
0
  6
Continuous
 62
     1
370
    25
100
AcDbSpline
210
0.0
220
0.0
230
1.0
 70
    24
 71
     3
 72
    22
 73
    18
 74
     0
 42
0.000000001
 43
0.00000001
 40
0.0
 40
0.0
 40
0.0
 40
0.0
 40
0.2500000000000035
 40
0.2500000000000035
 40
0.3750000000000049
 40
0.3750000000000049
 40
0.5000000000000063
 40
0.5000000000000063
 40
0.5625000000000056
 40
0.5625000000000056
 40
0.6250000000000048
 40
0.6250000000000048
 40
0.7500000000000031
 40
0.7500000000000031
 40
0.8750000000000016
 40
0.8750000000000016
 40
1.0
 40
1.0
 40
1.0
 40
1.0
 10
100.647430014572
 20
-1.447079699752909
 30
0.0
 10
100.6483300744112
 20
-1.446449471068627
 30
0.0
 10
100.5878719214381
 20
-1.488782725526656
 30
0.0
 10
100.3760174207948
 20
-1.63712484388074
 30
0.0
 10
100.283455514206
 20
-1.701937388625334
 30
0.0
 10
100.0577113305652
 20
-1.860005167717568
 30
0.0
 10
99.92443790793986
 20
-1.953324222882903
 30
0.0
 10
99.69095893739477
 20
-2.116807958072022
 30
0.0
 10
99.60722578260925
 20
-2.175438544250956
 30
0.0
 10
99.43228580143276
 20
-2.297932837804995
 30
0.0
 10
99.3406527916886
 20
-2.362094961976599
 30
0.0
 10
99.05353353657311
 20
-2.563138028773603
 30
0.0
 10
98.84448072965397
 20
-2.709518380062344
 30
0.0
 10
98.39984449311734
 20
-3.020856024646463
 30
0.0
 10
98.16882063896729
 20
-3.18262066882863
 30
0.0
 10
97.69124356464539
 20
-3.517023736344953
 30
0.0
 10
97.44308936566176
 20
-3.690783177111647
 30
0.0
 10
97.19539622185752
 20
-3.864219783566261
 30
0.0
  0
SPLINE
  5
C3
330
1F
100
AcDbEntity
  8
0
  6
Continuous
 62
     1
370
    25
100
AcDbSpline
210
0.0
220
0.0
230
1.0
 70
     8
 71
     3
 72
    27
 73
    23
 74
     0
 42
0.000000001
 43
0.00000001
 40
0.0
 40
0.0
 40
0.0
 40
0.0
 40
0.0421167168735633
 40
0.0930839235008864
 40
0.1440514797949912
 40
0.1950193663379637
 40
0.245987563688165
 40
0.2969560523816195
 40
0.3479248129334033
 40
0.3988938258390386
 40
0.4498630715758888
 40
0.5008325306045591
 40
0.5518021833702963
 40
0.6027720103043933
 40
0.6537419918255966
 40
0.7047121083415125
 40
0.7556823402500183
 40
0.8066526679406727
 40
0.8576230717961287
 40
0.9052515035542797
 40
0.9528804147445425
 40
1.0
 40
1.0
 40
1.0
 40
1.0
 10
88.36209479662647
 20
-8.450136718047077
 30
0.0
 10
87.46200129471259
 20
-8.715272173162276
 30
0.0
 10
85.47266687134527
 20
-9.301259169618017
 30
0.0
 10
82.39407830457738
 20
-9.82146174416533
 30
0.0
 10
79.12632347853481
 20
-10.05733692725714
 30
0.0
 10
75.85854310774239
 20
-9.92763046756492
 30
0.0
 10
72.59073886532771
 20
-9.447907693168327
 30
0.0
 10
69.3229122006379
 20
-8.632253680450368
 30
0.0
 10
66.05506462482344
 20
-7.510401515740862
 30
0.0
 10
62.78719763565252
 20
-6.121953775348548
 30
0.0
 10
59.51931273200006
 20
-4.51624265916285
 30
0.0
 10
56.25141143040705
 20
-2.75024043412574
 30
0.0
 10
52.98349518368406
 20
-0.8866269688234755
 30
0.0
 10
49.7155656892653
 20
1.008454173394321
 30
0.0
 10
46.44762373651179
 20
2.867755593759038
 30
0.0
 10
43.17967350848652
 20
4.625244364498352
 30
0.0
 10
39.91170652681859
 20
6.218707317555696
 30
0.0
 10
36.64376156997407
 20
7.590981285221043
 30
0.0
 10
33.44712781951797
 20
8.67148877562067
 30
0.0
 10
30.32228575546088
 20
9.436220343737943
 30
0.0
 10
27.27963337211493
 20
9.912025208806352
 30
0.0
 10
25.25482785592902
 20
9.969683539033092
 30
0.0
 10
24.24786732647829
 20
9.998357731328719
 30
0.0
  0
SPLINE
  5
C4
330
1F
100
AcDbEntity
  8
0
  6
Continuous
 62
     1
370
    25
100
AcDbSpline
210
0.0
220
0.0
230
1.0
 70
     8
 71
     3
 72
    15
 73
    11
 74
     0
 42
0.000000001
 43
0.00000001
 40
0.0
 40
0.0
 40
0.0
 40
0.0
 40
0.1400164465581246
 40
0.2800341193783472
 40
0.420052965496542
 40
0.5600729318645211
 40
0.7000939653537911
 40
0.8401160127593188
 40
0.9801390208033026
 40
0.9999999999999999
 40
0.9999999999999999
 40
0.9999999999999999
 40
0.9999999999999999
 10
102.0
 20
2.214765467296484
 30
0.0
 10
100.9108098743547
 20
2.820423811588002
 30
0.0
 10
98.73242008395219
 20
4.031745804518421
 30
0.0
 10
95.46481418745934
 20
5.684418770517931
 30
0.0
 10
92.19717587698497
 20
7.141661168350284
 30
0.0
 10
88.92950605805791
 20
8.341492468969344
 30
0.0
 10
85.66180649907443
 20
9.254851997149077
 30
0.0
 10
82.39407814237859
 20
9.805491164279923
 30
0.0
 10
80.06108251612973
 20
10.04121887311409
 30
0.0
 10
78.8173286759443
 20
9.985320770648002
 30
0.0
 10
78.66282809354044
 20
9.978377041827038
 30
0.0
  0
SPLINE
  5
C5
330
1F
100
AcDbEntity
  8
0
  6
Continuous
 62
     1
370
    25
100
AcDbSpline
210
0.0
220
0.0
230
1.0
 70
     8
 71
     3
 72
    15
 73
    11
 74
     0
 42
0.000000001
 43
0.00000001
 40
0.0
 40
0.0
 40
0.0
 40
0.0
 40
0.0276944505722803
 40
0.166588033809122
 40
0.3054830151613629
 40
0.4443799984818425
 40
0.5832795869333638
 40
0.7221823827812444
 40
0.8610889871865258
 40
1.0
 40
1.0
 40
1.0
 40
1.0
 10
33.98465838445087
 20
-8.438743398252493
 30
0.0
 10
33.78169438842895
 20
-8.508198254873669
 30
0.0
 10
32.56082261330246
 20
-8.925984048197794
 30
0.0
 10
30.32229683799002
 20
-9.424916766359363
 30
0.0
 10
27.26873048419835
 20
-9.903542409096238
 30
0.0
 10
24.21515465675761
 20
-10.05063488684852
 30
0.0
 10
21.16149860234976
 20
-9.893809870456561
 30
0.0
 10
18.10776063254584
 20
-9.423963229213658
 30
0.0
 10
15.05392295220461
 20
-8.679303830906822
 30
0.0
 10
13.01798508615136
 20
-7.961286010703391
 30
0.0
 10
12.00000000000014
 20
-7.602271403850565
 30
0.0
  0
SPLINE
  5
C6
330
1F
100
AcDbEntity
  8
0
  6
Continuous
 62
     4
370
    25
100
AcDbSpline
210
0.0
220
0.0
230
1.0
 70
    24
 71
     3
 72
    17
 73
    13
 74
     0
 42
0.000000001
 43
0.00000001
 40
0.0
 40
0.0
 40
0.0
 40
0.0
 40
0.0270143771850203
 40
0.1367452112267663
 40
0.2496582468894176
 40
0.3593890809311633
 40
0.4723021165938145
 40
0.5820329506355606
 40
0.6949459862982117
 40
0.8046768203399527
 40
0.9175898560025998
 40
1.0
 40
1.0
 40
1.0
 40
1.0
 10
11.99999999999999
 20
1.827696913595682
 30
0.0
 10
11.99999999999999
 20
1.775133120534194
 30
0.0
 10
11.99999999999999
 20
1.509058247297475
 30
0.0
 10
12.0
 20
0.8884895330637896
 30
0.0
 10
12.0
 20
-0.0366348851426702
 30
0.0
 10
12.0
 20
-1.089004336602037
 30
0.0
 10
11.99999999999999
 20
-2.207701173423307
 30
0.0
 10
12.0
 20
-3.384314128357812
 30
0.0
 10
11.99999999999999
 20
-4.564100510717475
 30
0.0
 10
11.99999999999999
 20
-5.732831320571145
 30
0.0
 10
11.99999999999999
 20
-6.753502448230321
 30
0.0
 10
12.0
 20
-7.350421280387978
 30
0.0
 10
12.0
 20
-7.602271403852532
 30
0.0
  0
SPLINE
  5
C7
330
1F
100
AcDbEntity
  8
0
  6
Continuous
 62
     1
370
    25
100
AcDbSpline
210
0.0
220
0.0
230
1.0
 70
     8
 71
     3
 72
    18
 73
    14
 74
     0
 42
0.000000001
 43
0.00000001
 40
0.0
 40
0.0
 40
0.0
 40
0.0
 40
0.0962864140054625
 40
0.1925697723149968
 40
0.2888504907162384
 40
0.3851289859050256
 40
0.4814056753426276
 40
0.5776809771124073
 40
0.6739553097760275
 40
0.7769849799884921
 40
0.8800144962442719
 40
0.9830438188895954
 40
1.0
 40
1.0
 40
1.0
 40
1.0
 10
12.0
 20
2.57541424396786
 30
0.0
 10
13.01798509079379
 20
1.999810209451633
 30
0.0
 10
15.05392296613207
 20
0.8486204074916696
 30
0.0
 10
18.10776057683803
 20
-0.9258923979063877
 30
0.0
 10
21.16149881124529
 20
-2.665932288459083
 30
0.0
 10
24.215153876906
 20
-4.324878296169882
 30
0.0
 10
27.26873339463954
 20
-5.849161621781335
 30
0.0
 10
30.32228597626926
 20
-7.192768116218904
 30
0.0
 10
33.4471277353051
 20
-8.337396365498982
 30
0.0
 10
36.64376167591969
 20
-9.237526953807196
 30
0.0
 10
39.91170619149862
 20
-9.796979014424418
 30
0.0
 10
42.26963092867571
 20
-10.03824603081079
 30
0.0
 10
43.53822683824208
 20
-9.983331766700312
 30
0.0
 10
43.71750301182317
 20
-9.97557136082914
 30
0.0
  0
SPLINE
  5
C8
330
1F
100
AcDbEntity
  8
0
  6
Continuous
 62
     1
370
    25
100
AcDbSpline
210
0.0
220
0.0
230
1.0
 70
     8
 71
     3
 72
    11
 73
     7
 74
     0
 42
0.000000001
 43
0.00000001
 40
0.0
 40
0.0
 40
0.0
 40
0.0
 40
0.2492659789190789
 40
0.4995131358242655
 40
0.7497575814059253
 40
1.0
 40
1.0
 40
1.0
 40
1.0
 10
88.36209479662647
 20
8.450136718047073
 30
0.0
 10
89.3828710451753
 20
8.740282878294686
 30
0.0
 10
91.42844159234212
 20
9.321717292173144
 30
0.0
 10
94.49878426485309
 20
9.825307313299499
 30
0.0
 10
97.57311986417402
 20
10.06216940113736
 30
0.0
 10
99.62266273134377
 20
9.950552367467079
 30
0.0
 10
100.647430014572
 20
9.894744076658194
 30
0.0
  0
SPLINE
  5
C9
330
1F
100
AcDbEntity
  8
0
  6
Continuous
 62
     1
370
    25
100
AcDbSpline
210
0.0
220
0.0
230
1.0
 70
     8
 71
     3
 72
    22
 73
    18
 74
     0
 42
0.000000001
 43
0.00000001
 40
0.0
 40
0.0
 40
0.0
 40
0.0
 40
0.2499999999999968
 40
0.2499999999999968
 40
0.3749999999999952
 40
0.3749999999999952
 40
0.4999999999999936
 40
0.4999999999999936
 40
0.5624999999999943
 40
0.5624999999999943
 40
0.624999999999995
 40
0.624999999999995
 40
0.7499999999999967
 40
0.7499999999999967
 40
0.8749999999999982
 40
0.8749999999999982
 40
1.0
 40
1.0
 40
1.0
 40
1.0
 10
100.647430014572
 20
9.894744076658212
 30
0.0
 10
100.6483300744112
 20
9.283134665630074
 30
0.0
 10
100.5878719214381
 20
8.684986715119681
 30
0.0
 10
100.3760174207948
 20
7.814347839321178
 30
0.0
 10
100.283455514206
 20
7.526023105511515
 30
0.0
 10
100.0577113305652
 20
6.983978845190977
 30
0.0
 10
99.92443790793989
 20
6.728016184879503
 30
0.0
 10
99.6909589373948
 20
6.368851405513236
 30
0.0
 10
99.60722578260925
 20
6.253066494950621
 30
0.0
 10
99.43228580143278
 20
6.035520208430542
 30
0.0
 10
99.3406527916886
 20
5.93302383920376
 30
0.0
 10
99.05353353657317
 20
5.643959723970071
 30
0.0
 10
98.84448072965394
 20
5.474803869360837
 30
0.0
 10
98.39984449311734
 20
5.189912301147326
 30
0.0
 10
98.1688206389672
 20
5.076535487151686
 30
0.0
 10
97.69124356464532
 20
4.901635336322654
 30
0.0
 10
97.44308936566179
 20
4.840255663647826
 30
0.0
 10
97.19539622185755
 20
4.804603778142473
 30
0.0
  0
SPLINE
  5
CA
330
1F
100
AcDbEntity
  8
0
  6
Continuous
 62
     1
370
    25
100
AcDbSpline
210
0.0
220
0.0
230
1.0
 70
     8
 71
     3
 72
     8
 73
     4
 74
     0
 42
0.000000001
 43
0.00000001
 40
0.0
 40
0.0
 40
0.0
 40
0.0
 40
1.0
 40
1.0
 40
1.0
 40
1.0
 10
102.0
 20
2.462652369968972
 30
0.0
 10
100.3158715379629
 20
3.373236042056507
 30
0.0
 10
98.7255316270374
 20
4.136275508719675
 30
0.0
 10
97.19539622185752
 20
4.804603778142483
 30
0.0
  0
LINE
  5
CB
330
1F
100
AcDbEntity
  8
0
  6
Continuous
 62
     1
370
    25
100
AcDbLine
 10
102.0
 20
2.222823482552432
 30
0.0
 11
102.0
 21
2.462652369968976
 31
0.0
  0
LINE
  5
CC
330
1F
100
AcDbEntity
  8
0
  6
Continuous
 62
     4
370
    25
100
AcDbLine
 10
12.0
 20
-9.66267258433026
 30
0.0
 11
12.0
 21
-7.602271403852532
 31
0.0
  0
LINE
  5
CD
330
1F
100
AcDbEntity
  8
0
  6
Continuous
 62
     1
370
    25
100
AcDbLine
 10
102.0
 20
-0.5000000000000352
 30
0.0
 11
102.0
 21
2.214765467296675
 31
0.0
  0
LINE
  5
CE
330
1F
100
AcDbEntity
  8
0
  6
Continuous
 62
     1
370
    25
100
AcDbLine
 10
102.0
 20
-0.500000000000039
 30
0.0
 11
100.647430014572
 21
-1.447079699752922
 31
0.0
  0
LINE
  5
CF
330
1F
100
AcDbEntity
  8
0
  6
Continuous
 62
     4
370
    25
100
AcDbLine
 10
12.0
 20
2.575414243967868
 30
0.0
 11
11.99999999999999
 21
6.496573674035035
 31
0.0
  0
LINE
  5
D0
330
1F
100
AcDbEntity
  8
0
  6
Continuous
 62
     1
370
    25
100
AcDbLine
 10
102.0
 20
9.9874921777191
 30
0.0
 11
102.0
 21
10.00000000000001
 31
0.0
  0
ELLIPSE
  5
D1
330
1F
100
AcDbEntity
  8
0
  6
Continuous
 62
     1
370
    25
100
AcDbEllipse
 10
102.7140740033711
 20
-0.0000000000000059
 30
0.0
 11
14.28148006742111
 21
-5.350968460038310E-17
 31
0.0
210
0.0
220
0.0
230
1.0
 40
0.7002075382097119
 41
1.620817183600667
 42
1.716014156413953
  0
LINE
  5
D2
330
1F
100
AcDbEntity
  8
0
  6
Continuous
 62
     1
370
    25
100
AcDbLine
 10
102.0
 20
-0.5000000000000003
 30
0.0
 11
102.0
 21
-7.266081778456255
 31
0.0
  0
LINE
  5
D3
330
1F
100
AcDbEntity
  8
0
  6
Continuous
 62
     1
370
    25
100
AcDbLine
 10
102.0
 20
2.462652369968976
 30
0.0
 11
102.0
 21
9.9874921777191
 31
0.0
  0
LINE
  5
D4
330
1F
100
AcDbEntity
  8
중심선
100
AcDbLine
 10
-51.0
 20
-0.0000000000000102
 30
0.0
 11
105.0
 21
0.000000000000015
 31
0.0
  0
CIRCLE
  5
D5
330
1F
100
AcDbEntity
  8
해칭선
100
AcDbCircle
 10
0.0000861913986346
 20
-0.0000000000000035
 30
0.0
 40
3.000000000000003
  0
INSERT
  5
D6
330
1F
100
AcDbEntity
  8
0
  6
Continuous
 62
     7
100
AcDbBlockReference
 66
     1
  2
블럭10
 10
12.55990075105822
 20
-52.04717430164393
 30
0.0
  0
ATTRIB
  5
D7
330
D6
100
AcDbEntity
  8
FORMAT
 62
     2
100
AcDbText
 10
-3.559360288377337
 20
-49.97180738881174
 30
0.0
 40
4.233333333333333
  1
SEME7220090E [ 4 FLUTE ]
 41
0.75
  7
SLDTEXTSTYLE0
 11
-3.559360288377337
 21
-52.08847405547841
 31
0.0
100
AcDbAttribute
  2
AUTOATTR0
 70
     0
 74
     1
  0
SEQEND
  5
D8
330
D6
100
AcDbEntity
  8
0
  6
Continuous
 62
     7
  0
HATCH
  5
D9
330
1F
100
AcDbEntity
  8
중심선
100
AcDbHatch
 10
0.0
 20
0.0
 30
0.0
210
0.0
220
0.0
230
1.0
  2
SOLID
 70
     1
 71
     0
 91
        1
 92
        0
 93
        4
 72
     1
 10
18.27481005543907
 20
-35.8
 11
14.82853481160179
 21
-35.8
 72
     1
 10
14.82853481160179
 20
-35.8
 11
12.70030495239777
 21
-38.33632558057259
 72
     1
 10
12.70030495239777
 20
-38.33632558057259
 11
16.14661328134823
 21
-38.3362861512701
 72
     1
 10
16.14661328134823
 20
-38.3362861512701
 11
18.27481005543907
 21
-35.8
 97
        0
 75
     0
 76
     1
 98
        1
 10
0.0
 20
0.0
  0
HATCH
  5
DA
330
1F
100
AcDbEntity
  8
중심선
100
AcDbHatch
 10
0.0
 20
0.0
 30
0.0
210
0.0
220
0.0
230
1.0
  2
SOLID
 70
     1
 71
     0
 91
        1
 92
        0
 93
        4
 72
     1
 10
23.28757404647505
 20
-35.79999999999997
 11
19.84129880263777
 21
-35.8
 72
     1
 10
19.84129880263777
 20
-35.8
 11
15.31016079428035
 21
-41.20000000000002
 72
     1
 10
15.31016079428035
 20
-41.20000000000002
 11
18.75643603811763
 21
-41.20000000000002
 72
     1
 10
18.75643603811763
 20
-41.20000000000002
 11
23.28757404647505
 21
-35.79999999999997
 97
        0
 75
     0
 76
     1
 98
        1
 10
0.0
 20
0.0
  0
HATCH
  5
DB
330
1F
100
AcDbEntity
  8
중심선
100
AcDbHatch
 10
0.0
 20
0.0
 30
0.0
210
0.0
220
0.0
230
1.0
  2
SOLID
 70
     1
 71
     0
 91
        1
 92
        0
 93
        4
 72
     1
 10
28.30033803751095
 20
-35.79999999999997
 11
24.85406279367378
 21
-35.80000000000003
 72
     1
 10
24.85406279367378
 20
-35.80000000000003
 11
17.80562589178455
 21
-44.20000000000002
 72
     1
 10
17.80562589178455
 20
-44.20000000000002
 11
21.25190113562184
 21
-44.20000000000002
 72
     1
 10
21.25190113562184
 20
-44.20000000000002
 11
28.30033803751095
 21
-35.79999999999997
 97
        0
 75
     0
 76
     1
 98
        1
 10
0.0
 20
0.0
  0
HATCH
  5
DC
330
1F
100
AcDbEntity
  8
중심선
100
AcDbHatch
 10
0.0
 20
0.0
 30
0.0
210
0.0
220
0.0
230
1.0
  2
SOLID
 70
     1
 71
     0
 91
        1
 92
        0
 93
        6
 72
     3
 10
33.10022846852309
 20
-40.00000000005127
 11
3.960054785062284
 21
1.540850780301639E-10
 40
0.3939339440162633
 50
17.0953918060842
 51
320.0019657685079
 73
     0
 72
     1
 10
34.78322812422371
 20
-38.58789400463827
 11
37.08852999792475
 21
-36.65356729459035
 72
     3
 10
33.10022846847024
 20
-40.00000000000015
 11
6.600054785286829
 21
-1.249000902703301E-13
 40
0.6363583540795982
 50
39.99873849337411
 51
368.4976242363725
 73
     1
 72
     1
 10
39.52556096037088
 20
-39.03999999993002
 11
31.78029577530619
 21
-39.03999999993002
 72
     1
 10
31.78029577530619
 20
-39.03999999993002
 11
31.78027073086023
 21
-40.95999999992991
 72
     1
 10
31.78027073086023
 20
-40.95999999992991
 11
36.2216505003323
 21
-40.95999999992988
 97
        0
 75
     0
 76
     1
 98
        1
 10
0.0
 20
0.0
  0
DIMENSION
  5
DD
330
1F
100
AcDbEntity
  8
치수문자_일반주서
100
AcDbDimension
  2
_D
 10
117.53202695478
 20
10.00000000000006
 30
0.0
 11
117.53202695478
 21
20.76025000000006
 31
0.0
 70
   160
  1
%%c<>
 71
     2
 42
20.00000000000002
 52
-270.0
  3
SLDDIMSTYLE0
100
AcDbAlignedDimension
 13
102.0
 23
-10.00000000000002
 33
0.0
 14
102.0
 24
10.0
 34
0.0
 50
90.0000000000002
100
AcDbRotatedDimension
  0
DIMENSION
  5
EB
330
1F
100
AcDbEntity
  8
치수문자_일반주서
100
AcDbDimension
  2
_D_1
 10
102.0
 20
27.38913260158164
 30
0.0
 11
26.99999999999999
 21
27.38913260158164
 31
0.0
 70
   160
  1
<>
 71
     2
 42
150.0
  3
SLDDIMSTYLE1
100
AcDbAlignedDimension
 13
-48.0
 23
9.499999999999988
 33
0.0
 14
102.0
 24
10.00000000000001
 34
0.0
 50
-0.0000000000000027
100
AcDbRotatedDimension
  0
DIMENSION
  5
F6
330
1F
100
AcDbEntity
  8
치수문자_일반주서
100
AcDbDimension
  2
_D_2
 10
-61.5185061828207
 20
-10.00000000000007
 30
0.0
 11
-61.51850618282081
 21
20.76024999999995
 31
0.0
 70
   160
  1
%%c<>
 71
     2
 42
20.00000000000002
 52
-270.0
  3
SLDDIMSTYLE2
100
AcDbAlignedDimension
 13
-47.5
 23
10.0
 33
0.0
 14
-47.5
 24
-10.00000000000002
 34
0.0
 50
90.0000000000002
100
AcDbRotatedDimension
  0
DIMENSION
  5
104
330
1F
100
AcDbEntity
  8
치수문자_일반주서
100
AcDbDimension
  2
_D_3
 10
102.0
 20
20.65750913653157
 30
0.0
 11
57.0
 21
20.65750913653157
 31
0.0
 70
   160
  1
<>
 71
     2
 42
90.0
  3
SLDDIMSTYLE1
100
AcDbAlignedDimension
 13
12.0
 23
9.811590833943919
 33
0.0
 14
102.0
 24
10.00000000000001
 34
0.0
 50
-0.0000000000000045
100
AcDbRotatedDimension
  0
INSERT
  5
114
330
1F
100
AcDbEntity
  8
해칭선
100
AcDbBlockReference
  2
SW_DOWELSYMBOL_0
 10
0.0000861913986346
 20
-0.0000000000000035
 30
0.0
  0
ENDSEC
  0
SECTION
  2
OBJECTS
  0
DICTIONARY
  5
C
330
0
100
AcDbDictionary
281
     1
  3
ACAD_GROUP
350
D
  3
ACAD_IMAGE_VARS
350
138
  3
ACAD_LAYOUT
350
1A
  3
ACAD_MLINESTYLE
350
17
  3
ACAD_PLOTSETTINGS
350
19
  3
ACAD_PLOTSTYLENAME
350
E
  3
ACAD_SCALELIST
350
47
  3
APPDATA
350
136
  3
DWGPROPS
350
147
  0
DICTIONARY
  5
D
102
{ACAD_REACTORS
330
C
102
}
330
C
100
AcDbDictionary
281
     1
  0
RASTERVARIABLES
  5
138
102
{ACAD_REACTORS
330
C
102
}
330
C
100
AcDbRasterVariables
 90
        0
 70
     1
 71
     1
 72
     1
  0
DICTIONARY
  5
1A
102
{ACAD_REACTORS
330
C
102
}
330
C
100
AcDbDictionary
281
     1
  3
Layout1
350
1E
  3
Layout2
350
26
  3
Model
350
22
  0
DICTIONARY
  5
17
102
{ACAD_REACTORS
330
C
102
}
330
C
100
AcDbDictionary
281
     1
  3
Standard
350
18
  0
DICTIONARY
  5
19
102
{ACAD_REACTORS
330
C
102
}
330
C
100
AcDbDictionary
281
     1
  0
ACDBDICTIONARYWDFLT
  5
E
102
{ACAD_REACTORS
330
C
102
}
330
C
100
AcDbDictionary
281
     1
  3
Normal
350
F
100
AcDbDictionaryWithDefault
340
F
  0
DICTIONARY
  5
47
102
{ACAD_REACTORS
330
C
102
}
330
C
100
AcDbDictionary
281
     1
  3
A0
350
48
  3
A1
350
49
  3
A2
350
4A
  3
A3
350
4B
  3
A4
350
4C
  3
A5
350
4D
  3
A6
350
4E
  3
A7
350
4F
  3
A8
350
50
  3
A9
350
51
  3
B0
350
52
  3
B1
350
53
  3
B2
350
54
  3
B3
350
55
  3
B4
350
56
  3
B5
350
57
  3
B6
350
58
  3
B7
350
59
  3
B8
350
5A
  3
B9
350
5B
  3
C0
350
5C
  3
C1
350
5D
  3
C2
350
5E
  3
C3
350
5F
  3
C4
350
60
  3
C5
350
61
  3
C6
350
62
  3
C7
350
63
  3
C8
350
64
  3
C9
350
65
  3
D0
350
66
  3
D1
350
67
  3
D2
350
68
  0
DICTIONARY
  5
136
102
{ACAD_REACTORS
330
C
102
}
330
C
100
AcDbDictionary
281
     1
  0
XRECORD
  5
147
102
{ACAD_REACTORS
330
C
102
}
330
C
100
AcDbXrecord
280
     1
  1
DWGPROPS COOKIE
  2

  3

  4

  6

  7

  8
12014102
  9

300
=
301
=
302
=
303
=
304
=
305
=
306
=
307
=
308
=
309
=
 40
0.0
 41
2458260.21185478
 42
2458268.227124479
  1

 90
        0
  0
LAYOUT
  5
1E
102
{ACAD_REACTORS
330
1A
102
}
330
1A
100
AcDbPlotSettings
  1

  2
none_device
  4

  6

 40
0.0
 41
0.0
 42
0.0
 43
0.0
 44
0.0
 45
0.0
 46
0.0
 47
0.0
 48
0.0
 49
0.0
140
0.0
141
0.0
142
1.0
143
1.0
 70
   688
 72
     1
 73
     0
 74
     5
  7

 75
    16
147
1.0
148
0.0
149
0.0
100
AcDbLayout
  1
Layout1
 70
     1
 71
     1
 10
0.0
 20
0.0
 11
420.0
 21
297.0
 12
0.0
 22
0.0
 32
0.0
 14
1.000000000000000E+20
 24
1.000000000000000E+20
 34
1.000000000000000E+20
 15
-1.000000000000000E+20
 25
-1.000000000000000E+20
 35
-1.000000000000000E+20
146
0.0
 13
0.0
 23
0.0
 33
0.0
 16
1.0
 26
0.0
 36
0.0
 17
0.0
 27
1.0
 37
0.0
 76
     0
330
1B
  0
LAYOUT
  5
26
102
{ACAD_REACTORS
330
1A
102
}
330
1A
100
AcDbPlotSettings
  1

  2
none_device
  4

  6

 40
0.0
 41
0.0
 42
0.0
 43
0.0
 44
0.0
 45
0.0
 46
0.0
 47
0.0
 48
0.0
 49
0.0
140
0.0
141
0.0
142
1.0
143
1.0
 70
   688
 72
     1
 73
     0
 74
     5
  7

 75
    16
147
1.0
148
0.0
149
0.0
100
AcDbLayout
  1
Layout2
 70
     1
 71
     2
 10
0.0
 20
0.0
 11
0.0
 21
0.0
 12
0.0
 22
0.0
 32
0.0
 14
0.0
 24
0.0
 34
0.0
 15
0.0
 25
0.0
 35
0.0
146
0.0
 13
0.0
 23
0.0
 33
0.0
 16
1.0
 26
0.0
 36
0.0
 17
0.0
 27
1.0
 37
0.0
 76
     0
330
23
  0
LAYOUT
  5
22
102
{ACAD_REACTORS
330
1A
102
}
330
1A
100
AcDbPlotSettings
  1

  2
none_device
  4
ANSI_A_(11.00_x_8.50_Inches)
  6

 40
6.35
 41
19.05
 42
6.35000508
 43
19.05000254
 44
279.4
 45
215.9
 46
94.6357803524391
 47
102.9761615973811
 48
0.0
 49
0.0
140
0.0
141
0.0
142
0.0589085814011888
143
1.0
 70
  1696
 72
     0
 73
     0
 74
     0
  7

 75
     0
147
0.0235690232323232
148
0.0
149
0.0
100
AcDbLayout
  1
Model
 70
     1
 71
     0
 10
0.0
 20
0.0
 11
420.0
 21
297.0
 12
0.0
 22
0.0
 32
0.0
 14
-65.89350618282081
 24
-49.97180738881174
 34
0.0
 15
118.0823602881134
 25
31.76413260158164
 35
0.0
146
0.0
 13
0.0
 23
0.0
 33
0.0
 16
1.0
 26
0.0
 36
0.0
 17
0.0
 27
1.0
 37
0.0
 76
     0
330
1F
331
29
  0
MLINESTYLE
  5
18
102
{ACAD_REACTORS
330
17
102
}
330
17
100
AcDbMlineStyle
  2
Standard
 70
     0
  3

 62
   256
 51
90.0
 52
90.0
 71
     2
 49
0.5
 62
   256
  6
BYLAYER
 49
-0.5
 62
   256
  6
BYLAYER
  0
ACDBPLACEHOLDER
  5
F
102
{ACAD_REACTORS
330
E
102
}
330
E
  0
SCALE
  5
48
102
{ACAD_REACTORS
330
47
102
}
330
47
100
AcDbScale
 70
     0
300
1:1
140
1.0
141
1.0
290
     1
  0
SCALE
  5
49
102
{ACAD_REACTORS
330
47
102
}
330
47
100
AcDbScale
 70
     0
300
1:2
140
1.0
141
2.0
290
     0
  0
SCALE
  5
4A
102
{ACAD_REACTORS
330
47
102
}
330
47
100
AcDbScale
 70
     0
300
1:4
140
1.0
141
4.0
290
     0
  0
SCALE
  5
4B
102
{ACAD_REACTORS
330
47
102
}
330
47
100
AcDbScale
 70
     0
300
1:5
140
1.0
141
5.0
290
     0
  0
SCALE
  5
4C
102
{ACAD_REACTORS
330
47
102
}
330
47
100
AcDbScale
 70
     0
300
1:8
140
1.0
141
8.0
290
     0
  0
SCALE
  5
4D
102
{ACAD_REACTORS
330
47
102
}
330
47
100
AcDbScale
 70
     0
300
1:10
140
1.0
141
10.0
290
     0
  0
SCALE
  5
4E
102
{ACAD_REACTORS
330
47
102
}
330
47
100
AcDbScale
 70
     0
300
1:16
140
1.0
141
16.0
290
     0
  0
SCALE
  5
4F
102
{ACAD_REACTORS
330
47
102
}
330
47
100
AcDbScale
 70
     0
300
1:20
140
1.0
141
20.0
290
     0
  0
SCALE
  5
50
102
{ACAD_REACTORS
330
47
102
}
330
47
100
AcDbScale
 70
     0
300
1:30
140
1.0
141
30.0
290
     0
  0
SCALE
  5
51
102
{ACAD_REACTORS
330
47
102
}
330
47
100
AcDbScale
 70
     0
300
1:40
140
1.0
141
40.0
290
     0
  0
SCALE
  5
52
102
{ACAD_REACTORS
330
47
102
}
330
47
100
AcDbScale
 70
     0
300
1:50
140
1.0
141
50.0
290
     0
  0
SCALE
  5
53
102
{ACAD_REACTORS
330
47
102
}
330
47
100
AcDbScale
 70
     0
300
1:100
140
1.0
141
100.0
290
     0
  0
SCALE
  5
54
102
{ACAD_REACTORS
330
47
102
}
330
47
100
AcDbScale
 70
     0
300
2:1
140
2.0
141
1.0
290
     0
  0
SCALE
  5
55
102
{ACAD_REACTORS
330
47
102
}
330
47
100
AcDbScale
 70
     0
300
4:1
140
4.0
141
1.0
290
     0
  0
SCALE
  5
56
102
{ACAD_REACTORS
330
47
102
}
330
47
100
AcDbScale
 70
     0
300
8:1
140
8.0
141
1.0
290
     0
  0
SCALE
  5
57
102
{ACAD_REACTORS
330
47
102
}
330
47
100
AcDbScale
 70
     0
300
10:1
140
10.0
141
1.0
290
     0
  0
SCALE
  5
58
102
{ACAD_REACTORS
330
47
102
}
330
47
100
AcDbScale
 70
     0
300
100:1
140
100.0
141
1.0
290
     0
  0
SCALE
  5
59
102
{ACAD_REACTORS
330
47
102
}
330
47
100
AcDbScale
 70
     0
300
1/128" = 1'-0"
140
0.0078125
141
12.0
290
     0
  0
SCALE
  5
5A
102
{ACAD_REACTORS
330
47
102
}
330
47
100
AcDbScale
 70
     0
300
1/64" = 1'-0"
140
0.015625
141
12.0
290
     0
  0
SCALE
  5
5B
102
{ACAD_REACTORS
330
47
102
}
330
47
100
AcDbScale
 70
     0
300
1/32" = 1'-0"
140
0.03125
141
12.0
290
     0
  0
SCALE
  5
5C
102
{ACAD_REACTORS
330
47
102
}
330
47
100
AcDbScale
 70
     0
300
1/16" = 1'-0"
140
0.0625
141
12.0
290
     0
  0
SCALE
  5
5D
102
{ACAD_REACTORS
330
47
102
}
330
47
100
AcDbScale
 70
     0
300
3/32" = 1'-0"
140
0.09375
141
12.0
290
     0
  0
SCALE
  5
5E
102
{ACAD_REACTORS
330
47
102
}
330
47
100
AcDbScale
 70
     0
300
1/8" = 1'-0"
140
0.125
141
12.0
290
     0
  0
SCALE
  5
5F
102
{ACAD_REACTORS
330
47
102
}
330
47
100
AcDbScale
 70
     0
300
3/16" = 1'-0"
140
0.1875
141
12.0
290
     0
  0
SCALE
  5
60
102
{ACAD_REACTORS
330
47
102
}
330
47
100
AcDbScale
 70
     0
300
1/4" = 1'-0"
140
0.25
141
12.0
290
     0
  0
SCALE
  5
61
102
{ACAD_REACTORS
330
47
102
}
330
47
100
AcDbScale
 70
     0
300
3/8" = 1'-0"
140
0.375
141
12.0
290
     0
  0
SCALE
  5
62
102
{ACAD_REACTORS
330
47
102
}
330
47
100
AcDbScale
 70
     0
300
1/2" = 1'-0"
140
0.5
141
12.0
290
     0
  0
SCALE
  5
63
102
{ACAD_REACTORS
330
47
102
}
330
47
100
AcDbScale
 70
     0
300
3/4" = 1'-0"
140
0.75
141
12.0
290
     0
  0
SCALE
  5
64
102
{ACAD_REACTORS
330
47
102
}
330
47
100
AcDbScale
 70
     0
300
1" = 1'-0"
140
1.0
141
12.0
290
     0
  0
SCALE
  5
65
102
{ACAD_REACTORS
330
47
102
}
330
47
100
AcDbScale
 70
     0
300
1-1/2" = 1'-0"
140
1.5
141
12.0
290
     0
  0
SCALE
  5
66
102
{ACAD_REACTORS
330
47
102
}
330
47
100
AcDbScale
 70
     0
300
3" = 1'-0"
140
3.0
141
12.0
290
     0
  0
SCALE
  5
67
102
{ACAD_REACTORS
330
47
102
}
330
47
100
AcDbScale
 70
     0
300
6" = 1'-0"
140
6.0
141
12.0
290
     0
  0
SCALE
  5
68
102
{ACAD_REACTORS
330
47
102
}
330
47
100
AcDbScale
 70
     0
300
1'-0" = 1'-0"
140
12.0
141
12.0
290
     0
  0
ENDSEC
  0
EOF
