  0
SECTION
  2
HEADER
  9
$ACADVER
  1
AC1015
  9
$ACADMAINTVER
 70
     6
  9
$DWGCODEPAGE
  3
ANSI_949
  9
$INSBASE
 10
0.0
 20
0.0
 30
0.0
  9
$EXTMIN
 10
-96.72231546943395
 20
-49.97180738881174
 30
0.0
  9
$EXTMAX
 10
139.2509346248214
 20
34.26413260158164
 30
0.0
  9
$LIMMIN
 10
0.0
 20
0.0
  9
$LIMMAX
 10
420.0
 20
297.0
  9
$ORTHOMODE
 70
     0
  9
$REGENMODE
 70
     1
  9
$FILLMODE
 70
     1
  9
$QTEXTMODE
 70
     0
  9
$MIRRTEXT
 70
     1
  9
$LTSCALE
 40
1.0
  9
$ATTMODE
 70
     1
  9
$TEXTSIZE
 40
3.5
  9
$TRACEWID
 40
1.0
  9
$TEXTSTYLE
  7
Standard
  9
$CLAYER
  8
0
  9
$CELTYPE
  6
ByLayer
  9
$CECOLOR
 62
   256
  9
$CELTSCALE
 40
1.0
  9
$DISPSILH
 70
     0
  9
$DIMSCALE
 40
1.0
  9
$DIMASZ
 40
3.302
  9
$DIMEXO
 40
1.0
  9
$DIMDLI
 40
3.75
  9
$DIMRND
 40
0.0
  9
$DIMDLE
 40
0.0
  9
$DIMEXE
 40
1.0
  9
$DIMTP
 40
0.0
  9
$DIMTM
 40
0.0
  9
$DIMTXT
 40
3.5
  9
$DIMCEN
 40
2.5
  9
$DIMTSZ
 40
0.0
  9
$DIMTOL
 70
     0
  9
$DIMLIM
 70
     0
  9
$DIMTIH
 70
     1
  9
$DIMTOH
 70
     1
  9
$DIMSE1
 70
     0
  9
$DIMSE2
 70
     0
  9
$DIMTAD
 70
     1
  9
$DIMZIN
 70
     0
  9
$DIMBLK
  1

  9
$DIMASO
 70
     1
  9
$DIMSHO
 70
     1
  9
$DIMPOST
  1

  9
$DIMAPOST
  1

  9
$DIMALT
 70
     0
  9
$DIMALTD
 70
     3
  9
$DIMALTF
 40
0.0393700787401575
  9
$DIMLFAC
 40
1.0
  9
$DIMTOFL
 70
     1
  9
$DIMTVP
 40
0.0
  9
$DIMTIX
 70
     0
  9
$DIMSOXD
 70
     0
  9
$DIMSAH
 70
     0
  9
$DIMBLK1
  1

  9
$DIMBLK2
  1

  9
$DIMSTYLE
  2
ISO-25
  9
$DIMCLRD
 70
     0
  9
$DIMCLRE
 70
     0
  9
$DIMCLRT
 70
     0
  9
$DIMTFAC
 40
1.0
  9
$DIMGAP
 40
1.524
  9
$DIMJUST
 70
     0
  9
$DIMSD1
 70
     0
  9
$DIMSD2
 70
     0
  9
$DIMTOLJ
 70
     0
  9
$DIMTZIN
 70
     0
  9
$DIMALTZ
 70
     0
  9
$DIMALTTZ
 70
     0
  9
$DIMUPT
 70
     0
  9
$DIMDEC
 70
     2
  9
$DIMTDEC
 70
     2
  9
$DIMALTU
 70
     2
  9
$DIMALTTD
 70
     3
  9
$DIMTXSTY
  7
Standard
  9
$DIMAUNIT
 70
     0
  9
$DIMADEC
 70
     2
  9
$DIMALTRND
 40
0.0
  9
$DIMAZIN
 70
     0
  9
$DIMDSEP
 70
    44
  9
$DIMATFIT
 70
     3
  9
$DIMFRAC
 70
     0
  9
$DIMLDRBLK
  1

  9
$DIMLUNIT
 70
     2
  9
$DIMLWD
 70
    -2
  9
$DIMLWE
 70
    -2
  9
$DIMTMOVE
 70
     0
  9
$LUNITS
 70
     2
  9
$LUPREC
 70
     2
  9
$SKETCHINC
 40
1.0
  9
$FILLETRAD
 40
10.0
  9
$AUNITS
 70
     0
  9
$AUPREC
 70
     2
  9
$MENU
  1
.
  9
$ELEVATION
 40
0.0
  9
$PELEVATION
 40
0.0
  9
$THICKNESS
 40
0.0
  9
$LIMCHECK
 70
     0
  9
$CHAMFERA
 40
0.0
  9
$CHAMFERB
 40
0.0
  9
$CHAMFERC
 40
0.0
  9
$CHAMFERD
 40
0.0
  9
$SKPOLY
 70
     0
  9
$TDCREATE
 40
2458260.587043819
  9
$TDUCREATE
 40
2458260.212043819
  9
$TDUPDATE
 40
2458268.615075104
  9
$TDUUPDATE
 40
2458268.240075104
  9
$TDINDWG
 40
0.0008171528
  9
$TDUSRTIMER
 40
2458268.239257975
  9
$USRTIMER
 70
     1
  9
$ANGBASE
 50
0.0
  9
$ANGDIR
 70
     0
  9
$PDMODE
 70
     0
  9
$PDSIZE
 40
-1.0
  9
$PLINEWID
 40
0.0
  9
$SPLFRAME
 70
     0
  9
$SPLINETYPE
 70
     6
  9
$SPLINESEGS
 70
     8
  9
$HANDSEED
  5
14A
  9
$SURFTAB1
 70
     6
  9
$SURFTAB2
 70
     6
  9
$SURFTYPE
 70
     6
  9
$SURFU
 70
     6
  9
$SURFV
 70
     6
  9
$UCSBASE
  2

  9
$UCSNAME
  2

  9
$UCSORG
 10
0.0
 20
0.0
 30
0.0
  9
$UCSXDIR
 10
1.0
 20
0.0
 30
0.0
  9
$UCSYDIR
 10
0.0
 20
1.0
 30
0.0
  9
$UCSORTHOREF
  2

  9
$UCSORTHOVIEW
 70
     0
  9
$UCSORGTOP
 10
0.0
 20
0.0
 30
0.0
  9
$UCSORGBOTTOM
 10
0.0
 20
0.0
 30
0.0
  9
$UCSORGLEFT
 10
0.0
 20
0.0
 30
0.0
  9
$UCSORGRIGHT
 10
0.0
 20
0.0
 30
0.0
  9
$UCSORGFRONT
 10
0.0
 20
0.0
 30
0.0
  9
$UCSORGBACK
 10
0.0
 20
0.0
 30
0.0
  9
$PUCSBASE
  2

  9
$PUCSNAME
  2

  9
$PUCSORG
 10
0.0
 20
0.0
 30
0.0
  9
$PUCSXDIR
 10
1.0
 20
0.0
 30
0.0
  9
$PUCSYDIR
 10
0.0
 20
1.0
 30
0.0
  9
$PUCSORTHOREF
  2

  9
$PUCSORTHOVIEW
 70
     0
  9
$PUCSORGTOP
 10
0.0
 20
0.0
 30
0.0
  9
$PUCSORGBOTTOM
 10
0.0
 20
0.0
 30
0.0
  9
$PUCSORGLEFT
 10
0.0
 20
0.0
 30
0.0
  9
$PUCSORGRIGHT
 10
0.0
 20
0.0
 30
0.0
  9
$PUCSORGFRONT
 10
0.0
 20
0.0
 30
0.0
  9
$PUCSORGBACK
 10
0.0
 20
0.0
 30
0.0
  9
$USERI1
 70
     0
  9
$USERI2
 70
     0
  9
$USERI3
 70
     0
  9
$USERI4
 70
     0
  9
$USERI5
 70
     0
  9
$USERR1
 40
0.0
  9
$USERR2
 40
0.0
  9
$USERR3
 40
0.0
  9
$USERR4
 40
0.0
  9
$USERR5
 40
0.0
  9
$WORLDVIEW
 70
     1
  9
$SHADEDGE
 70
     3
  9
$SHADEDIF
 70
    70
  9
$TILEMODE
 70
     1
  9
$MAXACTVP
 70
    64
  9
$PINSBASE
 10
0.0
 20
0.0
 30
0.0
  9
$PLIMCHECK
 70
     0
  9
$PEXTMIN
 10
1.000000000000000E+20
 20
1.000000000000000E+20
 30
1.000000000000000E+20
  9
$PEXTMAX
 10
-1.000000000000000E+20
 20
-1.000000000000000E+20
 30
-1.000000000000000E+20
  9
$PLIMMIN
 10
0.0
 20
0.0
  9
$PLIMMAX
 10
0.0
 20
0.0
  9
$UNITMODE
 70
     0
  9
$VISRETAIN
 70
     1
  9
$PLINEGEN
 70
     0
  9
$PSLTSCALE
 70
     1
  9
$TREEDEPTH
 70
  3020
  9
$CMLSTYLE
  2
Standard
  9
$CMLJUST
 70
     0
  9
$CMLSCALE
 40
20.0
  9
$PROXYGRAPHICS
 70
     1
  9
$MEASUREMENT
 70
     1
  9
$CELWEIGHT
370
    -1
  9
$ENDCAPS
280
     0
  9
$JOINSTYLE
280
     0
  9
$LWDISPLAY
290
     1
  9
$INSUNITS
 70
     4
  9
$HYPERLINKBASE
  1

  9
$STYLESHEET
  1

  9
$XEDIT
290
     1
  9
$CEPSNTYPE
380
     0
  9
$PSTYLEMODE
290
     1
  9
$FINGERPRINTGUID
  2
{DEDFE10E-0036-4902-B473-A7368A41A46F}
  9
$VERSIONGUID
  2
{FAEB1C32-E019-11D5-929B-00C0DF256EC4}
  9
$EXTNAMES
290
     1
  9
$PSVPSCALE
 40
0.0
  9
$OLESTARTUP
290
     0
  0
ENDSEC
  0
SECTION
  2
CLASSES
  0
CLASS
  1
ACDBDICTIONARYWDFLT
  2
AcDbDictionaryWithDefault
  3
ObjectDBX Classes
 90
        0
280
     0
281
     0
  0
CLASS
  1
VISUALSTYLE
  2
AcDbVisualStyle
  3
ObjectDBX Classes
 90
     4095
280
     0
281
     0
  0
CLASS
  1
MATERIAL
  2
AcDbMaterial
  3
ObjectDBX Classes
 90
     1153
280
     0
281
     0
  0
CLASS
  1
SCALE
  2
AcDbScale
  3
ObjectDBX Classes
 90
     1153
280
     0
281
     0
  0
CLASS
  1
TABLESTYLE
  2
AcDbTableStyle
  3
ObjectDBX Classes
 90
     4095
280
     0
281
     0
  0
CLASS
  1
MLEADERSTYLE
  2
AcDbMLeaderStyle
  3
ACDB_MLEADERSTYLE_CLASS
 90
     4095
280
     0
281
     0
  0
CLASS
  1
SUN
  2
AcDbSun
  3
SCENEOE
 90
     1153
280
     0
281
     0
  0
CLASS
  1
ACDBPLACEHOLDER
  2
AcDbPlaceHolder
  3
ObjectDBX Classes
 90
        0
280
     0
281
     0
  0
CLASS
  1
LAYOUT
  2
AcDbLayout
  3
ObjectDBX Classes
 90
        0
280
     0
281
     0
  0
CLASS
  1
RASTERVARIABLES
  2
AcDbRasterVariables
  3
ISM
 90
        0
280
     0
281
     0
  0
ENDSEC
  0
SECTION
  2
TABLES
  0
TABLE
  2
VPORT
  5
8
330
0
100
AcDbSymbolTable
 70
     1
  0
VPORT
  5
29
330
8
100
AcDbSymbolTableRecord
100
AcDbViewportTableRecord
  2
*Active
 70
     0
 10
0.0
 20
0.0
 11
1.0
 21
1.0
 12
21.26430957769371
 22
-7.853837393615052
 13
0.0
 23
0.0
 14
10.0
 24
10.0
 15
10.0
 25
10.0
 16
0.0
 26
0.0
 36
1.0
 17
0.0
 27
0.0
 37
0.0
 40
138.613215390188
 41
1.736434108527132
 42
50.0
 43
0.0
 44
0.0
 50
0.0
 51
0.0
 71
    16
 72
  2000
 73
     1
 74
     3
 75
     0
 76
     0
 77
     0
 78
     0
281
     0
 65
     1
110
0.0
120
0.0
130
0.0
111
1.0
121
0.0
131
0.0
112
0.0
122
1.0
132
0.0
 79
     0
146
0.0
  0
ENDTAB
  0
TABLE
  2
LTYPE
  5
5
330
0
100
AcDbSymbolTable
 70
     6
  0
LTYPE
  5
14
330
5
100
AcDbSymbolTableRecord
100
AcDbLinetypeTableRecord
  2
ByBlock
 70
     0
  3

 72
    65
 73
     0
 40
0.0
  0
LTYPE
  5
15
330
5
100
AcDbSymbolTableRecord
100
AcDbLinetypeTableRecord
  2
ByLayer
 70
     0
  3

 72
    65
 73
     0
 40
0.0
  0
LTYPE
  5
16
330
5
100
AcDbSymbolTableRecord
100
AcDbLinetypeTableRecord
  2
Continuous
 70
     0
  3
Solid line
 72
    65
 73
     0
 40
0.0
  0
LTYPE
  5
6E
330
5
100
AcDbSymbolTableRecord
100
AcDbLinetypeTableRecord
  2
HIDDEN
 70
     0
  3
Hidden __ __ __ __ __ __ __ __ __ __ __ __ __ __
 72
    65
 73
     2
 40
1.905
 49
1.27
 74
     0
 49
-0.635
 74
     0
  0
LTYPE
  5
6F
330
5
100
AcDbSymbolTableRecord
100
AcDbLinetypeTableRecord
  2
PHANTOM
 70
     0
  3
Phantom ______  __  __  ______  __  __  ______
 72
    65
 73
     6
 40
12.7
 49
6.35
 74
     0
 49
-1.27
 74
     0
 49
1.27
 74
     0
 49
-1.27
 74
     0
 49
1.27
 74
     0
 49
-1.27
 74
     0
  0
LTYPE
  5
70
330
5
100
AcDbSymbolTableRecord
100
AcDbLinetypeTableRecord
  2
CENTER
 70
     0
  3
Center ____ _ ____ _ ____ _ ____ _ ____ _ ____
 72
    65
 73
     4
 40
10.16
 49
6.35
 74
     0
 49
-1.27
 74
     0
 49
1.27
 74
     0
 49
-1.27
 74
     0
  0
LTYPE
  5
71
330
5
100
AcDbSymbolTableRecord
100
AcDbLinetypeTableRecord
  2
CENTERX2
 70
     0
  3
Center (2x) ________  __  ________  __  _____
 72
    65
 73
     4
 40
20.32
 49
12.7
 74
     0
 49
-2.54
 74
     0
 49
2.54
 74
     0
 49
-2.54
 74
     0
  0
LTYPE
  5
72
330
5
100
AcDbSymbolTableRecord
100
AcDbLinetypeTableRecord
  2
DOT2
 70
     0
  3
Dot (.5x) ........................................
 72
    65
 73
     2
 40
0.635
 49
0.0
 74
     0
 49
-0.635
 74
     0
  0
ENDTAB
  0
TABLE
  2
LAYER
  5
2
330
0
100
AcDbSymbolTable
 70
    17
  0
LAYER
  5
10
330
2
100
AcDbSymbolTableRecord
100
AcDbLayerTableRecord
  2
0
 70
     0
 62
     7
  6
Continuous
370
    -3
390
F
  0
LAYER
  5
73
330
2
100
AcDbSymbolTableRecord
100
AcDbLayerTableRecord
  2
FORMAT
 70
     0
 62
     2
  6
Continuous
370
    -3
390
F
  0
LAYER
  5
74
330
2
100
AcDbSymbolTableRecord
100
AcDbLayerTableRecord
  2
외형선
 70
     0
 62
   100
  6
Continuous
370
    35
390
F
  0
LAYER
  5
75
330
2
100
AcDbSymbolTableRecord
100
AcDbLayerTableRecord
  2
숨은선
 70
     0
 62
     2
  6
HIDDEN
370
    25
390
F
  0
LAYER
  5
76
330
2
100
AcDbSymbolTableRecord
100
AcDbLayerTableRecord
  2
중심선
 70
     0
 62
     1
  6
CENTERX2
370
    -3
390
F
  0
LAYER
  5
77
330
2
100
AcDbSymbolTableRecord
100
AcDbLayerTableRecord
  2
파단선
 70
     0
 62
     4
  6
Continuous
370
    -3
390
F
  0
LAYER
  5
78
330
2
100
AcDbSymbolTableRecord
100
AcDbLayerTableRecord
  2
해칭선
 70
     0
 62
   100
  6
Continuous
370
    -3
390
F
  0
LAYER
  5
79
330
2
100
AcDbSymbolTableRecord
100
AcDbLayerTableRecord
  2
가는실선
 70
     0
 62
     4
  6
Continuous
370
    -3
390
F
  0
LAYER
  5
7A
330
2
100
AcDbSymbolTableRecord
100
AcDbLayerTableRecord
  2
치수_보조선
 70
     0
 62
     4
  6
Continuous
370
    -3
390
F
  0
LAYER
  5
7B
330
2
100
AcDbSymbolTableRecord
100
AcDbLayerTableRecord
  2
치수문자_일반주서
 70
     0
 62
     7
  6
Continuous
370
    25
390
F
  0
LAYER
  5
7C
330
2
100
AcDbSymbolTableRecord
100
AcDbLayerTableRecord
  2
개별주서
 70
     0
 62
   100
  6
Continuous
370
    35
390
F
  0
LAYER
  5
7D
330
2
100
AcDbSymbolTableRecord
100
AcDbLayerTableRecord
  2
중간선
 70
     0
 62
     2
  6
Continuous
370
    25
390
F
  0
LAYER
  5
7E
330
2
100
AcDbSymbolTableRecord
100
AcDbLayerTableRecord
  2
윤곽선
 70
     0
 62
     3
  6
Continuous
370
    50
390
F
  0
LAYER
  5
7F
330
2
100
AcDbSymbolTableRecord
100
AcDbLayerTableRecord
  2
중심마크
 70
     0
 62
   100
  6
Continuous
370
    35
390
F
  0
LAYER
  5
80
330
2
100
AcDbSymbolTableRecord
100
AcDbLayerTableRecord
  2
가상선
 70
     0
 62
     4
  6
PHANTOM
370
    -3
390
F
  0
LAYER
  5
81
330
2
100
AcDbSymbolTableRecord
100
AcDbLayerTableRecord
  2
특수지정선
 70
     0
 62
     5
  6
CENTERX2
370
    70
390
F
  0
LAYER
  5
137
330
2
100
AcDbSymbolTableRecord
100
AcDbLayerTableRecord
  2
Defpoints
 70
     0
 62
     7
  6
Continuous
290
     0
370
    -3
390
F
  0
ENDTAB
  0
TABLE
  2
STYLE
  5
3
330
0
100
AcDbSymbolTable
 70
     2
  0
STYLE
  5
11
330
3
100
AcDbSymbolTableRecord
100
AcDbTextStyleTableRecord
  2
Standard
 70
     0
 40
0.0
 41
1.0
 50
0.0
 71
     0
 42
3.5
  3
txt
  4

  0
STYLE
  5
97
330
3
100
AcDbSymbolTableRecord
100
AcDbTextStyleTableRecord
  2
SLDTEXTSTYLE0
 70
     0
 40
0.0
 41
0.75
 50
0.0
 71
     0
 42
3.5
  3
TXT
  4

  0
ENDTAB
  0
TABLE
  2
VIEW
  5
6
330
0
100
AcDbSymbolTable
 70
     0
  0
ENDTAB
  0
TABLE
  2
UCS
  5
7
330
0
100
AcDbSymbolTable
 70
     0
  0
ENDTAB
  0
TABLE
  2
APPID
  5
9
330
0
100
AcDbSymbolTable
 70
     1
  0
APPID
  5
12
330
9
100
AcDbSymbolTableRecord
100
AcDbRegAppTableRecord
  2
ACAD
 70
     0
  0
ENDTAB
  0
TABLE
  2
DIMSTYLE
  5
A
330
0
100
AcDbSymbolTable
 70
     4
100
AcDbDimStyleTable
  0
DIMSTYLE
105
27
330
A
100
AcDbSymbolTableRecord
100
AcDbDimStyleTableRecord
  2
ISO-25
 70
     0
 41
2.5
 42
0.625
 43
3.75
 44
1.25
 73
     0
 74
     0
 77
     1
 78
     8
140
2.5
141
2.5
143
0.03937007874016
147
0.625
171
     3
172
     1
178
     0
271
     2
272
     2
274
     3
278
    44
283
     0
284
     8
340
11
  0
DIMSTYLE
105
E0
102
{ACAD_REACTORS
330
DF
102
}
330
A
100
AcDbSymbolTableRecord
100
AcDbDimStyleTableRecord
  2
SLDDIMSTYLE0
 70
     0
 41
3.302
 44
0.0
 45
0.000000001
 73
     0
 74
     0
 77
     1
 78
    12
 79
     3
140
3.5
147
0.875
172
     1
173
     1
178
     0
271
     1
272
     1
276
     2
284
    12
289
     0
340
97
  0
DIMSTYLE
105
EC
102
{ACAD_REACTORS
330
EB
330
102
102
}
330
A
100
AcDbSymbolTableRecord
100
AcDbDimStyleTableRecord
  2
SLDDIMSTYLE1
 70
     0
 41
3.302
 44
0.0
 45
0.000000001
 73
     0
 74
     0
 77
     1
 78
    12
 79
     3
140
3.5
147
0.875
173
     1
178
     0
271
     2
272
     2
276
     2
284
    12
340
97
  0
DIMSTYLE
105
F7
102
{ACAD_REACTORS
330
F6
102
}
330
A
100
AcDbSymbolTableRecord
100
AcDbDimStyleTableRecord
  2
SLDDIMSTYLE2
 70
     0
 41
3.302
 44
0.0
 45
0.000000001
 73
     0
 74
     0
 77
     1
 78
    12
 79
     3
140
3.5
147
0.875
172
     1
173
     1
178
     0
271
     2
272
     2
276
     2
284
    12
289
     0
340
97
  0
ENDTAB
  0
TABLE
  2
BLOCK_RECORD
  5
1
330
0
100
AcDbSymbolTable
 70
     7
  0
BLOCK_RECORD
  5
1F
330
1
100
AcDbSymbolTableRecord
100
AcDbBlockTableRecord
  2
*Model_Space
340
22
  0
BLOCK_RECORD
  5
1B
330
1
100
AcDbSymbolTableRecord
100
AcDbBlockTableRecord
  2
*Paper_Space
340
1E
  0
BLOCK_RECORD
  5
23
330
1
100
AcDbSymbolTableRecord
100
AcDbBlockTableRecord
  2
*Paper_Space0
340
26
  0
BLOCK_RECORD
  5
82
330
1
100
AcDbSymbolTableRecord
100
AcDbBlockTableRecord
  2
블럭10
340
0
102
{BLKREFS
331
D8
102
}
  0
BLOCK_RECORD
  5
E1
330
1
100
AcDbSymbolTableRecord
100
AcDbBlockTableRecord
  2
_D
340
0
  0
BLOCK_RECORD
  5
ED
330
1
100
AcDbSymbolTableRecord
100
AcDbBlockTableRecord
  2
_D_1
340
0
  0
BLOCK_RECORD
  5
F8
330
1
100
AcDbSymbolTableRecord
100
AcDbBlockTableRecord
  2
_D_2
340
0
  0
BLOCK_RECORD
  5
103
330
1
100
AcDbSymbolTableRecord
100
AcDbBlockTableRecord
  2
_D_3
340
0
  0
BLOCK_RECORD
  5
10C
330
1
100
AcDbSymbolTableRecord
100
AcDbBlockTableRecord
  2
SW_DOWELSYMBOL_0
340
0
102
{BLKREFS
331
112
102
}
  0
ENDTAB
  0
ENDSEC
  0
SECTION
  2
BLOCKS
  0
BLOCK
  5
20
330
1F
100
AcDbEntity
  8
0
100
AcDbBlockBegin
  2
*Model_Space
 70
     0
 10
0.0
 20
0.0
 30
0.0
  3
*Model_Space
  1

  0
ENDBLK
  5
21
330
1F
100
AcDbEntity
  8
0
100
AcDbBlockEnd
  0
BLOCK
  5
1C
330
1B
100
AcDbEntity
 67
     1
  8
0
100
AcDbBlockBegin
  2
*Paper_Space
 70
     0
 10
0.0
 20
0.0
 30
0.0
  3
*Paper_Space
  1

  0
ENDBLK
  5
1D
330
1B
100
AcDbEntity
 67
     1
  8
0
100
AcDbBlockEnd
  0
BLOCK
  5
24
330
23
100
AcDbEntity
  8
0
100
AcDbBlockBegin
  2
*Paper_Space0
 70
     0
 10
0.0
 20
0.0
 30
0.0
  3
*Paper_Space0
  1

  0
ENDBLK
  5
25
330
23
100
AcDbEntity
  8
0
100
AcDbBlockEnd
  0
BLOCK
  5
83
330
82
100
AcDbEntity
  8
0
100
AcDbBlockBegin
  2
블럭10
 70
     2
 10
0.0
 20
0.0
 30
0.0
  3
블럭10
  1

  0
ELLIPSE
  5
85
330
82
100
AcDbEntity
  8
중심선
100
AcDbEllipse
 10
20.54032771741204
 20
12.0471743016438
 30
0.0
 11
6.600054785286829
 21
-1.261213355974178E-13
 31
0.0
210
0.0
220
0.0
230
1.0
 40
0.636358354079598
 41
0.9219305317359503
 42
6.513795318482858
  0
ELLIPSE
  5
86
330
82
100
AcDbEntity
  8
중심선
100
AcDbEllipse
 10
20.54032771746488
 20
12.04717430159265
 30
0.0
 11
3.960054785062283
 21
1.540847449632565E-10
 31
0.0
210
0.0
220
0.0
230
1.0
 40
0.3939339440162632
 41
1.131841032648279
 42
5.62031148352944
  0
LINE
  5
87
330
82
100
AcDbEntity
  8
중심선
100
AcDbLine
 10
2.268634060543552
 20
16.24717430164393
 30
0.0
 11
5.714909304380834
 21
16.24717430164393
 31
0.0
  0
LINE
  5
88
330
82
100
AcDbEntity
  8
중심선
100
AcDbLine
 10
5.245725140726316
 20
7.84717430164391
 30
0.0
 11
8.692000384563599
 21
7.84717430164391
 31
0.0
  0
LINE
  5
89
330
82
100
AcDbEntity
  8
중심선
100
AcDbLine
 10
15.74043728645272
 20
16.24717430164393
 30
0.0
 11
8.692000384563599
 21
7.84717430164391
 31
0.0
  0
LINE
  5
8A
330
82
100
AcDbEntity
  8
중심선
100
AcDbLine
 10
0.1404042013395286
 20
13.71084872107135
 30
0.0
 11
3.58671253028996
 21
13.71088815037384
 31
0.0
  0
LINE
  5
8B
330
82
100
AcDbEntity
  8
중심선
100
AcDbLine
 10
2.750260043222114
 20
10.84717430164391
 30
0.0
 11
6.196535287059397
 21
10.84717430164391
 31
0.0
  0
LINE
  5
8C
330
82
100
AcDbEntity
  8
중심선
100
AcDbLine
 10
12.29416204261559
 20
16.24717430164393
 30
0.0
 11
5.245725140726316
 21
7.84717430164391
 31
0.0
  0
LINE
  5
8D
330
82
100
AcDbEntity
  8
중심선
100
AcDbLine
 10
10.72767329541681
 20
16.24717430164393
 30
0.0
 11
6.196535287059397
 21
10.84717430164391
 31
0.0
  0
LINE
  5
8E
330
82
100
AcDbEntity
  8
중심선
100
AcDbLine
 10
7.28139805157953
 20
16.24717430164393
 30
0.0
 11
2.750260043222114
 21
10.84717430164391
 31
0.0
  0
LINE
  5
8F
330
82
100
AcDbEntity
  8
중심선
100
AcDbLine
 10
5.714909304380834
 20
16.24717430164393
 30
0.0
 11
3.58671253028996
 21
13.71088815037384
 31
0.0
  0
LINE
  5
90
330
82
100
AcDbEntity
  8
중심선
100
AcDbLine
 10
2.268634060543552
 20
16.24717430164393
 30
0.0
 11
0.1404042013395286
 21
13.71084872107135
 31
0.0
  0
LINE
  5
91
330
82
100
AcDbEntity
  8
중심선
100
AcDbLine
 10
7.28139805157953
 20
16.24717430164393
 30
0.0
 11
10.72767329541681
 21
16.24717430164393
 31
0.0
  0
LINE
  5
92
330
82
100
AcDbEntity
  8
중심선
100
AcDbLine
 10
12.29416204261559
 20
16.24717430164393
 30
0.0
 11
15.74043728645272
 21
16.24717430164393
 31
0.0
  0
LINE
  5
93
330
82
100
AcDbEntity
  8
중심선
100
AcDbLine
 10
19.22036997980202
 20
11.08717430171403
 30
0.0
 11
23.66174974927406
 21
11.08717430171406
 31
0.0
  0
LINE
  5
94
330
82
100
AcDbEntity
  8
중심선
100
AcDbLine
 10
19.22039502424796
 20
13.00717430171391
 30
0.0
 11
19.22036997980202
 21
11.08717430171403
 31
0.0
  0
LINE
  5
95
330
82
100
AcDbEntity
  8
중심선
100
AcDbLine
 10
19.22039502424796
 20
13.00717430171391
 30
0.0
 11
26.96566020931264
 21
13.00717430171391
 31
0.0
  0
LINE
  5
96
330
82
100
AcDbEntity
  8
중심선
100
AcDbLine
 10
22.22332737316547
 20
13.45928029700563
 30
0.0
 11
24.52862924686651
 21
15.39360700705356
 31
0.0
  0
ATTDEF
  5
98
330
82
100
AcDbEntity
  8
FORMAT
 62
     2
100
AcDbText
 10
-17.69892196172445
 20
2.075366912832191
 30
0.0
 40
4.233333333333333
  1
SEME72250110E [ 4 FLUTE ]
 41
0.75
  7
SLDTEXTSTYLE0
 11
-17.69892196172445
 21
-0.0412997538344756
 31
0.0
100
AcDbAttributeDefinition
  3

  2
AUTOATTR0
 70
     0
 74
     1
  0
ENDBLK
  5
84
330
82
100
AcDbEntity
  8
0
100
AcDbBlockEnd
  0
BLOCK
  5
E2
330
E1
100
AcDbEntity
  8
0
100
AcDbBlockBegin
  2
_D
 70
     0
 10
0.0
 20
0.0
 30
0.0
  3
_D
  1

  0
LINE
  5
E4
330
E1
100
AcDbEntity
  8
치수문자_일반주서
 62
     0
370
    -2
100
AcDbLine
 10
122.0625
 20
-12.50000000000001
 30
0.0
 11
138.7006012914881
 21
-12.49999999999995
 31
0.0
  0
LINE
  5
E5
330
E1
100
AcDbEntity
  8
치수문자_일반주서
 62
     0
370
    -2
100
AcDbLine
 10
122.0625
 20
12.5
 30
0.0
 11
138.700601291488
 21
12.50000000000006
 31
0.0
  0
LINE
  5
E6
330
E1
100
AcDbEntity
  8
치수문자_일반주서
 62
     0
370
    -2
100
AcDbLine
 10
138.7006012914881
 20
-12.49999999999995
 30
0.0
 11
138.7006012914879
 21
27.85400000000006
 31
0.0
  0
LINE
  5
E7
330
E1
100
AcDbEntity
  8
치수문자_일반주서
 62
     0
370
    -2
100
AcDbLine
 10
138.7006012914881
 20
-12.49999999999995
 30
0.0
 11
138.700601291488
 21
12.50000000000006
 31
0.0
  0
LINE
  5
E8
330
E1
100
AcDbEntity
  8
치수문자_일반주서
 62
     0
370
    -2
100
AcDbLine
 10
138.7006012914881
 20
-15.80199999999995
 30
0.0
 11
138.7006012914881
 21
-19.10399999999995
 31
0.0
  0
LINE
  5
E9
330
E1
100
AcDbEntity
  8
치수문자_일반주서
 62
     0
370
    -2
100
AcDbLine
 10
138.700601291488
 20
15.80200000000006
 30
0.0
 11
138.700601291488
 21
19.10400000000006
 31
0.0
  0
SOLID
  5
EA
330
E1
100
AcDbEntity
  8
치수문자_일반주서
 62
     0
100
AcDbTrace
 10
139.2509346248214
 20
-15.80199999999995
 30
0.0
 11
138.1502679581547
 21
-15.80199999999995
 31
0.0
 12
138.7006012914881
 22
-12.49999999999995
 32
0.0
 13
138.7006012914881
 23
-12.49999999999995
 33
0.0
  0
SOLID
  5
138
330
E1
100
AcDbEntity
  8
치수문자_일반주서
 62
     0
100
AcDbTrace
 10
138.1502679581546
 20
15.80200000000006
 30
0.0
 11
139.2509346248213
 21
15.80200000000006
 31
0.0
 12
138.700601291488
 22
12.50000000000006
 32
0.0
 13
138.700601291488
 23
12.50000000000006
 33
0.0
  0
MTEXT
  5
139
330
E1
100
AcDbEntity
  8
치수문자_일반주서
 62
     0
100
AcDbMText
 10
134.3256012914879
 20
23.47900000000004
 30
0.0
 40
3.5
 41
0.0
 71
     2
 72
     1
  1
\A1;%%c25
  7
SLDTEXTSTYLE0
 11
-3.410605131648480E-15
 21
1.0
 31
0.0
 73
     1
 44
1.0
  0
POINT
  5
145
330
E1
100
AcDbEntity
  8
Defpoints
 62
     0
100
AcDbPoint
 10
122.0
 20
-12.50000000000001
 30
0.0
  0
POINT
  5
146
330
E1
100
AcDbEntity
  8
Defpoints
 62
     0
100
AcDbPoint
 10
122.0
 20
12.5
 30
0.0
  0
POINT
  5
147
330
E1
100
AcDbEntity
  8
Defpoints
 62
     0
100
AcDbPoint
 10
138.700601291488
 20
12.50000000000006
 30
0.0
  0
ENDBLK
  5
E3
330
E1
100
AcDbEntity
  8
0
100
AcDbBlockEnd
  0
BLOCK
  5
EE
330
ED
100
AcDbEntity
  8
0
100
AcDbBlockBegin
  2
_D_1
 70
     0
 10
0.0
 20
0.0
 30
0.0
  3
_D_1
  1

  0
LINE
  5
F0
330
ED
100
AcDbEntity
  8
치수문자_일반주서
 62
     0
370
    -2
100
AcDbLine
 10
-78.0
 20
12.06249999999998
 30
0.0
 11
-78.0
 21
29.88913260158163
 31
0.0
  0
LINE
  5
F1
330
ED
100
AcDbEntity
  8
치수문자_일반주서
 62
     0
370
    -2
100
AcDbLine
 10
122.0
 20
12.56250000000001
 30
0.0
 11
122.0
 21
29.88913260158163
 31
0.0
  0
LINE
  5
F2
330
ED
100
AcDbEntity
  8
치수문자_일반주서
 62
     0
370
    -2
100
AcDbLine
 10
-74.69800000000001
 20
29.88913260158163
 30
0.0
 11
118.698
 21
29.88913260158163
 31
0.0
  0
SOLID
  5
F3
330
ED
100
AcDbEntity
  8
치수문자_일반주서
 62
     0
100
AcDbTrace
 10
-74.69800000000001
 20
30.43946593491497
 30
0.0
 11
-74.69800000000001
 21
29.3387992682483
 31
0.0
 12
-78.0
 22
29.88913260158163
 32
0.0
 13
-78.0
 23
29.88913260158163
 33
0.0
  0
SOLID
  5
F4
330
ED
100
AcDbEntity
  8
치수문자_일반주서
 62
     0
100
AcDbTrace
 10
118.698
 20
29.3387992682483
 30
0.0
 11
118.698
 21
30.43946593491497
 31
0.0
 12
122.0
 22
29.88913260158163
 32
0.0
 13
122.0
 23
29.88913260158163
 33
0.0
  0
MTEXT
  5
F5
330
ED
100
AcDbEntity
  8
치수문자_일반주서
 62
     0
100
AcDbMText
 10
21.99999999999999
 20
34.26413260158164
 30
0.0
 40
3.5
 41
0.0
 71
     2
 72
     1
  1
\A1;200
  7
SLDTEXTSTYLE0
 73
     1
 44
1.0
  0
POINT
  5
13A
330
ED
100
AcDbEntity
  8
Defpoints
 62
     0
100
AcDbPoint
 10
-78.0
 20
11.99999999999998
 30
0.0
  0
POINT
  5
13B
330
ED
100
AcDbEntity
  8
Defpoints
 62
     0
100
AcDbPoint
 10
122.0
 20
12.50000000000001
 30
0.0
  0
POINT
  5
13C
330
ED
100
AcDbEntity
  8
Defpoints
 62
     0
100
AcDbPoint
 10
122.0
 20
29.88913260158163
 30
0.0
  0
ENDBLK
  5
EF
330
ED
100
AcDbEntity
  8
0
100
AcDbBlockEnd
  0
BLOCK
  5
F9
330
F8
100
AcDbEntity
  8
0
100
AcDbBlockBegin
  2
_D_2
 70
     0
 10
0.0
 20
0.0
 30
0.0
  3
_D_2
  1

  0
LINE
  5
FB
330
F8
100
AcDbEntity
  8
치수문자_일반주서
 62
     0
370
    -2
100
AcDbLine
 10
-77.5625
 20
12.49999999999998
 30
0.0
 11
-92.3473154694339
 21
12.49999999999992
 31
0.0
  0
LINE
  5
FC
330
F8
100
AcDbEntity
  8
치수문자_일반주서
 62
     0
370
    -2
100
AcDbLine
 10
-77.5625
 20
-12.50000000000002
 30
0.0
 11
-92.34731546943381
 21
-12.50000000000008
 31
0.0
  0
LINE
  5
FD
330
F8
100
AcDbEntity
  8
치수문자_일반주서
 62
     0
370
    -2
100
AcDbLine
 10
-92.3473154694339
 20
12.49999999999992
 30
0.0
 11
-92.34731546943395
 21
27.85399999999992
 31
0.0
  0
LINE
  5
FE
330
F8
100
AcDbEntity
  8
치수문자_일반주서
 62
     0
370
    -2
100
AcDbLine
 10
-92.3473154694339
 20
12.49999999999992
 30
0.0
 11
-92.34731546943381
 21
-12.50000000000008
 31
0.0
  0
LINE
  5
FF
330
F8
100
AcDbEntity
  8
치수문자_일반주서
 62
     0
370
    -2
100
AcDbLine
 10
-92.34731546943391
 20
15.80199999999992
 30
0.0
 11
-92.34731546943392
 21
19.10399999999992
 31
0.0
  0
LINE
  5
100
330
F8
100
AcDbEntity
  8
치수문자_일반주서
 62
     0
370
    -2
100
AcDbLine
 10
-92.3473154694338
 20
-15.80200000000008
 30
0.0
 11
-92.34731546943378
 21
-19.10400000000008
 31
0.0
  0
SOLID
  5
101
330
F8
100
AcDbEntity
  8
치수문자_일반주서
 62
     0
100
AcDbTrace
 10
-92.89764880276724
 20
15.80199999999992
 30
0.0
 11
-91.79698213610058
 21
15.80199999999992
 31
0.0
 12
-92.3473154694339
 22
12.49999999999992
 32
0.0
 13
-92.3473154694339
 23
12.49999999999992
 33
0.0
  0
SOLID
  5
13D
330
F8
100
AcDbEntity
  8
치수문자_일반주서
 62
     0
100
AcDbTrace
 10
-91.79698213610047
 20
-15.80200000000008
 30
0.0
 11
-92.89764880276712
 21
-15.80200000000008
 31
0.0
 12
-92.34731546943381
 22
-12.50000000000008
 32
0.0
 13
-92.34731546943381
 23
-12.50000000000008
 33
0.0
  0
MTEXT
  5
13E
330
F8
100
AcDbEntity
  8
치수문자_일반주서
 62
     0
100
AcDbMText
 10
-96.72231546943394
 20
23.4789999999999
 30
0.0
 40
3.5
 41
0.0
 71
     2
 72
     1
  1
\A1;%%c25
  7
SLDTEXTSTYLE0
 11
-3.410605131648482E-15
 21
1.0
 31
0.0
 73
     1
 44
1.0
  0
POINT
  5
142
330
F8
100
AcDbEntity
  8
Defpoints
 62
     0
100
AcDbPoint
 10
-77.5
 20
12.49999999999998
 30
0.0
  0
POINT
  5
143
330
F8
100
AcDbEntity
  8
Defpoints
 62
     0
100
AcDbPoint
 10
-77.5
 20
-12.50000000000002
 30
0.0
  0
POINT
  5
144
330
F8
100
AcDbEntity
  8
Defpoints
 62
     0
100
AcDbPoint
 10
-92.34731546943385
 20
-12.50000000000007
 30
0.0
  0
ENDBLK
  5
FA
330
F8
100
AcDbEntity
  8
0
100
AcDbBlockEnd
  0
BLOCK
  5
104
330
103
100
AcDbEntity
  8
0
100
AcDbBlockBegin
  2
_D_3
 70
     0
 10
0.0
 20
0.0
 30
0.0
  3
_D_3
  1

  0
LINE
  5
106
330
103
100
AcDbEntity
  8
치수문자_일반주서
 62
     0
370
    -2
100
AcDbLine
 10
12.00000000000001
 20
12.54608881223978
 30
0.0
 11
12.0
 21
23.32950711482743
 31
0.0
  0
LINE
  5
107
330
103
100
AcDbEntity
  8
치수문자_일반주서
 62
     0
370
    -2
100
AcDbLine
 10
122.0
 20
12.56250000000001
 30
0.0
 11
122.0
 21
23.32950711482743
 31
0.0
  0
LINE
  5
108
330
103
100
AcDbEntity
  8
치수문자_일반주서
 62
     0
370
    -2
100
AcDbLine
 10
15.302
 20
23.32950711482743
 30
0.0
 11
118.698
 21
23.32950711482743
 31
0.0
  0
SOLID
  5
109
330
103
100
AcDbEntity
  8
치수문자_일반주서
 62
     0
100
AcDbTrace
 10
15.302
 20
23.87984044816077
 30
0.0
 11
15.302
 21
22.7791737814941
 31
0.0
 12
12.0
 22
23.32950711482743
 32
0.0
 13
12.0
 23
23.32950711482743
 33
0.0
  0
SOLID
  5
10A
330
103
100
AcDbEntity
  8
치수문자_일반주서
 62
     0
100
AcDbTrace
 10
118.698
 20
22.7791737814941
 30
0.0
 11
118.698
 21
23.87984044816077
 31
0.0
 12
122.0
 22
23.32950711482743
 32
0.0
 13
122.0
 23
23.32950711482743
 33
0.0
  0
MTEXT
  5
10B
330
103
100
AcDbEntity
  8
치수문자_일반주서
 62
     0
100
AcDbMText
 10
67.0
 20
27.70450711482743
 30
0.0
 40
3.5
 41
0.0
 71
     2
 72
     1
  1
\A1;110
  7
SLDTEXTSTYLE0
 73
     1
 44
1.0
  0
POINT
  5
13F
330
103
100
AcDbEntity
  8
Defpoints
 62
     0
100
AcDbPoint
 10
12.00000000000001
 20
12.48358881223978
 30
0.0
  0
POINT
  5
140
330
103
100
AcDbEntity
  8
Defpoints
 62
     0
100
AcDbPoint
 10
122.0
 20
12.50000000000001
 30
0.0
  0
POINT
  5
141
330
103
100
AcDbEntity
  8
Defpoints
 62
     0
100
AcDbPoint
 10
122.0
 20
23.32950711482743
 30
0.0
  0
ENDBLK
  5
105
330
103
100
AcDbEntity
  8
0
100
AcDbBlockEnd
  0
BLOCK
  5
10D
330
10C
100
AcDbEntity
  8
0
100
AcDbBlockBegin
  2
SW_DOWELSYMBOL_0
 70
     0
 10
0.0
 20
0.0
 30
0.0
  3
SW_DOWELSYMBOL_0
  1

  0
CIRCLE
  5
10F
330
10C
100
AcDbEntity
  8
해칭선
 62
     0
100
AcDbCircle
 10
0.0
 20
0.0
 30
0.0
 40
3.000000000000003
  0
HATCH
  5
110
330
10C
100
AcDbEntity
  8
0
  6
Continuous
 62
     0
370
    18
100
AcDbHatch
 10
0.0
 20
0.0
 30
0.0
210
0.0
220
0.0
230
1.0
  2
SOLID
 70
     1
 71
     0
 91
        1
 92
        0
 93
        3
 72
     2
 10
0.0
 20
0.0
 40
3.000000000000003
 50
0.0
 51
90.0
 73
     1
 72
     1
 10
0.0
 20
3.000000000000003
 11
0.0
 21
0.0
 72
     1
 10
0.0
 20
0.0
 11
3.000000000000003
 21
0.0
 97
        0
 75
     0
 76
     1
 98
        1
 10
0.0
 20
0.0
  0
HATCH
  5
111
330
10C
100
AcDbEntity
  8
0
  6
Continuous
 62
     0
370
    18
100
AcDbHatch
 10
0.0
 20
0.0
 30
0.0
210
0.0
220
0.0
230
1.0
  2
SOLID
 70
     1
 71
     0
 91
        1
 92
        0
 93
        3
 72
     2
 10
0.0
 20
0.0
 40
3.000000000000003
 50
180.0
 51
270.0000000000008
 73
     1
 72
     1
 10
0.0
 20
-3.000000000000003
 11
0.0
 21
0.0
 72
     1
 10
0.0
 20
0.0
 11
-3.000000000000003
 21
0.0
 97
        0
 75
     0
 76
     1
 98
        1
 10
0.0
 20
0.0
  0
ENDBLK
  5
10E
330
10C
100
AcDbEntity
  8
0
100
AcDbBlockEnd
  0
ENDSEC
  0
SECTION
  2
ENTITIES
  0
LINE
  5
99
330
1F
100
AcDbEntity
  8
0
  6
Continuous
 62
     4
370
    25
100
AcDbLine
 10
11.15246750815303
 20
12.49999999999999
 30
0.0
 11
-77.5
 21
12.49999999999999
 31
0.0
  0
LINE
  5
9A
330
1F
100
AcDbEntity
  8
0
  6
Continuous
 62
     4
370
    25
100
AcDbLine
 10
-77.5
 20
-12.50000000000001
 30
0.0
 11
11.15246750815293
 21
-12.50000000000001
 31
0.0
  0
LINE
  5
9B
330
1F
100
AcDbEntity
  8
0
  6
Continuous
 62
     4
370
    25
100
AcDbLine
 10
-77.5
 20
12.49999999999999
 30
0.0
 11
-78.0
 21
11.99999999999998
 31
0.0
  0
LINE
  5
9C
330
1F
100
AcDbEntity
  8
0
  6
Continuous
 62
     4
370
    25
100
AcDbLine
 10
-78.0
 20
-12.00000000000001
 30
0.0
 11
-77.5
 21
-12.50000000000001
 31
0.0
  0
LINE
  5
9D
330
1F
100
AcDbEntity
  8
0
  6
Continuous
 62
     1
370
    25
100
AcDbLine
 10
83.1555265328013
 20
-12.50000000000002
 30
0.0
 11
92.82660017099988
 21
-12.50000000000002
 31
0.0
  0
LINE
  5
9E
330
1F
100
AcDbEntity
  8
0
  6
Continuous
 62
     1
370
    25
100
AcDbLine
 10
24.81031830229623
 20
12.5
 30
0.0
 11
15.13969749221046
 21
12.5
 31
0.0
  0
LINE
  5
9F
330
1F
100
AcDbEntity
  8
0
  6
Continuous
 62
     1
370
    25
100
AcDbLine
 10
15.13969749221056
 20
-12.50000000000002
 30
0.0
 11
24.81031830229628
 21
-12.50000000000002
 31
0.0
  0
LINE
  5
A0
330
1F
100
AcDbEntity
  8
0
  6
Continuous
 62
     1
370
    25
100
AcDbLine
 10
92.82660017099988
 20
12.5
 30
0.0
 11
83.15552653280147
 21
12.5
 31
0.0
  0
LINE
  5
A1
330
1F
100
AcDbEntity
  8
0
  6
Continuous
 62
     1
370
    25
100
AcDbLine
 10
21.50108749541404
 20
1.899065209062514
 30
0.0
 11
21.70567093261352
 21
1.785643410488396
 31
0.0
  0
LINE
  5
A2
330
1F
100
AcDbEntity
  8
0
  6
Continuous
 62
     1
370
    25
100
AcDbLine
 10
52.36077470579404
 20
-1.84623231954796
 30
0.0
 11
52.25091267990584
 21
-1.785689956963313
 31
0.0
  0
LINE
  5
A3
330
1F
100
AcDbEntity
  8
0
  6
Continuous
 62
     1
370
    25
100
AcDbLine
 10
52.63707352235883
 20
-1.998494058751603
 30
0.0
 11
52.48232499563322
 21
-1.913215807793478
 31
0.0
  0
LINE
  5
A4
330
1F
100
AcDbEntity
  8
0
  6
Continuous
 62
     1
370
    25
100
AcDbLine
 10
117.1630680349984
 20
-12.50000000000002
 30
0.0
 11
122.0
 21
-12.50000000000002
 31
0.0
  0
LINE
  5
A5
330
1F
100
AcDbEntity
  8
0
  6
Continuous
 62
     1
370
    25
100
AcDbLine
 10
58.81600427180523
 20
12.5
 30
0.0
 11
49.14860924770071
 21
12.5
 31
0.0
  0
LINE
  5
A6
330
1F
100
AcDbEntity
  8
0
  6
Continuous
 62
     1
370
    25
100
AcDbLine
 10
18.68824026409749
 20
-2.029703207212086
 30
0.0
 11
18.24210272233902
 21
-1.785759152585381
 31
0.0
  0
LINE
  5
A7
330
1F
100
AcDbEntity
  8
0
  6
Continuous
 62
     1
370
    25
100
AcDbLine
 10
121.8284622646382
 20
2.862494686757721
 30
0.0
 11
122.0
 21
2.777604560990056
 31
0.0
  0
LINE
  5
A8
330
1F
100
AcDbEntity
  8
0
  6
Continuous
 62
     1
370
    25
100
AcDbLine
 10
49.14860924770063
 20
-12.50000000000002
 30
0.0
 11
58.81600427180506
 21
-12.50000000000002
 31
0.0
  0
LINE
  5
A9
330
1F
100
AcDbEntity
  8
0
  6
Continuous
 62
     1
370
    25
100
AcDbLine
 10
122.0
 20
12.5
 30
0.0
 11
117.1630680349984
 21
12.5
 31
0.0
  0
SPLINE
  5
AA
330
1F
100
AcDbEntity
  8
0
  6
Continuous
 62
     4
370
    25
100
AcDbSpline
210
0.0
220
0.0
230
1.0
 70
     8
 71
     3
 72
    14
 73
    10
 74
     0
 42
0.000000001
 43
0.00000001
 40
0.0
 40
0.0
 40
0.0
 40
0.0
 40
0.2500000000000007
 40
0.2500000000000007
 40
0.5000000000000013
 40
0.5000000000000013
 40
0.7500000000000007
 40
0.7500000000000007
 40
1.0
 40
1.0
 40
1.0
 40
1.0
 10
11.75977628552642
 20
-10.29773587693676
 30
0.0
 10
11.56254615247967
 20
-10.23318492031941
 30
0.0
 10
11.38532403673176
 20
-10.15373659844238
 30
0.0
 10
11.06972009679526
 20
-9.96204114615519
 30
0.0
 10
10.93376879763436
 20
-9.850261105635447
 30
0.0
 10
10.71706224382578
 20
-9.602929011872495
 30
0.0
 10
10.63413433432429
 20
-9.464377890873013
 30
0.0
 10
10.52653025173453
 20
-9.173454648339563
 30
0.0
 10
10.50016560327191
 20
-9.01839052815965
 30
0.0
 10
10.50016560327191
 20
-8.857869417371669
 30
0.0
  0
SPLINE
  5
AB
330
1F
100
AcDbEntity
  8
0
  6
Continuous
 62
     4
370
    25
100
AcDbSpline
210
0.0
220
0.0
230
1.0
 70
     8
 71
     3
 72
    16
 73
    12
 74
     0
 42
0.000000001
 43
0.00000001
 40
0.0
 40
0.0
 40
0.0
 40
0.0
 40
0.2500000000000001
 40
0.2500000000000001
 40
0.375
 40
0.375
 40
0.5
 40
0.5
 40
0.7499999999999999
 40
0.7499999999999999
 40
1.0
 40
1.0
 40
1.0
 40
1.0
 10
10.50016560327191
 20
-1.732561659968559
 30
0.0
 10
10.50016560327191
 20
-1.484823470257152
 30
0.0
 10
10.53133336276422
 20
-1.241235128158448
 30
0.0
 10
10.62929263104364
 20
-0.8829283720861691
 30
0.0
 10
10.67088282915724
 20
-0.7643494567412964
 30
0.0
 10
10.76935849954535
 20
-0.5376054816100554
 30
0.0
 10
10.82644024375483
 20
-0.4284413586268369
 30
0.0
 10
11.02158762706472
 20
-0.1138120995396048
 30
0.0
 10
11.18556540934727
 20
0.079548114138276
 30
0.0
 10
11.55782169194975
 20
0.4037879234747212
 30
0.0
 10
11.77071977336834
 20
0.5394945973889443
 30
0.0
 10
12.0
 20
0.640320518897987
 30
0.0
  0
SPLINE
  5
AC
330
1F
100
AcDbEntity
  8
0
  6
Continuous
 62
     4
370
    25
100
AcDbSpline
210
0.0
220
0.0
230
1.0
 70
    24
 71
     3
 72
    28
 73
    24
 74
     0
 42
0.000000001
 43
0.00000001
 40
0.0
 40
0.0
 40
0.0
 40
0.0
 40
0.1249999999999993
 40
0.1249999999999993
 40
0.1874999999999991
 40
0.1874999999999991
 40
0.2499999999999989
 40
0.2499999999999989
 40
0.3749999999999989
 40
0.3749999999999989
 40
0.499999999999999
 40
0.499999999999999
 40
0.624999999999999
 40
0.624999999999999
 40
0.6874999999999992
 40
0.6874999999999992
 40
0.7499999999999994
 40
0.7499999999999994
 40
0.8124999999999997
 40
0.8124999999999997
 40
0.8749999999999998
 40
0.8749999999999998
 40
1.0
 40
1.0
 40
1.0
 40
1.0
 10
12.00000000000001
 20
0.6403205188979775
 30
0.0
 10
12.00000000000001
 20
0.5470349884382848
 30
0.0
 10
12.00000000000001
 20
0.4097500537248756
 30
0.0
 10
12.00000000000001
 20
0.1376869391737243
 30
0.0
 10
12.00000000000001
 20
0.0359055681396882
 30
0.0
 10
12.00000000000001
 20
-0.1908080018854444
 30
0.0
 10
12.00000000000001
 20
-0.3158703280491971
 30
0.0
 10
12.00000000000001
 20
-0.7184248538236203
 30
0.0
 10
12.00000000000001
 20
-1.025337041160412
 30
0.0
 10
12.00000000000001
 20
-1.718869317954664
 30
0.0
 10
12.00000000000001
 20
-2.11014263326017
 30
0.0
 10
12.00000000000001
 20
-2.940927389112961
 30
0.0
 10
12.00000000000001
 20
-3.383256643473571
 30
0.0
 10
12.00000000000001
 20
-4.088244951717803
 30
0.0
 10
12.00000000000001
 20
-4.330725947602127
 30
0.0
 10
12.00000000000001
 20
-4.818027862762832
 30
0.0
 10
12.00000000000001
 20
-5.064244571597244
 30
0.0
 10
12.00000000000001
 20
-5.561658020114547
 30
0.0
 10
12.00000000000001
 20
-5.812854954486489
 30
0.0
 10
12.00000000000001
 20
-6.320215392493824
 30
0.0
 10
12.00000000000001
 20
-6.577561265443997
 30
0.0
 10
12.00000000000001
 20
-7.345017788050355
 30
0.0
 10
12.00000000000001
 20
-7.852210702421249
 30
0.0
 10
12.00000000000001
 20
-8.355102834987912
 30
0.0
  0
SPLINE
  5
AD
330
1F
100
AcDbEntity
  8
0
  6
Continuous
 62
     4
370
    25
100
AcDbSpline
210
0.0
220
0.0
230
1.0
 70
     8
 71
     3
 72
    14
 73
    10
 74
     0
 42
0.000000001
 43
0.00000001
 40
0.0
 40
0.0
 40
0.0
 40
0.0
 40
0.25
 40
0.25
 40
0.5
 40
0.5
 40
0.75
 40
0.75
 40
1.0
 40
1.0
 40
1.0
 40
1.0
 10
11.75977628552641
 20
7.085664104997376
 30
0.0
 10
11.56254615247967
 20
7.179477287784324
 30
0.0
 10
11.38532403673176
 20
7.292303464025684
 30
0.0
 10
11.06972009679526
 20
7.552072094749903
 30
0.0
 10
10.93376879763436
 20
7.698124492499341
 30
0.0
 10
10.71706224382578
 20
8.004531150801412
 30
0.0
 10
10.63413433432429
 20
8.168426054719017
 30
0.0
 10
10.52653025173453
 20
8.493842645558937
 30
0.0
 10
10.50016560327191
 20
8.658544305861822
 30
0.0
 10
10.5001656032719
 20
8.81975903212724
 30
0.0
  0
SPLINE
  5
AE
330
1F
100
AcDbEntity
  8
0
  6
Continuous
 62
     4
370
    25
100
AcDbSpline
210
0.0
220
0.0
230
1.0
 70
     8
 71
     3
 72
     8
 73
     4
 74
     0
 42
0.000000001
 43
0.00000001
 40
0.0
 40
0.0
 40
0.0
 40
0.0
 40
1.0
 40
1.0
 40
1.0
 40
1.0
 10
12.0
 20
6.970995761744486
 30
0.0
 10
11.91989792250116
 20
7.009366693434192
 30
0.0
 10
11.83982089327325
 20
7.047590615405984
 30
0.0
 10
11.75977628552641
 20
7.085664104997376
 30
0.0
  0
SPLINE
  5
AF
330
1F
100
AcDbEntity
  8
0
  6
Continuous
 62
     4
370
    25
100
AcDbSpline
210
0.0
220
0.0
230
1.0
 70
     8
 71
     3
 72
     8
 73
     4
 74
     0
 42
0.000000001
 43
0.00000001
 40
0.0
 40
0.0
 40
0.0
 40
0.0
 40
1.0
 40
1.0
 40
1.0
 40
1.0
 10
12.0
 20
-10.37570325759845
 30
0.0
 10
11.91989792250116
 20
-10.34992345303559
 30
0.0
 10
11.83982089327326
 20
-10.32393347627059
 30
0.0
 10
11.75977628552642
 20
-10.29773587693675
 30
0.0
  0
SPLINE
  5
B0
330
1F
100
AcDbEntity
  8
0
  6
Continuous
 62
     4
370
    25
100
AcDbSpline
210
0.0
220
0.0
230
1.0
 70
     8
 71
     3
 72
     9
 73
     5
 74
     0
 42
0.000000001
 43
0.00000001
 40
0.0
 40
0.0
 40
0.0
 40
0.0
 40
0.6818643885133958
 40
1.0
 40
1.0
 40
1.0
 40
1.0
 10
11.15246750815293
 20
-12.49854548903637
 30
0.0
 10
11.32336236444916
 20
-12.49676336871346
 30
0.0
 10
11.57399116861478
 20
-12.49414976936301
 30
0.0
 10
11.89718161098874
 20
-12.48613772793784
 30
0.0
 10
12.00000000000001
 20
-12.48358881223979
 30
0.0
  0
SPLINE
  5
B1
330
1F
100
AcDbEntity
  8
0
  6
Continuous
 62
     4
370
    25
100
AcDbSpline
210
0.0
220
0.0
230
1.0
 70
     8
 71
     3
 72
    16
 73
    12
 74
     0
 42
0.000000001
 43
0.00000001
 40
0.0
 40
0.0
 40
0.0
 40
0.0
 40
0.2499999999999998
 40
0.2499999999999998
 40
0.3749999999999998
 40
0.3749999999999998
 40
0.4999999999999999
 40
0.4999999999999999
 40
0.7499999999999999
 40
0.7499999999999999
 40
1.0
 40
1.0
 40
1.0
 40
1.0
 10
10.50016560327191
 20
12.37934691711992
 30
0.0
 10
10.5001656032719
 20
12.4140193188288
 30
0.0
 10
10.53133336276422
 20
12.44052909149768
 30
0.0
 10
10.62929263104364
 20
12.46935422023566
 30
0.0
 10
10.67088282915724
 20
12.47712539289503
 30
0.0
 10
10.76935849954535
 20
12.48894985610038
 30
0.0
 10
10.82644024375483
 20
12.49309587093674
 30
0.0
 10
11.02158762706472
 20
12.5012428405656
 30
0.0
 10
11.18556540934727
 20
12.5007985660421
 30
0.0
 10
11.55782169194975
 20
12.49452872276819
 30
0.0
 10
11.77071977336834
 20
12.48876047459986
 30
0.0
 10
12.0
 20
12.48358881223978
 30
0.0
  0
LINE
  5
B2
330
1F
100
AcDbEntity
  8
0
  6
Continuous
 62
     4
370
    25
100
AcDbLine
 10
10.50016560327191
 20
12.37934691711992
 30
0.0
 11
10.50016560327191
 21
8.81975903212724
 31
0.0
  0
LINE
  5
B3
330
1F
100
AcDbEntity
  8
0
  6
Continuous
 62
     4
370
    25
100
AcDbLine
 10
-77.5
 20
12.49999999999999
 30
0.0
 11
-77.5
 21
-12.50000000000001
 31
0.0
  0
LINE
  5
B4
330
1F
100
AcDbEntity
  8
0
  6
Continuous
 62
     4
370
    25
100
AcDbLine
 10
10.50016560327191
 20
-1.732561659968559
 30
0.0
 11
10.50016560327191
 21
-8.857869417371669
 31
0.0
  0
LINE
  5
B5
330
1F
100
AcDbEntity
  8
0
  6
Continuous
 62
     4
370
    25
100
AcDbLine
 10
12.0
 20
-10.37570325759845
 30
0.0
 11
12.00000000000001
 21
-12.48358881223979
 31
0.0
  0
LINE
  5
B6
330
1F
100
AcDbEntity
  8
0
  6
Continuous
 62
     4
370
    25
100
AcDbLine
 10
12.0
 20
6.970995761744486
 30
0.0
 11
12.00000000000001
 21
0.6403205188979775
 31
0.0
  0
LINE
  5
B7
330
1F
100
AcDbEntity
  8
0
  6
Continuous
 62
     4
370
    25
100
AcDbLine
 10
-78.0
 20
11.99999999999998
 30
0.0
 11
-78.0
 21
-12.00000000000001
 31
0.0
  0
SPLINE
  5
B8
330
1F
100
AcDbEntity
  8
0
  6
Continuous
 62
     4
370
    25
100
AcDbSpline
210
0.0
220
0.0
230
1.0
 70
    24
 71
     3
 72
    13
 73
     9
 74
     0
 42
0.000000001
 43
0.00000001
 40
0.0
 40
0.0
 40
0.0
 40
0.0
 40
0.1860587925589438
 40
0.3765465446687725
 40
0.5799581743616162
 40
0.7901632549658331
 40
0.979333568532205
 40
1.0
 40
1.0
 40
1.0
 40
1.0
 10
12.00000000000001
 20
12.48358881223978
 30
0.0
 10
12.00000000000001
 20
12.07550793681747
 30
0.0
 10
12.00000000000001
 20
11.24963219360581
 30
0.0
 10
12.00000000000001
 20
10.05353398854686
 30
0.0
 10
12.00000000000001
 20
8.90496355650914
 30
0.0
 10
12.00000000000001
 20
7.935403062522834
 30
0.0
 10
12.00000000000001
 20
7.331829414713975
 30
0.0
 10
12.00000000000001
 20
7.12969823072501
 30
0.0
 10
12.00000000000001
 20
7.109790705659599
 30
0.0
  0
SPLINE
  5
B9
330
1F
100
AcDbEntity
  8
0
  6
Continuous
 62
     4
370
    25
100
AcDbSpline
210
0.0
220
0.0
230
1.0
 70
    24
 71
     3
 72
    10
 73
     6
 74
     0
 42
0.000000001
 43
0.00000001
 40
0.0
 40
0.0
 40
0.0
 40
0.0
 40
0.5
 40
0.5
 40
1.0
 40
1.0
 40
1.0
 40
1.0
 10
12.0
 20
-8.355102834987989
 30
0.0
 10
12.0
 20
-8.702339603185841
 30
0.0
 10
12.0
 20
-9.046945281374775
 30
0.0
 10
12.0
 20
-9.72303395025912
 30
0.0
 10
12.0
 20
-10.05449766417112
 30
0.0
 10
12.0
 20
-10.37570325759844
 30
0.0
  0
SPLINE
  5
BA
330
1F
100
AcDbEntity
  8
0
  6
Continuous
 62
     1
370
    25
100
AcDbSpline
210
0.0
220
0.0
230
1.0
 70
     8
 71
     3
 72
    25
 73
    21
 74
     0
 42
0.000000001
 43
0.00000001
 40
0.0
 40
0.0
 40
0.0
 40
0.0
 40
0.0617838906794608
 40
0.1235677133898247
 40
0.1853311070622278
 40
0.2470829649044076
 40
0.3088613786969919
 40
0.370647650423123
 40
0.4266181124087493
 40
0.4825830865035486
 40
0.5385401412134873
 40
0.594493729949044
 40
0.6504557756208041
 40
0.70642429950527
 40
0.7623968641750375
 40
0.8183710254418386
 40
0.8743443364440506
 40
0.9303143517438813
 40
0.9862786314194006
 40
1.0
 40
1.0
 40
1.0
 40
1.0
 10
12.0
 20
12.36894833593001
 30
0.0
 10
13.46554236202298
 20
12.44189201620371
 30
0.0
 10
16.39662547381062
 20
12.58777929650503
 30
0.0
 10
20.79285976500723
 20
12.15340208816375
 30
0.0
 10
25.18794847492486
 20
11.25630444170542
 30
0.0
 10
29.58261410270244
 20
9.886746282279486
 30
0.0
 10
33.97840297977985
 20
8.11416026386436
 30
0.0
 10
38.23728543390217
 20
6.073379582053416
 30
0.0
 10
42.35749183459423
 20
3.878410560454641
 30
0.0
 10
46.33954920949496
 20
1.626122400800511
 30
0.0
 10
50.32103013303303
 20
-0.681006570595405
 30
0.0
 10
54.30236684928672
 20
-2.965260441221721
 30
0.0
 10
58.28415516720862
 20
-5.149381646403447
 30
0.0
 10
62.26647146660486
 20
-7.159741876443958
 30
0.0
 10
66.24913661634486
 20
-8.929267169100564
 30
0.0
 10
70.23193625043368
 20
-10.39512303264406
 30
0.0
 10
74.2146664143574
 20
-11.51939124829943
 30
0.0
 10
78.19710471324532
 20
-12.2209783187262
 30
0.0
 10
81.17737836297499
 20
-12.53257241493924
 30
0.0
 10
82.83009947432777
 20
-12.47270829860804
 30
0.0
 10
83.1555265328013
 20
-12.46092082693363
 30
0.0
  0
SPLINE
  5
BB
330
1F
100
AcDbEntity
  8
0
  6
Continuous
 62
     1
370
    25
100
AcDbSpline
210
0.0
220
0.0
230
1.0
 70
     8
 71
     3
 72
    28
 73
    24
 74
     0
 42
0.000000001
 43
0.00000001
 40
0.0
 40
0.0
 40
0.0
 40
0.0
 40
0.0366081895319973
 40
0.0862584303382579
 40
0.1359053070491237
 40
0.1855466567900018
 40
0.2351804252451155
 40
0.2848158302685011
 40
0.3344584788372402
 40
0.3841062151437949
 40
0.4337568748757211
 40
0.4834082888277753
 40
0.5330582865317174
 40
0.5827046998906836
 40
0.6323453668049791
 40
0.6819785320643913
 40
0.7316147717875359
 40
0.7812580363351189
 40
0.8309061688705912
 40
0.8857131670390069
 40
0.9405131948928609
 40
0.9952896665118991
 40
1.0
 40
1.0
 40
1.0
 40
1.0
 10
105.0253224874029
 20
-10.53258235180259
 30
0.0
 10
104.0464640763872
 20
-10.82969296888064
 30
0.0
 10
101.7400186843303
 20
-11.52976297489894
 30
0.0
 10
98.10608922572513
 20
-12.19101821528299
 30
0.0
 10
94.12372837301194
 20
-12.55013843569761
 30
0.0
 10
90.14188244647937
 20
-12.47366068943295
 30
0.0
 10
86.1605187296474
 20
-11.97967728510956
 30
0.0
 10
82.17907302059584
 20
-11.08070895378807
 30
0.0
 10
78.19711002631513
 20
-9.808217283128538
 30
0.0
 10
74.21466499057911
 20
-8.20472886795929
 30
0.0
 10
70.23193663191722
 20
-6.324422046792887
 30
0.0
 10
66.24913651425246
 20
-4.230729918499906
 30
0.0
 10
62.2664714934971
 20
-1.99433525395418
 30
0.0
 10
58.28415516172384
 20
0.3092845769832229
 30
0.0
 10
54.30236684433869
 20
2.602329065109917
 30
0.0
 10
50.32103015830498
 20
4.80780649335191
 30
0.0
 10
46.33954911334129
 20
6.850756394075209
 30
0.0
 10
42.35749219400443
 20
8.663519524982084
 30
0.0
 10
38.23728403337542
 20
10.23328551655327
 30
0.0
 10
33.9784088144761
 20
11.48324103986194
 30
0.0
 10
29.58259240574361
 20
12.24722460192872
 30
0.0
 10
26.5269164598417
 20
12.57000083846984
 30
0.0
 10
24.93627017435832
 20
12.48642847118366
 30
0.0
 10
24.81031830229625
 20
12.47981097475569
 30
0.0
  0
LINE
  5
BC
330
1F
100
AcDbEntity
  8
0
  6
Continuous
 62
     1
370
    25
100
AcDbLine
 10
12.0
 20
-12.36894833593001
 30
0.0
 11
15.13969749221056
 21
-12.44746850435001
 31
0.0
  0
SPLINE
  5
BD
330
1F
100
AcDbEntity
  8
0
  6
Continuous
 62
     1
370
    25
100
AcDbSpline
210
0.0
220
0.0
230
1.0
 70
     8
 71
     3
 72
    19
 73
    15
 74
     0
 42
0.000000001
 43
0.00000001
 40
0.0
 40
0.0
 40
0.0
 40
0.0
 40
0.0655300917203385
 40
0.146441496790879
 40
0.2273446103249689
 40
0.3082359189818206
 40
0.389124560507233
 40
0.4700255573287592
 40
0.558363917748162
 40
0.6467105505661831
 40
0.7350408828664797
 40
0.8233367331389942
 40
0.9116561001951856
 40
1.0
 40
1.0
 40
1.0
 40
1.0
 10
70.9892740561126
 20
10.54941176797615
 30
0.0
 10
72.0644298414677
 20
10.86883628489116
 30
0.0
 10
74.46710345838716
 20
11.58266108111405
 30
0.0
 10
78.19710915741021
 20
12.23563035798698
 30
0.0
 10
82.17907487898543
 20
12.55963322162814
 30
0.0
 10
86.1605121659631
 20
12.44936547501681
 30
0.0
 10
90.14190684394592
 20
11.92195070095456
 30
0.0
 10
94.24550694416195
 20
10.96323091493389
 30
0.0
 10
98.47215193030922
 20
9.564454488367991
 30
0.0
 10
102.8206596316161
 20
7.741075731407187
 30
0.0
 10
107.1683892994539
 20
5.606445341772273
 30
0.0
 10
111.5150747231239
 20
3.247154335066581
 30
0.0
 10
115.8624155554444
 20
0.752865458752401
 30
0.0
 10
118.7612033489213
 20
-0.9175091031754359
 30
0.0
 10
120.2107985190583
 20
-1.752812364331394
 30
0.0
  0
LINE
  5
BE
330
1F
100
AcDbEntity
  8
0
  6
Continuous
 62
     4
370
    25
100
AcDbLine
 10
12.0
 20
-12.36894833593005
 30
0.0
 11
12.0
 21
-10.37570325760788
 31
0.0
  0
SPLINE
  5
BF
330
1F
100
AcDbEntity
  8
0
  6
Continuous
 62
     1
370
    25
100
AcDbSpline
210
0.0
220
0.0
230
1.0
 70
     8
 71
     3
 72
    15
 73
    11
 74
     0
 42
0.000000001
 43
0.00000001
 40
0.0
 40
0.0
 40
0.0
 40
0.0
 40
0.1364740363688465
 40
0.2729685904733393
 40
0.4094777376847908
 40
0.5459955289838372
 40
0.682516000885247
 40
0.8190331854150431
 40
0.9555411201038652
 40
1.0
 40
1.0
 40
1.0
 40
1.0
 10
122.0
 20
2.768456834120847
 30
0.0
 10
120.6729324630359
 20
3.506716246961698
 30
0.0
 10
118.0185978755473
 20
4.983346063802404
 30
0.0
 10
114.0366934453748
 20
7.004895377524339
 30
0.0
 10
110.0542893276159
 20
8.79752043157928
 30
0.0
 10
106.071580307925
 20
10.2894605339178
 30
0.0
 10
102.0887763254736
 20
11.44271879520508
 30
0.0
 10
98.10609447107066
 20
12.18008685044814
 30
0.0
 10
95.01869882154733
 20
12.51914680034092
 30
0.0
 10
93.2589299941352
 20
12.466534958159
 30
0.0
 10
92.82660017099988
 20
12.45360958519465
 30
0.0
  0
SPLINE
  5
C0
330
1F
100
AcDbEntity
  8
0
  6
Continuous
 62
     1
370
    25
100
AcDbSpline
210
0.0
220
0.0
230
1.0
 70
     8
 71
     3
 72
    13
 73
     9
 74
     0
 42
0.000000001
 43
0.00000001
 40
0.0
 40
0.0
 40
0.0
 40
0.0
 40
0.1200206450371813
 40
0.2960340040047902
 40
0.471971702207671
 40
0.6479422672341139
 40
0.8239710367914149
 40
1.0
 40
1.0
 40
1.0
 40
1.0
 10
36.97601287538635
 20
-10.52968027089049
 30
0.0
 10
35.97676046664299
 20
-10.83649570775392
 30
0.0
 10
33.5120787322623
 20
-11.59326386407423
 30
0.0
 10
29.58260383942645
 20
-12.27058857431416
 30
0.0
 10
25.18795122405894
 20
-12.58840582193498
 30
0.0
 10
20.79285903157676
 20
-12.36425480124437
 30
0.0
 10
16.39662565719441
 20
-11.66735610976287
 30
0.0
 10
13.46554242315137
 20
-10.80625436620464
 30
0.0
 10
12.00000000000065
 20
-10.37570325759867
 30
0.0
  0
LINE
  5
C1
330
1F
100
AcDbEntity
  8
0
  6
Continuous
 62
     1
370
    25
100
AcDbLine
 10
122.0
 20
-0.5000000000000439
 30
0.0
 11
122.0
 21
2.768456834120846
 31
0.0
  0
LINE
  5
C2
330
1F
100
AcDbEntity
  8
0
  6
Continuous
 62
     1
370
    25
100
AcDbLine
 10
122.0
 20
-0.5000000000000401
 30
0.0
 11
120.2107985190583
 21
-1.752812364331403
 31
0.0
  0
SPLINE
  5
C3
330
1F
100
AcDbEntity
  8
0
  6
Continuous
 62
     1
370
    25
100
AcDbSpline
210
0.0
220
0.0
230
1.0
 70
     8
 71
     3
 72
    28
 73
    24
 74
     0
 42
0.000000001
 43
0.00000001
 40
0.0
 40
0.0
 40
0.0
 40
0.0
 40
0.0174459383933626
 40
0.0671116854563688
 40
0.1167725628043853
 40
0.1664264128356452
 40
0.2160771873123916
 40
0.2657354661055131
 40
0.3153994933820712
 40
0.3650671062752852
 40
0.4147361359190782
 40
0.4644044110751556
 40
0.5140697617686671
 40
0.5637300229192985
 40
0.6133830379546583
 40
0.6630344158411122
 40
0.7126933777030747
 40
0.7669175707707201
 40
0.821146841633988
 40
0.8753661068506036
 40
0.9295642061759466
 40
0.9837767406641383
 40
1.0
 40
1.0
 40
1.0
 40
1.0
 10
36.97601287538635
 20
10.52968027089048
 30
0.0
 10
37.44238334161038
 20
10.68636369806847
 30
0.0
 10
39.23643461759536
 20
11.28909934025072
 30
0.0
 10
42.35747622865941
 20
11.94055537940102
 30
0.0
 10
46.33955339038708
 20
12.4695692565416
 30
0.0
 10
50.32102901247082
 20
12.55100292589308
 30
0.0
 10
54.30236715124529
 20
12.21625607194443
 30
0.0
 10
58.28415508007429
 20
11.4675199290174
 30
0.0
 10
62.26647151313279
 20
10.33242659023414
 30
0.0
 10
66.24913651737018
 20
8.848586095620638
 30
0.0
 10
70.23193659980882
 20
7.066240077304893
 30
0.0
 10
74.2146651158894
 20
5.045502178561286
 30
0.0
 10
78.19710955723195
 20
2.854598878056082
 30
0.0
 10
82.17907477132766
 20
0.5675005326257749
 30
0.0
 10
86.16051219685102
 20
-1.738761248056997
 30
0.0
 10
90.14190682803945
 20
-3.986471912382856
 30
0.0
 10
94.24550697839155
 20
-6.164095556672851
 30
0.0
 10
98.47215179810829
 20
-8.178830968004997
 30
0.0
 10
102.8206601213958
 20
-9.920069497089415
 30
0.0
 10
107.1683874732216
 20
-11.2725147140847
 30
0.0
 10
111.5150815363017
 20
-12.13522909701893
 30
0.0
 10
114.8465368952293
 20
-12.52815659397215
 30
0.0
 10
116.7293951056309
 20
-12.46236762708932
 30
0.0
 10
117.1630680349984
 20
-12.44721465708312
 30
0.0
  0
SPLINE
  5
C4
330
1F
100
AcDbEntity
  8
0
  6
Continuous
 62
     1
370
    25
100
AcDbSpline
210
0.0
220
0.0
230
1.0
 70
     8
 71
     3
 72
    22
 73
    18
 74
     0
 42
0.000000001
 43
0.00000001
 40
0.0
 40
0.0
 40
0.0
 40
0.0
 40
0.0128384207004805
 40
0.0803573573664865
 40
0.1478743681343364
 40
0.2153865046973621
 40
0.2828908269042013
 40
0.3503849479159356
 40
0.4178832497657471
 40
0.4853911043883519
 40
0.5529055787895254
 40
0.6274353845622384
 40
0.7019557116879204
 40
0.7764440056487837
 40
0.8509462147264186
 40
0.925473066369284
 40
1.0
 40
1.0
 40
1.0
 40
1.0
 10
70.98927405611246
 20
-10.54941176797616
 30
0.0
 10
70.7368344296332
 20
-10.63547464240324
 30
0.0
 10
69.15678173065157
 20
-11.17415345015299
 30
0.0
 10
66.24913509251905
 20
-11.81801114252702
 30
0.0
 10
62.26647187487669
 20
-12.41665612002201
 30
0.0
 10
58.28415505782942
 20
-12.56547975264819
 30
0.0
 10
54.30236687858829
 20
-12.29873098167771
 30
0.0
 10
50.32103012518179
 20
-11.61485609693879
 30
0.0
 10
46.33954921159857
 20
-10.53980401366136
 30
0.0
 10
42.35749183403232
 20
-9.109049665521153
 30
0.0
 10
38.23728543407027
 20
-7.310863944210568
 30
0.0
 10
33.97840297973305
 20
-5.172676126654073
 30
0.0
 10
29.58261410271521
 20
-2.753543673817139
 30
0.0
 10
25.18794847492185
 20
-0.2190698030793482
 30
0.0
 10
20.79285976500856
 20
2.318445315664498
 30
0.0
 10
16.39662547381096
 20
4.781082419270422
 30
0.0
 10
13.46554236202353
 20
6.241024379903232
 30
0.0
 10
12.00000000000065
 20
6.970995761744174
 30
0.0
  0
SPLINE
  5
C5
330
1F
100
AcDbEntity
  8
0
  6
Continuous
 62
     4
370
    25
100
AcDbSpline
210
0.0
220
0.0
230
1.0
 70
    24
 71
     3
 72
    13
 73
     9
 74
     0
 42
0.000000001
 43
0.00000001
 40
0.0
 40
0.0
 40
0.0
 40
0.0
 40
0.1814820741561157
 40
0.3669223959834536
 40
0.5749026363366745
 40
0.7889143177497216
 40
0.9968945581029427
 40
1.0
 40
1.0
 40
1.0
 40
1.0
 10
12.0
 20
12.36894833593005
 30
0.0
 10
12.0
 20
11.968333165036
 30
0.0
 10
12.0
 20
11.15836513345335
 30
0.0
 10
12.0
 20
9.988329401785068
 30
0.0
 10
12.0
 20
8.862889602954448
 30
0.0
 10
12.0
 20
7.893974544288539
 30
0.0
 10
12.0
 20
7.303568727673445
 30
0.0
 10
12.0
 20
7.11259033395798
 30
0.0
 10
12.0
 20
7.109780705664132
 30
0.0
  0
SPLINE
  5
C6
330
1F
100
AcDbEntity
  8
0
  6
Continuous
 62
     1
370
    25
100
AcDbSpline
210
0.0
220
0.0
230
1.0
 70
     8
 71
     3
 72
    23
 73
    19
 74
     0
 42
0.000000001
 43
0.00000001
 40
0.0
 40
0.0
 40
0.0
 40
0.0
 40
0.0630127777847797
 40
0.1260350290163141
 40
0.1890640181756656
 40
0.2520969984822366
 40
0.3151312164762501
 40
0.3781639166253864
 40
0.4411923459389164
 40
0.5042137585726417
 40
0.5672255465015403
 40
0.6302394121105364
 40
0.6932624736512112
 40
0.756291994251237
 40
0.8193252262410136
 40
0.8823594157393623
 40
0.9453918072616863
 40
1.0
 40
1.0
 40
1.0
 40
1.0
 10
122.0
 20
-12.18957122944076
 30
0.0
 10
120.672932465246
 20
-11.98005898537822
 30
0.0
 10
118.0185978821777
 20
-11.56100299883077
 30
0.0
 10
114.0366934188472
 20
-10.43230270462239
 30
0.0
 10
110.0542894271084
 20
-8.981152124082934
 30
0.0
 10
106.0715799364586
 20
-7.219060972780371
 30
0.0
 10
102.088777711852
 20
-5.215525018443973
 30
0.0
 10
98.10608929731802
 20
-3.035487210782551
 30
0.0
 10
94.1237283537196
 20
-0.753250951806953
 30
0.0
 10
90.14188245206526
 20
1.554307001790229
 30
0.0
 10
86.16051872659236
 20
3.809561471427055
 30
0.0
 10
82.17907302723103
 20
5.936191890267521
 30
0.0
 10
78.19711000282501
 20
7.862765572256433
 30
0.0
 10
74.21466507791479
 20
9.523391404334902
 30
0.0
 10
70.23193630604558
 20
10.86572632482162
 30
0.0
 10
66.24913773040052
 20
11.83044918984385
 30
0.0
 10
62.44379998787828
 20
12.41023059058498
 30
0.0
 10
59.96612777996663
 20
12.45485696092406
 30
0.0
 10
58.81600427180523
 20
12.4755723071458
 30
0.0
  0
SPLINE
  5
C7
330
1F
100
AcDbEntity
  8
0
  6
Continuous
 62
     1
370
    25
100
AcDbSpline
210
0.0
220
0.0
230
1.0
 70
     8
 71
     3
 72
     8
 73
     4
 74
     0
 42
0.000000001
 43
0.00000001
 40
0.0
 40
0.0
 40
0.0
 40
0.0
 40
1.0
 40
1.0
 40
1.0
 40
1.0
 10
122.0
 20
-9.013109139888325
 30
0.0
 10
119.8809094456327
 20
-7.82287647109108
 30
0.0
 10
117.879158932972
 20
-6.364811010664955
 30
0.0
 10
115.9530316716127
 20
-4.734132806852243
 30
0.0
  0
LINE
  5
C8
330
1F
100
AcDbEntity
  8
0
  6
Continuous
 62
     1
370
    25
100
AcDbLine
 10
122.0
 20
-12.18957122944079
 30
0.0
 11
122.0
 21
-9.013109139888325
 31
0.0
  0
SPLINE
  5
C9
330
1F
100
AcDbEntity
  8
0
  6
Continuous
 62
     1
370
    25
100
AcDbSpline
210
0.0
220
0.0
230
1.0
 70
    24
 71
     3
 72
    22
 73
    18
 74
     0
 42
0.000000001
 43
0.00000001
 40
0.0
 40
0.0
 40
0.0
 40
0.0
 40
0.25
 40
0.25
 40
0.3749999999999998
 40
0.3749999999999998
 40
0.4999999999999996
 40
0.4999999999999996
 40
0.5624999999999994
 40
0.5624999999999994
 40
0.6249999999999996
 40
0.6249999999999996
 40
0.7499999999999997
 40
0.7499999999999997
 40
0.8749999999999998
 40
0.8749999999999998
 40
1.0
 40
1.0
 40
1.0
 40
1.0
 10
120.2107985190583
 20
-1.752812364331396
 30
0.0
 10
120.2092165692547
 20
-1.753920057508976
 30
0.0
 10
120.13233571152
 20
-1.807752613638821
 30
0.0
 10
119.8693382036071
 20
-1.991905451209809
 30
0.0
 10
119.7548946490908
 20
-2.07203969078164
 30
0.0
 10
119.4763155744537
 20
-2.267102858830004
 30
0.0
 10
119.3122156898094
 20
-2.382006835077313
 30
0.0
 10
119.0254542452818
 20
-2.582799360203355
 30
0.0
 10
118.9225013172226
 20
-2.654887776511288
 30
0.0
 10
118.7072010443618
 20
-2.805642650547017
 30
0.0
 10
118.5944892099089
 20
-2.884564326676404
 30
0.0
 10
118.2415250594222
 20
-3.131712485564881
 30
0.0
 10
117.9857632540507
 20
-3.310798829672152
 30
0.0
 10
117.4376716627
 20
-3.694576693565369
 30
0.0
 10
117.1530560667232
 20
-3.893866679360306
 30
0.0
 10
116.5650374808466
 20
-4.30560172579847
 30
0.0
 10
116.2591513769974
 20
-4.519785481547278
 30
0.0
 10
115.9530316716125
 20
-4.734132806852323
 30
0.0
  0
LINE
  5
CA
330
1F
100
AcDbEntity
  8
0
  6
Continuous
 62
     1
370
    25
100
AcDbLine
 10
122.0
 20
-12.50000000000003
 30
0.0
 11
122.0
 21
-12.18957122944079
 31
0.0
  0
SPLINE
  5
CB
330
1F
100
AcDbEntity
  8
0
  6
Continuous
 62
     4
370
    25
100
AcDbSpline
210
0.0
220
0.0
230
1.0
 70
    24
 71
     3
 72
    16
 73
    12
 74
     0
 42
0.000000001
 43
0.00000001
 40
0.0
 40
0.0
 40
0.0
 40
0.0
 40
0.0890340660661288
 40
0.2116344078584497
 40
0.3307795329516048
 40
0.4533798747439258
 40
0.57252499983708
 40
0.6951253416294011
 40
0.8142704667225564
 40
0.9368708085148774
 40
1.0
 40
1.0
 40
1.0
 40
1.0
 10
12.0
 20
0.5015255749828643
 30
0.0
 10
12.0
 20
0.2865546101564354
 30
0.0
 10
12.0
 20
-0.2244324182694029
 30
0.0
 10
12.0
 20
-1.242799695361877
 30
0.0
 10
12.0
 20
-2.491340238527637
 30
0.0
 10
12.0
 20
-3.850828144153364
 30
0.0
 10
12.0
 20
-5.298715503257682
 30
0.0
 10
12.0
 20
-6.770751920123097
 30
0.0
 10
12.0
 20
-8.249113396762757
 30
0.0
 10
12.0
 20
-9.452112167701515
 30
0.0
 10
12.0
 20
-10.14141145681094
 30
0.0
 10
12.0
 20
-10.37570325760788
 30
0.0
  0
SPLINE
  5
CC
330
1F
100
AcDbEntity
  8
0
  6
Continuous
 62
     1
370
    25
100
AcDbSpline
210
0.0
220
0.0
230
1.0
 70
     8
 71
     3
 72
    16
 73
    12
 74
     0
 42
0.000000001
 43
0.00000001
 40
0.0
 40
0.0
 40
0.0
 40
0.0
 40
0.118346068429132
 40
0.2366920066645308
 40
0.3549988133998269
 40
0.4732835234342199
 40
0.5916191009728957
 40
0.709969730259382
 40
0.8171802676877588
 40
0.9243802931477859
 40
1.0
 40
1.0
 40
1.0
 40
1.0
 10
12.0
 20
1.805302485206737
 30
0.0
 10
13.46554236168635
 20
0.9609942461249242
 30
0.0
 10
16.39662547280075
 20
-0.727621303206479
 30
0.0
 10
20.79285976904616
 20
-3.25011071206473
 30
0.0
 10
25.18794845978568
 20
-5.633917479148994
 30
0.0
 10
29.5826141592212
 20
-7.788413849153978
 30
0.0
 10
33.97840276872994
 20
-9.62072325932413
 30
0.0
 10
38.23728619031353
 20
-11.01771719389211
 30
0.0
 10
42.35748930585343
 20
-11.94790987060242
 30
0.0
 10
45.94871164869916
 20
-12.44638116281807
 30
0.0
 10
48.21231516203046
 20
-12.45327244684771
 30
0.0
 10
49.14860924770063
 20
-12.45612288794379
 30
0.0
  0
SPLINE
  5
CD
330
1F
100
AcDbEntity
  8
0
  6
Continuous
 62
     1
370
    25
100
AcDbSpline
210
0.0
220
0.0
230
1.0
 70
     8
 71
     3
 72
    11
 73
     7
 74
     0
 42
0.000000001
 43
0.00000001
 40
0.0
 40
0.0
 40
0.0
 40
0.0
 40
0.1411538781800776
 40
0.4273585930800275
 40
0.7136395359606453
 40
1.0
 40
1.0
 40
1.0
 40
1.0
 10
105.0253224874029
 20
10.53258235180258
 30
0.0
 10
105.7398449854052
 20
10.76261007985974
 30
0.0
 10
107.9031389267926
 20
11.45904384065581
 30
0.0
 10
111.5150635150222
 20
12.13826003730304
 30
0.0
 10
115.8624183586888
 20
12.5874448944732
 30
0.0
 10
118.7612042834226
 20
12.44681868850558
 30
0.0
 10
120.2107985190583
 20
12.37649582133191
 30
0.0
  0
SPLINE
  5
CE
330
1F
100
AcDbEntity
  8
0
  6
Continuous
 62
     1
370
    25
100
AcDbSpline
210
0.0
220
0.0
230
1.0
 70
     8
 71
     3
 72
    22
 73
    18
 74
     0
 42
0.000000001
 43
0.00000001
 40
0.0
 40
0.0
 40
0.0
 40
0.0
 40
0.2500000000000004
 40
0.2500000000000004
 40
0.3750000000000001
 40
0.3750000000000001
 40
0.4999999999999998
 40
0.4999999999999998
 40
0.5624999999999987
 40
0.5624999999999987
 40
0.6249999999999976
 40
0.6249999999999976
 40
0.7499999999999984
 40
0.7499999999999984
 40
0.8749999999999993
 40
0.8749999999999993
 40
1.0
 40
1.0
 40
1.0
 40
1.0
 10
120.2107985190583
 20
12.37649582133192
 30
0.0
 10
120.2092165692547
 20
11.62031253877691
 30
0.0
 10
120.13233571152
 20
10.88111228586892
 30
0.0
 10
119.8693382036071
 20
9.805619024944631
 30
0.0
 10
119.7548946490908
 20
9.449308338314394
 30
0.0
 10
119.4763155744537
 20
8.778411384045285
 30
0.0
 10
119.3122156898094
 20
8.461502291434465
 30
0.0
 10
119.0254542452819
 20
8.016485442275195
 30
0.0
 10
118.9225013172226
 20
7.872630482369122
 30
0.0
 10
118.7072010443619
 20
7.601781109816841
 30
0.0
 10
118.5944892099089
 20
7.47407188002534
 30
0.0
 10
118.2415250594224
 20
7.113547234357663
 30
0.0
 10
117.9857632540508
 20
6.902808056756854
 30
0.0
 10
117.4376716627
 20
6.543538025037017
 30
0.0
 10
117.1530560667233
 20
6.399716342460278
 30
0.0
 10
116.5650374808468
 20
6.175729733433777
 30
0.0
 10
116.2591513769976
 20
6.095495646314983
 30
0.0
 10
115.9530316716126
 20
6.046968328387342
 30
0.0
  0
SPLINE
  5
CF
330
1F
100
AcDbEntity
  8
0
  6
Continuous
 62
     1
370
    25
100
AcDbSpline
210
0.0
220
0.0
230
1.0
 70
     8
 71
     3
 72
     8
 73
     4
 74
     0
 42
0.000000001
 43
0.00000001
 40
0.0
 40
0.0
 40
0.0
 40
0.0
 40
1.0
 40
1.0
 40
1.0
 40
1.0
 10
122.0
 20
3.098518327978857
 30
0.0
 10
119.8809094456327
 20
4.244339427907832
 30
0.0
 10
117.8791589329721
 20
5.205241983545482
 30
0.0
 10
115.9530316716127
 20
6.046968328387354
 30
0.0
  0
LINE
  5
D0
330
1F
100
AcDbEntity
  8
0
  6
Continuous
 62
     1
370
    25
100
AcDbLine
 10
122.0
 20
2.778563581158164
 30
0.0
 11
122.0
 21
3.098518327978857
 31
0.0
  0
LINE
  5
D1
330
1F
100
AcDbEntity
  8
0
  6
Continuous
 62
     4
370
    25
100
AcDbLine
 10
12.0
 20
1.805302485206748
 30
0.0
 11
12.0
 21
6.970995761749019
 31
0.0
  0
LINE
  5
D2
330
1F
100
AcDbEntity
  8
0
  6
Continuous
 62
     1
370
    25
100
AcDbLine
 10
122.0
 20
12.48999599679681
 30
0.0
 11
122.0
 21
12.50000000000001
 31
0.0
  0
ELLIPSE
  5
D3
330
1F
100
AcDbEntity
  8
0
  6
Continuous
 62
     1
370
    25
100
AcDbEllipse
 10
122.7140740033711
 20
-0.0000000000000071
 30
0.0
 11
17.85185008427641
 21
-5.350968460038300E-17
 31
0.0
210
0.0
220
0.0
230
1.0
 40
0.7002075382097114
 41
1.610807001148885
 42
1.71148497214774
  0
LINE
  5
D4
330
1F
100
AcDbEntity
  8
0
  6
Continuous
 62
     1
370
    25
100
AcDbLine
 10
122.0
 20
-0.5000000000000002
 30
0.0
 11
122.0
 21
-9.013109139888325
 31
0.0
  0
LINE
  5
D5
330
1F
100
AcDbEntity
  8
0
  6
Continuous
 62
     1
370
    25
100
AcDbLine
 10
122.0
 20
3.098518327978857
 30
0.0
 11
122.0
 21
12.48999599679681
 31
0.0
  0
LINE
  5
D6
330
1F
100
AcDbEntity
  8
중심선
100
AcDbLine
 10
-81.0
 20
-0.0000000000000114
 30
0.0
 11
129.0000000000001
 21
0.0000000000000143
 31
0.0
  0
CIRCLE
  5
D7
330
1F
100
AcDbEntity
  8
해칭선
100
AcDbCircle
 10
0.000339286455325
 20
-0.0000000000000035
 30
0.0
 40
3.000000000000003
  0
INSERT
  5
D8
330
1F
100
AcDbEntity
  8
0
  6
Continuous
 62
     7
100
AcDbBlockReference
 66
     1
  2
블럭10
 10
7.559900751058207
 20
-52.04717430164393
 30
0.0
  0
ATTRIB
  5
D9
330
D8
100
AcDbEntity
  8
FORMAT
 62
     2
100
AcDbText
 10
-10.13902121066624
 20
-49.97180738881174
 30
0.0
 40
4.233333333333333
  1
SEME72250110E [ 4 FLUTE ]
 41
0.75
  7
SLDTEXTSTYLE0
 11
-10.13902121066624
 21
-52.08847405547841
 31
0.0
100
AcDbAttribute
  2
AUTOATTR0
 70
     0
 74
     1
  0
SEQEND
  5
DA
330
D8
100
AcDbEntity
  8
0
  6
Continuous
 62
     7
  0
HATCH
  5
DB
330
1F
100
AcDbEntity
  8
중심선
100
AcDbHatch
 10
0.0
 20
0.0
 30
0.0
210
0.0
220
0.0
230
1.0
  2
SOLID
 70
     1
 71
     0
 91
        1
 92
        0
 93
        4
 72
     1
 10
13.27481005543904
 20
-35.8
 11
9.828534811601758
 21
-35.8
 72
     1
 10
9.828534811601758
 20
-35.8
 11
7.700304952397735
 21
-38.33632558057257
 72
     1
 10
7.700304952397735
 20
-38.33632558057257
 11
11.14661328134817
 21
-38.33628615127008
 72
     1
 10
11.14661328134817
 20
-38.33628615127008
 11
13.27481005543904
 21
-35.8
 97
        0
 75
     0
 76
     1
 98
        1
 10
0.0
 20
0.0
  0
HATCH
  5
DC
330
1F
100
AcDbEntity
  8
중심선
100
AcDbHatch
 10
0.0
 20
0.0
 30
0.0
210
0.0
220
0.0
230
1.0
  2
SOLID
 70
     1
 71
     0
 91
        1
 92
        0
 93
        4
 72
     1
 10
18.28757404647505
 20
-35.79999999999997
 11
14.84129880263774
 21
-35.79999999999997
 72
     1
 10
14.84129880263774
 20
-35.79999999999997
 11
10.31016079428032
 21
-41.20000000000002
 72
     1
 10
10.31016079428032
 20
-41.20000000000002
 11
13.7564360381176
 21
-41.20000000000002
 72
     1
 10
13.7564360381176
 20
-41.20000000000002
 11
18.28757404647505
 21
-35.79999999999997
 97
        0
 75
     0
 76
     1
 98
        1
 10
0.0
 20
0.0
  0
HATCH
  5
DD
330
1F
100
AcDbEntity
  8
중심선
100
AcDbHatch
 10
0.0
 20
0.0
 30
0.0
210
0.0
220
0.0
230
1.0
  2
SOLID
 70
     1
 71
     0
 91
        1
 92
        0
 93
        4
 72
     1
 10
23.30033803751089
 20
-35.8
 11
19.85406279367377
 21
-35.79999999999997
 72
     1
 10
19.85406279367377
 20
-35.79999999999997
 11
12.80562589178452
 21
-44.20000000000002
 72
     1
 10
12.80562589178452
 20
-44.20000000000002
 11
16.2519011356218
 21
-44.20000000000002
 72
     1
 10
16.2519011356218
 20
-44.20000000000002
 11
23.30033803751089
 21
-35.8
 97
        0
 75
     0
 76
     1
 98
        1
 10
0.0
 20
0.0
  0
HATCH
  5
DE
330
1F
100
AcDbEntity
  8
중심선
100
AcDbHatch
 10
0.0
 20
0.0
 30
0.0
210
0.0
220
0.0
230
1.0
  2
SOLID
 70
     1
 71
     0
 91
        1
 92
        0
 93
        6
 72
     3
 10
28.10022846852308
 20
-40.00000000005127
 11
3.960054785062284
 21
1.540850780301639E-10
 40
0.3939339440162633
 50
17.09539180608447
 51
320.001965768507
 73
     0
 72
     1
 10
29.78322812422365
 20
-38.58789400463827
 11
32.0885299979247
 21
-36.65356729459038
 72
     3
 10
28.10022846847024
 20
-40.00000000000015
 11
6.600054785286829
 21
-1.249000902703301E-13
 40
0.6363583540795982
 50
39.99873849337424
 51
368.4976242363726
 73
     1
 72
     1
 10
34.52556096037082
 20
-39.03999999993002
 11
26.78029577530613
 21
-39.03999999993002
 72
     1
 10
26.78029577530613
 20
-39.03999999993002
 11
26.78027073086023
 21
-40.95999999992991
 72
     1
 10
26.78027073086023
 20
-40.95999999992991
 11
31.22165050033224
 21
-40.95999999992988
 97
        0
 75
     0
 76
     1
 98
        1
 10
0.0
 20
0.0
  0
DIMENSION
  5
DF
330
1F
100
AcDbEntity
  8
치수문자_일반주서
100
AcDbDimension
  2
_D
 10
138.700601291488
 20
12.50000000000006
 30
0.0
 11
138.7006012914879
 21
23.47900000000006
 31
0.0
 70
   160
  1
%%c<>
 71
     2
 42
25.00000000000001
 52
-270.0
  3
SLDDIMSTYLE0
100
AcDbAlignedDimension
 13
122.0
 23
-12.50000000000001
 33
0.0
 14
122.0
 24
12.5
 34
0.0
 50
90.0000000000002
100
AcDbRotatedDimension
  0
DIMENSION
  5
EB
330
1F
100
AcDbEntity
  8
치수문자_일반주서
100
AcDbDimension
  2
_D_1
 10
122.0
 20
29.88913260158163
 30
0.0
 11
21.99999999999999
 21
29.88913260158163
 31
0.0
 70
   160
  1
<>
 71
     2
 42
200.0
  3
SLDDIMSTYLE1
100
AcDbAlignedDimension
 13
-78.0
 23
11.99999999999998
 33
0.0
 14
122.0
 24
12.50000000000001
 34
0.0
 50
-0.0000000000000041
100
AcDbRotatedDimension
  0
DIMENSION
  5
F6
330
1F
100
AcDbEntity
  8
치수문자_일반주서
100
AcDbDimension
  2
_D_2
 10
-92.34731546943381
 20
-12.50000000000008
 30
0.0
 11
-92.34731546943394
 21
23.47899999999992
 31
0.0
 70
   160
  1
%%c<>
 71
     2
 42
24.99999999999999
 52
-270.0
  3
SLDDIMSTYLE2
100
AcDbAlignedDimension
 13
-77.5
 23
12.49999999999998
 33
0.0
 14
-77.5
 24
-12.50000000000002
 34
0.0
 50
90.0000000000002
100
AcDbRotatedDimension
  0
DIMENSION
  5
102
330
1F
100
AcDbEntity
  8
치수문자_일반주서
100
AcDbDimension
  2
_D_3
 10
122.0
 20
23.32950711482743
 30
0.0
 11
67.0
 21
23.32950711482743
 31
0.0
 70
   160
  1
<>
 71
     2
 42
110.0
  3
SLDDIMSTYLE1
100
AcDbAlignedDimension
 13
12.00000000000001
 23
12.48358881223978
 33
0.0
 14
122.0
 24
12.50000000000001
 34
0.0
 50
-0.0000000000000037
100
AcDbRotatedDimension
  0
INSERT
  5
112
330
1F
100
AcDbEntity
  8
해칭선
100
AcDbBlockReference
  2
SW_DOWELSYMBOL_0
 10
0.000339286455325
 20
-0.0000000000000035
 30
0.0
  0
ENDSEC
  0
SECTION
  2
OBJECTS
  0
DICTIONARY
  5
C
330
0
100
AcDbDictionary
281
     1
  3
ACAD_GROUP
350
D
  3
ACAD_IMAGE_VARS
350
136
  3
ACAD_LAYOUT
350
1A
  3
ACAD_MLINESTYLE
350
17
  3
ACAD_PLOTSETTINGS
350
19
  3
ACAD_PLOTSTYLENAME
350
E
  3
ACAD_SCALELIST
350
47
  3
APPDATA
350
134
  3
DWGPROPS
350
149
  0
DICTIONARY
  5
D
102
{ACAD_REACTORS
330
C
102
}
330
C
100
AcDbDictionary
281
     1
  0
RASTERVARIABLES
  5
136
102
{ACAD_REACTORS
330
C
102
}
330
C
100
AcDbRasterVariables
 90
        0
 70
     1
 71
     1
 72
     1
  0
DICTIONARY
  5
1A
102
{ACAD_REACTORS
330
C
102
}
330
C
100
AcDbDictionary
281
     1
  3
Layout1
350
1E
  3
Layout2
350
26
  3
Model
350
22
  0
DICTIONARY
  5
17
102
{ACAD_REACTORS
330
C
102
}
330
C
100
AcDbDictionary
281
     1
  3
Standard
350
18
  0
DICTIONARY
  5
19
102
{ACAD_REACTORS
330
C
102
}
330
C
100
AcDbDictionary
281
     1
  0
ACDBDICTIONARYWDFLT
  5
E
102
{ACAD_REACTORS
330
C
102
}
330
C
100
AcDbDictionary
281
     1
  3
Normal
350
F
100
AcDbDictionaryWithDefault
340
F
  0
DICTIONARY
  5
47
102
{ACAD_REACTORS
330
C
102
}
330
C
100
AcDbDictionary
281
     1
  3
A0
350
48
  3
A1
350
49
  3
A2
350
4A
  3
A3
350
4B
  3
A4
350
4C
  3
A5
350
4D
  3
A6
350
4E
  3
A7
350
4F
  3
A8
350
50
  3
A9
350
51
  3
B0
350
52
  3
B1
350
53
  3
B2
350
54
  3
B3
350
55
  3
B4
350
56
  3
B5
350
57
  3
B6
350
58
  3
B7
350
59
  3
B8
350
5A
  3
B9
350
5B
  3
C0
350
5C
  3
C1
350
5D
  3
C2
350
5E
  3
C3
350
5F
  3
C4
350
60
  3
C5
350
61
  3
C6
350
62
  3
C7
350
63
  3
C8
350
64
  3
C9
350
65
  3
D0
350
66
  3
D1
350
67
  3
D2
350
68
  0
DICTIONARY
  5
134
102
{ACAD_REACTORS
330
C
102
}
330
C
100
AcDbDictionary
281
     1
  0
XRECORD
  5
149
102
{ACAD_REACTORS
330
C
102
}
330
C
100
AcDbXrecord
280
     1
  1
DWGPROPS COOKIE
  2

  3

  4

  6

  7

  8
12014102
  9

300
=
301
=
302
=
303
=
304
=
305
=
306
=
307
=
308
=
309
=
 40
0.0
 41
2458260.212043819
 42
2458268.240075104
  1

 90
        0
  0
LAYOUT
  5
1E
102
{ACAD_REACTORS
330
1A
102
}
330
1A
100
AcDbPlotSettings
  1

  2
none_device
  4

  6

 40
0.0
 41
0.0
 42
0.0
 43
0.0
 44
0.0
 45
0.0
 46
0.0
 47
0.0
 48
0.0
 49
0.0
140
0.0
141
0.0
142
1.0
143
1.0
 70
   688
 72
     1
 73
     0
 74
     5
  7

 75
    16
147
1.0
148
0.0
149
0.0
100
AcDbLayout
  1
Layout1
 70
     1
 71
     1
 10
0.0
 20
0.0
 11
420.0
 21
297.0
 12
0.0
 22
0.0
 32
0.0
 14
1.000000000000000E+20
 24
1.000000000000000E+20
 34
1.000000000000000E+20
 15
-1.000000000000000E+20
 25
-1.000000000000000E+20
 35
-1.000000000000000E+20
146
0.0
 13
0.0
 23
0.0
 33
0.0
 16
1.0
 26
0.0
 36
0.0
 17
0.0
 27
1.0
 37
0.0
 76
     0
330
1B
  0
LAYOUT
  5
26
102
{ACAD_REACTORS
330
1A
102
}
330
1A
100
AcDbPlotSettings
  1

  2
none_device
  4

  6

 40
0.0
 41
0.0
 42
0.0
 43
0.0
 44
0.0
 45
0.0
 46
0.0
 47
0.0
 48
0.0
 49
0.0
140
0.0
141
0.0
142
1.0
143
1.0
 70
   688
 72
     1
 73
     0
 74
     5
  7

 75
    16
147
1.0
148
0.0
149
0.0
100
AcDbLayout
  1
Layout2
 70
     1
 71
     2
 10
0.0
 20
0.0
 11
0.0
 21
0.0
 12
0.0
 22
0.0
 32
0.0
 14
0.0
 24
0.0
 34
0.0
 15
0.0
 25
0.0
 35
0.0
146
0.0
 13
0.0
 23
0.0
 33
0.0
 16
1.0
 26
0.0
 36
0.0
 17
0.0
 27
1.0
 37
0.0
 76
     0
330
23
  0
LAYOUT
  5
22
102
{ACAD_REACTORS
330
1A
102
}
330
1A
100
AcDbPlotSettings
  1

  2
none_device
  4
ANSI_A_(11.00_x_8.50_Inches)
  6

 40
6.35
 41
19.05
 42
6.35000508
 43
19.05000254
 44
279.4
 45
215.9
 46
108.7663371164187
 47
98.50731405928076
 48
0.0
 49
0.0
140
0.0
141
0.0
142
0.0463675140258003
143
1.0
 70
  1696
 72
     0
 73
     0
 74
     0
  7

 75
     0
147
0.0235690232323232
148
0.0
149
0.0
100
AcDbLayout
  1
Model
 70
     1
 71
     0
 10
0.0
 20
0.0
 11
420.0
 21
297.0
 12
0.0
 22
0.0
 32
0.0
 14
-96.72231546943395
 24
-49.97180738881174
 34
0.0
 15
139.2509346248214
 25
34.26413260158164
 35
0.0
146
0.0
 13
0.0
 23
0.0
 33
0.0
 16
1.0
 26
0.0
 36
0.0
 17
0.0
 27
1.0
 37
0.0
 76
     0
330
1F
331
29
  0
MLINESTYLE
  5
18
102
{ACAD_REACTORS
330
17
102
}
330
17
100
AcDbMlineStyle
  2
Standard
 70
     0
  3

 62
   256
 51
90.0
 52
90.0
 71
     2
 49
0.5
 62
   256
  6
BYLAYER
 49
-0.5
 62
   256
  6
BYLAYER
  0
ACDBPLACEHOLDER
  5
F
102
{ACAD_REACTORS
330
E
102
}
330
E
  0
SCALE
  5
48
102
{ACAD_REACTORS
330
47
102
}
330
47
100
AcDbScale
 70
     0
300
1:1
140
1.0
141
1.0
290
     1
  0
SCALE
  5
49
102
{ACAD_REACTORS
330
47
102
}
330
47
100
AcDbScale
 70
     0
300
1:2
140
1.0
141
2.0
290
     0
  0
SCALE
  5
4A
102
{ACAD_REACTORS
330
47
102
}
330
47
100
AcDbScale
 70
     0
300
1:4
140
1.0
141
4.0
290
     0
  0
SCALE
  5
4B
102
{ACAD_REACTORS
330
47
102
}
330
47
100
AcDbScale
 70
     0
300
1:5
140
1.0
141
5.0
290
     0
  0
SCALE
  5
4C
102
{ACAD_REACTORS
330
47
102
}
330
47
100
AcDbScale
 70
     0
300
1:8
140
1.0
141
8.0
290
     0
  0
SCALE
  5
4D
102
{ACAD_REACTORS
330
47
102
}
330
47
100
AcDbScale
 70
     0
300
1:10
140
1.0
141
10.0
290
     0
  0
SCALE
  5
4E
102
{ACAD_REACTORS
330
47
102
}
330
47
100
AcDbScale
 70
     0
300
1:16
140
1.0
141
16.0
290
     0
  0
SCALE
  5
4F
102
{ACAD_REACTORS
330
47
102
}
330
47
100
AcDbScale
 70
     0
300
1:20
140
1.0
141
20.0
290
     0
  0
SCALE
  5
50
102
{ACAD_REACTORS
330
47
102
}
330
47
100
AcDbScale
 70
     0
300
1:30
140
1.0
141
30.0
290
     0
  0
SCALE
  5
51
102
{ACAD_REACTORS
330
47
102
}
330
47
100
AcDbScale
 70
     0
300
1:40
140
1.0
141
40.0
290
     0
  0
SCALE
  5
52
102
{ACAD_REACTORS
330
47
102
}
330
47
100
AcDbScale
 70
     0
300
1:50
140
1.0
141
50.0
290
     0
  0
SCALE
  5
53
102
{ACAD_REACTORS
330
47
102
}
330
47
100
AcDbScale
 70
     0
300
1:100
140
1.0
141
100.0
290
     0
  0
SCALE
  5
54
102
{ACAD_REACTORS
330
47
102
}
330
47
100
AcDbScale
 70
     0
300
2:1
140
2.0
141
1.0
290
     0
  0
SCALE
  5
55
102
{ACAD_REACTORS
330
47
102
}
330
47
100
AcDbScale
 70
     0
300
4:1
140
4.0
141
1.0
290
     0
  0
SCALE
  5
56
102
{ACAD_REACTORS
330
47
102
}
330
47
100
AcDbScale
 70
     0
300
8:1
140
8.0
141
1.0
290
     0
  0
SCALE
  5
57
102
{ACAD_REACTORS
330
47
102
}
330
47
100
AcDbScale
 70
     0
300
10:1
140
10.0
141
1.0
290
     0
  0
SCALE
  5
58
102
{ACAD_REACTORS
330
47
102
}
330
47
100
AcDbScale
 70
     0
300
100:1
140
100.0
141
1.0
290
     0
  0
SCALE
  5
59
102
{ACAD_REACTORS
330
47
102
}
330
47
100
AcDbScale
 70
     0
300
1/128" = 1'-0"
140
0.0078125
141
12.0
290
     0
  0
SCALE
  5
5A
102
{ACAD_REACTORS
330
47
102
}
330
47
100
AcDbScale
 70
     0
300
1/64" = 1'-0"
140
0.015625
141
12.0
290
     0
  0
SCALE
  5
5B
102
{ACAD_REACTORS
330
47
102
}
330
47
100
AcDbScale
 70
     0
300
1/32" = 1'-0"
140
0.03125
141
12.0
290
     0
  0
SCALE
  5
5C
102
{ACAD_REACTORS
330
47
102
}
330
47
100
AcDbScale
 70
     0
300
1/16" = 1'-0"
140
0.0625
141
12.0
290
     0
  0
SCALE
  5
5D
102
{ACAD_REACTORS
330
47
102
}
330
47
100
AcDbScale
 70
     0
300
3/32" = 1'-0"
140
0.09375
141
12.0
290
     0
  0
SCALE
  5
5E
102
{ACAD_REACTORS
330
47
102
}
330
47
100
AcDbScale
 70
     0
300
1/8" = 1'-0"
140
0.125
141
12.0
290
     0
  0
SCALE
  5
5F
102
{ACAD_REACTORS
330
47
102
}
330
47
100
AcDbScale
 70
     0
300
3/16" = 1'-0"
140
0.1875
141
12.0
290
     0
  0
SCALE
  5
60
102
{ACAD_REACTORS
330
47
102
}
330
47
100
AcDbScale
 70
     0
300
1/4" = 1'-0"
140
0.25
141
12.0
290
     0
  0
SCALE
  5
61
102
{ACAD_REACTORS
330
47
102
}
330
47
100
AcDbScale
 70
     0
300
3/8" = 1'-0"
140
0.375
141
12.0
290
     0
  0
SCALE
  5
62
102
{ACAD_REACTORS
330
47
102
}
330
47
100
AcDbScale
 70
     0
300
1/2" = 1'-0"
140
0.5
141
12.0
290
     0
  0
SCALE
  5
63
102
{ACAD_REACTORS
330
47
102
}
330
47
100
AcDbScale
 70
     0
300
3/4" = 1'-0"
140
0.75
141
12.0
290
     0
  0
SCALE
  5
64
102
{ACAD_REACTORS
330
47
102
}
330
47
100
AcDbScale
 70
     0
300
1" = 1'-0"
140
1.0
141
12.0
290
     0
  0
SCALE
  5
65
102
{ACAD_REACTORS
330
47
102
}
330
47
100
AcDbScale
 70
     0
300
1-1/2" = 1'-0"
140
1.5
141
12.0
290
     0
  0
SCALE
  5
66
102
{ACAD_REACTORS
330
47
102
}
330
47
100
AcDbScale
 70
     0
300
3" = 1'-0"
140
3.0
141
12.0
290
     0
  0
SCALE
  5
67
102
{ACAD_REACTORS
330
47
102
}
330
47
100
AcDbScale
 70
     0
300
6" = 1'-0"
140
6.0
141
12.0
290
     0
  0
SCALE
  5
68
102
{ACAD_REACTORS
330
47
102
}
330
47
100
AcDbScale
 70
     0
300
1'-0" = 1'-0"
140
12.0
141
12.0
290
     0
  0
ENDSEC
  0
EOF
