  0
SECTION
  2
HEADER
  9
$ACADVER
  1
AC1015
  9
$ACADMAINTVER
 70
     6
  9
$DWGCODEPAGE
  3
ANSI_949
  9
$INSBASE
 10
0.0
 20
0.0
 30
0.0
  9
$EXTMIN
 10
-135.8585549209805
 20
-49.97180738881174
 30
0.0
  9
$EXTMAX
 10
146.8706184229047
 20
34.26413260158162
 30
0.0
  9
$LIMMIN
 10
0.0
 20
0.0
  9
$LIMMAX
 10
420.0
 20
297.0
  9
$ORTHOMODE
 70
     0
  9
$REGENMODE
 70
     1
  9
$FILLMODE
 70
     1
  9
$QTEXTMODE
 70
     0
  9
$MIRRTEXT
 70
     1
  9
$LTSCALE
 40
1.0
  9
$ATTMODE
 70
     1
  9
$TEXTSIZE
 40
3.5
  9
$TRACEWID
 40
1.0
  9
$TEXTSTYLE
  7
Standard
  9
$CLAYER
  8
0
  9
$CELTYPE
  6
ByLayer
  9
$CECOLOR
 62
   256
  9
$CELTSCALE
 40
1.0
  9
$DISPSILH
 70
     0
  9
$DIMSCALE
 40
1.0
  9
$DIMASZ
 40
3.302
  9
$DIMEXO
 40
1.0
  9
$DIMDLI
 40
3.75
  9
$DIMRND
 40
0.0
  9
$DIMDLE
 40
0.0
  9
$DIMEXE
 40
1.0
  9
$DIMTP
 40
0.0
  9
$DIMTM
 40
0.0
  9
$DIMTXT
 40
3.5
  9
$DIMCEN
 40
2.5
  9
$DIMTSZ
 40
0.0
  9
$DIMTOL
 70
     0
  9
$DIMLIM
 70
     0
  9
$DIMTIH
 70
     1
  9
$DIMTOH
 70
     1
  9
$DIMSE1
 70
     0
  9
$DIMSE2
 70
     0
  9
$DIMTAD
 70
     1
  9
$DIMZIN
 70
     0
  9
$DIMBLK
  1

  9
$DIMASO
 70
     1
  9
$DIMSHO
 70
     1
  9
$DIMPOST
  1

  9
$DIMAPOST
  1

  9
$DIMALT
 70
     0
  9
$DIMALTD
 70
     3
  9
$DIMALTF
 40
0.0393700787401575
  9
$DIMLFAC
 40
1.0
  9
$DIMTOFL
 70
     1
  9
$DIMTVP
 40
0.0
  9
$DIMTIX
 70
     0
  9
$DIMSOXD
 70
     0
  9
$DIMSAH
 70
     0
  9
$DIMBLK1
  1

  9
$DIMBLK2
  1

  9
$DIMSTYLE
  2
ISO-25
  9
$DIMCLRD
 70
     0
  9
$DIMCLRE
 70
     0
  9
$DIMCLRT
 70
     0
  9
$DIMTFAC
 40
1.0
  9
$DIMGAP
 40
1.524
  9
$DIMJUST
 70
     0
  9
$DIMSD1
 70
     0
  9
$DIMSD2
 70
     0
  9
$DIMTOLJ
 70
     0
  9
$DIMTZIN
 70
     0
  9
$DIMALTZ
 70
     0
  9
$DIMALTTZ
 70
     0
  9
$DIMUPT
 70
     0
  9
$DIMDEC
 70
     2
  9
$DIMTDEC
 70
     2
  9
$DIMALTU
 70
     2
  9
$DIMALTTD
 70
     3
  9
$DIMTXSTY
  7
Standard
  9
$DIMAUNIT
 70
     0
  9
$DIMADEC
 70
     2
  9
$DIMALTRND
 40
0.0
  9
$DIMAZIN
 70
     0
  9
$DIMDSEP
 70
    44
  9
$DIMATFIT
 70
     3
  9
$DIMFRAC
 70
     0
  9
$DIMLDRBLK
  1

  9
$DIMLUNIT
 70
     2
  9
$DIMLWD
 70
    -2
  9
$DIMLWE
 70
    -2
  9
$DIMTMOVE
 70
     0
  9
$LUNITS
 70
     2
  9
$LUPREC
 70
     2
  9
$SKETCHINC
 40
1.0
  9
$FILLETRAD
 40
10.0
  9
$AUNITS
 70
     0
  9
$AUPREC
 70
     2
  9
$MENU
  1
.
  9
$ELEVATION
 40
0.0
  9
$PELEVATION
 40
0.0
  9
$THICKNESS
 40
0.0
  9
$LIMCHECK
 70
     0
  9
$CHAMFERA
 40
0.0
  9
$CHAMFERB
 40
0.0
  9
$CHAMFERC
 40
0.0
  9
$CHAMFERD
 40
0.0
  9
$SKPOLY
 70
     0
  9
$TDCREATE
 40
2458260.587233044
  9
$TDUCREATE
 40
2458260.212233044
  9
$TDUPDATE
 40
2458268.615853379
  9
$TDUUPDATE
 40
2458268.240853379
  9
$TDINDWG
 40
0.0006328472
  9
$TDUSRTIMER
 40
2458268.240220579
  9
$USRTIMER
 70
     1
  9
$ANGBASE
 50
0.0
  9
$ANGDIR
 70
     0
  9
$PDMODE
 70
     0
  9
$PDSIZE
 40
-1.0
  9
$PLINEWID
 40
0.0
  9
$SPLFRAME
 70
     0
  9
$SPLINETYPE
 70
     6
  9
$SPLINESEGS
 70
     8
  9
$HANDSEED
  5
14A
  9
$SURFTAB1
 70
     6
  9
$SURFTAB2
 70
     6
  9
$SURFTYPE
 70
     6
  9
$SURFU
 70
     6
  9
$SURFV
 70
     6
  9
$UCSBASE
  2

  9
$UCSNAME
  2

  9
$UCSORG
 10
0.0
 20
0.0
 30
0.0
  9
$UCSXDIR
 10
1.0
 20
0.0
 30
0.0
  9
$UCSYDIR
 10
0.0
 20
1.0
 30
0.0
  9
$UCSORTHOREF
  2

  9
$UCSORTHOVIEW
 70
     0
  9
$UCSORGTOP
 10
0.0
 20
0.0
 30
0.0
  9
$UCSORGBOTTOM
 10
0.0
 20
0.0
 30
0.0
  9
$UCSORGLEFT
 10
0.0
 20
0.0
 30
0.0
  9
$UCSORGRIGHT
 10
0.0
 20
0.0
 30
0.0
  9
$UCSORGFRONT
 10
0.0
 20
0.0
 30
0.0
  9
$UCSORGBACK
 10
0.0
 20
0.0
 30
0.0
  9
$PUCSBASE
  2

  9
$PUCSNAME
  2

  9
$PUCSORG
 10
0.0
 20
0.0
 30
0.0
  9
$PUCSXDIR
 10
1.0
 20
0.0
 30
0.0
  9
$PUCSYDIR
 10
0.0
 20
1.0
 30
0.0
  9
$PUCSORTHOREF
  2

  9
$PUCSORTHOVIEW
 70
     0
  9
$PUCSORGTOP
 10
0.0
 20
0.0
 30
0.0
  9
$PUCSORGBOTTOM
 10
0.0
 20
0.0
 30
0.0
  9
$PUCSORGLEFT
 10
0.0
 20
0.0
 30
0.0
  9
$PUCSORGRIGHT
 10
0.0
 20
0.0
 30
0.0
  9
$PUCSORGFRONT
 10
0.0
 20
0.0
 30
0.0
  9
$PUCSORGBACK
 10
0.0
 20
0.0
 30
0.0
  9
$USERI1
 70
     0
  9
$USERI2
 70
     0
  9
$USERI3
 70
     0
  9
$USERI4
 70
     0
  9
$USERI5
 70
     0
  9
$USERR1
 40
0.0
  9
$USERR2
 40
0.0
  9
$USERR3
 40
0.0
  9
$USERR4
 40
0.0
  9
$USERR5
 40
0.0
  9
$WORLDVIEW
 70
     1
  9
$SHADEDGE
 70
     3
  9
$SHADEDIF
 70
    70
  9
$TILEMODE
 70
     1
  9
$MAXACTVP
 70
    64
  9
$PINSBASE
 10
0.0
 20
0.0
 30
0.0
  9
$PLIMCHECK
 70
     0
  9
$PEXTMIN
 10
1.000000000000000E+20
 20
1.000000000000000E+20
 30
1.000000000000000E+20
  9
$PEXTMAX
 10
-1.000000000000000E+20
 20
-1.000000000000000E+20
 30
-1.000000000000000E+20
  9
$PLIMMIN
 10
0.0
 20
0.0
  9
$PLIMMAX
 10
0.0
 20
0.0
  9
$UNITMODE
 70
     0
  9
$VISRETAIN
 70
     1
  9
$PLINEGEN
 70
     0
  9
$PSLTSCALE
 70
     1
  9
$TREEDEPTH
 70
  3020
  9
$CMLSTYLE
  2
Standard
  9
$CMLJUST
 70
     0
  9
$CMLSCALE
 40
20.0
  9
$PROXYGRAPHICS
 70
     1
  9
$MEASUREMENT
 70
     1
  9
$CELWEIGHT
370
    -1
  9
$ENDCAPS
280
     0
  9
$JOINSTYLE
280
     0
  9
$LWDISPLAY
290
     1
  9
$INSUNITS
 70
     4
  9
$HYPERLINKBASE
  1

  9
$STYLESHEET
  1

  9
$XEDIT
290
     1
  9
$CEPSNTYPE
380
     0
  9
$PSTYLEMODE
290
     1
  9
$FINGERPRINTGUID
  2
{34DA44E7-17D6-4E0B-8F41-D15464D77E8D}
  9
$VERSIONGUID
  2
{FAEB1C32-E019-11D5-929B-00C0DF256EC4}
  9
$EXTNAMES
290
     1
  9
$PSVPSCALE
 40
0.0
  9
$OLESTARTUP
290
     0
  0
ENDSEC
  0
SECTION
  2
CLASSES
  0
CLASS
  1
ACDBDICTIONARYWDFLT
  2
AcDbDictionaryWithDefault
  3
ObjectDBX Classes
 90
        0
280
     0
281
     0
  0
CLASS
  1
VISUALSTYLE
  2
AcDbVisualStyle
  3
ObjectDBX Classes
 90
     4095
280
     0
281
     0
  0
CLASS
  1
MATERIAL
  2
AcDbMaterial
  3
ObjectDBX Classes
 90
     1153
280
     0
281
     0
  0
CLASS
  1
SCALE
  2
AcDbScale
  3
ObjectDBX Classes
 90
     1153
280
     0
281
     0
  0
CLASS
  1
TABLESTYLE
  2
AcDbTableStyle
  3
ObjectDBX Classes
 90
     4095
280
     0
281
     0
  0
CLASS
  1
MLEADERSTYLE
  2
AcDbMLeaderStyle
  3
ACDB_MLEADERSTYLE_CLASS
 90
     4095
280
     0
281
     0
  0
CLASS
  1
SUN
  2
AcDbSun
  3
SCENEOE
 90
     1153
280
     0
281
     0
  0
CLASS
  1
ACDBPLACEHOLDER
  2
AcDbPlaceHolder
  3
ObjectDBX Classes
 90
        0
280
     0
281
     0
  0
CLASS
  1
LAYOUT
  2
AcDbLayout
  3
ObjectDBX Classes
 90
        0
280
     0
281
     0
  0
CLASS
  1
RASTERVARIABLES
  2
AcDbRasterVariables
  3
ISM
 90
        0
280
     0
281
     0
  0
ENDSEC
  0
SECTION
  2
TABLES
  0
TABLE
  2
VPORT
  5
8
330
0
100
AcDbSymbolTable
 70
     1
  0
VPORT
  5
29
330
8
100
AcDbSymbolTableRecord
100
AcDbViewportTableRecord
  2
*Active
 70
     0
 10
0.0
 20
0.0
 11
1.0
 21
1.0
 12
5.50603175096208
 22
-7.853837393615059
 13
0.0
 23
0.0
 14
10.0
 24
10.0
 15
10.0
 25
10.0
 16
0.0
 26
0.0
 36
1.0
 17
0.0
 27
0.0
 37
0.0
 40
166.0781456633411
 41
1.736434108527132
 42
50.0
 43
0.0
 44
0.0
 50
0.0
 51
0.0
 71
    16
 72
  2000
 73
     1
 74
     3
 75
     0
 76
     0
 77
     0
 78
     0
281
     0
 65
     1
110
0.0
120
0.0
130
0.0
111
1.0
121
0.0
131
0.0
112
0.0
122
1.0
132
0.0
 79
     0
146
0.0
  0
ENDTAB
  0
TABLE
  2
LTYPE
  5
5
330
0
100
AcDbSymbolTable
 70
     6
  0
LTYPE
  5
14
330
5
100
AcDbSymbolTableRecord
100
AcDbLinetypeTableRecord
  2
ByBlock
 70
     0
  3

 72
    65
 73
     0
 40
0.0
  0
LTYPE
  5
15
330
5
100
AcDbSymbolTableRecord
100
AcDbLinetypeTableRecord
  2
ByLayer
 70
     0
  3

 72
    65
 73
     0
 40
0.0
  0
LTYPE
  5
16
330
5
100
AcDbSymbolTableRecord
100
AcDbLinetypeTableRecord
  2
Continuous
 70
     0
  3
Solid line
 72
    65
 73
     0
 40
0.0
  0
LTYPE
  5
6E
330
5
100
AcDbSymbolTableRecord
100
AcDbLinetypeTableRecord
  2
HIDDEN
 70
     0
  3
Hidden __ __ __ __ __ __ __ __ __ __ __ __ __ __
 72
    65
 73
     2
 40
1.905
 49
1.27
 74
     0
 49
-0.635
 74
     0
  0
LTYPE
  5
6F
330
5
100
AcDbSymbolTableRecord
100
AcDbLinetypeTableRecord
  2
PHANTOM
 70
     0
  3
Phantom ______  __  __  ______  __  __  ______
 72
    65
 73
     6
 40
12.7
 49
6.35
 74
     0
 49
-1.27
 74
     0
 49
1.27
 74
     0
 49
-1.27
 74
     0
 49
1.27
 74
     0
 49
-1.27
 74
     0
  0
LTYPE
  5
70
330
5
100
AcDbSymbolTableRecord
100
AcDbLinetypeTableRecord
  2
CENTER
 70
     0
  3
Center ____ _ ____ _ ____ _ ____ _ ____ _ ____
 72
    65
 73
     4
 40
10.16
 49
6.35
 74
     0
 49
-1.27
 74
     0
 49
1.27
 74
     0
 49
-1.27
 74
     0
  0
LTYPE
  5
71
330
5
100
AcDbSymbolTableRecord
100
AcDbLinetypeTableRecord
  2
CENTERX2
 70
     0
  3
Center (2x) ________  __  ________  __  _____
 72
    65
 73
     4
 40
20.32
 49
12.7
 74
     0
 49
-2.54
 74
     0
 49
2.54
 74
     0
 49
-2.54
 74
     0
  0
LTYPE
  5
72
330
5
100
AcDbSymbolTableRecord
100
AcDbLinetypeTableRecord
  2
DOT2
 70
     0
  3
Dot (.5x) ........................................
 72
    65
 73
     2
 40
0.635
 49
0.0
 74
     0
 49
-0.635
 74
     0
  0
ENDTAB
  0
TABLE
  2
LAYER
  5
2
330
0
100
AcDbSymbolTable
 70
    17
  0
LAYER
  5
10
330
2
100
AcDbSymbolTableRecord
100
AcDbLayerTableRecord
  2
0
 70
     0
 62
     7
  6
Continuous
370
    -3
390
F
  0
LAYER
  5
73
330
2
100
AcDbSymbolTableRecord
100
AcDbLayerTableRecord
  2
FORMAT
 70
     0
 62
     2
  6
Continuous
370
    -3
390
F
  0
LAYER
  5
74
330
2
100
AcDbSymbolTableRecord
100
AcDbLayerTableRecord
  2
외형선
 70
     0
 62
   100
  6
Continuous
370
    35
390
F
  0
LAYER
  5
75
330
2
100
AcDbSymbolTableRecord
100
AcDbLayerTableRecord
  2
숨은선
 70
     0
 62
     2
  6
HIDDEN
370
    25
390
F
  0
LAYER
  5
76
330
2
100
AcDbSymbolTableRecord
100
AcDbLayerTableRecord
  2
중심선
 70
     0
 62
     1
  6
CENTERX2
370
    -3
390
F
  0
LAYER
  5
77
330
2
100
AcDbSymbolTableRecord
100
AcDbLayerTableRecord
  2
파단선
 70
     0
 62
     4
  6
Continuous
370
    -3
390
F
  0
LAYER
  5
78
330
2
100
AcDbSymbolTableRecord
100
AcDbLayerTableRecord
  2
해칭선
 70
     0
 62
   100
  6
Continuous
370
    -3
390
F
  0
LAYER
  5
79
330
2
100
AcDbSymbolTableRecord
100
AcDbLayerTableRecord
  2
가는실선
 70
     0
 62
     4
  6
Continuous
370
    -3
390
F
  0
LAYER
  5
7A
330
2
100
AcDbSymbolTableRecord
100
AcDbLayerTableRecord
  2
치수_보조선
 70
     0
 62
     4
  6
Continuous
370
    -3
390
F
  0
LAYER
  5
7B
330
2
100
AcDbSymbolTableRecord
100
AcDbLayerTableRecord
  2
치수문자_일반주서
 70
     0
 62
     7
  6
Continuous
370
    25
390
F
  0
LAYER
  5
7C
330
2
100
AcDbSymbolTableRecord
100
AcDbLayerTableRecord
  2
개별주서
 70
     0
 62
   100
  6
Continuous
370
    35
390
F
  0
LAYER
  5
7D
330
2
100
AcDbSymbolTableRecord
100
AcDbLayerTableRecord
  2
중간선
 70
     0
 62
     2
  6
Continuous
370
    25
390
F
  0
LAYER
  5
7E
330
2
100
AcDbSymbolTableRecord
100
AcDbLayerTableRecord
  2
윤곽선
 70
     0
 62
     3
  6
Continuous
370
    50
390
F
  0
LAYER
  5
7F
330
2
100
AcDbSymbolTableRecord
100
AcDbLayerTableRecord
  2
중심마크
 70
     0
 62
   100
  6
Continuous
370
    35
390
F
  0
LAYER
  5
80
330
2
100
AcDbSymbolTableRecord
100
AcDbLayerTableRecord
  2
가상선
 70
     0
 62
     4
  6
PHANTOM
370
    -3
390
F
  0
LAYER
  5
81
330
2
100
AcDbSymbolTableRecord
100
AcDbLayerTableRecord
  2
특수지정선
 70
     0
 62
     5
  6
CENTERX2
370
    70
390
F
  0
LAYER
  5
136
330
2
100
AcDbSymbolTableRecord
100
AcDbLayerTableRecord
  2
Defpoints
 70
     0
 62
     7
  6
Continuous
290
     0
370
    -3
390
F
  0
ENDTAB
  0
TABLE
  2
STYLE
  5
3
330
0
100
AcDbSymbolTable
 70
     2
  0
STYLE
  5
11
330
3
100
AcDbSymbolTableRecord
100
AcDbTextStyleTableRecord
  2
Standard
 70
     0
 40
0.0
 41
1.0
 50
0.0
 71
     0
 42
3.5
  3
txt
  4

  0
STYLE
  5
97
330
3
100
AcDbSymbolTableRecord
100
AcDbTextStyleTableRecord
  2
SLDTEXTSTYLE0
 70
     0
 40
0.0
 41
0.75
 50
0.0
 71
     0
 42
3.5
  3
TXT
  4

  0
ENDTAB
  0
TABLE
  2
VIEW
  5
6
330
0
100
AcDbSymbolTable
 70
     0
  0
ENDTAB
  0
TABLE
  2
UCS
  5
7
330
0
100
AcDbSymbolTable
 70
     0
  0
ENDTAB
  0
TABLE
  2
APPID
  5
9
330
0
100
AcDbSymbolTable
 70
     1
  0
APPID
  5
12
330
9
100
AcDbSymbolTableRecord
100
AcDbRegAppTableRecord
  2
ACAD
 70
     0
  0
ENDTAB
  0
TABLE
  2
DIMSTYLE
  5
A
330
0
100
AcDbSymbolTable
 70
     4
100
AcDbDimStyleTable
  0
DIMSTYLE
105
27
330
A
100
AcDbSymbolTableRecord
100
AcDbDimStyleTableRecord
  2
ISO-25
 70
     0
 41
2.5
 42
0.625
 43
3.75
 44
1.25
 73
     0
 74
     0
 77
     1
 78
     8
140
2.5
141
2.5
143
0.03937007874016
147
0.625
171
     3
172
     1
178
     0
271
     2
272
     2
274
     3
278
    44
283
     0
284
     8
340
11
  0
DIMSTYLE
105
DF
102
{ACAD_REACTORS
330
DE
102
}
330
A
100
AcDbSymbolTableRecord
100
AcDbDimStyleTableRecord
  2
SLDDIMSTYLE0
 70
     0
 41
3.302
 44
0.0
 45
0.000000001
 73
     0
 74
     0
 77
     1
 78
    12
 79
     3
140
3.5
147
0.875
172
     1
173
     1
178
     0
271
     1
272
     1
276
     2
284
    12
289
     0
340
97
  0
DIMSTYLE
105
EB
102
{ACAD_REACTORS
330
EA
330
101
102
}
330
A
100
AcDbSymbolTableRecord
100
AcDbDimStyleTableRecord
  2
SLDDIMSTYLE1
 70
     0
 41
3.302
 44
0.0
 45
0.000000001
 73
     0
 74
     0
 77
     1
 78
    12
 79
     3
140
3.5
147
0.875
173
     1
178
     0
271
     2
272
     2
276
     2
284
    12
340
97
  0
DIMSTYLE
105
F6
102
{ACAD_REACTORS
330
F5
102
}
330
A
100
AcDbSymbolTableRecord
100
AcDbDimStyleTableRecord
  2
SLDDIMSTYLE2
 70
     0
 41
3.302
 44
0.0
 45
0.000000001
 73
     0
 74
     0
 77
     1
 78
    12
 79
     3
140
3.5
147
0.875
172
     1
173
     1
178
     0
271
     2
272
     2
276
     2
284
    12
289
     0
340
97
  0
ENDTAB
  0
TABLE
  2
BLOCK_RECORD
  5
1
330
0
100
AcDbSymbolTable
 70
     7
  0
BLOCK_RECORD
  5
1F
330
1
100
AcDbSymbolTableRecord
100
AcDbBlockTableRecord
  2
*Model_Space
340
22
  0
BLOCK_RECORD
  5
1B
330
1
100
AcDbSymbolTableRecord
100
AcDbBlockTableRecord
  2
*Paper_Space
340
1E
  0
BLOCK_RECORD
  5
23
330
1
100
AcDbSymbolTableRecord
100
AcDbBlockTableRecord
  2
*Paper_Space0
340
26
  0
BLOCK_RECORD
  5
82
330
1
100
AcDbSymbolTableRecord
100
AcDbBlockTableRecord
  2
블럭10
340
0
102
{BLKREFS
331
D7
102
}
  0
BLOCK_RECORD
  5
E0
330
1
100
AcDbSymbolTableRecord
100
AcDbBlockTableRecord
  2
_D
340
0
  0
BLOCK_RECORD
  5
EC
330
1
100
AcDbSymbolTableRecord
100
AcDbBlockTableRecord
  2
_D_1
340
0
  0
BLOCK_RECORD
  5
F7
330
1
100
AcDbSymbolTableRecord
100
AcDbBlockTableRecord
  2
_D_2
340
0
  0
BLOCK_RECORD
  5
102
330
1
100
AcDbSymbolTableRecord
100
AcDbBlockTableRecord
  2
_D_3
340
0
  0
BLOCK_RECORD
  5
10B
330
1
100
AcDbSymbolTableRecord
100
AcDbBlockTableRecord
  2
SW_DOWELSYMBOL_0
340
0
102
{BLKREFS
331
111
102
}
  0
ENDTAB
  0
ENDSEC
  0
SECTION
  2
BLOCKS
  0
BLOCK
  5
20
330
1F
100
AcDbEntity
  8
0
100
AcDbBlockBegin
  2
*Model_Space
 70
     0
 10
0.0
 20
0.0
 30
0.0
  3
*Model_Space
  1

  0
ENDBLK
  5
21
330
1F
100
AcDbEntity
  8
0
100
AcDbBlockEnd
  0
BLOCK
  5
1C
330
1B
100
AcDbEntity
 67
     1
  8
0
100
AcDbBlockBegin
  2
*Paper_Space
 70
     0
 10
0.0
 20
0.0
 30
0.0
  3
*Paper_Space
  1

  0
ENDBLK
  5
1D
330
1B
100
AcDbEntity
 67
     1
  8
0
100
AcDbBlockEnd
  0
BLOCK
  5
24
330
23
100
AcDbEntity
  8
0
100
AcDbBlockBegin
  2
*Paper_Space0
 70
     0
 10
0.0
 20
0.0
 30
0.0
  3
*Paper_Space0
  1

  0
ENDBLK
  5
25
330
23
100
AcDbEntity
  8
0
100
AcDbBlockEnd
  0
BLOCK
  5
83
330
82
100
AcDbEntity
  8
0
100
AcDbBlockBegin
  2
블럭10
 70
     2
 10
0.0
 20
0.0
 30
0.0
  3
블럭10
  1

  0
ELLIPSE
  5
85
330
82
100
AcDbEntity
  8
중심선
100
AcDbEllipse
 10
20.54032771741204
 20
12.0471743016438
 30
0.0
 11
6.600054785286829
 21
-1.261213355974178E-13
 31
0.0
210
0.0
220
0.0
230
1.0
 40
0.636358354079598
 41
0.9219305317359503
 42
6.513795318482858
  0
ELLIPSE
  5
86
330
82
100
AcDbEntity
  8
중심선
100
AcDbEllipse
 10
20.54032771746488
 20
12.04717430159265
 30
0.0
 11
3.960054785062283
 21
1.540847449632565E-10
 31
0.0
210
0.0
220
0.0
230
1.0
 40
0.3939339440162632
 41
1.131841032648279
 42
5.62031148352944
  0
LINE
  5
87
330
82
100
AcDbEntity
  8
중심선
100
AcDbLine
 10
2.268634060543552
 20
16.24717430164393
 30
0.0
 11
5.714909304380834
 21
16.24717430164393
 31
0.0
  0
LINE
  5
88
330
82
100
AcDbEntity
  8
중심선
100
AcDbLine
 10
5.245725140726316
 20
7.84717430164391
 30
0.0
 11
8.692000384563599
 21
7.84717430164391
 31
0.0
  0
LINE
  5
89
330
82
100
AcDbEntity
  8
중심선
100
AcDbLine
 10
15.74043728645272
 20
16.24717430164393
 30
0.0
 11
8.692000384563599
 21
7.84717430164391
 31
0.0
  0
LINE
  5
8A
330
82
100
AcDbEntity
  8
중심선
100
AcDbLine
 10
0.1404042013395286
 20
13.71084872107135
 30
0.0
 11
3.58671253028996
 21
13.71088815037384
 31
0.0
  0
LINE
  5
8B
330
82
100
AcDbEntity
  8
중심선
100
AcDbLine
 10
2.750260043222114
 20
10.84717430164391
 30
0.0
 11
6.196535287059397
 21
10.84717430164391
 31
0.0
  0
LINE
  5
8C
330
82
100
AcDbEntity
  8
중심선
100
AcDbLine
 10
12.29416204261559
 20
16.24717430164393
 30
0.0
 11
5.245725140726316
 21
7.84717430164391
 31
0.0
  0
LINE
  5
8D
330
82
100
AcDbEntity
  8
중심선
100
AcDbLine
 10
10.72767329541681
 20
16.24717430164393
 30
0.0
 11
6.196535287059397
 21
10.84717430164391
 31
0.0
  0
LINE
  5
8E
330
82
100
AcDbEntity
  8
중심선
100
AcDbLine
 10
7.28139805157953
 20
16.24717430164393
 30
0.0
 11
2.750260043222114
 21
10.84717430164391
 31
0.0
  0
LINE
  5
8F
330
82
100
AcDbEntity
  8
중심선
100
AcDbLine
 10
5.714909304380834
 20
16.24717430164393
 30
0.0
 11
3.58671253028996
 21
13.71088815037384
 31
0.0
  0
LINE
  5
90
330
82
100
AcDbEntity
  8
중심선
100
AcDbLine
 10
2.268634060543552
 20
16.24717430164393
 30
0.0
 11
0.1404042013395286
 21
13.71084872107135
 31
0.0
  0
LINE
  5
91
330
82
100
AcDbEntity
  8
중심선
100
AcDbLine
 10
7.28139805157953
 20
16.24717430164393
 30
0.0
 11
10.72767329541681
 21
16.24717430164393
 31
0.0
  0
LINE
  5
92
330
82
100
AcDbEntity
  8
중심선
100
AcDbLine
 10
12.29416204261559
 20
16.24717430164393
 30
0.0
 11
15.74043728645272
 21
16.24717430164393
 31
0.0
  0
LINE
  5
93
330
82
100
AcDbEntity
  8
중심선
100
AcDbLine
 10
19.22036997980202
 20
11.08717430171403
 30
0.0
 11
23.66174974927406
 21
11.08717430171406
 31
0.0
  0
LINE
  5
94
330
82
100
AcDbEntity
  8
중심선
100
AcDbLine
 10
19.22039502424796
 20
13.00717430171391
 30
0.0
 11
19.22036997980202
 21
11.08717430171403
 31
0.0
  0
LINE
  5
95
330
82
100
AcDbEntity
  8
중심선
100
AcDbLine
 10
19.22039502424796
 20
13.00717430171391
 30
0.0
 11
26.96566020931264
 21
13.00717430171391
 31
0.0
  0
LINE
  5
96
330
82
100
AcDbEntity
  8
중심선
100
AcDbLine
 10
22.22332737316547
 20
13.45928029700563
 30
0.0
 11
24.52862924686651
 21
15.39360700705356
 31
0.0
  0
ATTDEF
  5
98
330
82
100
AcDbEntity
  8
FORMAT
 62
     2
100
AcDbText
 10
-17.69892196172445
 20
2.075366912832191
 30
0.0
 40
4.233333333333333
  1
SEME72250120E [ 4 FLUTE ]
 41
0.75
  7
SLDTEXTSTYLE0
 11
-17.69892196172445
 21
-0.0412997538344756
 31
0.0
100
AcDbAttributeDefinition
  3

  2
AUTOATTR0
 70
     0
 74
     1
  0
ENDBLK
  5
84
330
82
100
AcDbEntity
  8
0
100
AcDbBlockEnd
  0
BLOCK
  5
E1
330
E0
100
AcDbEntity
  8
0
100
AcDbBlockBegin
  2
_D
 70
     0
 10
0.0
 20
0.0
 30
0.0
  3
_D
  1

  0
LINE
  5
E3
330
E0
100
AcDbEntity
  8
치수문자_일반주서
 62
     0
370
    -2
100
AcDbLine
 10
132.0625
 20
-12.50000000000002
 30
0.0
 11
146.3202850895713
 21
-12.49999999999996
 31
0.0
  0
LINE
  5
E4
330
E0
100
AcDbEntity
  8
치수문자_일반주서
 62
     0
370
    -2
100
AcDbLine
 10
132.0625
 20
12.49999999999999
 30
0.0
 11
146.3202850895713
 21
12.50000000000004
 31
0.0
  0
LINE
  5
E5
330
E0
100
AcDbEntity
  8
치수문자_일반주서
 62
     0
370
    -2
100
AcDbLine
 10
146.3202850895713
 20
-12.49999999999996
 30
0.0
 11
146.3202850895712
 21
27.85400000000004
 31
0.0
  0
LINE
  5
E6
330
E0
100
AcDbEntity
  8
치수문자_일반주서
 62
     0
370
    -2
100
AcDbLine
 10
146.3202850895713
 20
-12.49999999999996
 30
0.0
 11
146.3202850895713
 21
12.50000000000004
 31
0.0
  0
LINE
  5
E7
330
E0
100
AcDbEntity
  8
치수문자_일반주서
 62
     0
370
    -2
100
AcDbLine
 10
146.3202850895713
 20
-15.80199999999996
 30
0.0
 11
146.3202850895713
 21
-19.10399999999996
 31
0.0
  0
LINE
  5
E8
330
E0
100
AcDbEntity
  8
치수문자_일반주서
 62
     0
370
    -2
100
AcDbLine
 10
146.3202850895713
 20
15.80200000000004
 30
0.0
 11
146.3202850895713
 21
19.10400000000004
 31
0.0
  0
SOLID
  5
E9
330
E0
100
AcDbEntity
  8
치수문자_일반주서
 62
     0
100
AcDbTrace
 10
146.8706184229047
 20
-15.80199999999996
 30
0.0
 11
145.769951756238
 21
-15.80199999999997
 31
0.0
 12
146.3202850895713
 22
-12.49999999999996
 32
0.0
 13
146.3202850895713
 23
-12.49999999999996
 33
0.0
  0
SOLID
  5
137
330
E0
100
AcDbEntity
  8
치수문자_일반주서
 62
     0
100
AcDbTrace
 10
145.7699517562379
 20
15.80200000000004
 30
0.0
 11
146.8706184229046
 21
15.80200000000005
 31
0.0
 12
146.3202850895713
 22
12.50000000000004
 32
0.0
 13
146.3202850895713
 23
12.50000000000004
 33
0.0
  0
MTEXT
  5
138
330
E0
100
AcDbEntity
  8
치수문자_일반주서
 62
     0
100
AcDbMText
 10
141.9452850895712
 20
23.47900000000002
 30
0.0
 40
3.5
 41
0.0
 71
     2
 72
     1
  1
\A1;%%c25
  7
SLDTEXTSTYLE0
 11
-3.410605131648480E-15
 21
1.0
 31
0.0
 73
     1
 44
1.0
  0
POINT
  5
144
330
E0
100
AcDbEntity
  8
Defpoints
 62
     0
100
AcDbPoint
 10
132.0
 20
-12.50000000000002
 30
0.0
  0
POINT
  5
145
330
E0
100
AcDbEntity
  8
Defpoints
 62
     0
100
AcDbPoint
 10
132.0
 20
12.49999999999999
 30
0.0
  0
POINT
  5
146
330
E0
100
AcDbEntity
  8
Defpoints
 62
     0
100
AcDbPoint
 10
146.3202850895713
 20
12.50000000000004
 30
0.0
  0
ENDBLK
  5
E2
330
E0
100
AcDbEntity
  8
0
100
AcDbBlockEnd
  0
BLOCK
  5
ED
330
EC
100
AcDbEntity
  8
0
100
AcDbBlockBegin
  2
_D_1
 70
     0
 10
0.0
 20
0.0
 30
0.0
  3
_D_1
  1

  0
LINE
  5
EF
330
EC
100
AcDbEntity
  8
치수문자_일반주서
 62
     0
370
    -2
100
AcDbLine
 10
-118.0
 20
12.06249999999997
 30
0.0
 11
-118.0
 21
29.88913260158162
 31
0.0
  0
LINE
  5
F0
330
EC
100
AcDbEntity
  8
치수문자_일반주서
 62
     0
370
    -2
100
AcDbLine
 10
132.0
 20
12.56250000000001
 30
0.0
 11
132.0
 21
29.88913260158162
 31
0.0
  0
LINE
  5
F1
330
EC
100
AcDbEntity
  8
치수문자_일반주서
 62
     0
370
    -2
100
AcDbLine
 10
-114.698
 20
29.88913260158162
 30
0.0
 11
128.698
 21
29.88913260158162
 31
0.0
  0
SOLID
  5
F2
330
EC
100
AcDbEntity
  8
치수문자_일반주서
 62
     0
100
AcDbTrace
 10
-114.698
 20
30.43946593491495
 30
0.0
 11
-114.698
 21
29.33879926824828
 31
0.0
 12
-118.0
 22
29.88913260158162
 32
0.0
 13
-118.0
 23
29.88913260158162
 33
0.0
  0
SOLID
  5
F3
330
EC
100
AcDbEntity
  8
치수문자_일반주서
 62
     0
100
AcDbTrace
 10
128.698
 20
29.33879926824828
 30
0.0
 11
128.698
 21
30.43946593491495
 31
0.0
 12
132.0
 22
29.88913260158162
 32
0.0
 13
132.0
 23
29.88913260158162
 33
0.0
  0
MTEXT
  5
F4
330
EC
100
AcDbEntity
  8
치수문자_일반주서
 62
     0
100
AcDbMText
 10
6.999999999999992
 20
34.26413260158162
 30
0.0
 40
3.5
 41
0.0
 71
     2
 72
     1
  1
\A1;250
  7
SLDTEXTSTYLE0
 73
     1
 44
1.0
  0
POINT
  5
139
330
EC
100
AcDbEntity
  8
Defpoints
 62
     0
100
AcDbPoint
 10
-118.0
 20
11.99999999999997
 30
0.0
  0
POINT
  5
13A
330
EC
100
AcDbEntity
  8
Defpoints
 62
     0
100
AcDbPoint
 10
132.0
 20
12.50000000000001
 30
0.0
  0
POINT
  5
13B
330
EC
100
AcDbEntity
  8
Defpoints
 62
     0
100
AcDbPoint
 10
132.0
 20
29.88913260158162
 30
0.0
  0
ENDBLK
  5
EE
330
EC
100
AcDbEntity
  8
0
100
AcDbBlockEnd
  0
BLOCK
  5
F8
330
F7
100
AcDbEntity
  8
0
100
AcDbBlockBegin
  2
_D_2
 70
     0
 10
0.0
 20
0.0
 30
0.0
  3
_D_2
  1

  0
LINE
  5
FA
330
F7
100
AcDbEntity
  8
치수문자_일반주서
 62
     0
370
    -2
100
AcDbLine
 10
-117.5625
 20
12.49999999999997
 30
0.0
 11
-131.4835549209805
 21
12.49999999999992
 31
0.0
  0
LINE
  5
FB
330
F7
100
AcDbEntity
  8
치수문자_일반주서
 62
     0
370
    -2
100
AcDbLine
 10
-117.5625
 20
-12.50000000000002
 30
0.0
 11
-131.4835549209804
 21
-12.50000000000008
 31
0.0
  0
LINE
  5
FC
330
F7
100
AcDbEntity
  8
치수문자_일반주서
 62
     0
370
    -2
100
AcDbLine
 10
-131.4835549209805
 20
12.49999999999992
 30
0.0
 11
-131.4835549209805
 21
30.99899147299448
 31
0.0
  0
LINE
  5
FD
330
F7
100
AcDbEntity
  8
치수문자_일반주서
 62
     0
370
    -2
100
AcDbLine
 10
-131.4835549209805
 20
12.49999999999992
 30
0.0
 11
-131.4835549209804
 21
-12.50000000000008
 31
0.0
  0
LINE
  5
FE
330
F7
100
AcDbEntity
  8
치수문자_일반주서
 62
     0
370
    -2
100
AcDbLine
 10
-131.4835549209805
 20
15.80199999999992
 30
0.0
 11
-131.4835549209805
 21
19.10399999999992
 31
0.0
  0
LINE
  5
FF
330
F7
100
AcDbEntity
  8
치수문자_일반주서
 62
     0
370
    -2
100
AcDbLine
 10
-131.4835549209804
 20
-15.80200000000008
 30
0.0
 11
-131.4835549209804
 21
-19.10400000000008
 31
0.0
  0
SOLID
  5
100
330
F7
100
AcDbEntity
  8
치수문자_일반주서
 62
     0
100
AcDbTrace
 10
-132.0338882543138
 20
15.80199999999992
 30
0.0
 11
-130.9332215876471
 21
15.80199999999992
 31
0.0
 12
-131.4835549209805
 22
12.49999999999992
 32
0.0
 13
-131.4835549209805
 23
12.49999999999992
 33
0.0
  0
SOLID
  5
13C
330
F7
100
AcDbEntity
  8
치수문자_일반주서
 62
     0
100
AcDbTrace
 10
-130.933221587647
 20
-15.80200000000008
 30
0.0
 11
-132.0338882543137
 21
-15.80200000000008
 31
0.0
 12
-131.4835549209804
 22
-12.50000000000008
 32
0.0
 13
-131.4835549209804
 23
-12.50000000000008
 33
0.0
  0
MTEXT
  5
13D
330
F7
100
AcDbEntity
  8
치수문자_일반주서
 62
     0
100
AcDbMText
 10
-135.8585549209805
 20
26.62399147299447
 30
0.0
 40
3.5
 41
0.0
 71
     2
 72
     1
  1
\A1;%%c25
  7
SLDTEXTSTYLE0
 11
-3.410605131648482E-15
 21
1.0
 31
0.0
 73
     1
 44
1.0
  0
POINT
  5
141
330
F7
100
AcDbEntity
  8
Defpoints
 62
     0
100
AcDbPoint
 10
-117.5
 20
12.49999999999997
 30
0.0
  0
POINT
  5
142
330
F7
100
AcDbEntity
  8
Defpoints
 62
     0
100
AcDbPoint
 10
-117.5
 20
-12.50000000000002
 30
0.0
  0
POINT
  5
143
330
F7
100
AcDbEntity
  8
Defpoints
 62
     0
100
AcDbPoint
 10
-131.4835549209804
 20
-12.50000000000007
 30
0.0
  0
ENDBLK
  5
F9
330
F7
100
AcDbEntity
  8
0
100
AcDbBlockEnd
  0
BLOCK
  5
103
330
102
100
AcDbEntity
  8
0
100
AcDbBlockBegin
  2
_D_3
 70
     0
 10
0.0
 20
0.0
 30
0.0
  3
_D_3
  1

  0
LINE
  5
105
330
102
100
AcDbEntity
  8
치수문자_일반주서
 62
     0
370
    -2
100
AcDbLine
 10
11.99999999999999
 20
10.92698057425703
 30
0.0
 11
12.0
 21
21.71039887684468
 31
0.0
  0
LINE
  5
106
330
102
100
AcDbEntity
  8
치수문자_일반주서
 62
     0
370
    -2
100
AcDbLine
 10
132.0
 20
12.56250000000001
 30
0.0
 11
132.0
 21
21.71039887684468
 31
0.0
  0
LINE
  5
107
330
102
100
AcDbEntity
  8
치수문자_일반주서
 62
     0
370
    -2
100
AcDbLine
 10
15.302
 20
21.71039887684468
 30
0.0
 11
128.698
 21
21.71039887684468
 31
0.0
  0
SOLID
  5
108
330
102
100
AcDbEntity
  8
치수문자_일반주서
 62
     0
100
AcDbTrace
 10
15.302
 20
22.26073221017801
 30
0.0
 11
15.302
 21
21.16006554351134
 31
0.0
 12
12.0
 22
21.71039887684468
 32
0.0
 13
12.0
 23
21.71039887684468
 33
0.0
  0
SOLID
  5
109
330
102
100
AcDbEntity
  8
치수문자_일반주서
 62
     0
100
AcDbTrace
 10
128.698
 20
21.16006554351134
 30
0.0
 11
128.698
 21
22.26073221017801
 31
0.0
 12
132.0
 22
21.71039887684468
 32
0.0
 13
132.0
 23
21.71039887684468
 33
0.0
  0
MTEXT
  5
10A
330
102
100
AcDbEntity
  8
치수문자_일반주서
 62
     0
100
AcDbMText
 10
72.0
 20
26.08539887684468
 30
0.0
 40
3.5
 41
0.0
 71
     2
 72
     1
  1
\A1;120
  7
SLDTEXTSTYLE0
 73
     1
 44
1.0
  0
POINT
  5
13E
330
102
100
AcDbEntity
  8
Defpoints
 62
     0
100
AcDbPoint
 10
11.99999999999999
 20
10.86448057425703
 30
0.0
  0
POINT
  5
13F
330
102
100
AcDbEntity
  8
Defpoints
 62
     0
100
AcDbPoint
 10
132.0
 20
12.50000000000001
 30
0.0
  0
POINT
  5
140
330
102
100
AcDbEntity
  8
Defpoints
 62
     0
100
AcDbPoint
 10
132.0
 20
21.71039887684468
 30
0.0
  0
ENDBLK
  5
104
330
102
100
AcDbEntity
  8
0
100
AcDbBlockEnd
  0
BLOCK
  5
10C
330
10B
100
AcDbEntity
  8
0
100
AcDbBlockBegin
  2
SW_DOWELSYMBOL_0
 70
     0
 10
0.0
 20
0.0
 30
0.0
  3
SW_DOWELSYMBOL_0
  1

  0
CIRCLE
  5
10E
330
10B
100
AcDbEntity
  8
해칭선
 62
     0
100
AcDbCircle
 10
0.0
 20
0.0
 30
0.0
 40
3.0
  0
HATCH
  5
10F
330
10B
100
AcDbEntity
  8
0
  6
Continuous
 62
     0
370
    18
100
AcDbHatch
 10
0.0
 20
0.0
 30
0.0
210
0.0
220
0.0
230
1.0
  2
SOLID
 70
     1
 71
     0
 91
        1
 92
        0
 93
        3
 72
     2
 10
0.0
 20
0.0
 40
3.0
 50
0.0
 51
90.0
 73
     1
 72
     1
 10
0.0
 20
3.0
 11
0.0
 21
0.0
 72
     1
 10
0.0
 20
0.0
 11
3.0
 21
0.0
 97
        0
 75
     0
 76
     1
 98
        1
 10
0.0
 20
0.0
  0
HATCH
  5
110
330
10B
100
AcDbEntity
  8
0
  6
Continuous
 62
     0
370
    18
100
AcDbHatch
 10
0.0
 20
0.0
 30
0.0
210
0.0
220
0.0
230
1.0
  2
SOLID
 70
     1
 71
     0
 91
        1
 92
        0
 93
        3
 72
     2
 10
0.0
 20
0.0
 40
3.0
 50
180.0
 51
270.0000000000008
 73
     1
 72
     1
 10
0.0
 20
-3.0
 11
0.0
 21
0.0
 72
     1
 10
0.0
 20
0.0
 11
-3.0
 21
0.0
 97
        0
 75
     0
 76
     1
 98
        1
 10
0.0
 20
0.0
  0
ENDBLK
  5
10D
330
10B
100
AcDbEntity
  8
0
100
AcDbBlockEnd
  0
ENDSEC
  0
SECTION
  2
ENTITIES
  0
LINE
  5
99
330
1F
100
AcDbEntity
  8
0
  6
Continuous
 62
     4
370
    25
100
AcDbLine
 10
10.49990663443891
 20
12.49999999999999
 30
0.0
 11
-117.5
 21
12.49999999999998
 31
0.0
  0
LINE
  5
9A
330
1F
100
AcDbEntity
  8
0
  6
Continuous
 62
     4
370
    25
100
AcDbLine
 10
-117.5
 20
-12.50000000000002
 30
0.0
 11
10.49990663443891
 21
-12.50000000000001
 31
0.0
  0
LINE
  5
9B
330
1F
100
AcDbEntity
  8
0
  6
Continuous
 62
     4
370
    25
100
AcDbLine
 10
-117.5
 20
12.49999999999998
 30
0.0
 11
-118.0
 21
11.99999999999997
 31
0.0
  0
LINE
  5
9C
330
1F
100
AcDbEntity
  8
0
  6
Continuous
 62
     4
370
    25
100
AcDbLine
 10
-118.0
 20
-12.00000000000001
 30
0.0
 11
-117.5
 21
-12.50000000000001
 31
0.0
  0
LINE
  5
9D
330
1F
100
AcDbEntity
  8
0
  6
Continuous
 62
     1
370
    25
100
AcDbLine
 10
93.15489975290441
 20
-12.50000000000002
 30
0.0
 11
102.8254111553703
 21
-12.50000000000002
 31
0.0
  0
LINE
  5
9E
330
1F
100
AcDbEntity
  8
0
  6
Continuous
 62
     1
370
    25
100
AcDbLine
 10
34.81042261660246
 20
12.5
 30
0.0
 11
25.14021692720439
 21
12.5
 31
0.0
  0
LINE
  5
9F
330
1F
100
AcDbEntity
  8
0
  6
Continuous
 62
     1
370
    25
100
AcDbLine
 10
25.1402169272044
 20
-12.50000000000002
 30
0.0
 11
34.81042261660244
 21
-12.50000000000002
 31
0.0
  0
LINE
  5
A0
330
1F
100
AcDbEntity
  8
0
  6
Continuous
 62
     1
370
    25
100
AcDbLine
 10
102.8254111553704
 20
12.5
 30
0.0
 11
93.15489975290464
 21
12.5
 31
0.0
  0
LINE
  5
A1
330
1F
100
AcDbEntity
  8
0
  6
Continuous
 62
     1
370
    25
100
AcDbLine
 10
96.47838733454009
 20
-1.906777564494168
 30
0.0
 11
96.25934545248776
 21
-1.785625489348956
 31
0.0
  0
LINE
  5
A2
330
1F
100
AcDbEntity
  8
0
  6
Continuous
 62
     1
370
    25
100
AcDbLine
 10
65.20861157639968
 20
2.063671741521506
 30
0.0
 11
65.71419625249362
 21
1.785654996695906
 31
0.0
  0
LINE
  5
A3
330
1F
100
AcDbEntity
  8
0
  6
Continuous
 62
     1
370
    25
100
AcDbLine
 10
127.1630769897058
 20
-12.50000000000002
 30
0.0
 11
132.0
 21
-12.50000000000002
 31
0.0
  0
LINE
  5
A4
330
1F
100
AcDbEntity
  8
0
  6
Continuous
 62
     1
370
    25
100
AcDbLine
 10
68.81762527612884
 20
12.5
 30
0.0
 11
59.14568350247145
 21
12.5
 31
0.0
  0
LINE
  5
A5
330
1F
100
AcDbEntity
  8
0
  6
Continuous
 62
     1
370
    25
100
AcDbLine
 10
28.69205067243221
 20
-2.029283326187453
 30
0.0
 11
28.24212394896715
 21
-1.785771307118484
 31
0.0
  0
LINE
  5
A6
330
1F
100
AcDbEntity
  8
0
  6
Continuous
 62
     1
370
    25
100
AcDbLine
 10
131.9003271206173
 20
2.826165489188392
 30
0.0
 11
132.0
 21
2.777604560990552
 31
0.0
  0
LINE
  5
A7
330
1F
100
AcDbEntity
  8
0
  6
Continuous
 62
     1
370
    25
100
AcDbLine
 10
59.14568350247153
 20
-12.50000000000002
 30
0.0
 11
68.81762527612855
 21
-12.50000000000002
 31
0.0
  0
LINE
  5
A8
330
1F
100
AcDbEntity
  8
0
  6
Continuous
 62
     1
370
    25
100
AcDbLine
 10
132.0
 20
12.5
 30
0.0
 11
127.1630769897058
 21
12.5
 31
0.0
  0
SPLINE
  5
A9
330
1F
100
AcDbEntity
  8
0
  6
Continuous
 62
     4
370
    25
100
AcDbSpline
210
0.0
220
0.0
230
1.0
 70
     8
 71
     3
 72
    14
 73
    10
 74
     0
 42
0.000000001
 43
0.00000001
 40
0.0
 40
0.0
 40
0.0
 40
0.0
 40
0.25
 40
0.25
 40
0.5
 40
0.5
 40
0.75
 40
0.75
 40
1.0
 40
1.0
 40
1.0
 40
1.0
 10
11.7605264669098
 20
10.93211556756315
 30
0.0
 10
11.56315614217718
 20
10.98731374050047
 30
0.0
 10
11.38579985711803
 20
11.05291007630097
 30
0.0
 10
11.06994121087672
 20
11.20005564350924
 30
0.0
 10
10.93388151430622
 20
11.28101095534314
 30
0.0
 10
10.7169898022904
 20
11.44514858910432
 30
0.0
 10
10.63399142236097
 20
11.53015957908668
 30
0.0
 10
10.52629531546521
 20
11.69189429220633
 30
0.0
 10
10.49990663443891
 20
11.77027079607541
 30
0.0
 10
10.49990663443891
 20
11.84308398165681
 30
0.0
  0
SPLINE
  5
AA
330
1F
100
AcDbEntity
  8
0
  6
Continuous
 62
     4
370
    25
100
AcDbSpline
210
0.0
220
0.0
230
1.0
 70
     8
 71
     3
 72
     8
 73
     4
 74
     0
 42
0.000000001
 43
0.00000001
 40
0.0
 40
0.0
 40
0.0
 40
0.0
 40
1.0
 40
1.0
 40
1.0
 40
1.0
 10
11.99999999999999
 20
10.86448057425703
 30
0.0
 10
11.92017078064263
 20
10.88724752577519
 30
0.0
 10
11.84034383373781
 20
10.90979320059364
 30
0.0
 10
11.7605264669098
 20
10.93211556756315
 30
0.0
  0
LINE
  5
AB
330
1F
100
AcDbEntity
  8
0
  6
Continuous
 62
     4
370
    25
100
AcDbLine
 10
11.99999999999999
 20
10.86448057425703
 30
0.0
 11
11.99999999999999
 21
6.135938986792199
 31
0.0
  0
SPLINE
  5
AC
330
1F
100
AcDbEntity
  8
0
  6
Continuous
 62
     4
370
    25
100
AcDbSpline
210
0.0
220
0.0
230
1.0
 70
     8
 71
     3
 72
    16
 73
    12
 74
     0
 42
0.000000001
 43
0.00000001
 40
0.0
 40
0.0
 40
0.0
 40
0.0
 40
0.2500000000000005
 40
0.2500000000000005
 40
0.3750000000000004
 40
0.3750000000000004
 40
0.5000000000000003
 40
0.5000000000000003
 40
0.7500000000000001
 40
0.7500000000000001
 40
1.0
 40
1.0
 40
1.0
 40
1.0
 10
10.49990663443891
 20
3.965108112437273
 30
0.0
 10
10.49990663443891
 20
4.202363827126269
 30
0.0
 10
10.53108076123913
 20
4.432265752391071
 30
0.0
 10
10.62905976225059
 20
4.76590740648367
 30
0.0
 10
10.67065802854509
 20
4.875534344695855
 30
0.0
 10
10.76915221099205
 20
5.083806322434323
 30
0.0
 10
10.82624462081438
 20
5.183387491425227
 30
0.0
 10
11.021428762554
 20
5.468700925440225
 30
0.0
 10
11.18543504335943
 20
5.641609652971863
 30
0.0
 10
11.55775360854701
 20
5.929083659505209
 30
0.0
 10
11.77068710833955
 20
6.047995625078415
 30
0.0
 10
11.99999999999999
 20
6.1359389867922
 30
0.0
  0
SPLINE
  5
AD
330
1F
100
AcDbEntity
  8
0
  6
Continuous
 62
     4
370
    25
100
AcDbSpline
210
0.0
220
0.0
230
1.0
 70
     8
 71
     3
 72
    14
 73
    10
 74
     0
 42
0.000000001
 43
0.00000001
 40
0.0
 40
0.0
 40
0.0
 40
0.0
 40
0.25
 40
0.25
 40
0.5
 40
0.5
 40
0.75
 40
0.75
 40
1.0
 40
1.0
 40
1.0
 40
1.0
 10
11.7605264669098
 20
-6.061258055671441
 30
0.0
 10
11.56315614217719
 20
-5.961702352857497
 30
0.0
 10
11.38579985711803
 20
-5.840311777250538
 30
0.0
 10
11.06994121087672
 20
-5.552910623500393
 30
0.0
 10
10.93388151430623
 20
-5.3877251075773
 30
0.0
 10
10.7169898022904
 20
-5.029648475064073
 30
0.0
 10
10.63399142236097
 20
-4.832503694062511
 30
0.0
 10
10.52629531546521
 20
-4.426881490643876
 30
0.0
 10
10.49990663443891
 20
-4.214561466482979
 30
0.0
 10
10.49990663443891
 20
-3.998920079649338
 30
0.0
  0
SPLINE
  5
AE
330
1F
100
AcDbEntity
  8
0
  6
Continuous
 62
     4
370
    25
100
AcDbSpline
210
0.0
220
0.0
230
1.0
 70
     8
 71
     3
 72
     8
 73
     4
 74
     0
 42
0.000000001
 43
0.00000001
 40
0.0
 40
0.0
 40
0.0
 40
0.0
 40
1.0
 40
1.0
 40
1.0
 40
1.0
 10
11.99999999999999
 20
-6.181671444810881
 30
0.0
 10
11.92017078064263
 20
-6.141657816666385
 30
0.0
 10
11.84034383373781
 20
-6.101518789204134
 30
0.0
 10
11.7605264669098
 20
-6.06125805567144
 30
0.0
  0
LINE
  5
AF
330
1F
100
AcDbEntity
  8
0
  6
Continuous
 62
     4
370
    25
100
AcDbLine
 10
11.99999999999999
 20
-6.181671444810881
 30
0.0
 11
11.99999999999999
 21
-10.89037431635682
 31
0.0
  0
SPLINE
  5
B0
330
1F
100
AcDbEntity
  8
0
  6
Continuous
 62
     4
370
    25
100
AcDbSpline
210
0.0
220
0.0
230
1.0
 70
     8
 71
     3
 72
    16
 73
    12
 74
     0
 42
0.000000001
 43
0.00000001
 40
0.0
 40
0.0
 40
0.0
 40
0.0
 40
0.2500000000000013
 40
0.2500000000000013
 40
0.3750000000000015
 40
0.3750000000000015
 40
0.5000000000000018
 40
0.5000000000000018
 40
0.7500000000000009
 40
0.7500000000000009
 40
1.0
 40
1.0
 40
1.0
 40
1.0
 10
10.49990663443891
 20
-11.85444716790642
 30
0.0
 10
10.49990663443892
 20
-11.77508922352397
 30
0.0
 10
10.53108076123914
 20
-11.69027198461116
 30
0.0
 10
10.62905976225059
 20
-11.55640455705517
 30
0.0
 10
10.67065802854508
 20
-11.51051931124738
 30
0.0
 10
10.76915221099204
 20
-11.42006143752671
 30
0.0
 10
10.82624462081439
 20
-11.37512645549485
 30
0.0
 10
11.021428762554
 20
-11.24221247117919
 30
0.0
 10
11.18543504335944
 20
-11.15565026943595
 30
0.0
 10
11.55775360854701
 20
-11.00555584098595
 30
0.0
 10
11.77068710833955
 20
-10.93992404587885
 30
0.0
 10
11.99999999999999
 20
-10.89037431635681
 30
0.0
  0
LINE
  5
B1
330
1F
100
AcDbEntity
  8
0
  6
Continuous
 62
     4
370
    25
100
AcDbLine
 10
10.49990663443891
 20
-11.85444716790642
 30
0.0
 11
10.49990663443891
 21
-12.50000000000001
 31
0.0
  0
SPLINE
  5
B2
330
1F
100
AcDbEntity
  8
0
  6
Continuous
 62
     4
370
    25
100
AcDbSpline
210
0.0
220
0.0
230
1.0
 70
     8
 71
     3
 72
    16
 73
    12
 74
     0
 42
0.000000001
 43
0.00000001
 40
0.0
 40
0.0
 40
0.0
 40
0.0
 40
0.2499999999999996
 40
0.2499999999999996
 40
0.3749999999999997
 40
0.3749999999999997
 40
0.4999999999999998
 40
0.4999999999999998
 40
0.7499999999999999
 40
0.7499999999999999
 40
1.0
 40
1.0
 40
1.0
 40
1.0
 10
10.49990663443891
 20
11.85444716790643
 30
0.0
 10
10.49990663443891
 20
11.77508922352398
 30
0.0
 10
10.53108076123914
 20
11.69027198461117
 30
0.0
 10
10.62905976225059
 20
11.55640455705518
 30
0.0
 10
10.67065802854509
 20
11.5105193112474
 30
0.0
 10
10.76915221099205
 20
11.42006143752673
 30
0.0
 10
10.82624462081438
 20
11.37512645549486
 30
0.0
 10
11.021428762554
 20
11.24221247117921
 30
0.0
 10
11.18543504335944
 20
11.15565026943596
 30
0.0
 10
11.55775360854701
 20
11.00555584098597
 30
0.0
 10
11.77068710833955
 20
10.93992404587886
 30
0.0
 10
11.99999999999999
 20
10.89037431635683
 30
0.0
  0
LINE
  5
B3
330
1F
100
AcDbEntity
  8
0
  6
Continuous
 62
     4
370
    25
100
AcDbLine
 10
10.49990663443891
 20
12.49999999999999
 30
0.0
 11
10.49990663443891
 21
11.84308398165681
 31
0.0
  0
LINE
  5
B4
330
1F
100
AcDbEntity
  8
0
  6
Continuous
 62
     4
370
    25
100
AcDbLine
 10
-117.5
 20
12.49999999999998
 30
0.0
 11
-117.5
 21
-12.50000000000001
 31
0.0
  0
LINE
  5
B5
330
1F
100
AcDbEntity
  8
0
  6
Continuous
 62
     4
370
    25
100
AcDbLine
 10
10.49990663443891
 20
3.965108112437273
 30
0.0
 11
10.49990663443891
 21
-3.998920079649339
 31
0.0
  0
LINE
  5
B6
330
1F
100
AcDbEntity
  8
0
  6
Continuous
 62
     4
370
    25
100
AcDbLine
 10
-118.0
 20
11.99999999999997
 30
0.0
 11
-118.0
 21
-12.00000000000002
 31
0.0
  0
SPLINE
  5
B7
330
1F
100
AcDbEntity
  8
0
  6
Continuous
 62
     4
370
    25
100
AcDbSpline
210
0.0
220
0.0
230
1.0
 70
    24
 71
     3
 72
    28
 73
    24
 74
     0
 42
0.000000001
 43
0.00000001
 40
0.0
 40
0.0
 40
0.0
 40
0.0
 40
0.1250000000000001
 40
0.1250000000000001
 40
0.1875
 40
0.1875
 40
0.25
 40
0.25
 40
0.3749999999999999
 40
0.3749999999999999
 40
0.4999999999999999
 40
0.4999999999999999
 40
0.6249999999999999
 40
0.6249999999999999
 40
0.6874999999999999
 40
0.6874999999999999
 40
0.7499999999999999
 40
0.7499999999999999
 40
0.8125
 40
0.8125
 40
0.875
 40
0.875
 40
1.0
 40
1.0
 40
1.0
 40
1.0
 10
11.99999999999999
 20
6.135938986792199
 30
0.0
 10
11.99999999999999
 20
5.82754822893578
 30
0.0
 10
11.99999999999999
 20
5.486591983253229
 30
0.0
 10
11.99999999999999
 20
4.926210984970441
 30
0.0
 10
11.99999999999999
 20
4.731206931298554
 30
0.0
 10
11.99999999999999
 20
4.32406441229606
 30
0.0
 10
11.99999999999999
 20
4.111873903337706
 30
0.0
 10
11.99999999999999
 20
3.462781723611526
 30
0.0
 10
11.99999999999999
 20
3.009150656517437
 30
0.0
 10
11.99999999999999
 20
2.058654394907268
 30
0.0
 10
11.99999999999999
 20
1.556671886375912
 30
0.0
 10
11.99999999999999
 20
0.5535831702044565
 30
0.0
 10
11.99999999999999
 20
0.0480118167457553
 30
0.0
 10
11.99999999999999
 20
-0.7165472611214644
 30
0.0
 10
11.99999999999999
 20
-0.9728821364993584
 30
0.0
 10
11.99999999999999
 20
-1.475371405341851
 30
0.0
 10
11.99999999999999
 20
-1.723077072877419
 30
0.0
 10
11.99999999999999
 20
-2.211619748262791
 30
0.0
 10
11.99999999999999
 20
-2.452456486904178
 30
0.0
 10
11.99999999999999
 20
-2.927279896892359
 30
0.0
 10
11.99999999999999
 20
-3.16229097730585
 30
0.0
 10
11.99999999999999
 20
-3.845995019804267
 30
0.0
 10
11.99999999999999
 20
-4.275389625103101
 30
0.0
 10
11.99999999999999
 20
-4.67922856545136
 30
0.0
  0
SPLINE
  5
B8
330
1F
100
AcDbEntity
  8
0
  6
Continuous
 62
     4
370
    25
100
AcDbSpline
210
0.0
220
0.0
230
1.0
 70
    24
 71
     3
 72
    10
 73
     6
 74
     0
 42
0.000000001
 43
0.00000001
 40
0.0
 40
0.0
 40
0.0
 40
0.0
 40
0.5
 40
0.5
 40
1.0
 40
1.0
 40
1.0
 40
1.0
 10
11.99999999999999
 20
-4.67922856545138
 30
0.0
 10
11.99999999999999
 20
-4.95770745894263
 30
0.0
 10
11.99999999999999
 20
-5.224248004954894
 30
0.0
 10
11.99999999999999
 20
-5.727010483870418
 30
0.0
 10
11.99999999999999
 20
-5.963217367977539
 30
0.0
 10
11.99999999999999
 20
-6.18167144481088
 30
0.0
  0
SPLINE
  5
B9
330
1F
100
AcDbEntity
  8
0
  6
Continuous
 62
     1
370
    25
100
AcDbSpline
210
0.0
220
0.0
230
1.0
 70
     8
 71
     3
 72
    26
 73
    22
 74
     0
 42
0.000000001
 43
0.00000001
 40
0.0
 40
0.0
 40
0.0
 40
0.0
 40
0.0478923147136254
 40
0.1078852304407555
 40
0.1679144973810906
 40
0.2279415453958855
 40
0.2879348656783691
 40
0.3479666241865292
 40
0.4020955125862912
 40
0.4562067115112868
 40
0.5103108495054745
 40
0.5644361431159819
 40
0.6185687461963633
 40
0.6726940615792233
 40
0.726798228377411
 40
0.7809093900553398
 40
0.8350382629004321
 40
0.8891702721297585
 40
0.9432908241404098
 40
0.9973916701704195
 40
1.0
 40
1.0
 40
1.0
 40
1.0
 10
12.97332184732232
 20
10.53485488951684
 30
0.0
 10
14.25353536691042
 20
10.91381754034751
 30
0.0
 10
17.13742459632029
 20
11.76749256436289
 30
0.0
 10
21.62484586738532
 20
12.42796865785506
 30
0.0
 10
26.43778363096123
 20
12.58328882397579
 30
0.0
 10
31.25066702290146
 20
12.1040186078865
 30
0.0
 10
36.06244197236493
 20
11.03263134202369
 30
0.0
 10
40.71806576959111
 20
9.470924759441992
 30
0.0
 10
45.21535738993839
 20
7.550722226631653
 30
0.0
 10
49.55412016814072
 20
5.395375385874118
 30
0.0
 10
53.8925013855013
 20
3.023712600429844
 30
0.0
 10
58.23202303629018
 20
0.5315746558753035
 30
0.0
 10
62.57215654282668
 20
-1.98204781112943
 30
0.0
 10
66.91167611733164
 20
-4.416182310562484
 30
0.0
 10
71.25007349043298
 20
-6.673786877655922
 30
0.0
 10
75.58877861673608
 20
-8.664981719153234
 30
0.0
 10
79.92859881946032
 20
-10.30508606801011
 30
0.0
 10
84.2686761654179
 20
-11.54790566442246
 30
0.0
 10
88.60791024530917
 20
-12.27169046757219
 30
0.0
 10
91.56956756973796
 20
-12.57493455888043
 30
0.0
 10
93.08518897907629
 20
-12.49231646828659
 30
0.0
 10
93.15489975290444
 20
-12.48851646190504
 30
0.0
  0
SPLINE
  5
BA
330
1F
100
AcDbEntity
  8
0
  6
Continuous
 62
     1
370
    25
100
AcDbSpline
210
0.0
220
0.0
230
1.0
 70
     8
 71
     3
 72
    27
 73
    23
 74
     0
 42
0.000000001
 43
0.00000001
 40
0.0
 40
0.0
 40
0.0
 40
0.0
 40
0.0048318411759301
 40
0.0589071749896014
 40
0.1129951578929892
 40
0.1670987542301123
 40
0.2212033882981052
 40
0.2752944781668657
 40
0.3293687132464023
 40
0.3834626446136663
 40
0.4375680275640656
 40
0.4916702756729451
 40
0.5457548213263727
 40
0.5998323755406786
 40
0.6539310679371586
 40
0.708037044446511
 40
0.7621357150813483
 40
0.8162132405058219
 40
0.8702978233879957
 40
0.9244000870438944
 40
0.9844023173233912
 40
1.0
 40
1.0
 40
1.0
 40
1.0
 10
115.0294424481244
 20
-10.54966551342489
 30
0.0
 10
114.9002392774781
 20
-10.59495116377065
 30
0.0
 10
113.325064617271
 20
-11.1470491389119
 30
0.0
 10
110.3040278472606
 20
-11.81405765914072
 30
0.0
 10
105.9651219289578
 20
-12.45926008046691
 30
0.0
 10
101.6251965844095
 20
-12.5626688403667
 30
0.0
 10
97.28517058262977
 20
-12.17467984111185
 30
0.0
 10
92.94613615161953
 20
-11.29628562198175
 30
0.0
 10
88.60788221492683
 20
-9.966101284002567
 30
0.0
 10
84.26868367911553
 20
-8.237102542750971
 30
0.0
 10
79.92859680597726
 20
-6.17830537903344
 30
0.0
 10
75.58877915649128
 20
-3.87224920373257
 30
0.0
 10
71.25007334416256
 20
-1.410987235419556
 30
0.0
 10
66.9116761628324
 20
1.107066641765781
 30
0.0
 10
62.57215650713272
 20
3.580250555304199
 30
0.0
 10
58.23202313355697
 20
5.910119664192022
 30
0.0
 10
53.89250103224307
 20
8.004000421750122
 30
0.0
 10
49.55412148344428
 20
9.774929629169053
 30
0.0
 10
45.21535248039333
 20
11.16534165328186
 30
0.0
 10
40.71808494351652
 20
12.1000391192786
 30
0.0
 10
37.24900170538822
 20
12.54404432492631
 30
0.0
 10
35.22749702020712
 20
12.45836639298836
 30
0.0
 10
34.81042261660247
 20
12.44068942561497
 30
0.0
  0
SPLINE
  5
BB
330
1F
100
AcDbEntity
  8
0
  6
Continuous
 62
     1
370
    25
100
AcDbSpline
210
0.0
220
0.0
230
1.0
 70
     8
 71
     3
 72
    10
 73
     6
 74
     0
 42
0.000000001
 43
0.00000001
 40
0.0
 40
0.0
 40
0.0
 40
0.0
 40
0.3663258258109473
 40
0.7324255653874161
 40
1.0
 40
1.0
 40
1.0
 40
1.0
 10
12.0
 20
-10.26816778410924
 30
0.0
 10
13.60467552870305
 20
-10.74326683724299
 30
0.0
 10
16.81303622446311
 20
-11.69317172542879
 30
0.0
 10
21.19237488487993
 20
-12.40978483967685
 30
0.0
 10
23.96813012218914
 20
-12.43052871890949
 30
0.0
 10
25.14021692720441
 20
-12.43928800243946
 30
0.0
  0
SPLINE
  5
BC
330
1F
100
AcDbEntity
  8
0
  6
Continuous
 62
     1
370
    25
100
AcDbSpline
210
0.0
220
0.0
230
1.0
 70
     8
 71
     3
 72
    18
 73
    14
 74
     0
 42
0.000000001
 43
0.00000001
 40
0.0
 40
0.0
 40
0.0
 40
0.0
 40
0.0666244139162536
 40
0.1547887745569947
 40
0.2429210334338123
 40
0.3310807628914894
 40
0.4192625672036935
 40
0.5160695187884828
 40
0.6128211656974019
 40
0.7096312841272908
 40
0.8064393191514341
 40
0.9031908714304837
 40
1.0
 40
1.0
 40
1.0
 40
1.0
 10
80.98965094197555
 20
10.53773673495339
 30
0.0
 10
82.08276095592979
 20
10.866547657313
 30
0.0
 10
84.62238794204686
 20
11.6304754240469
 30
0.0
 10
88.607884109503
 20
12.29841206573339
 30
0.0
 10
92.9461267501751
 20
12.58574084987298
 30
0.0
 10
97.28520631126796
 20
12.35507170917741
 30
0.0
 10
101.7665986922074
 20
11.6100804568411
 30
0.0
 10
106.3898292412406
 20
10.32010637030772
 30
0.0
 10
111.1532903181588
 20
8.492057728560312
 30
0.0
 10
115.9179858193877
 20
6.255239843008536
 30
0.0
 10
120.6826197029432
 20
3.718549726891765
 30
0.0
 10
125.4461380175979
 20
0.9945888330539904
 30
0.0
 10
128.622263429958
 20
-0.8368303747342134
 30
0.0
 10
130.2107985190583
 20
-1.752812364331371
 30
0.0
  0
LINE
  5
BD
330
1F
100
AcDbEntity
  8
0
  6
Continuous
 62
     4
370
    25
100
AcDbLine
 10
12.00000000000001
 20
-10.26816778410927
 30
0.0
 11
11.99999999999999
 21
-6.181671444810772
 31
0.0
  0
SPLINE
  5
BE
330
1F
100
AcDbEntity
  8
0
  6
Continuous
 62
     1
370
    25
100
AcDbSpline
210
0.0
220
0.0
230
1.0
 70
     8
 71
     3
 72
    14
 73
    10
 74
     0
 42
0.000000001
 43
0.00000001
 40
0.0
 40
0.0
 40
0.0
 40
0.0
 40
0.1487005137704325
 40
0.2974553805383744
 40
0.4462245721365146
 40
0.5949679744490686
 40
0.7436533211533558
 40
0.8923734477500144
 40
1.0
 40
1.0
 40
1.0
 40
1.0
 10
132.0
 20
2.768456834120842
 30
0.0
 10
130.5539961774663
 20
3.572016074157536
 30
0.0
 10
127.6614599892207
 20
5.179428271127153
 30
0.0
 10
123.3217843934183
 20
7.353275999747397
 30
0.0
 10
118.9816611788762
 20
9.239617528623075
 30
0.0
 10
114.6423028992407
 20
10.75849511872883
 30
0.0
 10
110.3039988195725
 20
11.83010275238429
 30
0.0
 10
106.3651782540957
 20
12.43174350391261
 30
0.0
 10
103.8721170558452
 20
12.44448418607305
 30
0.0
 10
102.8254111553704
 20
12.44983333161459
 30
0.0
  0
SPLINE
  5
BF
330
1F
100
AcDbEntity
  8
0
  6
Continuous
 62
     1
370
    25
100
AcDbSpline
210
0.0
220
0.0
230
1.0
 70
     8
 71
     3
 72
    15
 73
    11
 74
     0
 42
0.000000001
 43
0.00000001
 40
0.0
 40
0.0
 40
0.0
 40
0.0
 40
0.0504404869211505
 40
0.1745218149564438
 40
0.3121344750386935
 40
0.4496590219852354
 40
0.5872608840575909
 40
0.7248678326417151
 40
0.8623914522134851
 40
1.0
 40
1.0
 40
1.0
 40
1.0
 10
46.98001845267892
 20
-10.52572018067399
 30
0.0
 10
46.39195228175442
 20
-10.71915144226096
 30
0.0
 10
44.3572697929699
 20
-11.38841490306464
 30
0.0
 10
40.7180577593785
 20
-12.10911179104514
 30
0.0
 10
36.06244409406663
 20
-12.58733875499424
 30
0.0
 10
31.25066688316434
 20
-12.43180122199168
 30
0.0
 10
26.43778206625612
 20
-11.67422337339436
 30
0.0
 10
21.62485226435037
 20
-10.33467348788883
 30
0.0
 10
16.81302866142305
 20
-8.507614295795529
 30
0.0
 10
13.60467300717095
 20
-6.957145262183453
 30
0.0
 10
11.99999999999998
 20
-6.181671444810878
 30
0.0
  0
LINE
  5
C0
330
1F
100
AcDbEntity
  8
0
  6
Continuous
 62
     1
370
    25
100
AcDbLine
 10
132.0
 20
-0.5000000000000481
 30
0.0
 11
132.0
 21
2.768456834120841
 31
0.0
  0
LINE
  5
C1
330
1F
100
AcDbEntity
  8
0
  6
Continuous
 62
     1
370
    25
100
AcDbLine
 10
132.0
 20
-0.5000000000000389
 30
0.0
 11
130.2107985190583
 21
-1.75281236433141
 31
0.0
  0
SPLINE
  5
C2
330
1F
100
AcDbEntity
  8
0
  6
Continuous
 62
     1
370
    25
100
AcDbSpline
210
0.0
220
0.0
230
1.0
 70
     8
 71
     3
 72
    26
 73
    22
 74
     0
 42
0.000000001
 43
0.00000001
 40
0.0
 40
0.0
 40
0.0
 40
0.0
 40
0.0321063555915208
 40
0.086209098894437
 40
0.1403329972683256
 40
0.1944642049236652
 40
0.248588125069345
 40
0.3026908971755189
 40
0.3568006639811202
 40
0.4109281414973285
 40
0.4650587553169214
 40
0.5191779122131822
 40
0.5732773636367804
 40
0.6273936777094666
 40
0.6815235422974284
 40
0.7409479011130577
 40
0.8003383114895585
 40
0.8597646142538031
 40
0.9191896381320946
 40
0.9785799904206253
 40
0.9999999999999999
 40
0.9999999999999999
 40
0.9999999999999999
 40
0.9999999999999999
 10
46.98001845267892
 20
10.52572018067397
 30
0.0
 10
47.83810724491615
 20
10.79551347669791
 30
0.0
 10
50.14217010684138
 20
11.51993817422187
 30
0.0
 10
53.89249622175501
 20
12.20346740879402
 30
0.0
 10
58.23202442270076
 20
12.57590084388374
 30
0.0
 10
62.57215616261715
 20
12.4260407507679
 30
0.0
 10
66.91167625180913
 20
11.78385735377805
 30
0.0
 10
71.25007333259566
 20
10.66832792269262
 30
0.0
 10
75.588779113772
 20
9.126130758806383
 30
0.0
 10
79.9285969884985
 20
7.218648005509798
 30
0.0
 10
84.26868299179242
 20
5.022117205577258
 30
0.0
 10
88.60788478069762
 20
2.624713892609711
 30
0.0
 10
92.94612657814494
 20
0.1215114646913454
 30
0.0
 10
97.28520632807394
 20
-2.385930302755677
 30
0.0
 10
101.766598799987
 20
-4.876428626292586
 30
0.0
 10
106.3898287397171
 20
-7.231473648641972
 30
0.0
 10
111.1532921971311
 20
-9.308385393630726
 30
0.0
 10
115.9179788000397
 20
-10.94562437773456
 30
0.0
 10
120.6826458925006
 20
-12.01541127489325
 30
0.0
 10
124.4303593093876
 20
-12.51879949653697
 30
0.0
 10
126.5904992120702
 20
-12.44884947687434
 30
0.0
 10
127.1630769897058
 20
-12.43030816538139
 30
0.0
  0
SPLINE
  5
C3
330
1F
100
AcDbEntity
  8
0
  6
Continuous
 62
     1
370
    25
100
AcDbSpline
210
0.0
220
0.0
230
1.0
 70
     8
 71
     3
 72
    23
 73
    19
 74
     0
 42
0.000000001
 43
0.00000001
 40
0.0
 40
0.0
 40
0.0
 40
0.0
 40
0.0153809989929145
 40
0.0782915656222515
 40
0.1411815476817759
 40
0.2040634000348267
 40
0.2669698320507299
 40
0.3298847340967007
 40
0.3927911408079758
 40
0.4556729596839582
 40
0.5185629850333939
 40
0.5814735697409407
 40
0.6512446871686391
 40
0.7209711302768765
 40
0.7907367729959554
 40
0.860504994631899
 40
0.9302309675510269
 40
1.0
 40
1.0
 40
1.0
 40
1.0
 10
80.98965094197538
 20
-10.53773673495341
 30
0.0
 10
80.63593940722629
 20
-10.65809676334327
 30
0.0
 10
78.8354952457702
 20
-11.27074715525352
 30
0.0
 10
75.58877691039231
 20
-11.9523856485101
 30
0.0
 10
71.25007394750864
 20
-12.51024180717443
 30
0.0
 10
66.91167599482228
 20
-12.53366539516866
 30
0.0
 10
62.57215657562711
 20
-12.06432618615444
 30
0.0
 10
58.23202302763796
 20
-11.10957507235874
 30
0.0
 10
53.89250138731163
 20
-9.710854256738418
 30
0.0
 10
49.55412016954679
 20
-7.922792579377306
 30
0.0
 10
45.21535738250166
 20
-5.817757273023476
 30
0.0
 10
40.71806579924304
 20
-3.39508384732764
 30
0.0
 10
36.06244184802281
 20
-0.73009123701216
 30
0.0
 10
31.25066748518884
 20
2.062448488891347
 30
0.0
 10
26.4377819049516
 20
4.754324490584168
 30
0.0
 10
21.62485230733561
 20
7.202029967407225
 30
0.0
 10
16.81302865067171
 20
9.335268187605871
 30
0.0
 10
13.60467300358643
 20
10.35463822514352
 30
0.0
 10
11.99999999999998
 20
10.86448057425704
 30
0.0
  0
SPLINE
  5
C4
330
1F
100
AcDbEntity
  8
0
  6
Continuous
 62
     1
370
    25
100
AcDbSpline
210
0.0
220
0.0
230
1.0
 70
     8
 71
     3
 72
    22
 73
    18
 74
     0
 42
0.000000001
 43
0.00000001
 40
0.0
 40
0.0
 40
0.0
 40
0.0
 40
0.0686628168030723
 40
0.1373507312323468
 40
0.2060452601861222
 40
0.2747278808757849
 40
0.3433836942498994
 40
0.4120555673222474
 40
0.4807472637210007
 40
0.5494402776568251
 40
0.6181160954340829
 40
0.6867705138193849
 40
0.755449939256128
 40
0.824143903997562
 40
0.8928338886416177
 40
0.9615013976689355
 40
1.0
 40
1.0
 40
1.0
 40
1.0
 10
132.0
 20
-12.18957122944077
 30
0.0
 10
130.5539961810572
 20
-11.95734700777782
 30
0.0
 10
127.6614599999948
 20
-11.49281368187674
 30
0.0
 10
123.3217843503019
 20
-10.2053361656701
 30
0.0
 10
118.9816613405659
 20
-8.544272165727811
 30
0.0
 10
114.6423022958177
 20
-6.531958833409975
 30
0.0
 10
110.3040010708899
 20
-4.260024984065867
 30
0.0
 10
105.9651291072011
 20
-1.81733555068919
 30
0.0
 10
101.6251946587663
 20
0.6978781567964549
 30
0.0
 10
97.28517110573009
 20
3.185269614486263
 30
0.0
 10
92.94613598443536
 20
5.544933166289092
 30
0.0
 10
88.60788236079577
 20
7.683633136682987
 30
0.0
 10
84.26868326264582
 20
9.512406027924134
 30
0.0
 10
79.92859832622074
 20
10.96683729701748
 30
0.0
 10
75.58877349326193
 20
11.95863563402711
 30
0.0
 10
71.8852616884752
 20
12.47162606284689
 30
0.0
 10
69.6283893338333
 20
12.44705631565862
 30
0.0
 10
68.81762527612884
 20
12.43822982270869
 30
0.0
  0
LINE
  5
C5
330
1F
100
AcDbEntity
  8
0
  6
Continuous
 62
     1
370
    25
100
AcDbLine
 10
12.97332184732248
 20
-10.53485488951686
 30
0.0
 11
11.99999999999998
 21
-10.8644805742571
 31
0.0
  0
SPLINE
  5
C6
330
1F
100
AcDbEntity
  8
0
  6
Continuous
 62
     1
370
    25
100
AcDbSpline
210
0.0
220
0.0
230
1.0
 70
     8
 71
     3
 72
     8
 73
     4
 74
     0
 42
0.000000001
 43
0.00000001
 40
0.0
 40
0.0
 40
0.0
 40
0.0
 40
1.0
 40
1.0
 40
1.0
 40
1.0
 10
132.0
 20
-9.01310913988833
 30
0.0
 10
129.8809094456327
 20
-7.822876471091101
 30
0.0
 10
127.879158932972
 20
-6.364811010664956
 30
0.0
 10
125.9530316716126
 20
-4.734132806852243
 30
0.0
  0
LINE
  5
C7
330
1F
100
AcDbEntity
  8
0
  6
Continuous
 62
     1
370
    25
100
AcDbLine
 10
132.0
 20
-12.18957122944079
 30
0.0
 11
132.0
 21
-9.013109139888327
 31
0.0
  0
SPLINE
  5
C8
330
1F
100
AcDbEntity
  8
0
  6
Continuous
 62
     1
370
    25
100
AcDbSpline
210
0.0
220
0.0
230
1.0
 70
    24
 71
     3
 72
    22
 73
    18
 74
     0
 42
0.000000001
 43
0.00000001
 40
0.0
 40
0.0
 40
0.0
 40
0.0
 40
0.25
 40
0.25
 40
0.375
 40
0.375
 40
0.5
 40
0.5
 40
0.5624999999999998
 40
0.5624999999999998
 40
0.6249999999999998
 40
0.6249999999999998
 40
0.7499999999999999
 40
0.7499999999999999
 40
0.875
 40
0.875
 40
1.0
 40
1.0
 40
1.0
 40
1.0
 10
130.2107985190583
 20
-1.7528123643314
 30
0.0
 10
130.2092165692547
 20
-1.75392005750898
 30
0.0
 10
130.13233571152
 20
-1.807752613638817
 30
0.0
 10
129.8693382036071
 20
-1.991905451209805
 30
0.0
 10
129.7548946490908
 20
-2.072039690781647
 30
0.0
 10
129.4763155744537
 20
-2.267102858830011
 30
0.0
 10
129.3122156898094
 20
-2.382006835077322
 30
0.0
 10
129.0254542452819
 20
-2.582799360203361
 30
0.0
 10
128.9225013172227
 20
-2.654887776511288
 30
0.0
 10
128.7072010443619
 20
-2.805642650547017
 30
0.0
 10
128.5944892099088
 20
-2.884564326676403
 30
0.0
 10
128.2415250594222
 20
-3.13171248556488
 30
0.0
 10
127.9857632540507
 20
-3.310798829672125
 30
0.0
 10
127.4376716626998
 20
-3.69457669356534
 30
0.0
 10
127.1530560667232
 20
-3.893866679360303
 30
0.0
 10
126.5650374808467
 20
-4.305601725798466
 30
0.0
 10
126.2591513769974
 20
-4.519785481547263
 30
0.0
 10
125.9530316716125
 20
-4.734132806852309
 30
0.0
  0
LINE
  5
C9
330
1F
100
AcDbEntity
  8
0
  6
Continuous
 62
     1
370
    25
100
AcDbLine
 10
132.0
 20
-12.50000000000003
 30
0.0
 11
132.0
 21
-12.18957122944079
 31
0.0
  0
SPLINE
  5
CA
330
1F
100
AcDbEntity
  8
0
  6
Continuous
 62
     4
370
    25
100
AcDbSpline
210
0.0
220
0.0
230
1.0
 70
    24
 71
     3
 72
    17
 73
    13
 74
     0
 42
0.000000001
 43
0.00000001
 40
0.0
 40
0.0
 40
0.0
 40
0.0
 40
0.1013811353237005
 40
0.2084862176687095
 40
0.3186973546575382
 40
0.4258024370025472
 40
0.536013573991375
 40
0.6431186563363842
 40
0.7533297933252128
 40
0.86043487567022
 40
0.9706460126590469
 40
1.0
 40
1.0
 40
1.0
 40
1.0
 10
12.00000000000001
 20
5.963480880840517
 30
0.0
 10
12.00000000000001
 20
5.585393468031515
 30
0.0
 10
12.00000000000002
 20
4.807871945975036
 30
0.0
 10
11.99999999999997
 20
3.465502763285569
 30
0.0
 10
11.99999999999999
 20
2.0335793746912
 30
0.0
 10
11.99999999999999
 20
0.5479381268533711
 30
0.0
 10
11.99999999999999
 20
-0.9183639311279589
 30
0.0
 10
11.99999999999999
 20
-2.351203647471742
 30
0.0
 10
11.99999999999999
 20
-3.684552474017383
 30
0.0
 10
11.99999999999999
 20
-4.902410180211086
 30
0.0
 10
11.99999999999999
 20
-5.704319765336154
 30
0.0
 10
11.99999999999999
 20
-6.098719462540144
 30
0.0
 10
11.99999999999999
 20
-6.181671444810772
 30
0.0
  0
SPLINE
  5
CB
330
1F
100
AcDbEntity
  8
0
  6
Continuous
 62
     1
370
    25
100
AcDbSpline
210
0.0
220
0.0
230
1.0
 70
     8
 71
     3
 72
    18
 73
    14
 74
     0
 42
0.000000001
 43
0.00000001
 40
0.0
 40
0.0
 40
0.0
 40
0.0
 40
0.1020968392586344
 40
0.2041306671533033
 40
0.3062263199049069
 40
0.4083181987864802
 40
0.510352714734577
 40
0.6124526050565596
 40
0.7045131028031868
 40
0.796543514917169
 40
0.8885619180499225
 40
0.9806163019062066
 40
0.9999999999999999
 40
0.9999999999999999
 40
0.9999999999999999
 40
0.9999999999999999
 10
12.0
 20
7.128445157071821
 30
0.0
 10
13.60467300359103
 20
6.333655996371149
 30
0.0
 10
16.81302865068546
 20
4.744568197002066
 30
0.0
 10
21.62485230728078
 20
2.031349481526685
 30
0.0
 10
26.43778190515742
 20
-0.7546361460399293
 30
0.0
 10
31.25066748442076
 20
-3.510462636013663
 30
0.0
 10
36.06244185088849
 20
-6.093259553561537
 30
0.0
 10
40.71806578898515
 20
-8.30095815286209
 30
0.0
 10
45.21535741661393
 20
-10.06499192097133
 30
0.0
 10
49.55412004185137
 20
-11.37583151944675
 30
0.0
 10
53.89250186400984
 20
-12.18850079377293
 30
0.0
 10
57.08980986564129
 20
-12.54530138810408
 30
0.0
 10
58.84106729955835
 20
-12.4712191336973
 30
0.0
 10
59.14568350247151
 20
-12.45833316125053
 30
0.0
  0
SPLINE
  5
CC
330
1F
100
AcDbEntity
  8
0
  6
Continuous
 62
     1
370
    25
100
AcDbSpline
210
0.0
220
0.0
230
1.0
 70
     8
 71
     3
 72
    11
 73
     7
 74
     0
 42
0.000000001
 43
0.00000001
 40
0.0
 40
0.0
 40
0.0
 40
0.0
 40
0.0585278462555137
 40
0.3724117609190575
 40
0.686112539697892
 40
1.0
 40
1.0
 40
1.0
 40
1.0
 10
115.0294424481244
 20
10.54966551342489
 30
0.0
 10
115.3256307191366
 20
10.65237897793724
 30
0.0
 10
117.2102720074849
 20
11.30594312964286
 30
0.0
 10
120.6826433104573
 20
12.00535943518598
 30
0.0
 10
125.4461321130578
 20
12.59552711123265
 30
0.0
 10
128.6222614613878
 20
12.44952072825057
 30
0.0
 10
130.2107985190583
 20
12.3764958213319
 30
0.0
  0
SPLINE
  5
CD
330
1F
100
AcDbEntity
  8
0
  6
Continuous
 62
     1
370
    25
100
AcDbSpline
210
0.0
220
0.0
230
1.0
 70
     8
 71
     3
 72
    22
 73
    18
 74
     0
 42
0.000000001
 43
0.00000001
 40
0.0
 40
0.0
 40
0.0
 40
0.0
 40
0.2499999999999946
 40
0.2499999999999946
 40
0.3749999999999921
 40
0.3749999999999921
 40
0.4999999999999897
 40
0.4999999999999897
 40
0.5624999999999898
 40
0.5624999999999898
 40
0.6249999999999899
 40
0.6249999999999899
 40
0.7499999999999933
 40
0.7499999999999933
 40
0.8749999999999967
 40
0.8749999999999967
 40
1.0
 40
1.0
 40
1.0
 40
1.0
 10
130.2107985190583
 20
12.37649582133191
 30
0.0
 10
130.2092165692547
 20
11.6203125387769
 30
0.0
 10
130.13233571152
 20
10.88111228586892
 30
0.0
 10
129.8693382036071
 20
9.80561902494464
 30
0.0
 10
129.7548946490908
 20
9.449308338314403
 30
0.0
 10
129.4763155744538
 20
8.778411384045294
 30
0.0
 10
129.3122156898094
 20
8.46150229143446
 30
0.0
 10
129.0254542452819
 20
8.016485442275194
 30
0.0
 10
128.9225013172227
 20
7.87263048236913
 30
0.0
 10
128.7072010443619
 20
7.60178110981685
 30
0.0
 10
128.5944892099088
 20
7.474071880025341
 30
0.0
 10
128.2415250594223
 20
7.113547234357659
 30
0.0
 10
127.9857632540508
 20
6.902808056756859
 30
0.0
 10
127.4376716627
 20
6.543538025037017
 30
0.0
 10
127.1530560667232
 20
6.39971634246028
 30
0.0
 10
126.5650374808467
 20
6.17572973343378
 30
0.0
 10
126.2591513769975
 20
6.095495646314983
 30
0.0
 10
125.9530316716126
 20
6.046968328387342
 30
0.0
  0
SPLINE
  5
CE
330
1F
100
AcDbEntity
  8
0
  6
Continuous
 62
     1
370
    25
100
AcDbSpline
210
0.0
220
0.0
230
1.0
 70
     8
 71
     3
 72
     8
 73
     4
 74
     0
 42
0.000000001
 43
0.00000001
 40
0.0
 40
0.0
 40
0.0
 40
0.0
 40
1.0
 40
1.0
 40
1.0
 40
1.0
 10
132.0
 20
3.098518327978852
 30
0.0
 10
129.8809094456327
 20
4.24433942790784
 30
0.0
 10
127.879158932972
 20
5.205241983545463
 30
0.0
 10
125.9530316716126
 20
6.046968328387337
 30
0.0
  0
LINE
  5
CF
330
1F
100
AcDbEntity
  8
0
  6
Continuous
 62
     1
370
    25
100
AcDbLine
 10
132.0
 20
2.77908835455469
 30
0.0
 11
132.0
 21
3.098518327978852
 31
0.0
  0
LINE
  5
D0
330
1F
100
AcDbEntity
  8
0
  6
Continuous
 62
     4
370
    25
100
AcDbLine
 10
12.0
 20
7.128445157071848
 30
0.0
 11
11.99999999999999
 21
10.86448057425689
 31
0.0
  0
LINE
  5
D1
330
1F
100
AcDbEntity
  8
0
  6
Continuous
 62
     1
370
    25
100
AcDbLine
 10
132.0
 20
12.48999599679681
 30
0.0
 11
132.0
 21
12.50000000000001
 31
0.0
  0
ELLIPSE
  5
D2
330
1F
100
AcDbEntity
  8
0
  6
Continuous
 62
     1
370
    25
100
AcDbEllipse
 10
132.7140740033711
 20
-0.000000000000012
 30
0.0
 11
17.85185008427638
 21
-5.350968460038300E-17
 31
0.0
210
0.0
220
0.0
230
1.0
 40
0.7002075382097125
 41
1.610807001148886
 42
1.71148497214774
  0
LINE
  5
D3
330
1F
100
AcDbEntity
  8
0
  6
Continuous
 62
     1
370
    25
100
AcDbLine
 10
132.0
 20
-0.5000000000000046
 30
0.0
 11
132.0
 21
-9.01310913988833
 31
0.0
  0
LINE
  5
D4
330
1F
100
AcDbEntity
  8
0
  6
Continuous
 62
     1
370
    25
100
AcDbLine
 10
132.0
 20
3.098518327978852
 30
0.0
 11
132.0
 21
12.48999599679681
 31
0.0
  0
LINE
  5
D5
330
1F
100
AcDbEntity
  8
중심선
100
AcDbLine
 10
-121.0
 20
-0.0000000000000163
 30
0.0
 11
135.0
 21
0.0000000000000151
 31
0.0
  0
CIRCLE
  5
D6
330
1F
100
AcDbEntity
  8
해칭선
100
AcDbCircle
 10
0.0000803176223394
 20
-0.0000000000000035
 30
0.0
 40
2.999999999999999
  0
INSERT
  5
D7
330
1F
100
AcDbEntity
  8
0
  6
Continuous
 62
     7
100
AcDbBlockReference
 66
     1
  2
블럭10
 10
-7.440099248941779
 20
-52.04717430164393
 30
0.0
  0
ATTRIB
  5
D8
330
D7
100
AcDbEntity
  8
FORMAT
 62
     2
100
AcDbText
 10
-25.13902121066623
 20
-49.97180738881174
 30
0.0
 40
4.233333333333333
  1
SEME72250120E [ 4 FLUTE ]
 41
0.75
  7
SLDTEXTSTYLE0
 11
-25.13902121066623
 21
-52.08847405547841
 31
0.0
100
AcDbAttribute
  2
AUTOATTR0
 70
     0
 74
     1
  0
SEQEND
  5
D9
330
D7
100
AcDbEntity
  8
0
  6
Continuous
 62
     7
  0
HATCH
  5
DA
330
1F
100
AcDbEntity
  8
중심선
100
AcDbHatch
 10
0.0
 20
0.0
 30
0.0
210
0.0
220
0.0
230
1.0
  2
SOLID
 70
     1
 71
     0
 91
        1
 92
        0
 93
        4
 72
     1
 10
-1.725189944560945
 20
-35.8
 11
-5.171465188398228
 21
-35.8
 72
     1
 10
-5.171465188398228
 20
-35.8
 11
-7.299695047602251
 21
-38.33632558057259
 72
     1
 10
-7.299695047602251
 20
-38.33632558057259
 11
-3.853386718651819
 21
-38.3362861512701
 72
     1
 10
-3.853386718651819
 20
-38.3362861512701
 11
-1.725189944560945
 21
-35.8
 97
        0
 75
     0
 76
     1
 98
        1
 10
0.0
 20
0.0
  0
HATCH
  5
DB
330
1F
100
AcDbEntity
  8
중심선
100
AcDbHatch
 10
0.0
 20
0.0
 30
0.0
210
0.0
220
0.0
230
1.0
  2
SOLID
 70
     1
 71
     0
 91
        1
 92
        0
 93
        4
 72
     1
 10
3.287574046475034
 20
-35.8
 11
-0.158701197362249
 21
-35.79999999999997
 72
     1
 10
-0.1587011973622487
 20
-35.79999999999997
 11
-4.689839205719665
 21
-41.20000000000002
 72
     1
 10
-4.689839205719665
 20
-41.20000000000002
 11
-1.243563961882383
 21
-41.20000000000002
 72
     1
 10
-1.243563961882382
 20
-41.20000000000002
 11
3.287574046475034
 21
-35.8
 97
        0
 75
     0
 76
     1
 98
        1
 10
0.0
 20
0.0
  0
HATCH
  5
DC
330
1F
100
AcDbEntity
  8
중심선
100
AcDbHatch
 10
0.0
 20
0.0
 30
0.0
210
0.0
220
0.0
230
1.0
  2
SOLID
 70
     1
 71
     0
 91
        1
 92
        0
 93
        4
 72
     1
 10
8.30033803751093
 20
-35.79999999999997
 11
4.854062793673814
 21
-35.79999999999997
 72
     1
 10
4.854062793673814
 20
-35.79999999999997
 11
-2.194374108215463
 21
-44.20000000000002
 72
     1
 10
-2.194374108215463
 20
-44.20000000000002
 11
1.251901135621819
 21
-44.20000000000002
 72
     1
 10
1.251901135621819
 20
-44.20000000000002
 11
8.30033803751093
 21
-35.79999999999997
 97
        0
 75
     0
 76
     1
 98
        1
 10
0.0
 20
0.0
  0
HATCH
  5
DD
330
1F
100
AcDbEntity
  8
중심선
100
AcDbHatch
 10
0.0
 20
0.0
 30
0.0
210
0.0
220
0.0
230
1.0
  2
SOLID
 70
     1
 71
     0
 91
        1
 92
        0
 93
        6
 72
     3
 10
13.1002284685231
 20
-40.00000000005127
 11
3.960054785062284
 21
1.540850780301639E-10
 40
0.3939339440162633
 50
17.09539180608433
 51
320.0019657685081
 73
     0
 72
     1
 10
14.78322812422367
 20
-38.58789400463833
 11
17.08852999792473
 21
-36.65356729459038
 72
     3
 10
13.10022846847025
 20
-40.00000000000015
 11
6.600054785286829
 21
-1.249000902703301E-13
 40
0.6363583540795982
 50
39.99873849337408
 51
368.4976242363725
 73
     1
 72
     1
 10
19.52556096037086
 20
-39.03999999993002
 11
11.78029577530618
 21
-39.03999999993002
 72
     1
 10
11.78029577530618
 20
-39.03999999993002
 11
11.78027073086024
 21
-40.95999999992991
 72
     1
 10
11.78027073086024
 20
-40.95999999992991
 11
16.22165050033228
 21
-40.95999999992988
 97
        0
 75
     0
 76
     1
 98
        1
 10
0.0
 20
0.0
  0
DIMENSION
  5
DE
330
1F
100
AcDbEntity
  8
치수문자_일반주서
100
AcDbDimension
  2
_D
 10
146.3202850895713
 20
12.50000000000004
 30
0.0
 11
146.3202850895712
 21
23.47900000000004
 31
0.0
 70
   160
  1
%%c<>
 71
     2
 42
25.00000000000001
 52
-270.0
  3
SLDDIMSTYLE0
100
AcDbAlignedDimension
 13
132.0
 23
-12.50000000000002
 33
0.0
 14
132.0
 24
12.49999999999999
 34
0.0
 50
90.0000000000002
100
AcDbRotatedDimension
  0
DIMENSION
  5
EA
330
1F
100
AcDbEntity
  8
치수문자_일반주서
100
AcDbDimension
  2
_D_1
 10
132.0
 20
29.88913260158162
 30
0.0
 11
6.999999999999992
 21
29.88913260158162
 31
0.0
 70
   160
  1
<>
 71
     2
 42
250.0
  3
SLDDIMSTYLE1
100
AcDbAlignedDimension
 13
-118.0
 23
11.99999999999997
 33
0.0
 14
132.0
 24
12.50000000000001
 34
0.0
 50
-0.0000000000000033
100
AcDbRotatedDimension
  0
DIMENSION
  5
F5
330
1F
100
AcDbEntity
  8
치수문자_일반주서
100
AcDbDimension
  2
_D_2
 10
-131.4835549209804
 20
-12.50000000000008
 30
0.0
 11
-131.4835549209805
 21
26.62399147299448
 31
0.0
 70
   160
  1
%%c<>
 71
     2
 42
24.99999999999999
 52
-270.0
  3
SLDDIMSTYLE2
100
AcDbAlignedDimension
 13
-117.5
 23
12.49999999999997
 33
0.0
 14
-117.5
 24
-12.50000000000002
 34
0.0
 50
90.0000000000002
100
AcDbRotatedDimension
  0
DIMENSION
  5
101
330
1F
100
AcDbEntity
  8
치수문자_일반주서
100
AcDbDimension
  2
_D_3
 10
132.0
 20
21.71039887684468
 30
0.0
 11
72.0
 21
21.71039887684468
 31
0.0
 70
   160
  1
<>
 71
     2
 42
120.0
  3
SLDDIMSTYLE1
100
AcDbAlignedDimension
 13
11.99999999999999
 23
10.86448057425703
 33
0.0
 14
132.0
 24
12.50000000000001
 34
0.0
 50
-0.0000000000000034
100
AcDbRotatedDimension
  0
INSERT
  5
111
330
1F
100
AcDbEntity
  8
해칭선
100
AcDbBlockReference
  2
SW_DOWELSYMBOL_0
 10
0.0000803176223394
 20
-0.0000000000000035
 30
0.0
  0
ENDSEC
  0
SECTION
  2
OBJECTS
  0
DICTIONARY
  5
C
330
0
100
AcDbDictionary
281
     1
  3
ACAD_GROUP
350
D
  3
ACAD_IMAGE_VARS
350
135
  3
ACAD_LAYOUT
350
1A
  3
ACAD_MLINESTYLE
350
17
  3
ACAD_PLOTSETTINGS
350
19
  3
ACAD_PLOTSTYLENAME
350
E
  3
ACAD_SCALELIST
350
47
  3
APPDATA
350
133
  3
DWGPROPS
350
149
  0
DICTIONARY
  5
D
102
{ACAD_REACTORS
330
C
102
}
330
C
100
AcDbDictionary
281
     1
  0
RASTERVARIABLES
  5
135
102
{ACAD_REACTORS
330
C
102
}
330
C
100
AcDbRasterVariables
 90
        0
 70
     1
 71
     1
 72
     1
  0
DICTIONARY
  5
1A
102
{ACAD_REACTORS
330
C
102
}
330
C
100
AcDbDictionary
281
     1
  3
Layout1
350
1E
  3
Layout2
350
26
  3
Model
350
22
  0
DICTIONARY
  5
17
102
{ACAD_REACTORS
330
C
102
}
330
C
100
AcDbDictionary
281
     1
  3
Standard
350
18
  0
DICTIONARY
  5
19
102
{ACAD_REACTORS
330
C
102
}
330
C
100
AcDbDictionary
281
     1
  0
ACDBDICTIONARYWDFLT
  5
E
102
{ACAD_REACTORS
330
C
102
}
330
C
100
AcDbDictionary
281
     1
  3
Normal
350
F
100
AcDbDictionaryWithDefault
340
F
  0
DICTIONARY
  5
47
102
{ACAD_REACTORS
330
C
102
}
330
C
100
AcDbDictionary
281
     1
  3
A0
350
48
  3
A1
350
49
  3
A2
350
4A
  3
A3
350
4B
  3
A4
350
4C
  3
A5
350
4D
  3
A6
350
4E
  3
A7
350
4F
  3
A8
350
50
  3
A9
350
51
  3
B0
350
52
  3
B1
350
53
  3
B2
350
54
  3
B3
350
55
  3
B4
350
56
  3
B5
350
57
  3
B6
350
58
  3
B7
350
59
  3
B8
350
5A
  3
B9
350
5B
  3
C0
350
5C
  3
C1
350
5D
  3
C2
350
5E
  3
C3
350
5F
  3
C4
350
60
  3
C5
350
61
  3
C6
350
62
  3
C7
350
63
  3
C8
350
64
  3
C9
350
65
  3
D0
350
66
  3
D1
350
67
  3
D2
350
68
  0
DICTIONARY
  5
133
102
{ACAD_REACTORS
330
C
102
}
330
C
100
AcDbDictionary
281
     1
  0
XRECORD
  5
149
102
{ACAD_REACTORS
330
C
102
}
330
C
100
AcDbXrecord
280
     1
  1
DWGPROPS COOKIE
  2

  3

  4

  6

  7

  8
12014102
  9

300
=
301
=
302
=
303
=
304
=
305
=
306
=
307
=
308
=
309
=
 40
0.0
 41
2458260.212233044
 42
2458268.240853379
  1

 90
        0
  0
LAYOUT
  5
1E
102
{ACAD_REACTORS
330
1A
102
}
330
1A
100
AcDbPlotSettings
  1

  2
none_device
  4

  6

 40
0.0
 41
0.0
 42
0.0
 43
0.0
 44
0.0
 45
0.0
 46
0.0
 47
0.0
 48
0.0
 49
0.0
140
0.0
141
0.0
142
1.0
143
1.0
 70
   688
 72
     1
 73
     0
 74
     5
  7

 75
    16
147
1.0
148
0.0
149
0.0
100
AcDbLayout
  1
Layout1
 70
     1
 71
     1
 10
0.0
 20
0.0
 11
420.0
 21
297.0
 12
0.0
 22
0.0
 32
0.0
 14
1.000000000000000E+20
 24
1.000000000000000E+20
 34
1.000000000000000E+20
 15
-1.000000000000000E+20
 25
-1.000000000000000E+20
 35
-1.000000000000000E+20
146
0.0
 13
0.0
 23
0.0
 33
0.0
 16
1.0
 26
0.0
 36
0.0
 17
0.0
 27
1.0
 37
0.0
 76
     0
330
1B
  0
LAYOUT
  5
26
102
{ACAD_REACTORS
330
1A
102
}
330
1A
100
AcDbPlotSettings
  1

  2
none_device
  4

  6

 40
0.0
 41
0.0
 42
0.0
 43
0.0
 44
0.0
 45
0.0
 46
0.0
 47
0.0
 48
0.0
 49
0.0
140
0.0
141
0.0
142
1.0
143
1.0
 70
   688
 72
     1
 73
     0
 74
     5
  7

 75
    16
147
1.0
148
0.0
149
0.0
100
AcDbLayout
  1
Layout2
 70
     1
 71
     2
 10
0.0
 20
0.0
 11
0.0
 21
0.0
 12
0.0
 22
0.0
 32
0.0
 14
0.0
 24
0.0
 34
0.0
 15
0.0
 25
0.0
 35
0.0
146
0.0
 13
0.0
 23
0.0
 33
0.0
 16
1.0
 26
0.0
 36
0.0
 17
0.0
 27
1.0
 37
0.0
 76
     0
330
23
  0
LAYOUT
  5
22
102
{ACAD_REACTORS
330
1A
102
}
330
1A
100
AcDbPlotSettings
  1

  2
none_device
  4
ANSI_A_(11.00_x_8.50_Inches)
  6

 40
6.35
 41
19.05
 42
6.35000508
 43
19.05000254
 44
279.4
 45
215.9
 46
127.646565480477
 47
96.82100781559478
 48
0.0
 49
0.0
140
0.0
141
0.0
142
0.0382289419350518
143
1.0
 70
  1696
 72
     0
 73
     0
 74
     0
  7

 75
     0
147
0.0235690232323232
148
0.0
149
0.0
100
AcDbLayout
  1
Model
 70
     1
 71
     0
 10
0.0
 20
0.0
 11
420.0
 21
297.0
 12
0.0
 22
0.0
 32
0.0
 14
-135.8585549209805
 24
-49.97180738881174
 34
0.0
 15
146.8706184229047
 25
34.26413260158162
 35
0.0
146
0.0
 13
0.0
 23
0.0
 33
0.0
 16
1.0
 26
0.0
 36
0.0
 17
0.0
 27
1.0
 37
0.0
 76
     0
330
1F
331
29
  0
MLINESTYLE
  5
18
102
{ACAD_REACTORS
330
17
102
}
330
17
100
AcDbMlineStyle
  2
Standard
 70
     0
  3

 62
   256
 51
90.0
 52
90.0
 71
     2
 49
0.5
 62
   256
  6
BYLAYER
 49
-0.5
 62
   256
  6
BYLAYER
  0
ACDBPLACEHOLDER
  5
F
102
{ACAD_REACTORS
330
E
102
}
330
E
  0
SCALE
  5
48
102
{ACAD_REACTORS
330
47
102
}
330
47
100
AcDbScale
 70
     0
300
1:1
140
1.0
141
1.0
290
     1
  0
SCALE
  5
49
102
{ACAD_REACTORS
330
47
102
}
330
47
100
AcDbScale
 70
     0
300
1:2
140
1.0
141
2.0
290
     0
  0
SCALE
  5
4A
102
{ACAD_REACTORS
330
47
102
}
330
47
100
AcDbScale
 70
     0
300
1:4
140
1.0
141
4.0
290
     0
  0
SCALE
  5
4B
102
{ACAD_REACTORS
330
47
102
}
330
47
100
AcDbScale
 70
     0
300
1:5
140
1.0
141
5.0
290
     0
  0
SCALE
  5
4C
102
{ACAD_REACTORS
330
47
102
}
330
47
100
AcDbScale
 70
     0
300
1:8
140
1.0
141
8.0
290
     0
  0
SCALE
  5
4D
102
{ACAD_REACTORS
330
47
102
}
330
47
100
AcDbScale
 70
     0
300
1:10
140
1.0
141
10.0
290
     0
  0
SCALE
  5
4E
102
{ACAD_REACTORS
330
47
102
}
330
47
100
AcDbScale
 70
     0
300
1:16
140
1.0
141
16.0
290
     0
  0
SCALE
  5
4F
102
{ACAD_REACTORS
330
47
102
}
330
47
100
AcDbScale
 70
     0
300
1:20
140
1.0
141
20.0
290
     0
  0
SCALE
  5
50
102
{ACAD_REACTORS
330
47
102
}
330
47
100
AcDbScale
 70
     0
300
1:30
140
1.0
141
30.0
290
     0
  0
SCALE
  5
51
102
{ACAD_REACTORS
330
47
102
}
330
47
100
AcDbScale
 70
     0
300
1:40
140
1.0
141
40.0
290
     0
  0
SCALE
  5
52
102
{ACAD_REACTORS
330
47
102
}
330
47
100
AcDbScale
 70
     0
300
1:50
140
1.0
141
50.0
290
     0
  0
SCALE
  5
53
102
{ACAD_REACTORS
330
47
102
}
330
47
100
AcDbScale
 70
     0
300
1:100
140
1.0
141
100.0
290
     0
  0
SCALE
  5
54
102
{ACAD_REACTORS
330
47
102
}
330
47
100
AcDbScale
 70
     0
300
2:1
140
2.0
141
1.0
290
     0
  0
SCALE
  5
55
102
{ACAD_REACTORS
330
47
102
}
330
47
100
AcDbScale
 70
     0
300
4:1
140
4.0
141
1.0
290
     0
  0
SCALE
  5
56
102
{ACAD_REACTORS
330
47
102
}
330
47
100
AcDbScale
 70
     0
300
8:1
140
8.0
141
1.0
290
     0
  0
SCALE
  5
57
102
{ACAD_REACTORS
330
47
102
}
330
47
100
AcDbScale
 70
     0
300
10:1
140
10.0
141
1.0
290
     0
  0
SCALE
  5
58
102
{ACAD_REACTORS
330
47
102
}
330
47
100
AcDbScale
 70
     0
300
100:1
140
100.0
141
1.0
290
     0
  0
SCALE
  5
59
102
{ACAD_REACTORS
330
47
102
}
330
47
100
AcDbScale
 70
     0
300
1/128" = 1'-0"
140
0.0078125
141
12.0
290
     0
  0
SCALE
  5
5A
102
{ACAD_REACTORS
330
47
102
}
330
47
100
AcDbScale
 70
     0
300
1/64" = 1'-0"
140
0.015625
141
12.0
290
     0
  0
SCALE
  5
5B
102
{ACAD_REACTORS
330
47
102
}
330
47
100
AcDbScale
 70
     0
300
1/32" = 1'-0"
140
0.03125
141
12.0
290
     0
  0
SCALE
  5
5C
102
{ACAD_REACTORS
330
47
102
}
330
47
100
AcDbScale
 70
     0
300
1/16" = 1'-0"
140
0.0625
141
12.0
290
     0
  0
SCALE
  5
5D
102
{ACAD_REACTORS
330
47
102
}
330
47
100
AcDbScale
 70
     0
300
3/32" = 1'-0"
140
0.09375
141
12.0
290
     0
  0
SCALE
  5
5E
102
{ACAD_REACTORS
330
47
102
}
330
47
100
AcDbScale
 70
     0
300
1/8" = 1'-0"
140
0.125
141
12.0
290
     0
  0
SCALE
  5
5F
102
{ACAD_REACTORS
330
47
102
}
330
47
100
AcDbScale
 70
     0
300
3/16" = 1'-0"
140
0.1875
141
12.0
290
     0
  0
SCALE
  5
60
102
{ACAD_REACTORS
330
47
102
}
330
47
100
AcDbScale
 70
     0
300
1/4" = 1'-0"
140
0.25
141
12.0
290
     0
  0
SCALE
  5
61
102
{ACAD_REACTORS
330
47
102
}
330
47
100
AcDbScale
 70
     0
300
3/8" = 1'-0"
140
0.375
141
12.0
290
     0
  0
SCALE
  5
62
102
{ACAD_REACTORS
330
47
102
}
330
47
100
AcDbScale
 70
     0
300
1/2" = 1'-0"
140
0.5
141
12.0
290
     0
  0
SCALE
  5
63
102
{ACAD_REACTORS
330
47
102
}
330
47
100
AcDbScale
 70
     0
300
3/4" = 1'-0"
140
0.75
141
12.0
290
     0
  0
SCALE
  5
64
102
{ACAD_REACTORS
330
47
102
}
330
47
100
AcDbScale
 70
     0
300
1" = 1'-0"
140
1.0
141
12.0
290
     0
  0
SCALE
  5
65
102
{ACAD_REACTORS
330
47
102
}
330
47
100
AcDbScale
 70
     0
300
1-1/2" = 1'-0"
140
1.5
141
12.0
290
     0
  0
SCALE
  5
66
102
{ACAD_REACTORS
330
47
102
}
330
47
100
AcDbScale
 70
     0
300
3" = 1'-0"
140
3.0
141
12.0
290
     0
  0
SCALE
  5
67
102
{ACAD_REACTORS
330
47
102
}
330
47
100
AcDbScale
 70
     0
300
6" = 1'-0"
140
6.0
141
12.0
290
     0
  0
SCALE
  5
68
102
{ACAD_REACTORS
330
47
102
}
330
47
100
AcDbScale
 70
     0
300
1'-0" = 1'-0"
140
12.0
141
12.0
290
     0
  0
ENDSEC
  0
EOF
